<?xml version="1.0" standalone="no"?>
<!DOCTYPE svg PUBLIC "-//W3C//DTD SVG 1.1//EN" "http://www.w3.org/Graphics/SVG/1.1/DTD/svg11.dtd" >
<svg xmlns="http://www.w3.org/2000/svg" xmlns:xlink="http://www.w3.org/1999/xlink" version="1.1">
<metadata>
Created by FontForge 20170731 at Fri Sep 30 14:44:46 2016
 By Aleksey,,,
Copyright (c) 2016 Design Panoply. All Rights Reserved.
</metadata>
<defs>
<font id="BlocklynCondensed-Italic" horiz-adv-x="507" >
  <font-face 
    font-family="Blocklyn Condensed"
    font-weight="700"
    font-style="italic"
    font-stretch="condensed"
    units-per-em="1000"
    panose-1="0 0 0 0 0 0 0 0 0 0"
    ascent="800"
    descent="-200"
    x-height="763"
    cap-height="871"
    bbox="26.9697 -315 1068.38 1157.57"
    underline-thickness="0"
    underline-position="0"
    slope="-10"
    unicode-range="U+001D-20AC"
  />
<missing-glyph horiz-adv-x="650" 
 />
    <glyph glyph-name=".notdef" horiz-adv-x="650" 
 />
    <glyph glyph-name=".null" horiz-adv-x="0" 
 />
    <glyph glyph-name="nonmarkingreturn" horiz-adv-x="254" 
 />
    <glyph glyph-name="space" unicode=" " horiz-adv-x="254" 
 />
    <glyph glyph-name="exclam" unicode="!" horiz-adv-x="239" 
d="M385 835q-4 -30 -10 -61q-3 -13 -5 -26l-16 -91q-30 -157 -60 -315q-6 -32 -14 -64q-1 -7 -3 -14q-7 -33 -40 -34q-51 -1 -100 0q-37 1 -32 39l14 78q8 43 15 87q29 176 57 351q2 10 3 20q0 10 1 20q2 11 8 22q5 10 13.5 16t19.5 6h123q31 -1 26 -34zM233 173
q15 -3 21 -12.5t4 -25.5q-8 -49 -18 -97q-9 -41 -50 -41h-91q-22 0 -30 10.5t-5 31.5l11 65q3 16 7 33q3 16 11 24.5t25 11.5q13 3 26 4h63q13 -1 26 -4z" />
    <glyph glyph-name="quotedbl" unicode="&#x22;" horiz-adv-x="387" 
d="M514 727v0v0l-17 -95q-3 -22 -15 -32t-34 -10q-29 -1 -58 0q-38 2 -32 39q17 100 35 200q7 39 47 39q30 1 61 0q38 0 31 -39q-5 -35 -12 -71zM300 625q-5 -16 -16 -25t-27 -10q-33 -1 -67 0q-35 1 -28 37q17 102 36 204q3 19 13.5 28t29.5 9q26 1 52 0h4q24 0 33 -10.5
t5 -34.5z" />
    <glyph glyph-name="numbersign" unicode="#" horiz-adv-x="973" 
d="M518 382h67q13 -1 21 12q11 20 21 39q14 23 26 46q6 9 4 12.5t-11 4.5h-69q-11 0 -17 -11l-16 -28q-17 -31 -34 -61q-5 -8 -3 -11t11 -3zM379 648h20q23 1 47 0q11 0 18.5 4.5t12.5 14.5q46 84 93 168q7 11 16 21q12 13 29 13h106q19 -1 26 -11.5t1 -29.5
q-2 -7 -5.5 -14.5t-7.5 -14.5q-1 -1 -2 -3q-25 -45 -51 -91q-10 -18 -20 -37q0 -1 -2 -2q-1 -3 -3 -6q-4 -10 6 -11q4 -1 8 -1h18q20 1 40 0q11 0 18 4.5t12 14.5q33 60 67 121q13 22 25 44q1 2 1 4q3 4 5 7q15 26 43 26h102q22 -1 29 -14t-2 -34q-7 -13 -14 -25
q-4 -6 -7 -12q-9 -17 -19 -35q-23 -40 -45 -81q-8 -13 -5.5 -16.5t15.5 -3.5h79q25 -1 32.5 -14.5t-4.5 -37.5q-11 -23 -24 -45l-12 -24q-18 -32 -53 -31h-102q-11 0 -16.5 -1t-9 -5.5t-8.5 -14.5q-2 -3 -3 -5q-20 -35 -38 -69q-7 -12 -5 -15.5t14 -3.5h99q8 0 15 -1
q15 -1 21.5 -10.5t3.5 -24.5q-1 -7 -4 -14q-20 -36 -39 -72q-17 -31 -51 -31q-52 1 -106 0h-21q-10 1 -16 0t-10 -6t-8 -15q-32 -57 -64 -113l-30 -54q-1 -2 -3 -5q-3 -6 -7 -13q-16 -25 -45 -26h-6q-47 -1 -94 0q-23 0 -30 14t4 37q13 24 27 48l10 18l24 42q11 20 23 41
q4 9 9 17q0 1 1 3q2 5 1 8.5t-6 3.5h-77q-7 -1 -10 -5t-6 -9q0 -1 -1 -2l-26 -46q-10 -17 -19 -34q-4 -7 -7 -14q-25 -44 -50 -89q-10 -18 -22.5 -25.5t-32.5 -7.5h-25q-35 -1 -69 0q-17 0 -25.5 8t-6.5 22q0 6 2.5 12t5.5 12q22 40 44 79l18 32q3 6 7 12q10 18 20 37
q6 11 4 14.5t-15 3.5q-19 1 -39 1q-10 -1 -19 -1h-8q-9 0 -18 1q-21 1 -28.5 13.5t2.5 32.5q19 40 42 79q15 27 46 27q45 -1 89 0h15q12 0 17.5 1t9 5.5t9.5 15.5q3 4 5 8q20 34 37 67q6 10 4.5 13.5t-12.5 3.5h-108q-26 1 -33 15t6 39q17 33 34 65q11 18 22 25.5t31 7.5h64
z" />
    <glyph glyph-name="dollar" unicode="$" horiz-adv-x="508" 
d="M79 164l19 110q7 39 46 40q24 1 46 0h30q14 1 26 0q20 0 28.5 -10t4.5 -30l-12 -71q-3 -16 1.5 -21t20.5 -5h46q10 0 16 4.5t8 14.5q8 44 15 87l4 25q2 9 -2.5 12.5t-11.5 5.5q-83 28 -165 57q-16 5 -31 11h-2q-4 2 -9 4q-17 7 -24 20.5t-3 33.5l14 82q15 91 32 182
q9 50 45 92q18 21 40.5 34.5t47.5 20.5q2 0 3 1q8 2 14 3q9 1 13 5.5t5 12.5q3 18 9 35q6 14 15 21t23 7q52 1 104 0q17 -1 24.5 -10t5.5 -25l-4 -23q-2 -13 0 -17t15 -7q15 -3 29 -9t27 -14q18 -14 27.5 -33.5t12.5 -43.5q2 -28 -2 -57q-6 -46 -15 -93l-4 -22
q-2 -10 -7 -20q-11 -19 -32 -20h-32q-43 0 -85 1q-31 1 -26 33l6 44q4 15 6 31q4 17 -1 23.5t-23 5.5q-21 1 -41 0q-12 0 -18 -5t-9 -17l-20 -114q-2 -9 2.5 -13t12.5 -7q62 -21 125 -43q11 -4 24 -8l12 -4q19 -7 37 -14q23 -8 31.5 -23t3.5 -41l-42 -241q-5 -24 -14 -47.5
t-25 -44.5q-21 -29 -49.5 -45.5t-61.5 -23.5q-10 -1 -15 -3t-6.5 -6.5t-3.5 -14.5l-1 -8q-1 -9 -4 -19q-4 -11 -11.5 -19t-19.5 -10q-31 -4 -61.5 -4t-60.5 4q-20 3 -21 24q1 17 3 33q2 9 1.5 13t-3.5 6t-11 4q-1 0 -2 1q-22 7 -43 17q-20 11 -31 29t-16 40q-8 36 0 76z" />
    <glyph glyph-name="percent" unicode="%" horiz-adv-x="830" 
d="M289 618q-2 -13 3.5 -24.5t16.5 -19.5t25 -9q14 0 27.5 7.5t23.5 19.5t13 26q3 15 -2.5 27.5t-16 20.5t-24.5 9q-15 0 -29 -8t-24 -21t-13 -28zM311 438q-33 -2 -63.5 10t-53 36t-32.5 58.5t-3 77.5q11 57 45 98.5t80.5 64.5t94.5 23q32 0 62 -12t52 -36t32 -58.5
t3 -79.5q-8 -43 -29.5 -77t-52.5 -58.5t-65.5 -36.5t-69.5 -10zM898 740q-53 -64 -107 -128q-39 -47 -79 -94q-72 -87 -144 -173q-113 -133 -224 -266l-26 -32l-20 -24q-11 -14 -24.5 -21t-30.5 -5q-13 1 -28 0h-62q-17 1 -26.5 9t-8 21t13.5 29q3 3 6 7q1 1 1 2
q75 89 151 178q149 179 300 357q10 13 21 25q62 74 123 149q13 15 27 22t30 6q43 -2 85 0q13 0 22.5 -4t13.5 -15q5 -11 0 -22t-14 -21zM666 111q23 1 40 17t21 39q2 14 -3.5 26t-16 19.5t-24.5 7.5q-14 -1 -28 -8.5t-23.5 -20t-12.5 -27.5q-2 -14 3.5 -26.5t17 -19.5
t26.5 -7zM706 351q53 0 90 -25t53.5 -67t7.5 -93q-9 -50 -39 -92t-75.5 -67t-99.5 -26q-58 1 -94.5 26.5t-52.5 66.5t-7 89q9 50 39.5 92.5t76.5 68.5t101 27z" />
    <glyph glyph-name="ampersand" unicode="&#x26;" horiz-adv-x="577" 
d="M363 197l24 139q2 12 -0.5 15.5t-15.5 3.5q-26 1 -51 0q-15 0 -22 -6t-9 -21q-7 -32 -11 -63l-7 -38q-3 -13 -4 -25q-3 -15 1 -20t18 -5h52q14 0 18 3.5t7 16.5zM371 -3h-160q-21 0 -41 5t-37 15q-32 20 -46 50.5t-9 70.5q6 46 13.5 91t14.5 91l7 37q4 22 13.5 41.5
t28.5 36.5q11 9 3 17q-13 18 -15.5 39t1.5 44l1 3q12 74 26 147q4 20 10 41t15 41q19 38 48.5 61.5t69.5 34.5q23 6 46 6h212q15 -2 21.5 -10t5.5 -22q-9 -54 -20 -109q-2 -15 -12.5 -24t-27.5 -11q-10 -1 -20 -1q-3 1 -7 1h-126q-7 0 -13 -1q-10 -1 -16 -5.5t-8 -14.5
q-11 -59 -20 -118q-2 -9 1.5 -14t12.5 -6q34 -2 68 -1q3 0 6.5 3.5t5.5 6.5q3 5 4 11l1 6q5 16 16 25t27 9q53 1 106 0q16 0 24 -9t7 -25l-1 -4q1 -1 1 -3q-2 -10 -1.5 -14.5t5 -5.5t13.5 -1q22 -1 31 -11.5t5 -32.5q-6 -44 -16 -89q-5 -22 -17.5 -32.5t-34.5 -11.5
q-13 0 -18 -3.5t-6 -16.5q-6 -28 -10 -55l-14 -84q-14 -72 -26 -144q-2 -17 -8.5 -29.5t-19.5 -19.5t-36 -6q-41 1 -84 0z" />
    <glyph glyph-name="quotesingle" unicode="'" horiz-adv-x="194" 
d="M338 819l-31 -177q-1 -7 -3 -14q-7 -21 -18 -29.5t-32 -8.5h-52q-15 -1 -25 4.5t-15 19.5q0 2 -1 3l-2 2l39 220q1 2 3 4q3 3 6 7q13 18 33 18h71q25 -1 28 -25q2 -12 -1 -24z" />
    <glyph glyph-name="parenleft" unicode="(" horiz-adv-x="312" 
d="M331 869h59q16 -1 31 0q21 1 29 -12t-1 -36l-14 -28q-3 -5 -6 -9q-61 -116 -99 -238q-12 -41 -22.5 -81t-16.5 -81q-13 -84 -15.5 -167t8.5 -164l6 -40q4 -19 6 -39q3 -13 0 -26q-3 -14 -11.5 -22t-21.5 -8q-54 -2 -106 0q-14 0 -20.5 8.5t-8.5 20.5q-3 9 -4 19
q-7 35 -12 72q-13 89 -9 182q2 42 7 84l4 36v13q1 18 5 34q11 58 25.5 114.5t35.5 113.5q40 108 98 212q0 1 1 3q5 7 9 14q15 26 43 25z" />
    <glyph glyph-name="parenright" unicode=")" horiz-adv-x="313" 
d="M375 394q-16 -96 -48 -189.5t-77 -184.5q-15 -29 -31 -57q-4 -9 -10 -18q-16 -29 -48 -28q-24 1 -50 0h-39q-20 1 -27.5 13.5t0.5 32.5q13 25 25 49q13 24 25 48q23 47 41 95.5t34 97.5q16 53 26.5 106.5t16.5 107.5q17 139 -3 273q0 5 -1 10q-4 36 -11 70q-3 12 2 23.5
t15.5 19t25.5 6.5q22 -1 44.5 -1t44.5 1q32 1 37 -27l4 -24q10 -52 17 -106q5 -48 5.5 -96.5t-3.5 -97.5q-3 -43 -9 -85q-3 -20 -6 -39z" />
    <glyph glyph-name="asterisk" unicode="*" horiz-adv-x="528" 
d="M636 714q7 -16 3.5 -25t-19.5 -19q-16 -12 -31 -20l-32 -20q-13 -8 -14 -14t9 -14q5 -4 11 -8q5 -4 10 -10q26 -22 1 -52q-21 -26 -45 -52q-23 -26 -46 -8q-32 22 -61 48q-17 18 -42 0q-37 -24 -74 -46q-18 -10 -29 -9t-18 17q-15 26 -29 52q-7 16 -3 26t20 22
q11 8 22 14l14 8q18 12 4 24q-8 4 -15 10q-8 8 -17 16q-12 10 -26 22l-10 12l2 12q1 2 3 4q4 2 7 6q8 10 18 20q15 20 35 40q12 14 23.5 16t23.5 -8q7 -6 14 -10q5 -6 13 -10q12 -10 17 8l9 42q2 32 32 52h90q24 -22 14 -56q-3 -16 -4 -32q1 -8 0 -14q9 -2 17 2t14 8
q5 6 12 10q18 8 28.5 7t18.5 -15z" />
    <glyph glyph-name="plus" unicode="+" horiz-adv-x="715" 
d="M724 334h-168q-12 1 -17.5 -0.5t-7.5 -6.5t-4 -17l-31 -174q-4 -19 -16 -30.5t-32 -12.5q-50 -2 -100 0q-39 2 -31 46q8 54 19 109l9 54l2 14q2 12 -1 15.5t-16 2.5h-179q-18 1 -27.5 10.5t-6.5 27.5q7 52 18 104q4 19 17 28.5t33 9.5h183q14 0 16 14q3 9 4 17l28 156
q0 7 2 15q4 18 15.5 28t29.5 11q52 2 104 0q18 -1 26 -13t4 -32l-30 -170q-2 -13 -2 -18.5t5.5 -6.5t18.5 -1h169q22 0 31.5 -10.5t6.5 -32.5q-6 -46 -16 -92q-5 -23 -18.5 -34t-37.5 -11z" />
    <glyph glyph-name="comma" unicode="," horiz-adv-x="227" 
d="M241 82l-9 -54q-4 -20 -16 -36q-3 -2 -5 -5q-31 -36 -60 -73q-18 -23 -44 -21h-40q-18 1 -24 12.5t4 28.5l16 26q7 10 12 20q6 9 5.5 12.5t-7.5 8.5q-10 8 -13.5 18.5t-0.5 24.5l6 35q3 24 8 48t18 36t37 13q34 2 68 1q10 0 19 -1q7 0 14 -2q1 -1 3 -1q12 -4 16.5 -11.5
t3.5 -21.5l-11 -58v0v0z" />
    <glyph glyph-name="hyphen" unicode="-" horiz-adv-x="298" 
d="M229 304h-25q-28 0 -57 1q-19 -1 -27 7t-8 27q0 9 1 18l12 71q3 10 7 20q7 17 18 25t27 8h167q37 -1 31 -39q-8 -50 -18 -100q-7 -37 -43 -37q-30 -1 -59 -1h-26z" />
    <glyph glyph-name="period" unicode="." horiz-adv-x="227" 
d="M251 136l-17 -98q-7 -40 -49 -41q-47 -1 -93 0q-17 1 -26.5 11t-8.5 27q7 50 18 100q4 18 14.5 27.5t28.5 11.5q13 2 26 2.5t26 0.5h3q14 0 27.5 -0.5t27.5 -3.5q15 -2 20.5 -11t2.5 -26z" />
    <glyph glyph-name="slash" unicode="/" horiz-adv-x="579" 
d="M617 869h64q23 -1 29.5 -14t-2.5 -35l-22 -40q-4 -6 -7 -12q-179 -322 -359 -644l-6 -10l-90 -162q-12 -22 -25.5 -30t-36.5 -8h-89q-24 3 -30.5 17t4.5 35q24 45 49 89l18 32q66 118 132 237q67 118 133 237q73 132 147 264l2 4q3 4 5 8q9 17 22.5 25.5t31.5 6.5
q15 -1 30 0z" />
    <glyph glyph-name="zero" unicode="0" horiz-adv-x="509" 
d="M368 201l83 470q3 17 -2 23t-21 6h-35q-19 0 -27 -2.5t-12 -10.5t-7 -26l-82 -464q-1 -11 2.5 -15.5t14.5 -4.5q28 -1 56 0q15 -1 21 4t9 20zM116 372l24 137q17 95 34 191q6 30 18 59q14 36 38 60.5t54.5 38t64.5 14.5q42 2 85 2t85 -2q59 -4 90 -39.5t26 -94.5
q-3 -39 -10 -78q-41 -241 -84 -481q-4 -23 -11.5 -45.5t-20.5 -44.5q-23 -36 -54.5 -57t-71.5 -27q-27 -4 -53 -4q-59 -1 -118 0q-27 1 -51 8t-43 23q-22 18 -31.5 42t-8.5 54q0 28 6 57q15 94 32 187z" />
    <glyph glyph-name="one" unicode="1" horiz-adv-x="319" 
d="M462 824l-136 -772q0 -9 -3 -18q-3 -14 -14 -23.5t-25 -9.5q-58 -1 -115 0q-16 1 -22 10t-5 25l108 611q3 10 2.5 16t-7.5 7t-24 -2q-10 -2 -19 -1q-15 1 -23 10t-5 24q8 54 19 108q6 33 40 38q91 13 182 25q12 1 25 0q26 -2 25 -30q0 -9 -3 -18z" />
    <glyph glyph-name="two" unicode="2" horiz-adv-x="509" 
d="M464 0h-366q-8 0 -15 1q-29 5 -26 35l17 95q20 108 38 215q3 21 14.5 35t30.5 24l172 84q11 6 22 11q10 5 21 10q15 8 32 16q13 6 15 20l11 58q6 35 11 71q2 11 -1.5 15.5t-14.5 4.5q-24 2 -48 0q-12 0 -18 -5t-9 -18l-12 -73q-2 -10 -7 -20t-13 -15.5t-19 -5.5h-4
q-59 -1 -119 0q-11 1 -17 8.5t-4 20.5l6 39q4 28 9 55.5t12 54.5q17 61 59.5 96t103.5 39q43 3 86 3t87 -3q33 -1 59.5 -15.5t41.5 -41.5t15 -66q0 -24 -5 -49q-8 -51 -17 -102q-12 -66 -23 -131q-4 -22 -15 -37.5t-32 -25.5q-61 -29 -121 -59q-22 -12 -45 -23
q-14 -7 -28 -13q-26 -14 -52 -27q-17 -7 -19 -25l-10 -60q-3 -12 -0.5 -15.5t13.5 -3.5q28 -1 56 0q11 0 14.5 3t6.5 14q3 10 7 19q5 14 16 21.5t25 7.5q53 2 106 0q16 -1 25 -12t5 -29q-12 -79 -27 -158q-8 -42 -50 -43z" />
    <glyph glyph-name="three" unicode="3" horiz-adv-x="513" 
d="M618 614q-2 -14 -6 -28l-10 -64q-3 -22 -13 -41t-27 -35q-6 -5 -7 -8.5t3 -8.5q13 -16 15.5 -35t-1.5 -41l-13 -74q-10 -59 -21 -117q-8 -36 -26 -69q-21 -38 -53 -59.5t-73 -28.5q-26 -4 -52 -4q-63 -1 -125 0q-21 0 -40 4.5t-37 13.5q-30 17 -42.5 43.5t-12.5 61.5
q0 18 3 37l6 38q4 21 17.5 32t34.5 12h96q38 -2 37 -41l-2 -9q-2 -12 10 -13h11q29 1 58 0q14 0 16 14l23 127q2 16 -2.5 22t-20.5 6q-13 1 -27 1q-6 -1 -12 -1h-25q-28 0 -56 1q-16 0 -24 8.5t-6 24.5q8 54 19 108q3 16 15 25t30 10h111q8 0 16 1q9 1 14 5.5t6 13.5
q9 43 16 86l9 50q3 14 -11 14h-69q-6 0 -10 -3.5t-5 -9.5q-3 -13 -8 -25q-11 -24 -36 -25q-57 -1 -112 0q-15 1 -23 9.5t-6 25.5q2 29 8.5 58t21.5 57q25 43 61.5 64.5t81.5 23.5q89 5 177 0q55 -3 86 -35t32 -89q-2 -24 -6 -48q-4 -30 -9 -60z" />
    <glyph glyph-name="four" unicode="4" horiz-adv-x="606" 
d="M384 250h-248q-21 0 -29.5 9.5t-4.5 30.5l8 50q5 23 8 46q2 11 8.5 21t13.5 19q48 61 97 122q29 37 59 75l38 48q70 87 139 175q11 14 23.5 20.5t28.5 6.5q57 -2 113 0q11 0 18.5 -7t9 -17.5t-5.5 -21.5q-2 -3 -3 -6q-4 -5 -7 -9l-26 -34q-6 -7 -11 -14l-256 -328
q-1 -1 -1 -2q-3 -3 -4 -5q-6 -8 -4.5 -11t10.5 -3q33 -1 66 0q10 0 14 3.5t6 14.5l9 49q2 15 5 30q6 26 19 38t39 10q27 -1 53 0h33q17 0 24 -7t8 -24q1 -10 -1 -20l-12 -65q-2 -11 -1.5 -16t5 -7t16.5 -3q37 -4 31 -42l-15 -84q-4 -23 -16 -34t-36 -12q-9 0 -13 -1t-6 -5.5
t-3 -14.5l-30 -167q-2 -12 -6 -24q-12 -32 -43 -33q-48 -1 -96 0q-31 1 -32 32q0 12 2 25l29 164q1 6 1 12q2 9 -0.5 12t-11.5 3q-6 1 -12 1z" />
    <glyph glyph-name="five" unicode="5" 
d="M383 872h103q59 0 119 1q17 0 26 -5.5t11.5 -15.5t0.5 -23q-6 -44 -15 -87q-6 -25 -21 -36t-36 -10q-63 1 -126 0h-68q-14 0 -17 -14l-18 -102q-1 -8 3 -11.5t10 -5.5q41 -13 82 -27q8 -3 17 -6q15 -5 29 -9q39 -13 76 -26q18 -6 24 -17t2 -31q-24 -143 -51 -287
q-3 -19 -9.5 -37.5t-17.5 -35.5q-22 -35 -52.5 -55.5t-69.5 -26.5q-26 -4 -52 -4q-64 -1 -127 0q-23 0 -43.5 5.5t-38.5 16.5q-29 20 -40 50t-8 67q1 15 3.5 29.5t5.5 29.5l1 3q4 17 13 25.5t25 12.5q12 2 24 3h72q13 -1 24 -4q14 -3 19 -11t4 -22q1 -4 0 -9l-1 -4
q-2 -12 11 -12h69q11 0 13 11l2 4l23 135q2 11 1.5 16.5t-4.5 8t-13 5.5q-39 13 -79 26l-112 38q-16 5 -24.5 12t-10 18t1.5 29l62 348q4 20 17.5 30.5t31.5 10.5q64 -1 128 -1z" />
    <glyph glyph-name="six" unicode="6" 
d="M365 203l26 148q2 12 -1 17.5t-13 5.5q-32 1 -64 0q-8 -1 -13.5 -5.5t-8.5 -11.5q-2 -7 -4 -15l-23 -130q-1 -6 -1 -11q-1 -12 3.5 -16t16.5 -4q28 -1 56 0q13 0 18.5 4.5t7.5 17.5zM79 161l32 177q8 51 18 102q2 12 6.5 24.5t10.5 23.5q94 160 189 319q12 19 23 38
q17 28 47 28h8q50 -2 101 0q22 1 29.5 -12.5t-2.5 -36.5q-7 -15 -16 -28q-3 -5 -5 -9q-59 -98 -118 -197l-8 -14q-1 -1 -2 -3t-3 -4q-4 -9 -2.5 -12.5t9.5 -4.5h58q25 -1 47.5 -8t39.5 -22q26 -22 34 -53t2 -68q-21 -124 -44 -248q-4 -21 -13 -43q-19 -43 -54.5 -71
t-81.5 -34q-27 -4 -53 -4q-58 -1 -116 0q-28 1 -55 7q-41 11 -61.5 39t-22.5 71q0 21 3 43z" />
    <glyph glyph-name="seven" unicode="7" horiz-adv-x="552" 
d="M244 873h422q8 0 15 -1q9 -2 15 -8.5t4 -16.5q-3 -19 -12 -37q-57 -103 -115 -206q-24 -42 -48 -85q-56 -101 -113 -201q-45 -80 -89 -160q-12 -21 -23 -41q-25 -42 -47 -83q-9 -17 -22.5 -25t-29.5 -8q-55 -1 -110 0q-21 1 -27.5 15t3.5 33q31 58 63 115q10 17 20 35
q54 97 109 195q46 83 93 166q23 40 45 81l18 32q1 1 1 3q3 4 5 8q4 10 -5 11h-194q-6 0 -12 1q-16 1 -24 9.5t-6 25.5q7 53 19 106q4 18 15.5 27t29.5 9z" />
    <glyph glyph-name="eight" unicode="8" horiz-adv-x="509" 
d="M376 263h-1q2 9 5 19q3 21 6 43q2 12 -2.5 17.5t-15.5 6.5q-28 1 -56 0q-11 -1 -16.5 -5t-7.5 -14q-13 -66 -24 -132q-1 -10 3 -13.5t16 -3.5q27 -1 54 -1q14 0 20 5t8 20q5 20 8 40zM438 611h-0.5h-0.5q1 9 4 19q4 21 7 43q2 11 -1.5 16.5t-13.5 5.5q-29 1 -58 1h-4
q-8 -1 -13.5 -5.5t-8.5 -11.5q-3 -9 -5 -19l-18 -106q-3 -15 2 -21t21 -7q23 -1 47 0q15 1 21.5 6.5t9.5 20.5l8 40zM616 617l-5 -30q-8 -35 -13 -70q-5 -41 -37 -70q-6 -6 -7 -10t3 -9q12 -15 14.5 -33.5t-1.5 -38.5q-11 -53 -19 -106q-8 -46 -17 -92q-5 -26 -16 -51
q-21 -45 -56 -70t-81 -32q-16 -3 -31 -3.5t-30 -0.5h-10q-50 -1 -100 0q-22 0 -42.5 5t-37.5 16q-21 12 -33.5 30.5t-17.5 43.5q-6 33 0 69q2 6 3 11q16 90 31 181q3 20 12.5 37.5t25.5 32.5q6 5 7.5 10t-3.5 11q-13 14 -15.5 31t1.5 37q18 98 34 195q7 36 26 69
q24 44 61 66.5t83 24.5q88 6 175 0q61 -4 91 -41t24 -101q-2 -19 -5.5 -38t-7.5 -39z" />
    <glyph glyph-name="nine" unicode="9" horiz-adv-x="511" 
d="M348 669l-26 -146q-2 -12 1.5 -17t15.5 -5q29 -1 58 0q12 1 17 5.5t7 15.5q14 76 27 152q2 12 -1.5 16.5t-15.5 5.5q-26 1 -52 0q-16 0 -22 -5.5t-9 -21.5zM611 576l-6 -33q-7 -38 -12 -75q-6 -29 -16.5 -56.5t-26.5 -54.5q-62 -103 -124 -207q-28 -49 -58 -98
q-4 -7 -9 -14q-3 -5 -6 -11q-18 -26 -46 -26q-54 -1 -109 0q-25 1 -32 15.5t8 38.5q35 59 71 119q14 25 29 49q7 12 13 23l36 58q5 10 4 13.5t-13 3.5q-12 1 -23 1q-26 1 -51 3q-53 6 -81 39.5t-25 86.5q2 29 7 58q16 98 34 196q5 29 17 57q21 51 60.5 78.5t89.5 30.5
q93 6 183 0q38 -2 64 -19t38 -45.5t8 -66.5q-1 -28 -6 -56.5t-8 -56.5q-5 -25 -8 -51h-2z" />
    <glyph glyph-name="colon" unicode=":" horiz-adv-x="228" 
d="M242 87v0v0l-9 -52q-4 -17 -14.5 -27t-28.5 -11q-51 -1 -102 0q-14 1 -23 11t-7 27q6 50 18 101q3 17 13.5 26t27.5 12q9 2 19 3h73q12 -1 24 -4q22 -7 19 -32zM120 370q-2 10 0 20q7 44 15 88q4 15 14 29q7 9 16 12t19 3q13 0 26 1q36 0 72 -1q17 0 25.5 -10t5.5 -27
l-19 -104q-7 -33 -39 -35h-106q-13 0 -20 6.5t-9 17.5z" />
    <glyph glyph-name="semicolon" unicode=";" horiz-adv-x="228" 
d="M146 347q-14 1 -21 10.5t-5 25.5q6 52 18 104q4 18 16 27t30 9q48 1 96 0q20 0 28 -10t4 -30l-11 -64q-2 -19 -7 -38q-2 -15 -12.5 -24t-25.5 -10q-55 -2 -110 0zM252 139q-3 -21 -8 -42l-12 -71q-3 -18 -15 -33q-4 -4 -6 -7q-31 -37 -61 -73q-17 -21 -42 -20h-39
q-20 1 -25.5 12.5t5.5 29.5q7 13 15 25l12 20q6 9 5.5 13t-8.5 9q-9 7 -13 17t-2 23l16 87q4 22 16 33.5t34 12.5q17 2 34.5 2t34.5 -1h26q4 0 8 -2h3q13 -4 18.5 -12t3.5 -23z" />
    <glyph glyph-name="less" unicode="&#x3c;" horiz-adv-x="573" 
d="M457 19q-17 2 -26 14q-3 2 -4 4l-4 4q-11 15 -24 29q-130 159 -261 317l-2 4q-4 3 -6 7q-8 12 -5.5 26.5t15.5 26.5q7 7 15 14q2 2 6 4q15 14 32 28q181 153 361 306q2 2 4 5q5 4 11 8q16 12 31.5 12t26.5 -13q29 -34 57 -69q10 -13 8 -28t-18 -29q-6 -6 -12 -11
q-2 -1 -3 -2q-66 -56 -131 -112q-71 -60 -143 -121q-10 -9 -14 -14t-2 -9.5t10 -13.5l192 -234l2 -2q5 -6 9 -12q9 -12 7 -25.5t-14 -25.5q-45 -40 -92 -78q-3 -3 -8 -4.5t-9 -2.5q-5 -1 -9 -3z" />
    <glyph glyph-name="equal" unicode="=" horiz-adv-x="716" 
d="M759 257q-5 -22 -17.5 -32.5t-34.5 -10.5q-73 -1 -146 0h-417q-7 -1 -13 0q-38 2 -32 39q7 50 17 100q7 41 48 40q81 1 161 0h416q20 0 29 -10t6 -31zM185 439q-32 -1 -42.5 12t-5.5 45l14 75q3 15 9 25.5t17.5 16.5t32.5 6h559q21 0 32 -4.5t13 -16.5t-1 -32l-4 -23
q-5 -24 -9 -48q-3 -22 -11.5 -34.5t-22.5 -17.5t-31 -5q-125 1 -251 1q-47 -1 -95 -1h-61q-71 0 -143 1z" />
    <glyph glyph-name="greater" unicode="&#x3e;" horiz-adv-x="580" 
d="M307 827q17 1 27 -10q6 -7 11 -13q46 -55 91 -111q94 -114 188 -227q19 -22 16.5 -41t-30.5 -42q-147 -124 -293 -249q-53 -45 -107 -91q-2 -1 -4 -3q-4 -3 -8 -7q-17 -12 -32.5 -12.5t-27.5 12.5q-30 32 -54 67q-14 16 -11 31t22 33q6 6 13 11l2 2q133 114 266 227
q13 10 18 15.5t3 9.5t-7 11q-3 3 -6 7l-112 136q-38 45 -75 91q-2 1 -3 3q-3 3 -5 7q-15 18 -12.5 34t24.5 34q25 22 51 44q9 8 18 15q8 7 17 12t20 4z" />
    <glyph glyph-name="question" unicode="?" horiz-adv-x="509" 
d="M344 176q23 -4 29.5 -15t2.5 -31q-4 -15 -6 -30l-3 -13v0v0l-2 -16q-3 -18 -7 -36q-3 -17 -14 -27t-29 -11q-52 -1 -104 0q-14 1 -22 8.5t-9 22.5q-1 13 2 27q4 32 11 64q4 15 9 29q9 20 30 25q14 3 29 4h69q7 0 14 -1zM614 609q-2 -16 -6 -33q-8 -41 -14 -81
q-4 -25 -26 -42q-30 -25 -60 -49q-36 -31 -73 -60q-14 -11 -22 -23.5t-10 -28.5q0 -13 -4 -27q-4 -15 -14.5 -24.5t-25.5 -10.5q-55 -1 -108 0q-15 0 -22 7.5t-8 22.5q-1 11 1 22l12 69q3 17 11.5 31.5t22.5 26.5q40 32 79 65q29 25 59 50q6 5 10 11t6 14l21 119
q2 13 -2.5 18.5t-17.5 5.5q-19 1 -38 0h-1q-18 1 -25 -5.5t-10 -23.5q-4 -16 -6 -31l-6 -38q-4 -22 -14.5 -31t-31.5 -9h-104q-20 0 -27.5 9t-4.5 29l6 30q7 48 16 95q7 31 22.5 59t42.5 50q48 40 104 42q43 2 86.5 2.5t85.5 -2.5q61 -4 91.5 -41.5t24.5 -100.5
q-3 -20 -6.5 -40t-6.5 -40q-4 -18 -8 -37h0.5h0.5z" />
    <glyph glyph-name="at" unicode="@" horiz-adv-x="789" 
d="M511 408l-9 -49q-3 -17 3 -23t24 -3l18 2q19 3 36 5q12 2 24 3l44 6q13 1 17 5t6 16l10 54q1 6 -1.5 10t-9.5 5q-5 0 -8 1q-4 1 -7 2l-74 10q-19 3 -37 5q-14 2 -21.5 -3.5t-9.5 -19.5q-4 -13 -5 -26zM113 352l19 109q15 91 32 181q7 37 21 72q21 54 65 83t97 30
q218 2 437 0q42 -1 70 -18.5t42 -48t10 -71.5t-11 -83q-26 -151 -52 -301q-10 -47 -18 -94v-5q-1 -7 -3 -14q-4 -19 -17 -29.5t-31 -11.5q-49 -1 -96 0q-11 0 -20.5 4t-14.5 15q-2 6 -7 7.5t-12 0.5l-10 -2q-61 -10 -121 -19q-21 -3 -41 -3t-39 4q-44 11 -66 40.5t-23 74.5
q-1 24 4 48l1 7q13 79 29 157q5 30 19.5 57t37.5 50q21 19 44 29.5t49 14.5q20 3 37.5 1t34.5 -5l16 -2l70 -12q16 -2 32 -5h3q5 -2 9 -1t7 8q4 10 3 18t-8 10q-7 3 -15 3h-323q-17 0 -24.5 -6.5t-9.5 -24.5q-26 -144 -51 -287l-30 -171q-3 -17 1 -22t21 -5h219q13 0 25 -2
q18 -4 25 -13.5t4 -28.5q-5 -41 -15 -83q-9 -42 -52 -44q-12 -1 -22 0h-16q-85 -3 -169 -5l-32 -2q-28 -1 -56 -1q-23 0 -43.5 6t-36.5 20q-25 21 -34.5 49.5t-5.5 63.5q4 34 9 68t11 68l5 28q7 47 16 93z" />
    <glyph glyph-name="A" unicode="A" horiz-adv-x="621" 
d="M392 326v-1h6q8 0 15 1q13 0 17 3.5t4 15.5q-1 87 -1 174l-4 10q-1 3 -2 5q-1 -2 -3 -5q-3 -5 -4 -10q-25 -67 -49 -134q-2 -4 -4 -9q-2 -10 -6 -19t-6 -18q-5 -13 8 -13h29zM427 871h121q18 0 27 -3.5t13.5 -12.5t4.5 -26q2 -53 5 -105l2 -64l4 -84l18 -452q1 -37 2 -73
q0 -11 -1 -21q-4 -25 -30 -31q-10 -3 -19 -3h-102q-16 2 -23.5 9.5t-7.5 24.5q-2 49 -2 100q0 16 -1 23t-5.5 8.5t-13.5 0.5h-13q-46 1 -93 0h-5q-10 0 -15 -1t-7.5 -5t-5.5 -14q-10 -26 -19 -52l-20 -54q-8 -22 -20 -31t-35 -9q-45 -1 -90 0q-10 0 -19 3q-31 8 -19 40
q12 31 25 61q6 17 13 35l78 200q55 139 109 279q4 9 7 18l78 198q10 24 22.5 32.5t36.5 8.5z" />
    <glyph glyph-name="B" unicode="B" horiz-adv-x="511" 
d="M353 672l-23 -133q-1 -8 1 -12.5t10 -4.5h15q23 0 45 1q11 0 16.5 5t7.5 16l22 127q2 12 -1.5 16t-14.5 4q-27 1 -54 0q-13 0 -17 -3.5t-7 -15.5zM292 325l-23 -131q-2 -12 1 -15t14 -3q27 -1 54 0q13 0 18.5 4.5t7.5 17.5l22 125q2 12 -1.5 16.5t-15.5 5.5h-54
q-12 0 -16.5 -4t-6.5 -16zM59 53l135 763q2 13 7 26q6 14 15.5 21t23.5 8h252q20 0 39 -3t36 -10q35 -15 51.5 -42.5t17.5 -65.5q1 -23 -3 -47q-9 -54 -18 -107l-15 -83q-3 -19 -12 -36.5t-26 -31.5q-5 -5 -6 -10t3 -11q11 -16 13.5 -34.5t-0.5 -40.5q-9 -41 -15 -83
q-11 -59 -23 -119q-6 -33 -23.5 -62t-48.5 -51q-38 -27 -81 -33q-29 -5 -57 -5q-87 -1 -174 0h-42q-23 0 -35 5t-15 17.5t1 34.5z" />
    <glyph glyph-name="C" unicode="C" horiz-adv-x="514" 
d="M128 434l49 283q6 26 17.5 49.5t30.5 44.5q23 25 51 39t60 17q28 2 57.5 3t58.5 1h5q19 0 37 -0.5t37 -3.5q54 -9 80.5 -42t24.5 -88q-1 -27 -5.5 -54.5t-9.5 -54.5l-6 -34q-5 -21 -18 -32.5t-35 -11.5q-46 -1 -91 0q-23 0 -31.5 11t-4.5 34l12 71q3 15 -1 20t-19 5
q-25 1 -50 0q-11 0 -16 -4.5t-8 -15.5l-82 -467q-2 -12 -1 -18.5t6.5 -8.5t18.5 -1h5q19 -1 38 0q13 0 19 5t8 18l13 72q4 25 16.5 35.5t36.5 10.5h90q22 0 31 -10t6 -32l-4 -25q-5 -30 -10.5 -60.5t-14.5 -60.5q-12 -36 -35.5 -64.5t-55.5 -45.5t-68 -19q-72 -5 -144 -4
q-22 0 -43 3.5t-41 12.5q-40 20 -55.5 54.5t-8.5 80.5q12 83 27 167l22 120h1z" />
    <glyph glyph-name="D" unicode="D" horiz-adv-x="509" 
d="M353 677l-84 -481q-2 -10 -2 -14t5 -5t15 -1q16 -1 31 0h8q16 -1 24 1t10.5 9t5.5 24l82 464q0 8 -2.5 12.5t-11.5 4.5h-64q-15 0 -17 -14zM60 55l134 759q2 13 6 27q7 15 16.5 22.5t24.5 7.5q133 1 265 -1q14 0 27.5 -2.5t24.5 -7.5q39 -14 58.5 -43t18.5 -72
q1 -27 -4 -54q-47 -263 -94 -527q-6 -33 -21 -65q-21 -43 -59.5 -69.5t-86.5 -29.5q-50 -4 -100 -4q-57 -1 -114 0h-65q-19 1 -27 9t-7 27q1 11 3 23z" />
    <glyph glyph-name="E" unicode="E" horiz-adv-x="508" 
d="M109 332l89 505q1 12 12 22t25 12h389q15 -2 22.5 -10.5t5.5 -24.5q-8 -55 -19 -110q-4 -17 -15.5 -26t-29.5 -9h-208q-15 0 -22 -1t-9.5 -7.5t-5.5 -22.5l-19 -112q-2 -10 -1.5 -15t5 -6.5t14.5 -1.5h142q6 1 12 0q19 -3 28 -12.5t4 -30.5l-8 -46q-4 -25 -9 -50
q-7 -41 -48 -41h-154q-13 0 -18 -4t-7 -17l-23 -129q-2 -13 1 -16.5t17 -2.5q70 -1 140 0h68q6 0 13 -1q16 0 24 -8.5t5 -23.5q-8 -58 -20 -115q-5 -22 -28 -28q-14 -4 -28 -4h-360q-26 1 -33 12.5t-4 33.5q27 145 53 290z" />
    <glyph glyph-name="F" unicode="F" 
d="M57 39l141 799q3 12 9.5 19t18.5 10q14 4 27 4h373q14 -2 21.5 -11t5.5 -25q-8 -54 -19 -108q-3 -14 -12 -23t-24 -12q-10 -1 -19 -1h-212q-13 0 -15 -13q-4 -13 -6 -25l-5 -27q-7 -40 -13 -79q-3 -15 0.5 -18.5t17.5 -3.5h139q8 1 15 0q18 -3 25.5 -13t3.5 -29l-17 -96
q-5 -22 -16.5 -32t-33.5 -9q-45 -1 -91 0h-50q-9 0 -17 -1q-10 -1 -13 -10q-3 -11 -5 -21l-48 -275q-1 -11 -5.5 -20t-14 -15t-26.5 -7q-26 -2 -52.5 -2t-53.5 2q-20 0 -26.5 10.5t-2.5 31.5z" />
    <glyph glyph-name="G" unicode="G" horiz-adv-x="529" 
d="M127 433l50 283q7 35 27 67q23 37 55.5 57.5t72.5 26.5q30 4 59 4q59 1 119 0q28 -1 55 -7q48 -11 72 -46.5t17 -90.5q-2 -26 -7 -52.5t-10 -53.5q-3 -14 -6 -29q-3 -17 -13 -27t-27 -10q-55 -3 -108 -1q-16 1 -23.5 10.5t-5.5 26.5l12 68q2 8 2 15q0 9 -3 13t-11 4h-82
q-7 0 -12.5 -4t-7.5 -11q-3 -10 -4 -20l-78 -442q-4 -17 -3 -25.5t9 -11t24 -1.5q8 0 15 -1q22 0 44 1q12 0 18 4.5t8 16.5q10 51 18 102q1 9 -1.5 12.5t-11.5 3.5q-5 1 -9 1h-8q-18 1 -26 10t-5 28q5 32 11 64l4 27q2 7 4 15q8 32 39 32q90 1 181 1q33 -1 26 -37
q-8 -52 -18 -104l-35 -198q-4 -21 -12 -42t-22 -40q-25 -33 -57 -50.5t-71 -21.5q-33 -4 -64.5 -4.5t-63.5 0.5h-45q-14 0 -27.5 2.5t-26.5 5.5q-43 11 -65.5 40t-23.5 75q0 14 2 28.5t4 29.5q16 93 32 187l12 69h1z" />
    <glyph glyph-name="H" unicode="H" horiz-adv-x="509" 
d="M58 43l139 788q4 18 15 28.5t29 11.5q55 1 111 0q27 -1 28 -30q0 -13 -2 -25l-49 -277q-2 -10 0.5 -13.5t12.5 -3.5q30 -1 60 0q9 0 12.5 3.5t5.5 12.5l52 293q4 18 15 28.5t29 11.5q55 1 111 0q13 -1 20 -8t7 -21q2 -11 0 -22l-137 -773q-2 -11 -7 -22q-8 -21 -30 -26
q-2 -1 -4 -1q-6 -2 -11 -2h-23q-39 -1 -77 0q-21 1 -29 12t-4 33l48 272q3 16 2.5 22.5t-6.5 8t-21 1.5h-39q-14 0 -18 -3.5t-7 -17.5l-51 -289q-5 -17 -17 -27.5t-29 -11.5q-53 -2 -106 0q-21 1 -27.5 12.5t-2.5 34.5z" />
    <glyph glyph-name="I" unicode="I" horiz-adv-x="234" 
d="M380 829l-141 -798q-6 -25 -32 -32q-11 -3 -22 -3q-43 -1 -87 0q-24 0 -34 11t-7 35l137 772q2 14 7 27q6 15 15.5 22t24.5 8q55 1 109 0q18 -1 26 -11.5t4 -30.5z" />
    <glyph glyph-name="J" unicode="J" 
d="M650 817l-113 -642q-2 -17 -7 -34.5t-13 -34.5q-23 -47 -61 -75t-87 -31q-75 -5 -149 -4q-17 1 -33.5 4t-33.5 8q-38 11 -56.5 38t-21.5 66q-2 15 1 31q11 67 23 135q4 16 14 25t26 10q54 1 108 0q16 -1 23.5 -10.5t5.5 -26.5q-3 -21 -8 -43l-5 -27q-3 -19 2.5 -25
t23.5 -5q4 0 7 -1q18 0 35 1q13 0 19.5 5.5t9.5 18.5l111 630q4 20 15 30t32 11q52 1 104 0q17 -1 25 -10.5t6 -27.5q-1 -8 -3 -16z" />
    <glyph glyph-name="K" unicode="K" horiz-adv-x="563" 
d="M59 53l86 488q25 137 48 273q5 31 20.5 45t48.5 12h77q12 0 23 -5q9 -4 13.5 -12t2.5 -20l-36 -202q-1 -8 -1 -16q-1 -2 0 -4q1 -1 1 -2q1 1 2 1l3 1.5t2 1.5q3 4 6 9q1 2 3 4q20 30 40 59q50 75 98 150q13 19 29 27.5t36 7.5h100q22 -3 28 -17.5t-6 -36.5
q-16 -25 -33 -50q-8 -13 -16 -25q-87 -130 -174 -259q-7 -10 -9 -19.5t1 -19.5q28 -100 54 -200l20 -70l8 -32q12 -46 25 -91q5 -21 -5.5 -36t-30.5 -17q-4 0 -9 -1q-6 -1 -12 -1h-86q-21 -1 -34 8.5t-18 29.5q-23 97 -47 193q-6 22 -12 45q-1 5 -4 10l-4 4q-1 -2 -3 -4
q-6 -5 -9 -11q-8 -14 -12 -30l-34 -197q-2 -9 -4 -17q-7 -19 -26 -26q-2 -1 -4 -1q-65 -10 -126 -1q-13 2 -18.5 11t-4.5 21q0 11 3 22z" />
    <glyph glyph-name="L" unicode="L" horiz-adv-x="498" 
d="M57 42l140 791q4 16 15 26.5t29 11.5q55 1 110 0q29 -1 30 -32q0 -12 -3 -24l-108 -613q-3 -13 -3 -18.5t6 -7t19 -0.5h12q38 -1 77 0q52 0 104 -1q13 0 25 -5q7 -4 10.5 -11.5t1.5 -17.5l-2 -11q-8 -50 -18 -99q-2 -14 -11 -22t-23 -11q-12 -2 -23 -2h-352
q-23 1 -31.5 12t-4.5 34z" />
    <glyph glyph-name="M" unicode="M" horiz-adv-x="685" 
d="M60 56l85 485q25 137 48 273q5 31 20 44.5t47 12.5q54 -1 110 0q27 1 38 -11.5t11 -34.5q6 -136 13 -271q2 -48 5 -97l-1 -3q1 -13 2 -25q0 -2 3 -4q1 -1 1 -2l2 2q1 3 3 5q26 64 51 128l72 178q16 43 34 86v1q3 7 7 15q6 15 18 23.5t28 9.5q71 1 142 0q16 -1 24.5 -11.5
t7.5 -27.5l-139 -787q-4 -25 -18 -36.5t-39 -12.5q-42 -1 -83 0q-26 0 -35 12.5t-5 38.5l45 254q1 7 1 14q-1 3 -1 7q-2 -3 -3 -6q-4 -7 -7 -14l-72 -182q-14 -35 -27 -69q-2 -4 -3 -8q-2 -5 -5 -11q-13 -32 -45 -35q-30 -2 -60 0q-16 2 -23.5 12.5t-8.5 27.5q-2 49 -4 97
q-4 87 -8 173q0 6 -1 12q-1 0 -1.5 0.5t-0.5 1.5h-2l-1 -1l-2 -2l-48 -272q-1 -9 -4 -17q-6 -22 -28 -29q-4 -2 -8 -2h-31q-21 -1 -41 -1t-38 1q-17 1 -23.5 11.5t-4.5 28.5q0 9 3 18z" />
    <glyph glyph-name="N" unicode="N" horiz-adv-x="535" 
d="M58 45l139 789q4 16 14 25.5t26 10.5q56 2 110 0q12 0 19 -6.5t10 -18.5q0 -4 1 -7q5 -25 10 -49q15 -82 29 -164q9 -47 17 -95v-1q1 -6 2 -11l1.5 -1.5t1.5 -0.5t2 1l2 2l4 18l49 281q2 10 5 19q10 33 44 34q53 1 106 0q17 -1 25.5 -11t6.5 -28l-138 -783
q-4 -28 -18.5 -41t-44.5 -12h-75q-24 0 -34 8.5t-14 31.5q-27 150 -55 299q-1 6 -3 11q-2 2 -2 5q-2 -3 -3 -6q-3 -6 -4 -13l-52 -293q-5 -22 -16.5 -32t-33.5 -11q-40 -1 -80 0q-17 0 -34 3q-11 3 -15.5 10.5t-3.5 19.5z" />
    <glyph glyph-name="O" unicode="O" 
d="M363 189l85 479q3 16 -1 21.5t-20 5.5q-24 1 -48 0q-16 0 -23 -5.5t-10 -21.5l-81 -459q-2 -11 -3 -21q1 -14 15 -15q33 -1 69 0q7 0 11.5 4.5t5.5 11.5zM115 366l24 141q18 100 37 200q3 27 15 53q21 47 57 73.5t84 33.5q18 2 37.5 3t37.5 1h35h44t43 -4
q50 -7 77.5 -38.5t27.5 -81.5q-1 -27 -6 -54q-31 -182 -63 -364l-27 -156q-4 -18 -9 -35t-13 -35q-22 -45 -59 -72t-86 -31q-38 -3 -75.5 -3.5t-75.5 -0.5q-17 1 -33.5 3.5t-31.5 7.5q-39 11 -58 38.5t-22 68.5q-1 24 5 48q17 102 35 204z" />
    <glyph glyph-name="P" unicode="P" 
d="M347 659l-32 -181q-2 -11 -1 -16t5.5 -6.5t15.5 -0.5q19 -1 38 0q13 -1 20.5 1.5t11 9t6.5 19.5l15 88l16 96q3 13 -1 17.5t-17 4.5h-39q-16 0 -23 -1.5t-9.5 -8t-5.5 -22.5zM57 42l88 499q25 138 48 275q5 30 19.5 43t46.5 12h116q58 0 116 -1q36 0 67 -11
q44 -15 61.5 -48.5t14.5 -80.5l-4 -28l-47 -266q-4 -24 -13.5 -46.5t-25.5 -42.5q-24 -31 -55 -48t-68 -20q-31 -3 -64 -4h-60q-11 0 -15 -3.5t-6 -15.5l-13 -74q-13 -71 -24 -142q-4 -24 -17.5 -34t-33.5 -10q-47 -2 -94 0q-18 1 -26.5 7t-11 16t0.5 23z" />
    <glyph glyph-name="Q" unicode="Q" horiz-adv-x="512" 
d="M353 675l-84 -477q-2 -13 1.5 -17.5t16.5 -4.5q21 -1 42 0h2q18 -1 24.5 5t9.5 24l83 470q0 7 -3 11.5t-11 4.5h-62q-7 -1 -12 -5t-7 -11zM595 487l-53 -300q-5 -31 -16 -62q-8 -25 -22.5 -47t-36.5 -40q-9 -7 -11.5 -10.5t-2 -7.5t2.5 -13q1 -5 3 -10q6 -20 12 -41
q5 -20 -5.5 -33.5t-30.5 -16.5q-9 -2 -17 -2h-85q-37 -1 -45 32l-6 20l-6 24q-2 9 -8 12.5t-15 3.5q-7 0 -14 1q-19 0 -37.5 1.5t-35.5 5.5q-45 10 -67 40t-23 76q0 26 4 52l94 531q6 36 24 71q24 41 58 64t77 29q23 3 47 3.5t47 0.5q26 0 51 -0.5t50 -3.5q36 -4 61.5 -22.5
t36.5 -48t9 -66.5q-4 -38 -11 -77t-13 -77q-9 -45 -16 -89z" />
    <glyph glyph-name="R" unicode="R" horiz-adv-x="523" 
d="M352 670l-35 -197q-2 -12 1 -15.5t15 -2.5q31 -1 62 0q13 0 19 5t7 18q18 95 34 191q3 13 -1.5 17.5t-17.5 4.5q-30 1 -60 0q-9 0 -14 -1t-6.5 -5.5t-3.5 -14.5zM59 53l135 761q2 14 7 27q6 15 15.5 22t25.5 8h80q93 1 185 -1q35 0 65 -11q43 -15 60.5 -47.5t14.5 -78.5
q-2 -25 -6 -50.5t-9 -51.5q-2 -10 -2 -21q-13 -76 -28 -152q-6 -34 -19 -68q-10 -25 -26.5 -46t-40.5 -36q-9 -6 -12 -12.5t-2 -16.5q10 -112 20 -225q3 -31 -10.5 -44.5t-45.5 -13.5h-92q-17 2 -25 9.5t-10 25.5q-5 51 -9 102q-1 21 -3 43q-1 11 -2 23q-3 28 -5 57
q-2 13 -8 17t-20 1q-3 -1 -6 -3.5t-4 -5.5q-3 -7 -4 -14l-37 -213q-4 -19 -14.5 -29.5t-30.5 -11.5q-54 -3 -108 0q-17 1 -24.5 10.5t-6.5 28.5q1 9 2 17z" />
    <glyph glyph-name="S" unicode="S" horiz-adv-x="513" 
d="M436 873q14 -1 29 -2q33 -1 66 -4q34 -4 58 -21t36.5 -44t11.5 -61q-1 -27 -5 -53.5t-10 -53.5q-5 -23 -9 -47q-3 -14 -13 -23.5t-25 -9.5q-59 -2 -117 -1q-11 1 -18 7t-8 18q-2 12 0 24l12 67q2 13 -1.5 17.5t-16.5 4.5q-24 1 -48 0q-11 0 -17 -5t-8 -15l-20 -115
q-2 -14 10 -18l82 -28q19 -7 37 -14q15 -4 28 -9l58 -20q22 -8 29.5 -23.5t3.5 -40.5l-11 -61q-15 -91 -33 -182q-6 -34 -22 -65t-45 -56q-21 -17 -43.5 -26t-47.5 -13q-16 -2 -33.5 -3t-33.5 -1q-40 -2 -79 0q-18 1 -35 3t-33 5q-46 12 -69 47.5t-17 84.5q6 50 15 100
q1 14 4 29q1 10 6 20q7 15 16 21.5t24 6.5q54 1 109 0q36 -1 30 -38l-12 -73q-3 -16 1.5 -21.5t20.5 -4.5q21 -1 42 0q13 0 18.5 4.5t7.5 18.5l18 104q2 8 1.5 12t-3.5 6t-12 5q-31 12 -64 23q-19 6 -38 13q-15 5 -30 11l-62 22q-15 4 -24.5 11.5t-13 21t-1.5 34.5
q6 39 14 78l12 66q6 38 13 75q4 18 9 36t12 36q18 48 55.5 77.5t90.5 36.5q34 4 67 4q15 1 31 2z" />
    <glyph glyph-name="T" unicode="T" 
d="M195 42l71 402q18 108 38 215q3 16 2.5 23t-5 8.5t-15.5 0.5h-68q-25 0 -33.5 10.5t-4.5 34.5l16 90q4 24 16.5 34.5t37.5 10.5h366q23 0 31.5 -10.5t4.5 -33.5q-7 -46 -16 -92q-4 -23 -16.5 -33.5t-36.5 -10.5h-75q-10 0 -14 -3t-6 -14l-111 -631q-5 -25 -17.5 -36
t-37.5 -11q-45 -1 -89 0q-12 0 -22 3t-14 10t-4 17q0 8 2 16z" />
    <glyph glyph-name="U" unicode="U" horiz-adv-x="506" 
d="M651 825l-117 -668q-8 -47 -38 -88q-24 -32 -56 -49t-70 -20t-75.5 -3.5t-75.5 -0.5q-14 0 -27 2.5t-26 5.5q-44 11 -66 40t-24 74q0 27 4 54l116 658q6 18 18 29t32 12q49 1 98 0q11 0 19.5 -5t12.5 -15.5t1 -27.5l-76 -426q-11 -70 -24 -140q-1 -8 -3 -15
q-4 -18 -6 -35q-3 -19 2 -25.5t23 -5.5h6q20 -1 40 0q11 0 16.5 4.5t8.5 15.5l112 635q5 17 16.5 27.5t28.5 11.5q51 2 100 0q19 -1 26.5 -12.5t3.5 -32.5z" />
    <glyph glyph-name="V" unicode="V" horiz-adv-x="600" 
d="M319 -4h-13q-15 -1 -30 0q-24 0 -34 10t-11 33q-14 298 -27 596q-4 81 -6 162q-2 11 -2 21q0 25 12 38.5t38 14.5q47 1 94 0q19 -1 29 -10.5t10 -30.5q2 -124 4 -249q2 -81 4 -163q0 -5 1 -10q0 -4 2 -7q1 -1 1 -3l3 3q3 4 5 8l38 100q9 25 19 51q25 69 51 139
q20 52 40 105l4 12q4 10 9 21q13 32 47 34q50 1 100 0q20 -1 28 -12.5t1 -33.5q-7 -26 -19 -53q-2 -6 -5 -12l-206 -518q-16 -40 -33 -81q-10 -24 -19 -48q-15 -37 -30 -73q-8 -24 -21.5 -33.5t-37.5 -10.5q-16 -1 -31 0h-15z" />
    <glyph glyph-name="W" unicode="W" horiz-adv-x="785" 
d="M294 871h48q19 -1 27.5 -10.5t7.5 -28.5q-1 -34 -4 -68q-6 -48 -10 -95q-4 -42 -9 -83q-3 -43 -7 -85q1 -4 2 -7q1 -2 0 -4q2 2 3 4q4 3 5 7q17 44 35 88q6 17 13 34q38 99 77 199q4 10 8 18q8 14 19 22t27 9q31 1 62 0q36 -1 37 -37q4 -93 6 -186q2 -46 3 -93
q2 -29 3 -58q0 -3 2 -4q1 -1 1 -2l2 2l2 2l2 2q6 22 11 44q4 12 7 24q6 25 13 50q10 36 19 72q5 18 9 36q5 18 10 37q2 7 3 13q9 31 18 61q5 18 16.5 27t30.5 10q50 1 100 0q20 -1 28.5 -14.5t2.5 -35.5q-15 -49 -29 -98q-12 -41 -24 -81q-11 -40 -23 -80t-24 -81
q-10 -35 -21 -71q-8 -28 -16 -57q-10 -34 -20 -67q-8 -31 -18 -63l-18 -66q-10 -30 -18 -60l-20 -66q-7 -27 -35 -32q-13 -3 -26 -3q-29 -1 -58 0h-13q-21 0 -32 4t-16.5 14.5t-5.5 30.5q-6 99 -11 198q-2 46 -5 92v9l-2 46q-1 3 -3 6l-2 2q-1 -1 -2 -3q-4 -3 -5 -6
l-50 -120v-1q-15 -38 -31 -76q-32 -77 -63 -153q-9 -24 -23 -33.5t-39 -9.5q-42 -1 -85 0q-9 0 -16 2q-2 0 -4 1q-25 5 -24 32q3 52 7 103q4 71 8 141l4 44q1 23 4 47q1 31 3 62l6 82q2 33 5 66q1 33 4 66q4 49 7 99l2 38q0 6 1 13q0 15 2 30q2 23 15 35.5t36 13.5h48z" />
    <glyph glyph-name="X" unicode="X" horiz-adv-x="597" 
d="M256 871h90q19 1 30.5 -8t14.5 -27q10 -42 19 -85q3 -14 7 -27q0 -7 2 -14q5 -24 11 -48q0 -2 1 -3t3 -2q1 0 2 -1l2 2l4 4q24 42 47 83q7 11 13 23q20 34 39 68q20 36 57 35h96q6 0 10 -1q19 -3 24.5 -16.5t-3.5 -31.5q-19 -33 -39 -66q-6 -11 -11 -21q-9 -14 -17 -27
q-74 -126 -149 -251q-5 -9 -5.5 -16.5t1.5 -15.5q21 -86 40 -173q2 -6 3 -12q17 -70 34 -139q5 -21 10 -41q0 -2 1 -4q1 -5 1 -10q1 -21 -9 -34t-27 -14q-4 0 -10 -1q-7 -1 -14 -1q-39 -1 -79 0q-26 -1 -37.5 8t-15.5 33q-8 34 -15 69q-11 47 -21 93l-4 14q-2 3 -3 6
q-3 -3 -5 -6q-6 -6 -10 -13q-8 -14 -17 -28q-41 -70 -79 -140q-11 -19 -25.5 -27.5t-33.5 -8.5q-48 -1 -96 0q-10 0 -19 4q-13 4 -17.5 14t0.5 24q5 12 11 22l40 68q84 145 171 290q8 13 9.5 25t-1.5 26q-22 87 -42 175q-8 35 -16 69l-8 30q-7 30 -13 60q-5 16 -3 32
q2 15 9.5 22.5t22.5 11.5q10 2 19 2z" />
    <glyph glyph-name="Y" unicode="Y" horiz-adv-x="623" 
d="M257 90l25 144q9 51 19 102q4 23 -1 45q-51 214 -101 429q-3 9 -3 19q1 15 9 25t24 14q10 3 19 3h92q21 0 31 -7.5t14 -27.5q9 -45 19 -91l28 -128q2 -6 4 -11q2 -2 3 -5q2 3 4 5q5 5 8 10q7 14 16 28q51 90 102 181q9 17 17.5 27.5t22.5 15t37 3.5h81q13 0 23 -5
q12 -6 14.5 -16t-3.5 -24q-7 -14 -15 -27q-57 -98 -115 -196q-28 -49 -58 -98q-10 -19 -22 -38q-25 -44 -51 -87q-11 -19 -15 -39l-19 -106q-15 -89 -30 -179q-6 -33 -22.5 -47.5t-50.5 -12.5h-68q-11 0 -20 2q-17 4 -23 13.5t-3 27.5q3 25 8 51z" />
    <glyph glyph-name="Z" unicode="Z" horiz-adv-x="555" 
d="M475 -4h-373q-12 0 -23 3q-37 9 -18 47q13 25 28 51q2 4 5 9q123 219 247 438l20 36q9 16 19 33l34 60q7 11 5 14.5t-14 3.5h-167q-17 2 -25 10.5t-5 25.5q8 54 19 108q4 16 15 25t28 11h382q10 0 19 -1q16 -4 21 -16t0 -28l-8 -16h-1l-236 -420q-32 -56 -63 -112
q-8 -13 -16 -27q-16 -27 -30 -54q-9 -14 -7 -18t18 -3q56 -1 112 -1q25 1 50 1h5q6 0 12 -1q14 -1 21.5 -9t5.5 -22q-7 -56 -19 -112q-4 -14 -12.5 -22.5t-22.5 -11.5q-13 -2 -26 -2z" />
    <glyph glyph-name="bracketleft" unicode="[" horiz-adv-x="382" 
d="M40 -59l159 902q8 34 42 37q4 1 7 1h245q23 0 31.5 -10.5t4.5 -33.5q-8 -46 -17 -93q-4 -21 -14.5 -30.5t-31.5 -9.5h-85q-13 0 -18.5 -1t-7.5 -6.5t-4 -17.5l-102 -579q-2 -9 0.5 -12t11.5 -3h79q15 0 28 -4q14 -3 19 -11t2 -23q-8 -52 -18 -104q-3 -17 -14 -26.5
t-29 -10.5q-5 -1 -11 -1h-237q-7 0 -14 1q-29 5 -26 35z" />
    <glyph glyph-name="backslash" unicode="\" horiz-adv-x="571" 
d="M235 869h70q15 -1 30 0q19 1 29.5 -7t13.5 -25q3 -19 7 -38l6 -28q48 -236 98 -472q32 -159 65 -318q3 -12 2 -24q1 -14 -7 -24.5t-21 -14.5t-26 -4q-39 -1 -79 0q-23 0 -34 8t-15 31q-26 123 -51 247l-26 126q-21 109 -44 217q-11 57 -23 113q-8 38 -15 75q-9 40 -17 81
q-2 8 -2 18q1 16 12 26.5t27 12.5z" />
    <glyph glyph-name="bracketright" unicode="]" horiz-adv-x="383" 
d="M531 844l-157 -887q-3 -20 -9 -31.5t-18.5 -16t-32.5 -4.5h-233q-6 0 -13 1q-14 2 -21.5 11t-5.5 24q8 54 19 109q3 12 11 20t20 11q16 4 32 4h77q13 0 17 3.5t7 17.5l99 566q3 16 3 23t-6.5 8.5t-22.5 0.5h-24q-30 1 -59 0q-17 0 -26 10.5t-6 28.5q6 28 10 56l7 42
q8 39 47 39q127 1 254 0q17 0 25 -9.5t6 -26.5z" />
    <glyph glyph-name="asciicircum" unicode="^" horiz-adv-x="726" 
d="M809 575q12 -16 9.5 -28t-18.5 -26q-28 -24 -57 -48q-23 -18 -42 0l-14 18q-32 38 -63 76q-33 40 -68 82q-6 8 -14 18q-10 12 -27 -2q-2 -4 -7 -6q-5 -4 -12 -10q-30 -26 -59 -52q-63 -52 -124 -104l-26 -20q-23 -18 -40 0l-46 56q-6 10 -4.5 19t13.5 21l22 18
q37 30 74 62l222 188q9 8 16 16q5 4 8 8h20z" />
    <glyph glyph-name="underscore" unicode="_" horiz-adv-x="761" 
d="M695 -162h-637q-15 1 -23 9.5t-7 24.5q8 54 19 108q4 15 14.5 24t26.5 10q11 1 21 1h601q10 0 19 -1q13 -1 21 -10t6 -22q-8 -55 -19 -110q-3 -16 -14.5 -24.5t-27.5 -9.5z" />
    <glyph glyph-name="grave" unicode="`" horiz-adv-x="349" 
d="M193 809q2 20 22 31q4 2 9 5q44 25 89 47q19 8 31.5 3t20.5 -22q14 -37 29 -73q7 -18 14 -35q10 -26 21 -52q9 -24 19 -49q9 -22 1.5 -38.5t-31.5 -28.5q-3 -2 -5 -3q-15 -8 -29 -14q-28 -11 -43 10q-16 20 -32 41t-31 42q-12 15 -23 30q-26 34 -52 69q-7 7 -9.5 16
t-0.5 21z" />
    <glyph glyph-name="a" unicode="a" horiz-adv-x="627" 
d="M414 305q13 -1 13 12q-1 2 0 5v10l-4 68q-1 3 -1 5q-1 25 -3 50q-1 1 -1.5 2t-1.5 2q-1 0 -2 1q0 -1 -1 -1q-1 -2 -3 -4q-10 -25 -21 -50l-6 -16q-14 -34 -28 -69q-3 -9 -1.5 -12t10.5 -3h50zM624 51q2 -29 -10.5 -42t-42.5 -13q-39 -1 -79 0q-22 0 -31.5 8.5t-10.5 30.5
q-2 17 -3 34q-2 28 -4 55q-1 12 -4 15t-16 2q-63 1 -127 0q-9 1 -13 0t-7 -5.5t-6 -13.5q-10 -22 -19 -45q-10 -22 -19 -44q-9 -20 -21.5 -28.5t-32.5 -8.5q-42 -1 -83 0q-10 0 -18 2q-16 4 -20.5 14.5t2.5 26.5q12 29 24 57q5 14 12 27l148 350l38 88l72 170q8 20 19 28
t32 8h133q19 0 28 -7.5t9 -25.5q7 -81 13 -162q3 -49 6 -99q5 -70 11 -140q3 -58 8 -116z" />
    <glyph glyph-name="b" unicode="b" horiz-adv-x="510" 
d="M369 189q10 42 15 83q1 10 -3.5 14.5t-13.5 4.5q-28 1 -56 0h-25q-13 0 -15 -13l-17 -95q-2 -14 12 -15h16q31 0 62 1q21 0 25 20zM324 578l-16 -91q-2 -10 0 -13t11 -2q41 -1 81 0q10 0 15.5 4t6.5 13q10 42 15 85q2 10 -2.5 15t-14.5 5q-39 1 -77 0q-10 0 -13.5 -3
t-5.5 -13zM548 372q12 -15 15.5 -33t-1.5 -39l-25 -140q-4 -22 -12 -43t-23 -41q-24 -36 -57.5 -54.5t-73.5 -21.5q-30 -2 -60.5 -2.5t-60.5 -1.5h-36q-36 -1 -72 0h-45q-25 0 -34 12t-5 36q21 115 40 230l16 89l0.5 2t1 5l1 6t1 5l0.5 2l58 334l4 14q7 31 40 36h254
q35 0 67 -11q40 -15 58.5 -44.5t18.5 -72.5q-1 -14 -2.5 -28t-3.5 -28q-6 -38 -14 -76l-8 -46q-2 -21 -12 -38.5t-26 -31.5q-6 -5 -7.5 -9.5t3.5 -9.5z" />
    <glyph glyph-name="c" unicode="c" horiz-adv-x="509" 
d="M556 282q-3 -17 -5 -34q-5 -26 -9.5 -52.5t-10.5 -53.5q-16 -63 -59.5 -100.5t-105.5 -41.5q-73 -5 -144 -4q-27 1 -52.5 6t-46.5 20q-23 16 -34.5 39t-12.5 52q-2 24 3 48q14 83 29 166l49 281q8 44 35 82q23 32 53.5 49.5t68.5 23.5q27 4 55 4h11q24 0 48 0.5t48 -1.5
q17 0 33.5 -3t31.5 -8q43 -15 61.5 -48.5t12.5 -80.5q-3 -28 -7.5 -56t-10.5 -57q-3 -15 -6 -31t-13.5 -25.5t-27.5 -10.5q-51 -2 -100 0q-18 1 -25 11.5t-4 30.5q3 23 7 46l7 38q0 8 -2.5 12.5t-10.5 5.5q-38 1 -75 0q-7 -1 -12 -5.5t-7 -11.5l-66 -373q-2 -12 -1.5 -18.5
t6.5 -8.5t18 -2h52q13 0 19 2t8.5 8t4.5 18l12 69q2 9 6 19q5 14 15 21.5t25 8.5q51 1 102 0q15 -1 22 -10.5t5 -24.5z" />
    <glyph glyph-name="d" unicode="d" horiz-adv-x="509" 
d="M427 556q2 6 2 13q1 9 -2.5 13.5t-12.5 4.5h-62q-14 0 -17 -14l-67 -379q-2 -12 0.5 -15t14.5 -3q26 -1 52 0q15 0 21 5t8 19zM608 562q-33 -191 -67 -381q-6 -35 -20 -70q-21 -49 -61.5 -78.5t-91.5 -33.5q-47 -3 -92 -3.5t-91 0.5h-91q-24 0 -32.5 11t-4.5 35l122 689
q8 31 40 36h80q88 1 176 -1q35 0 65 -11q42 -14 60 -45t17 -76q-1 -18 -3.5 -36t-5.5 -36z" />
    <glyph glyph-name="e" unicode="e" horiz-adv-x="510" 
d="M532 132q-6 -41 -14 -82l-1 -6q-5 -26 -18.5 -37t-40.5 -11h-362q-22 0 -31.5 11t-7.5 33l118 670q3 14 8 27q6 15 15.5 22t24.5 8h385q27 -2 28 -29q2 -8 0 -16l-16 -90q0 -5 -2 -10q-6 -18 -17 -26.5t-30 -8.5h-219q-14 1 -17 -14l-16 -91q-2 -13 11 -14h154
q24 0 33 -10.5t5 -34.5l-16 -90q-4 -23 -17 -34t-37 -12h-141q-13 1 -19 -0.5t-8 -7t-4 -17.5l-12 -69q-2 -11 0.5 -14t13.5 -3q7 -1 14 0h199q23 0 31.5 -10.5t5.5 -33.5z" />
    <glyph glyph-name="f" unicode="f" horiz-adv-x="510" 
d="M637 728q-7 -50 -17 -100q-6 -35 -41 -40q-9 -1 -18 -1h-209q-6 0 -10.5 -3t-5.5 -9l-19 -111q-2 -12 11 -12q8 -1 16 -1h135q10 0 18 -1q13 -3 19 -11.5t3 -22.5q-7 -54 -19 -108q-4 -17 -15.5 -25.5t-27.5 -8.5h-154q-9 0 -13.5 -1.5t-7 -6t-4.5 -14.5l-36 -207
q0 -7 -3 -14q-6 -25 -32 -32q-10 -3 -19 -3h-100q-18 2 -25.5 11.5t-5.5 27.5q0 7 2 14l116 662q3 14 8 27q6 14 15.5 20.5t23.5 8.5h383q18 -1 26.5 -11t5.5 -28z" />
    <glyph glyph-name="g" unicode="g" 
d="M577 398l-35 -201q-4 -23 -9 -45q-7 -25 -17 -49q-22 -47 -59.5 -73t-85.5 -30q-39 -3 -77 -3.5t-76 -0.5q-19 1 -37 4t-35 10q-34 14 -51.5 40t-18.5 63q-1 23 3 47l28 164l21 118q14 81 30 162q4 27 15 53q21 46 56.5 72t83.5 34q28 4 56 4q54 1 108 0q38 0 71 -14
q34 -15 50.5 -42t16.5 -65q1 -22 -3 -44q-6 -41 -14 -83q-3 -17 -15 -26.5t-29 -9.5q-49 -2 -98 0q-36 1 -30 38l4 23q3 11 4 23q2 14 -2 19t-17 5q-30 1 -60 0q-14 0 -20 -5t-8 -18l-66 -377q-1 -10 2.5 -14t12.5 -4q35 -1 71 0q9 0 14 4.5t7 13.5q4 20 7 40l3 19
q2 12 -11 12h-4q-14 1 -25 3q-26 7 -21 33q8 54 19 108q7 36 46 36h158q24 0 32.5 -10.5t4.5 -33.5z" />
    <glyph glyph-name="h" unicode="h" 
d="M514 48q0 -7 -2 -13q-3 -17 -12 -25.5t-26 -12.5q-9 -1 -19 -1q-40 -1 -81 0q-12 0 -23 3q-23 7 -21 32l43 244q4 15 -12 15q-9 0 -19 1q-22 0 -43 -1q-10 0 -13.5 -3.5t-5.5 -12.5q-2 -6 -2 -12l-38 -218q-1 -7 -4 -14q-3 -13 -10.5 -21t-19.5 -10q-65 -9 -126 0
q-16 2 -21 11t-3 26l120 679q1 8 4 16q4 16 14.5 25.5t26.5 10.5q55 1 111 -1q17 0 24 -10t3 -28q-12 -74 -25 -149l-14 -82q-4 -14 -3.5 -20.5t6.5 -7.5t20 -1h38q13 0 19 1.5t8 7.5t4 19l40 225q5 25 17 35.5t36 10.5h92q12 0 23 -5q9 -3 13 -10t2 -18z" />
    <glyph glyph-name="i" unicode="i" horiz-adv-x="235" 
d="M242 44q0 -7 -3 -14q-4 -12 -11.5 -20t-20.5 -11q-12 -3 -23 -3h-98q-15 2 -22 9.5t-7 23.5q0 11 2 22l118 667q1 6 3 12q5 19 17 28t31 9h96q24 0 32.5 -11t4.5 -35z" />
    <glyph glyph-name="j" unicode="j" horiz-adv-x="510" 
d="M575 376q-14 -88 -31 -176q-4 -23 -10 -45t-13 -44q-20 -50 -60.5 -79t-92.5 -32q-73 -4 -145 -4q-21 0 -41 3.5t-39 11.5q-34 17 -50.5 45t-15.5 67q0 15 2 30.5t5 31.5l2 13q5 36 13 73q3 21 15 31.5t34 10.5h93q22 0 31 -10t6 -32q-3 -21 -8 -42l-4 -22q-1 -7 -1 -15
q-2 -15 12 -16q32 -1 63 0q7 1 12 5t7 11q2 9 3 18l88 501q2 3 1 6q3 27 19 39.5t40 10.5q43 -1 87 0q23 1 33 -10.5t6 -36.5q-5 -32 -12 -65z" />
    <glyph glyph-name="k" unicode="k" horiz-adv-x="560" 
d="M558 48q5 -19 -4 -32t-30 -18q-11 -2 -22 -2h-87q-40 -2 -52 35q-27 86 -56 172q-4 9 -6 17q-3 7 -7 12q-3 2 -4 5q-3 -3 -5 -6q-6 -6 -11 -13q-6 -12 -8 -26q-10 -49 -17 -98l-8 -43q-2 -9 -4 -17q-4 -15 -12.5 -23.5t-23.5 -11.5q-11 -3 -21 -3q-40 -1 -79 0
q-13 0 -24 4q-24 6 -21 32l121 687q4 26 17.5 37t38.5 11h85q26 0 35.5 -11.5t5.5 -36.5l-30 -169q0 -2 1 -4v-2q1 1 3 1q1 1 2 1.5l3 1.5l40 52q13 18 27 37q37 47 72 94q13 19 29.5 28t38.5 8q28 -1 57 0h30q9 0 18 -2q17 -5 21.5 -17t-4.5 -29q-10 -17 -22 -32
q-3 -4 -5 -7q-8 -10 -16 -21q-86 -117 -174 -234q-8 -9 -8.5 -17t2.5 -17q42 -125 84 -249q9 -27 18 -55q1 -5 4 -9z" />
    <glyph glyph-name="l" unicode="l" horiz-adv-x="457" 
d="M442 176q25 0 33 -10.5t4 -35.5q-7 -45 -16 -91q-4 -20 -14.5 -30.5t-31.5 -12.5h-314q-13 0 -26 3q-12 3 -16.5 10.5t-4.5 20.5l79 446q22 119 41 238q6 32 21.5 43.5t41.5 9.5q27 -1 54 0h27q27 0 35.5 -10t3.5 -37l-90 -509q-3 -17 -3.5 -25t5 -9.5t18.5 -0.5h12
q37 -1 74 0h67z" />
    <glyph glyph-name="m" unicode="m" horiz-adv-x="685" 
d="M811 714l-115 -654q-3 -14 -7 -27q-7 -18 -18.5 -27t-29.5 -10q-48 -2 -96 1q-21 1 -29 12t-4 34l38 220q0 3 -1 6q0 2 -1 3l-3 -3t-3 -5q-9 -20 -18 -41q-3 -9 -7 -18q-10 -23 -19 -45q-26 -63 -52 -125q-7 -19 -20.5 -28.5t-32.5 -10.5q-29 -2 -57 0q-10 1 -18.5 4.5
t-14 11.5t-6.5 23q-3 76 -9 151l-4 60l1 2q-1 4 -1 8q-2 6 -4 11q-1 2 -1 5q-2 -3 -2 -6q-3 -5 -4 -11q-15 -80 -29 -160l-8 -46q-4 -29 -18.5 -41t-43.5 -12q-37 -1 -73 0q-13 0 -24 4q-24 6 -21 32l122 693q4 20 16.5 30.5t32.5 11.5q66 1 133 0q20 0 29.5 -9.5
t10.5 -31.5l12 -168q5 -50 8 -100q3 -39 6 -79v-1q1 -6 2 -11q0 -1 1 -1.5t2 -1.5q1 0 1.5 0.5t1.5 1t1 1.5q4 7 6 14q33 76 65 152q41 96 82 191q9 25 22.5 34t39.5 9h40q39 -1 77 0q16 1 27 -3.5t15.5 -16.5t1.5 -33z" />
    <glyph glyph-name="n" unicode="n" horiz-adv-x="538" 
d="M663 710l-115 -654q-2 -13 -7 -26q-11 -32 -43 -34q-40 -1 -81 0q-26 2 -34 27q-25 81 -51 161q-14 44 -27 87q-4 12 -7 24q-4 13 -8 25q-1 3 -4 5q-1 1 -1 2q-2 -1 -3 -3q-2 -3 -3 -6q-2 -7 -3 -14l-10 -57q-19 -105 -36 -210q-2 -9 -5.5 -17.5t-12.5 -13.5
q-7 -4 -14.5 -6.5t-14.5 -3.5q-47 -1 -94 0q-16 1 -24 9.5t-8 24.5q0 11 2 21l118 667q1 6 3 12q5 19 17 28t31 9h75q26 0 35 -23q8 -23 15 -46q14 -42 27 -84q25 -80 50 -159q2 -6 6 -11q2 -2 3 -5l2 6q4 7 6 13l48 273q4 16 13.5 25.5t25.5 10.5q51 1 102 0q14 -1 21 -8.5
t9 -21.5q0 -13 -3 -27z" />
    <glyph glyph-name="o" unicode="o" horiz-adv-x="510" 
d="M350 173q8 0 12.5 4.5t7.5 12.5q2 7 3 15l63 355q3 19 -2 25.5t-23 5.5q-25 1 -50 0q-17 0 -24.5 -6t-10.5 -23l-62 -354q-2 -9 -3 -19q0 -7 4 -11.5t12 -4.5q36 -1 73 0zM565 319q-13 -78 -27 -156q-7 -34 -23 -65q-23 -45 -59 -69.5t-83 -28.5q-35 -3 -69.5 -3.5
t-69.5 -0.5h-13q-30 1 -58 9q-44 12 -67 46t-19 82q5 45 13 91q31 179 64 358q6 34 19 68q18 47 55 76.5t92 36.5q99 11 195 0q32 -4 55.5 -21t35.5 -43.5t12 -59.5q-1 -29 -7 -58z" />
    <glyph glyph-name="p" unicode="p" horiz-adv-x="506" 
d="M417 495l13 72q2 14 -2 19t-18 5q-31 0 -62 -1q-11 0 -14.5 -3t-5.5 -14q-15 -80 -28 -160q-2 -11 0.5 -14t13.5 -3q30 0 61 1q14 0 20.5 6t9.5 21zM613 605q-20 -116 -41 -233q-9 -44 -40 -82q-25 -31 -56.5 -46.5t-67.5 -18.5q-40 -3 -79 -4h-34q-4 0 -9 -1h-10
q-10 0 -12 -10l-29 -163q-1 -6 -3 -12q-10 -39 -48 -39q-44 -1 -88 0q-11 0 -21 3q-11 3 -15.5 10t-3.5 18q0 8 2 17l121 689q3 12 10.5 19.5t18.5 11.5q13 3 27 3h47q96 1 192 -1q36 -1 67 -11q38 -13 55.5 -41t18.5 -67q1 -21 -2 -42z" />
    <glyph glyph-name="q" unicode="q" 
d="M369 199l65 368q2 14 -2 19t-17 5q-31 1 -63 0q-11 0 -17 -5t-8 -17q-2 -6 -2 -12l-57 -323q-4 -20 -7 -39q-2 -12 2.5 -17t15.5 -6h59q17 0 23 5t8 22zM573 380q-5 -30 -10 -61q-14 -81 -29 -162q-3 -15 -8.5 -30.5t-12.5 -30.5q-7 -18 -20 -33t-30 -27q-12 -10 -9 -24
q3 -7 5 -14q5 -15 8 -31t3 -32q-1 -10 -7.5 -16.5t-15.5 -9.5q-12 -4 -25 -5h-91q-17 0 -27.5 7.5t-15.5 22.5q-1 10 -4 19q-4 10 -6 21q-2 12 -9 17.5t-20 4.5q-43 -3 -83 8q-44 11 -66.5 40t-23.5 76q0 25 4 51l75 422q3 19 8.5 37t14.5 35q22 43 56 67t80 31q14 2 28.5 3
t29.5 1q52 1 104 0q20 0 39.5 -4t36.5 -12q27 -13 43 -34.5t19 -52.5q3 -29 -1 -59q-14 -82 -29 -164z" />
    <glyph glyph-name="r" unicode="r" horiz-adv-x="514" 
d="M406 422q6 24 10 47l4 22h-1l4 22q5 26 9 52q2 15 -2.5 20.5t-18.5 5.5q-32 1 -64 0q-10 0 -13.5 -3t-5.5 -13q-3 -11 -4 -23l-24 -139q-4 -14 -0.5 -17.5t16.5 -3.5h56q17 0 24.5 6t9.5 24zM542 298q-2 -1 -2 -2q-6 -9 -13 -17t-15 -15q-10 -7 -13 -15.5t-1 -17.5
q2 -36 4 -71q1 -11 2 -23l6 -92q1 -21 -9 -34t-33 -14q-51 -3 -103 0q-30 2 -31 35q-5 61 -9 123q-1 19 -3 38q-1 12 -2 16.5t-6 6t-16 0.5q-17 1 -24 -0.5t-10 -8.5t-5 -24q-3 -20 -8 -41q-9 -50 -17 -100q-3 -18 -11 -28t-19.5 -14t-23.5 -4h-3q-41 -1 -82 0q-24 0 -33 11
t-5 35l122 687q3 16 14.5 26t28.5 12h78q88 1 176 -1q34 0 65 -11q42 -15 60.5 -48t14.5 -79q-3 -44 -11 -88.5t-16 -88.5l-12 -62q-4 -24 -12 -47t-23 -44z" />
    <glyph glyph-name="s" unicode="s" horiz-adv-x="513" 
d="M550 229q-5 -34 -13 -68q-7 -35 -23 -67q-23 -44 -59 -67t-81 -27q-39 -3 -76.5 -3.5t-74.5 -0.5q-34 1 -65 11q-41 13 -62.5 46t-17.5 78q4 35 10 71l2 20q2 10 5 19q7 16 17 23.5t27 7.5q51 1 102 0q19 0 26.5 -10t4.5 -29q-1 -9 -2 -19l-3 -18q-3 -14 1 -19t17 -5
q27 -1 54 0q12 0 17.5 4.5t7.5 15.5q7 36 13 73q2 11 0 14.5t-12 7.5q-38 12 -75 25q-24 8 -47 16q-41 14 -80 28q-26 10 -33.5 25t-3.5 41q13 88 31 175q8 36 25 70q20 42 54.5 65.5t78.5 29.5q20 3 40 4t40 1h6q28 0 55.5 -0.5t54.5 -3.5q50 -5 78.5 -36.5t29.5 -82.5
q0 -24 -3.5 -48t-8.5 -47q-2 -13 -6 -26q-2 -13 -12.5 -22t-24.5 -10q-58 -1 -114 0q-15 1 -22 10.5t-5 23.5l7 44q3 13 -1.5 17.5t-17.5 4.5q-27 1 -54 0q-12 0 -18 -5t-7 -16q-6 -27 -10 -55q-2 -8 -1.5 -12t3.5 -6t12 -5q51 -18 102 -35q8 -3 17 -6t17 -6l60 -20
q27 -8 36.5 -25.5t3.5 -47.5q-7 -32 -11 -64z" />
    <glyph glyph-name="t" unicode="t" horiz-adv-x="510" 
d="M637 730q-6 -52 -19 -105q-3 -19 -15.5 -28t-32.5 -10h-75q-13 0 -17.5 -3t-5.5 -16l-91 -516q-4 -22 -11 -34.5t-20 -17t-34 -4.5h-80q-11 0 -21 3q-24 7 -21 33l94 537q2 12 0 15t-14 3h-70q-7 0 -13 1q-36 4 -30 40l17 98q8 40 49 41h375q19 -1 28 -10t7 -27z" />
    <glyph glyph-name="u" unicode="u" horiz-adv-x="510" 
d="M573 362q-17 -100 -35 -200q-7 -34 -24 -67q-23 -44 -59.5 -67.5t-82.5 -27.5q-36 -3 -71.5 -3.5t-70.5 -0.5h-8q-31 1 -60 9q-44 12 -66.5 46.5t-18.5 81.5q6 48 13 96l84 477q3 15 10 30q5 14 16.5 22t25.5 9q51 1 102 0q19 -1 27.5 -12t6.5 -30l-90 -512
q-4 -18 -3 -26t8.5 -10t25.5 -1h10q15 -1 29 0q10 0 14.5 4.5t6.5 13.5l90 512q3 15 9 29q6 15 17.5 23t26.5 9q48 1 96 0q19 -1 28 -12.5t7 -30.5z" />
    <glyph glyph-name="v" unicode="v" horiz-adv-x="579" 
d="M672 766q20 -2 26 -15.5t-2 -33.5q-34 -83 -69 -165l-48 -118q-54 -129 -108 -257q-26 -62 -50 -123h-1l-8 -18q-8 -20 -20.5 -29.5t-32.5 -10.5q-50 -2 -100 0q-20 1 -29 10.5t-10 29.5l-12 206q-4 57 -8 113q-3 50 -6 99q-3 39 -5 79q-4 71 -9 141q-1 17 -2 35
q0 1 -1 2q0 4 1 8q2 46 48 48h89q20 0 30 -9.5t11 -28.5q4 -78 7 -156q1 -23 2 -47q2 -38 3 -76l2 -58l2 -18q1 -2 1 -4l1 -1q1 0 2 1q2 1 3 3q4 7 6 14l68 168q32 83 66 166q3 8 6 15q6 13 16.5 21t24.5 9q54 3 106 0z" />
    <glyph glyph-name="w" unicode="w" horiz-adv-x="803" 
d="M892 767q22 -2 30 -15t1 -35q-21 -63 -41 -126q-29 -93 -60 -186q-28 -88 -57 -176q-19 -61 -39 -122q-7 -24 -15 -48l-6 -20q-6 -19 -17 -28.5t-30 -13.5h-2q-3 -1 -6 -1h-55v0v0h-45q-25 0 -35 9.5t-11 33.5q-5 90 -10 179q-2 51 -4 101l-2 30q0 1 -1.5 2t-3.5 1
l-0.5 -0.5l-1 -1t-0.5 -1.5q-5 -9 -9 -18q-43 -108 -87 -215q-14 -39 -30 -77q-9 -22 -23 -32.5t-37 -10.5q-50 -1 -100 0q-24 0 -33.5 10t-9.5 33q0 36 3 72v33q2 35 3 69q2 63 5 127q1 46 3 92q2 36 3 72q1 31 2 61l4 102q1 30 4 60q0 13 7 21.5t17 13t20 5.5h96
q41 -1 39 -41q-1 -36 -4 -72q-2 -23 -3 -45l-4 -70q-1 -29 -3 -58q0 -13 -2 -25q-1 -16 -2 -31q0 -4 2 -7q0 -2 1 -3l3 3q2 3 5 7q12 30 23 59l14 32l18 44q34 83 68 167q9 22 22.5 31t36.5 9h49q23 0 33 -9.5t11 -31.5q4 -63 8 -125q1 -26 3 -52q0 -14 1 -28q2 -48 6 -95
q0 -5 2 -10q1 -2 3 -4q0 2 1 4q3 5 5 10q13 45 27 90q8 30 18 61q14 49 29 98q4 11 7 21q0 4 2 8q3 13 8 25q6 18 17.5 27.5t29.5 10.5q50 1 99 0z" />
    <glyph glyph-name="x" unicode="x" horiz-adv-x="619" 
d="M617 43q1 -15 -7 -26.5t-23 -16.5q-13 -4 -26 -4h-87q-41 -1 -51 36q-21 69 -43 139q-2 8 -5 16q-3 6 -6 11q-2 3 -3 5q-3 -2 -5 -5q-6 -5 -10 -11q-8 -14 -18 -27q-43 -64 -85 -129q-12 -19 -28 -27.5t-36 -7.5h-85q-11 0 -20 2q-35 9 -19 45q1 5 4 10l54 78
q30 44 59 87q18 27 37 54q35 53 72 106q6 9 5.5 16t-3.5 15l-74 228q-7 23 -15 45q-1 5 -2 9q-3 10 -6 21q-5 23 7 38t37 17h104q16 0 26.5 -7t14.5 -22q21 -70 42 -139q3 -8 7 -15q2 -4 4 -7q2 4 5 7q7 8 13 16q7 12 15 23q35 53 69 107q12 20 28 29t38 8q27 -1 55 0h32
q32 -1 39 -17t-11 -44q-2 -5 -6 -10q-2 -3 -4 -5q-23 -35 -47 -70q-70 -106 -142 -212q-8 -11 -9 -20.5t3 -19.5q40 -123 80 -245q10 -32 21 -64q0 -2 1 -3z" />
    <glyph glyph-name="y" unicode="y" horiz-adv-x="627" 
d="M713 767q24 -2 31 -16.5t-5 -37.5q-15 -24 -30 -49l-10 -16q-16 -26 -33 -53q-90 -147 -181 -293q-11 -17 -13 -36l-38 -213q-1 -8 -3 -16q-4 -16 -13.5 -26t-24.5 -12q-31 -4 -61.5 -4.5t-58.5 4.5q-16 3 -20.5 12t-3.5 25l40 227q5 20 -1 38q-53 202 -107 404
q-2 9 -2 19q-1 13 6.5 23.5t20.5 15.5q13 4 27 4h34q24 -1 49 0q22 1 35 -8.5t18 -29.5q17 -68 34 -135q8 -28 15 -56q1 -2 0 -4l2 -6q1 -1 1.5 -2.5t1.5 -2.5t1 0q2 0 5 2t4 4q11 16 21 34q2 3 3 6q14 21 27 42l74 122q20 34 57 34h98z" />
    <glyph glyph-name="z" unicode="z" horiz-adv-x="565" 
d="M642 767q18 1 30 -5.5t18 -21.5v-2t-0.5 -4.5l-1 -5t-1 -4l-0.5 -1.5q-4 -7 -9 -14q-11 -15 -20 -30q-47 -73 -94 -147q-19 -30 -39 -61q-26 -40 -51 -80q-62 -97 -123 -194q-10 -15 -12.5 -21t3.5 -7.5t22 -1.5h152q27 0 36 -12t3 -36l-13 -73q-5 -27 -18.5 -38.5
t-40.5 -11.5h-381q-14 0 -27 4q-15 5 -19 16.5t5 27.5q13 25 29 49q2 2 3 4q81 127 164 254q25 39 49 77q17 25 32 50q29 43 56 86q2 2 2 3q1 2 3 5q5 9 4.5 12t-10.5 3h-149q-12 0 -23 2q-28 7 -24 35q8 53 19 105q3 16 14.5 26t28.5 12h383z" />
    <glyph glyph-name="braceleft" unicode="{" horiz-adv-x="344" 
d="M494 986q2 -1 3 -2l4 -6q12 -12 9 -31l-14 -81q-3 -17 -12.5 -26t-26.5 -13q-16 -3 -23.5 -7.5t-11.5 -12.5t-7 -22q-7 -35 -8 -68.5t1 -67.5q1 -14 1 -29q2 -42 -1 -86q-2 -47 -35 -87q-11 -12 -4 -24q11 -25 10 -52.5t-11 -55.5q-27 -74 -55 -147q-8 -22 -13.5 -44.5
t-8.5 -44.5q-3 -18 2 -25t23 -11q17 -3 24 -13t3 -28q-6 -40 -14 -79q-3 -19 -14.5 -29t-30.5 -9q-47 2 -81 20.5t-53.5 52.5t-20.5 84q0 39 9.5 78.5t24.5 78.5q15 42 32 84q7 17 13 34q1 0 1 1l1 3q5 12 2.5 17t-13.5 8q-23 6 -47 9q-20 2 -27.5 12t-3.5 30q6 38 14 77
q3 20 13.5 29.5t32.5 11.5q23 3 48 8q14 3 18 8.5t3 18.5q0 27 -2 53q-1 33 -2 65t1.5 64.5t11.5 65.5q9 36 25 67t41.5 55.5t61.5 42.5q9 4 18 7t18 5q8 3 18 6q5 1 10 3l6 2h37z" />
    <glyph glyph-name="bar" unicode="|" horiz-adv-x="231" 
d="M120 395l89 509l4 16q5 16 16.5 26t28.5 10q52 1 104 0q17 0 24.5 -9.5t6.5 -26.5l-183 -1040q-2 -8 -4 -17q-5 -16 -16 -24.5t-26 -8.5q-53 -1 -106 0q-32 1 -31 32q0 9 2 18q1 2 2 5q44 255 89 510z" />
    <glyph glyph-name="braceright" unicode="}" horiz-adv-x="346" 
d="M286 986q2 0 4 -1q3 -3 8 -4q120 -28 121 -154q0 -34 -7 -67.5t-19 -66.5q-19 -50 -37 -99q-8 -22 -17 -44q-5 -14 -3 -19t16 -8q22 -5 46 -8q17 -2 25 -12t5 -29q-6 -40 -14 -79q-4 -19 -15 -28.5t-30 -11.5q-26 -3 -51 -9q-14 -3 -17 -8t-2 -17q0 -30 1 -59
q1 -30 2 -59q1 -34 -2 -67.5t-12 -67.5q-7 -29 -20.5 -56.5t-34.5 -51.5q-27 -30 -60 -47.5t-69 -23.5q-17 -4 -33 -4q-38 0 -34 38l14 79q4 18 13 27t26 13q3 1 6 1q1 0 3 1q13 2 19.5 8.5t11.5 18.5q7 19 8.5 37.5t2.5 37.5l-2 90l-2 54q-1 24 2 47.5t14 47.5
q5 10 11 19.5t13 19.5v1q4 5 5 9.5t-1 9.5q-10 21 -11 43t4 45t14 46t17 46q20 50 38 101q6 18 10.5 36t5.5 36q0 14 -5 20t-18 9q-23 4 -29 14t-2 34l3 19q5 18 7 35q1 18 9 33t25 25h37z" />
    <glyph glyph-name="asciitilde" unicode="~" horiz-adv-x="964" 
d="M373 558q43 -2 84 -10t81 -20q37 -11 74 -23q43 -14 84 -26q54 -15 108 -25q11 -2 22.5 -2h22.5q14 1 22.5 7.5t14.5 19.5q6 15 11 31q4 13 14 20.5t22 8.5q48 2 96 0q13 -1 19.5 -10.5t3.5 -22.5q-8 -51 -33.5 -95.5t-67.5 -75t-100 -39.5q-45 -6 -87 -1t-83 16
q-63 18 -124 38l-46 14q-38 12 -76.5 22t-80.5 14q-8 1 -19 -0.5t-21 -3.5q-2 0 -6 -1q-8 -1 -14.5 -7t-9.5 -14l-2 -4q-5 -9 -8.5 -18t-4.5 -18q-4 -18 -17.5 -29.5t-33.5 -11.5q-23 2 -48 1h-28q-19 0 -28 10t-5 28q9 44 28 84t54 74q27 26 57 41t64 21q21 4 42 5
q10 1 19 2z" />
    <glyph glyph-name="uni00A0" unicode="&#xa0;" horiz-adv-x="254" 
 />
    <glyph glyph-name="exclamdown" unicode="&#xa1;" horiz-adv-x="238" 
d="M247 52l-1 -8q-5 -26 -17.5 -36.5t-37.5 -10.5h-106q-16 2 -23.5 10.5t-5.5 25.5q7 41 16 82l8 38l27 156h1l4 19q6 36 13 71q19 99 37 197q5 22 17 32.5t35 10.5q44 1 87 0q22 0 30 -10.5t4 -31.5q-18 -117 -37 -233l-18 -103q-9 -53 -17 -105q-7 -36 -11 -71
q-3 -16 -5 -33zM216 693q-30 1 -32 30q-1 10 1 21l14 77q2 11 8 22q11 25 37 26h104q15 0 22.5 -7t7.5 -22q1 -12 0 -24l-13 -71q-3 -11 -7 -22q-13 -29 -42 -30q-50 -1 -100 0z" />
    <glyph glyph-name="sterling" unicode="&#xa3;" horiz-adv-x="562" 
d="M515 -3h-270q-73 1 -147 0q-24 -1 -34.5 11.5t-5.5 37.5q7 33 12 67t39 47q22 7 25 29q5 35 12 69l2 10q1 7 -1 11t-10 6q-20 5 -26 15t-2 32q6 44 15 87q3 20 13 30t30 15q8 1 11.5 3t5 5.5t3.5 12.5l33 189q4 23 10 45.5t16 44.5q22 48 62.5 75t89.5 29q88 4 175 0
q50 -3 81 -33t33 -84q1 -23 -3 -47q-9 -55 -19 -109q-4 -24 -16 -34t-36 -10h-93q-21 0 -29 9t-4 30l12 67l2 18q-1 8 -4.5 12.5t-11.5 4.5h-3q-27 1 -55 0q-10 -1 -15 -5.5t-8 -14.5l-4 -20v-7q-14 -75 -27 -150l-3 -19q-1 -11 10 -12h158q13 0 24 -3q20 -4 21 -25
q1 -11 -1 -22q-6 -40 -14 -79q-2 -13 -10 -26q-8 -18 -26 -21q-1 0 -2 -1q-13 -2 -26 -2q-50 -1 -100 -1h-54q-14 0 -16 -14l-14 -79q-3 -14 11 -14h202q12 0 24 -3q16 -3 23 -13t4 -27q-8 -47 -17 -94q-8 -43 -52 -43z" />
    <glyph glyph-name="degree" unicode="&#xb0;" horiz-adv-x="361" 
d="M283 720q-2 -13 3 -24t14.5 -18.5t22.5 -7.5q13 -1 25 6t22 19t12 25q4 21 -8 35.5t-33 15.5q-20 -1 -37.5 -16t-20.5 -35zM304 567q-40 -2 -71.5 18t-47 55.5t-8.5 78.5q8 46 36.5 81.5t67.5 56t79 20.5q42 -1 74 -22t46.5 -56.5t7.5 -78.5q-8 -45 -37.5 -81
t-68.5 -55.5t-78 -16.5z" />
    <glyph glyph-name="questiondown" unicode="&#xbf;" horiz-adv-x="509" 
d="M555 277l-5 -25q-7 -50 -17 -100q-8 -33 -24 -63q-22 -38 -55 -59.5t-73 -28.5q-27 -4 -53 -4q-59 -1 -119 0q-38 1 -71 16q-27 14 -42.5 36.5t-18.5 54.5q-1 15 0 31l2 32q5 33 12 66l24 134q4 30 30 50l62 52l74 60q21 17 24 41q1 14 5 29q4 18 15 28t29 11q53 3 105 1
q17 -1 25.5 -12t4.5 -29q-7 -46 -15 -92q-3 -12 -10 -22.5t-17 -19.5q-31 -27 -63 -53q-38 -33 -77 -66q-18 -14 -21 -35q-5 -34 -11 -68q-4 -16 -7 -32v-2q-1 -6 -2 -13q0 -9 3.5 -13.5t14.5 -4.5q25 -1 50 0q11 0 17 4.5t9 16.5l14 81q4 16 14.5 25.5t25.5 9.5q57 2 113 0
q17 0 24 -9.5t4 -27.5zM367 693q-40 0 -34 41l17 94q5 21 16.5 31t33.5 10h98q18 -1 27 -10t6 -27q-7 -51 -18 -102q-4 -18 -16.5 -27.5t-31.5 -9.5q-49 -1 -98 0z" />
    <glyph glyph-name="Agrave" unicode="&#xc0;" horiz-adv-x="621" 
d="M412 326q13 0 16.5 3.5t3.5 16.5q-1 70 -1 141q0 21 -2 42q1 2 -1 4q-1 0 -1 1l-2 -2q-2 -1 -3 -3l-40 -108q-14 -39 -27 -78q-3 -11 -1.5 -14t12.5 -3q8 -1 16 -1q4 1 7 1v-1h20q1 0 3 1zM623 50q0 -12 -2 -24q-4 -12 -12 -19.5t-19 -7.5q-63 -1 -125 0q-13 0 -18.5 8
t-6.5 19q-1 31 -2 61v21v10v33q0 7 -4 10.5t-11 3.5h-121q-10 0 -14 -4t-8 -16q-8 -23 -18 -46q-11 -32 -23 -64q-7 -21 -18 -29t-32 -8h-102q-45 1 -28 46q35 89 70 179q67 169 133 339q33 82 65 165q19 49 39 99q2 8 6 16q13 28 43 28h137q22 0 31 -8t9 -30
q5 -130 10 -261q1 -6 0 -13l6 -128q7 -190 15 -380zM487 943q-8 9 -15 19q-40 52 -79 105q-11 15 -6 29t24 25q25 14 50 27q2 1 3 2q19 9 31.5 6t20.5 -21q9 -20 16 -40l6 -14q2 -8 6 -16q12 -31 25 -63q2 -7 4 -15q0 -4 2 -8q-3 -9 -8.5 -16.5t-12.5 -11.5q-16 -9 -31 -16
q-23 -10 -36 8z" />
    <glyph glyph-name="Aacute" unicode="&#xc1;" horiz-adv-x="618" 
d="M411 325q13 0 17 3.5t4 15.5l-2 180v12q-1 2 -3 3q0 1 -1 2q0 -1 -1 -2l-4 -4q-3 -6 -4 -12h-1q-12 -35 -24 -69q-10 -27 -19 -54q-4 -10 -7 -19l-14 -38q-3 -10 -1 -14t13 -4h47zM620 36q-1 -17 -11 -27t-27 -10q-19 -1 -38 -1h-68q-20 0 -28.5 8t-8.5 28q-1 39 -2 79
v21q0 15 -1.5 21.5t-8 8t-21.5 1.5h-102q-10 0 -14 -1t-7 -5.5t-5 -13.5q-12 -29 -23 -59q-8 -24 -16 -47l-8 -18q-6 -10 -14.5 -16t-19.5 -6h-1q-58 -1 -115 0q-16 0 -22.5 9t-2.5 25l12 34t13 34q2 4 3 7q95 245 191 489q34 85 67 170q5 12 9 24q10 23 18 45q7 17 18 25.5
t29 8.5q25 1 49 0h22v0v0h56q18 0 28 -3.5t14 -13t5 -26.5q3 -79 6 -159q1 -16 1 -32q5 -132 11 -263q6 -164 12 -327q1 -1 1 -2q0 -4 -1 -8zM478 949q-13 10 -14 22t12 28q50 68 102 135q25 34 56 14q21 -13 43 -27q7 -5 10.5 -11.5t3.5 -15.5q-2 -10 -7 -17t-12 -13
q-42 -37 -83 -75q-22 -19 -43 -39q-16 -16 -27.5 -17.5t-26.5 8.5z" />
    <glyph glyph-name="Acircumflex" unicode="&#xc2;" horiz-adv-x="627" 
d="M420 326q12 1 12 13v17v15q0 80 -1 159q0 3 -1 5v2q-1 0 -2 -1q-3 -2 -4 -5q-3 -5 -5 -12q-16 -42 -31 -85q-3 -6 -4 -11q-14 -39 -28 -79q-4 -10 -2.5 -14t12.5 -4q8 -1 17 0h37zM624 43q1 -20 -11 -32.5t-32 -12.5q-34 1 -68 0h-38q-19 0 -27.5 8t-7.5 27l-2 60
q1 15 1 30q-1 3 -1 7q1 9 0 17q0 11 -3 14.5t-13 3.5h-121q-15 0 -20 -15q-12 -37 -26 -74q-3 -7 -5 -13q-2 -5 -3 -9l-10 -28q-8 -15 -17 -21.5t-25 -6.5h-110q-41 1 -27 42q11 30 23 59q4 10 8 21q22 57 45 114q95 241 189 483q22 57 45 113q4 12 11 22t16 14t19 4h138
q22 1 30.5 -7t9.5 -30q4 -94 8 -189q-1 -6 0 -12q7 -147 11 -295q6 -123 11 -247v-10q1 -19 2 -37zM371 951q-3 3 -4 5q-6 6 -11 13q-4 8 -6 18q-1 4 -3 8l6 10q6 9 13 16q71 61 142 121q26 22 49 4q7 -5 13 -12l86 -104q5 -6 8 -13q12 -23 -9 -46q-12 -13 -27 -24
q-15 -12 -29.5 -12t-26.5 12q-14 17 -29 35q-5 8 -12 15q-2 2 -2 4l-8 8q-5 6 -8.5 6t-11.5 -7q-19 -15 -37 -31q-15 -13 -31 -26q-19 -16 -34 -16t-28 16z" />
    <glyph glyph-name="Atilde" unicode="&#xc3;" horiz-adv-x="624" 
d="M409 325q15 0 19.5 4t3.5 18q0 76 -1 151v33q-1 1 -2 1.5t-2 1.5q-1 0 -1.5 -0.5l-1 -1t-0.5 -1.5q-4 -7 -7 -14q-16 -46 -33 -91q-2 -7 -4 -13q-12 -35 -26 -71q-2 -9 -0.5 -12.5t10.5 -3.5q8 -1 17 0h8v0v-0.5v-0.5h20zM623 44q1 -23 -10 -34t-34 -12h-102
q-21 0 -29 7.5t-8 27.5q-1 29 -1 57q-1 18 -1 35v12q0 14 -1 20t-7.5 7t-20.5 1h-102q-13 0 -17.5 -3.5t-8.5 -15.5q-12 -30 -22 -59l-18 -50q-4 -10 -9 -20q-5 -8 -13 -13t-18 -6h-33q-44 0 -88 1q-16 0 -22.5 10t-0.5 28q5 16 12 31l4 12q31 76 60 152q54 138 109 276
q38 96 74 191q26 64 51 128q3 10 8 18q13 25 38 25h140q21 0 30 -7.5t9 -28.5q2 -55 5 -110q1 -22 1 -44q3 -62 5 -124q10 -238 19 -476q1 -18 1 -36zM319 920q-14 1 -21.5 10t-6.5 23q5 32 20.5 59t46.5 45q17 10 34.5 14t33.5 3q26 0 50.5 -6t48.5 -13q34 -11 68 -21
q12 -3 16.5 -1t13.5 14q7 9 15.5 14t19.5 6h38q17 -1 24.5 -11.5t4.5 -28.5q-9 -41 -32 -66.5t-53 -35t-62 -4.5q-19 4 -38.5 9t-38.5 10q-18 6 -36 11q-11 2 -21 5q-12 3 -23 6q-7 2 -12 -0.5t-8 -10.5q-8 -18 -19.5 -25t-31.5 -7h-6q-12 0 -25 1z" />
    <glyph glyph-name="Adieresis" unicode="&#xc4;" horiz-adv-x="619" 
d="M395 326q9 -1 19 0q9 0 13 3.5t4 13.5q1 15 1 30q-1 6 -1 13q1 14 0 28v111q-1 3 -3 6l-2 4l-2 -4q-3 -3 -5 -7q-29 -79 -57 -159q-3 -8 -5 -15q-2 -6 -4 -11q-5 -14 9 -13h33zM622 54q1 -10 -1 -21q-3 -18 -12 -26t-27 -9h-100q-18 0 -27 3t-12.5 12t-3.5 27
q-2 47 -2 95q0 15 -1 21t-7.5 7.5t-20.5 1.5h-95q-13 0 -19 -1t-9.5 -6.5t-7.5 -17.5q-14 -38 -27 -75q-3 -8 -5 -15q-2 -2 -2 -4l-1 -4q-7 -19 -13.5 -28.5t-17.5 -12.5t-29 -3h-96q-21 0 -28.5 10t0.5 31q12 37 28 74q3 8 7 17l180 462q22 54 42 108q7 16 13 33
q21 51 41 103q8 18 18.5 26t29.5 8h135q21 0 30 -7.5t9 -28.5q6 -152 12 -305q9 -237 19 -475zM411 929q-23 0 -37 10t-18.5 25.5t-0.5 30.5q1 17 11 33t27.5 26t40.5 11q31 -1 45.5 -19.5t9.5 -48.5t-26.5 -48.5t-51.5 -19.5zM583 928q-17 0 -31.5 9.5t-21 25.5t-3.5 33
q4 18 14.5 33.5t28 25.5t39.5 10q21 -1 34 -10.5t18 -25t1 -33.5q-6 -29 -28 -48t-51 -20z" />
    <glyph glyph-name="Aring" unicode="&#xc5;" horiz-adv-x="623" 
d="M413 326q12 0 16 3t3 15v28q0 8 -1 15v33v106l-2 6q-1 1 -1 2l-3 -3q-3 -3 -4 -6q-6 -12 -10 -24q-2 -6 -4 -13q-9 -24 -17 -48q-18 -46 -34 -93q-5 -14 -3 -18t17 -4h26q9 0 17 1zM623 56q-1 -3 0 -6v-15.5t-5 -15.5q-5 -9 -12 -14.5t-17 -5.5q-62 -1 -123 0
q-26 0 -27 30t0 60q-1 14 -1 28v14q-1 10 -1 21q0 13 -13 13h-123q-9 0 -13 -3.5t-8 -15.5q-14 -36 -26 -71q-5 -14 -10 -27q-1 -2 -1 -4l-1 -4q-10 -27 -22.5 -35t-35.5 -7q-30 1 -60 0h-35q-24 0 -31 9.5t0 32.5q9 27 19 52q4 8 7 16q55 141 111 282t110 282q20 50 39 99
q13 32 25 64q8 19 19 27t30 8h138q18 0 26.5 -8t8.5 -26q5 -109 9 -217q4 -83 7 -165l4 -112zM519 1051q-13 0 -25 -10.5t-16 -23.5q-2 -14 6 -24t23 -10q14 0 25.5 9.5t13.5 22.5q3 15 -5 25t-22 11zM495 912q-34 0 -54.5 15.5t-28.5 39t-4 47.5q5 31 24 55.5t45.5 38.5
t52.5 13q26 1 48.5 -11t33.5 -36t5 -58q-6 -31 -24 -54.5t-43 -36.5t-55 -13z" />
    <glyph glyph-name="AE" unicode="&#xc6;" horiz-adv-x="875" 
d="M414 326q11 0 14.5 3.5t3.5 14.5v132q0 27 -2 53q1 2 -1 4l-1 1q0 -1 -1 -2q-2 -1 -4 -3q-4 -7 -6 -14q-20 -53 -39 -106q-12 -32 -22 -63q-4 -13 -2 -16.5t15 -3.5q7 -1 14 -1q3 1 6 1q4 0 8 -1q9 0 17 1zM851 175q20 1 30 -3.5t12.5 -16t-0.5 -31.5q-6 -40 -14 -79
q-2 -13 -8 -25q-5 -10 -13.5 -15.5t-19.5 -6.5h-363q-19 0 -27 8.5t-9 27.5v72v11q-1 16 -1 32q1 16 -15 16h-121q-10 0 -13.5 -3t-7.5 -13q-19 -54 -39 -108v-2q-1 -2 -2 -5q-2 -5 -4 -9q-6 -14 -15 -20t-23 -6q-59 -1 -118 0q-16 0 -22 10.5t0 27.5q8 23 17 46q3 8 5 15
q95 240 189 480q24 62 49 125t49 127q3 6 5.5 11.5t5.5 10.5q9 10 20 14.5t22 3.5h569q13 -1 21 -7t7 -19q-8 -62 -22 -125q-4 -13 -14 -20t-24 -8q-6 -1 -13 -1h-332q-14 0 -14 -13q2 -28 2 -56q1 -2 1 -3q1 -39 3 -77q0 -11 2.5 -14t14.5 -2q28 -1 59 0h70q54 0 108 -1
q32 0 37 -25q1 -8 -1 -16l-6 -35q-6 -30 -11 -61q-3 -20 -16 -31.5t-33 -11.5q-65 1 -130 1h-70q-10 -1 -12.5 -3.5t-2.5 -12.5q1 -45 2 -89q1 -10 1 -19q1 -6 1 -13q0 -9 1 -17q0 -16 16 -15h83q67 0 134 -1z" />
    <glyph glyph-name="Ccedilla" unicode="&#xc7;" horiz-adv-x="511" 
d="M558 279l-4 -30q-5 -25 -9 -49.5t-10 -49.5q-6 -26 -17.5 -50t-29 -43.5t-44.5 -34.5q-17 -9 -34.5 -14.5t-34.5 -8.5h-3q-7 -1 -13 -3.5t-11 -11.5q-5 -10 -2 -17t10 -12q23 -23 31.5 -52.5t1.5 -64.5q-7 -48 -34.5 -78.5t-70.5 -47.5q-13 -5 -25.5 -8.5t-25.5 -6.5
t-26 -7q-5 -1 -9 -3q-2 -1 -5 -2h-17q-18 8 -23 23.5t1 36.5q2 8 4 17l3 14q7 31 39 37l8 2q18 3 36 8q14 5 17 12.5t-4 17.5q-4 5 -9.5 9t-11.5 7q-7 2 -13 4l-10 2q-16 6 -21 19t1 30q5 14 10 27q7 14 12 27q4 12 2 15.5t-13 4.5q-3 1 -7 1q-14 1 -27 4q-46 11 -70 42.5
t-23 79.5q1 27 6 54q4 32 10 64q40 227 81 454q6 35 22 69q21 43 54 67.5t78 32.5q23 4 46 4q66 1 131 0q23 0 44 -6t39 -18q25 -17 37 -43t11 -58q0 -26 -5 -52q-8 -51 -18 -102q-3 -20 -14 -29.5t-32 -9.5h-102q-17 0 -23.5 6.5t-6.5 23.5q0 12 2 24q1 15 4 30q4 17 6 35
q2 10 -0.5 15t-12.5 6q-31 2 -61 0q-7 -1 -12.5 -5.5t-6.5 -12.5q-3 -9 -4 -17l-79 -445q-3 -17 -1.5 -24.5t8.5 -10t23 -1.5q4 0 8 -1q14 0 29 1q13 0 18.5 4.5t7.5 17.5q4 15 5 30q3 17 7 35q3 14 9 28q4 12 13 18.5t21 6.5q56 2 112 0q16 0 23 -10t4 -27z" />
    <glyph glyph-name="Egrave" unicode="&#xc8;" horiz-adv-x="506" 
d="M486 175q21 1 30.5 -3.5t12.5 -15.5t-1 -31l-15 -87q-5 -21 -15.5 -30.5t-31.5 -9.5h-376q-22 0 -29.5 9.5t-3.5 31.5l140 795q4 17 14.5 26.5t26.5 9.5q194 1 385 0q17 0 24.5 -9.5t4.5 -26.5q-8 -53 -19 -106q-3 -17 -14 -26.5t-28 -10.5q-6 -1 -12 -1h-210
q-13 0 -17 -3.5t-7 -15.5l-21 -123q-2 -11 -1.5 -16t5 -6.5t16.5 -0.5h146q7 0 14 -1q14 -2 21 -10.5t5 -22.5q-8 -56 -20 -113q-3 -16 -15 -24.5t-30 -8.5h-146q-15 0 -22 -1.5t-9.5 -8t-5.5 -21.5l-20 -115q-2 -11 -1.5 -16t5.5 -6.5t16 -0.5q54 -1 108 0q48 0 96 -1z
M465 943q-45 60 -91 120q-12 17 -6.5 33t27.5 28q6 3 11 6q20 11 40 20q20 10 31.5 6.5t17.5 -21.5q28 -65 53 -131q4 -8 5 -16q1 -4 2 -7l-3 -6q-2 -6 -4 -10q-5 -8 -17.5 -16.5t-25.5 -13t-21 -2.5q-11 2 -19 10z" />
    <glyph glyph-name="Eacute" unicode="&#xc9;" horiz-adv-x="506" 
d="M529 138q-7 -52 -18 -104q-3 -16 -14.5 -26t-29.5 -10h-381q-19 0 -26 9t-4 29l141 799q4 17 14 25.5t27 9.5h381q38 0 33 -38q-1 -12 -3 -23l-13 -73q-5 -24 -18 -35t-37 -11h-208q-11 0 -16.5 -1t-7.5 -6t-4 -16l-22 -121q-2 -14 1 -18t18 -3q48 -1 98 0h48q7 0 13 -1
q16 -2 23 -11t5 -25q-8 -54 -19 -108q-4 -17 -15.5 -26t-28.5 -9h-158q-13 0 -17 -3.5t-6 -16.5q-12 -65 -23 -129q-3 -13 0.5 -17t16.5 -3q70 -1 139 0h62q9 0 18 -1q18 -1 26.5 -10t4.5 -27zM439 932q-15 3 -27.5 10t-19.5 20q-5 8 -2.5 17t9.5 18q14 20 29 39q6 8 11 15
q9 12 19 24q22 30 44 59q14 19 27.5 22.5t30.5 -7.5q22 -13 44 -28q13 -10 13 -23.5t-13 -27.5q-16 -16 -33 -31q-6 -5 -11 -10q-20 -18 -41 -37q-26 -24 -53 -48q-6 -6 -12.5 -9.5t-14.5 -2.5z" />
    <glyph glyph-name="Ecircumflex" unicode="&#xca;" horiz-adv-x="506" 
d="M505 175q15 -1 21.5 -9t3.5 -23q-8 -56 -20 -112q-2 -15 -12 -23.5t-26 -9.5h-389q-28 2 -27 30q0 7 2 15l137 781l4 14q3 13 13 22t24 10h391q14 -2 21 -10t5 -23q-8 -55 -19 -110q-4 -17 -14.5 -26t-27.5 -10q-6 -1 -12 -1h-198q-6 1 -12 0q-12 0 -15.5 -2.5
t-5.5 -13.5l-23 -132q-2 -11 0 -14.5t16 -2.5q47 -1 97 0h51q7 0 13 -1q17 -3 23 -13t4 -23q-7 -32 -12 -63l-7 -42q-7 -38 -45 -38h-156q-13 0 -16.5 -3.5t-6.5 -16.5l-22 -127q-2 -10 -1.5 -15t5 -6.5t15.5 -0.5q61 -1 121 0h75q13 0 25 -1zM334 937q-15 8 -25.5 20
t-13.5 29q-2 11 3.5 21t15.5 18q31 27 63 54q14 11 27 22q7 6 13 12q17 13 32 26q18 15 32.5 15t27.5 -15q48 -57 95 -115q12 -15 9.5 -29t-21.5 -30q-2 -3 -5 -5q-9 -9 -19 -15q-8 -5 -18 -9q-3 -1 -7 -3q-9 1 -14.5 4.5t-10.5 9.5l-48 58q-6 7 -9 9t-7 0t-11 -8
q-17 -15 -36 -31q-14 -12 -29 -25q-9 -7 -17.5 -11t-18.5 -3h-2q-4 0 -6 1z" />
    <glyph glyph-name="Edieresis" unicode="&#xcb;" horiz-adv-x="508" 
d="M528 126q-6 -28 -11 -56q-1 -16 -5 -31q-3 -23 -13.5 -32t-32.5 -9h-373q-23 0 -31.5 10t-4.5 33l139 785q4 24 16 34t35 10h371q22 0 30 -9t3 -31q-7 -49 -16 -97q-4 -22 -15.5 -32t-33.5 -10q-47 -1 -95 -1h-65q-28 1 -57 0q-11 0 -14.5 -2.5t-5.5 -13.5l-23 -132
q-2 -11 0 -14.5t15 -2.5q47 -1 96 0h43q4 -1 11 0q24 1 34 -11t5 -37q-6 -43 -15 -86q-1 -8 -5 -16q-7 -16 -16.5 -23t-26.5 -7h-154q-11 0 -16 -1t-6.5 -5.5t-3.5 -14.5l-22 -127q-3 -14 0 -18t17 -3h34q85 -1 171 0q27 1 37.5 -9.5t3.5 -40.5zM357 928q-18 0 -32 9.5
t-21 24.5t-5 33q6 29 27.5 48.5t53.5 21.5q18 1 31.5 -8.5t20 -25t3.5 -34.5q-3 -18 -15 -33.5t-28.5 -25t-34.5 -10.5zM530 929q-23 1 -36 11t-18 25.5t-1 32.5q4 19 15.5 34.5t28 24.5t35.5 8q30 -2 45 -21t10 -49q-3 -18 -15.5 -33t-29.5 -24.5t-34 -8.5z" />
    <glyph glyph-name="Igrave" unicode="&#xcc;" horiz-adv-x="293" 
d="M435 830l-137 -778q-2 -15 -8 -29q-10 -23 -34 -24q-61 -1 -121 0q-12 0 -18.5 8t-6.5 21q0 8 3 16l138 783q2 20 15.5 32t35.5 12q30 -2 60 -1h37q20 0 29 -9.5t7 -30.5zM351 935q-6 3 -9 7q-45 59 -90 119q-6 7 -9 17q-3 12 1.5 22.5t16.5 17.5q33 19 67 35
q30 14 42 -15q15 -37 30 -75q5 -13 10 -25q1 -3 2 -5q7 -17 14 -35q2 -7 3 -13q-1 -2 0 -3q-3 -15 -17.5 -28t-32 -19t-28.5 0z" />
    <glyph glyph-name="Iacute" unicode="&#xcd;" horiz-adv-x="321" 
d="M493 1121q16 -11 15.5 -25.5t-17.5 -29.5q-30 -27 -58 -53q-39 -35 -77 -70q-6 -5 -12.5 -8t-17.5 -3q-11 2 -22.5 8.5t-19.5 18.5q-6 9 -3 20t10 21q26 34 52 69q16 20 31 41q3 4 6 9l14 18q26 32 56 13q1 -2 3 -3q21 -12 40 -26zM240 47q-1 -9 -4 -18q-3 -14 -12.5 -22
t-23.5 -8q-59 -1 -118 0q-15 0 -21.5 8.5t-5.5 23.5l142 801q4 19 14 28.5t29 9.5q54 1 106 0q36 -1 32 -37q0 -7 -2 -14z" />
    <glyph glyph-name="Icircumflex" unicode="&#xce;" horiz-adv-x="375" 
d="M308 45q-1 -9 -3 -18q-5 -13 -14 -20.5t-22 -7.5q-59 -1 -118 0q-14 0 -20.5 8t-5.5 22q1 8 2 17l139 786q7 38 43 38q55 1 108 0q17 0 24.5 -9.5t5.5 -25.5q0 -6 -2 -12zM536 1022q6 -7 8 -17q3 -4 4 -8q-3 -5 -5 -9q-4 -8 -9 -14q-17 -16 -36 -31q-11 -8 -25 -7.5
t-22 9.5q-24 31 -51 60q-7 9 -11.5 8.5t-15.5 -9.5q-6 -5 -11 -9q-24 -20 -48 -41q-21 -19 -39.5 -18.5t-30.5 18.5l-6 8q-4 5 -8 9q-14 23 7 46l5 5q20 16 39 32q51 44 102 87q33 27 56 -1q50 -58 97 -118z" />
    <glyph glyph-name="Idieresis" unicode="&#xcf;" horiz-adv-x="360" 
d="M480 1066q19 -1 32 -10.5t19.5 -25.5t2.5 -35q-4 -18 -15.5 -33.5t-28 -24.5t-34.5 -8q-23 1 -36.5 11.5t-18.5 26t-1 31.5q4 18 16.5 33.5t29 24.5t34.5 10zM304 47q0 -8 -3 -16q-6 -17 -17 -25t-25 -8q-55 2 -110 0q-15 0 -23 9.5t-8 23.5l2 16l1 5l136 766q3 14 8 28
q10 23 34 24q60 1 117 0q13 -1 20.5 -9.5t7.5 -22.5q-1 -8 -3 -16zM361 997q-4 -19 -15.5 -34.5t-27.5 -24.5t-35 -9q-33 2 -47.5 21t-9.5 47q3 19 15 34t29 24.5t36 9.5q21 0 34.5 -10.5t19 -26t1.5 -31.5z" />
    <glyph glyph-name="Ntilde" unicode="&#xd1;" horiz-adv-x="535" 
d="M543 48q-1 -6 -3 -13q-8 -36 -44 -37h-100q-17 0 -25.5 6.5t-11.5 23.5q-15 84 -31 167q1 3 0 6q-12 65 -23 131q-1 1 -1 3q-1 4 -3 8q-1 3 -3 5l-2 2q0 -1 -2 -2q-1 -3 -2 -5q-2 -8 -3 -15v-4l-48 -273q-2 -13 -7 -27q-9 -25 -35 -25q-58 -1 -116 0q-16 0 -22.5 8.5
t-4.5 24.5l142 805q3 15 12.5 23.5t23.5 9.5q59 1 115 0q13 -1 19 -9t8 -20q3 -15 5 -30l12 -58q19 -111 40 -222q-1 -1 0 -3q0 -4 2 -8q0 -2 1 -3l2 -2q0 1 1 2q3 2 3 5q2 7 4 15l49 282q3 14 8 27q5 11 14 17.5t20 6.5q60 1 117 0q12 0 19 -7t8 -19q1 -13 -2 -26zM280 920
q-17 1 -25.5 11t-5.5 27q6 29 21.5 55t42 42.5t64.5 18.5q21 1 39 -2t37 -9q30 -8 60 -17q16 -5 31 -10q6 -1 14 -3q6 -1 11 1.5t9 8.5q8 13 20 19t26 5h29q18 -2 25.5 -12t4.5 -27q-5 -30 -21.5 -54t-45.5 -39t-71 -16q-6 1 -12 3q-21 3 -47 10q-32 8 -64 18q-14 4 -27 8
l-10 2q-9 2 -13.5 2t-8 -4t-9.5 -14q-13 -23 -37 -24q-18 -1 -37 0z" />
    <glyph glyph-name="Ograve" unicode="&#xd2;" horiz-adv-x="509" 
d="M468 944l-26 34q-31 42 -62 83q-6 6 -8.5 13.5t0.5 17.5q1 17 17 26q2 2 6 4q29 16 57 30q18 8 28.5 4t17.5 -20q13 -30 25 -60q4 -13 10 -26q3 -7 6 -15l14 -34q7 -18 1.5 -31t-26.5 -24q-1 -1 -3 -2q-7 -4 -15 -7q-26 -13 -42 7zM281 172q32 -1 63 0q10 1 15 5.5
t8 14.5q2 6 2 12l65 370q10 48 17 96q3 14 -1.5 19t-17.5 5q-14 1 -29 1h-12q-18 0 -26.5 -2t-11.5 -10t-6 -26l-82 -464q-1 -10 3 -15t13 -6zM630 689l-93 -529q-5 -28 -17 -53.5t-32 -48.5q-25 -29 -56.5 -43t-65.5 -16q-87 -3 -173 0q-38 2 -65 19.5t-40 47.5t-10 68
q4 43 11 85l82 467q4 21 10 42t17 42q20 41 52.5 64.5t76.5 31.5q13 2 26 3t26 1q63 1 124 0q41 0 76 -18q30 -17 43.5 -43.5t14.5 -61.5q-1 -15 -2.5 -29.5t-4.5 -28.5z" />
    <glyph glyph-name="Oacute" unicode="&#xd3;" horiz-adv-x="510" 
d="M367 192l83 470q1 8 2 17q0 7 -3.5 11t-10.5 4q-34 1 -69 0q-7 0 -11.5 -4.5t-6.5 -11.5q-3 -8 -4 -16l-81 -458q-1 -6 -1 -13q-1 -8 2.5 -13t11.5 -6q33 -1 67 1q9 0 13.5 5t7.5 14zM620 631q-38 -223 -79 -447q-6 -39 -22 -76q-14 -34 -37 -57.5t-52.5 -36.5t-61.5 -14
q-45 -3 -89 -3.5t-87 3.5q-57 4 -86.5 36t-29.5 91q2 25 6 50q17 99 35 198l11 60q6 36 11 72l36 196q6 33 20 64q20 42 53 66t77 33q25 4 50 4q65 1 129 0q24 0 45.5 -6t39.5 -18q28 -20 38.5 -48.5t6.5 -64.5q-4 -51 -14 -102zM449 932q-12 3 -23.5 9.5t-19.5 18.5
q-4 9 -2 18.5t9 19.5l54 72l50 66q13 17 26 20.5t28 -5.5q23 -14 45 -29q16 -12 15.5 -26t-17.5 -30q-29 -26 -58 -53q-12 -11 -25 -23l-16 -14q-18 -16 -35 -32q-6 -6 -13.5 -9t-17.5 -3z" />
    <glyph glyph-name="Ocircumflex" unicode="&#xd4;" 
d="M266 197q-3 -15 1 -20t18 -5q26 -1 52 0q14 0 20.5 6t10.5 19l81 462q2 11 2 21q0 6 -3.5 10t-10.5 4q-33 1 -69 0q-7 0 -11.5 -4.5t-5.5 -11.5zM632 707q-19 -102 -37 -204l-61 -345q-4 -28 -16 -53.5t-33 -48.5q-25 -28 -56 -41.5t-65 -15.5q-87 -3 -172 0
q-36 2 -61.5 17.5t-40 42t-14.5 61.5q0 25 4 50l93 530q4 20 10.5 39.5t16.5 38.5q18 32 44 53t60 30q32 8 65 9q40 1 79 0h48q34 0 65 -11q62 -23 73 -90q3 -30 -2 -62zM316 952l-2 2q-7 7 -12 16q-15 23 6 47q4 4 8 7l36 32l100 84q35 29 60 -1q47 -57 93 -114
q13 -15 10.5 -30t-20.5 -31q-3 -2 -6 -5q-8 -7 -17 -14q-8 -5 -18 -8q-3 -2 -7 -4q-10 1 -16.5 5t-11.5 10l-48 58q-5 6 -8 8t-7 0t-11 -8q-14 -12 -28 -25l-36 -30q-20 -16 -35.5 -16t-29.5 17z" />
    <glyph glyph-name="Otilde" unicode="&#xd5;" 
d="M305 171q12 1 20 0q16 -1 25 1.5t14.5 15t9.5 41.5q12 71 25 142l50 283q2 12 3 25q-1 15 -17 15q-31 1 -64 0q-8 0 -13 -3.5t-7 -10.5l-1 -5q-4 -12 -7 -24l-78 -440l-2 -16q-1 -13 4 -18t17 -5q11 -1 21 -1zM631 704l-95 -541q-6 -34 -22 -65q-18 -38 -48 -61t-69 -33
q-22 -5 -44 -5q-76 -2 -150 0q-33 0 -59.5 11.5t-45.5 36.5q-15 21 -19.5 46t-0.5 53q3 30 9 61l88 496q3 20 9.5 39t16.5 37q35 61 101 81q32 10 66 10h54q37 1 73 0q28 -1 54 -7q42 -11 62.5 -39t23.5 -70q1 -25 -4 -50zM280 919q-26 0 -34.5 10.5t-3.5 35.5q6 32 24 56.5
t44.5 38.5t59.5 14q26 0 50.5 -5.5t48.5 -12.5q12 -4 25 -8q24 -7 47 -14q12 -3 16.5 -1t13.5 14q6 9 15 14t20 6h39q15 -1 23 -11t5 -28q-6 -37 -28 -63t-53.5 -38t-66.5 -6q-38 9 -75 19q-19 6 -38 11q-15 3 -28 6l-18 4q-5 2 -9.5 0t-7.5 -9q-9 -19 -20 -26t-30 -7h-19z
" />
    <glyph glyph-name="Odieresis" unicode="&#xd6;" horiz-adv-x="510" 
d="M359 929q-32 1 -46.5 20.5t-9.5 48.5q3 18 15.5 34t30 25t34.5 8q31 -3 44.5 -21t11.5 -47q-9 -31 -29.5 -49.5t-50.5 -18.5zM339 172q13 0 19 5.5t10 18.5l84 479q1 10 -3.5 14.5t-15.5 4.5q-22 1 -45 1h-6q-18 0 -24.5 -5.5t-10.5 -24.5l-83 -470q-1 -12 3 -17.5
t16 -5.5q28 -1 56 0zM635 735q-3 -42 -11 -85q-41 -235 -83 -470q-4 -22 -10.5 -43.5t-17.5 -42.5q-25 -45 -62.5 -68.5t-84.5 -26.5q-87 -5 -172 0q-57 4 -87 36.5t-31 91.5q2 25 6 50q16 94 33 188l12 68q7 36 12 72l36 198q6 33 20 64q20 41 53 65.5t77 33.5q25 4 50 4
q65 1 129 0q24 0 45 -6t40 -18q28 -19 38.5 -47.5t7.5 -63.5zM533 929q-18 -1 -32 8.5t-20.5 25.5t-3.5 35q3 18 15 33t29 24.5t36 10.5q18 0 31.5 -9.5t19.5 -25t3 -34.5q-2 -16 -11.5 -31t-26.5 -25.5t-40 -11.5z" />
    <glyph glyph-name="multiply" unicode="&#xd7;" horiz-adv-x="624" 
d="M719 601q-3 -16 -9.5 -25.5t-15.5 -16.5q-67 -57 -133 -113q-3 -2 -5 -4q-11 -9 -14.5 -13.5t-1.5 -9t10 -12.5q1 -2 3 -4q24 -29 47 -58l42 -50l2 -2q4 -5 7 -10q9 -14 6.5 -29t-17.5 -29q-40 -35 -81 -69q-35 -28 -59 1q-32 37 -62 75q-17 21 -34 41l-10 12q-6 8 -10 8
t-13 -9l-34 -28q-53 -44 -105 -90q-23 -21 -42.5 -22.5t-38.5 22.5q-13 18 -27 34l-18 22q-14 17 -11 32.5t23 32.5q57 49 116 98q10 9 21 18q2 2 5 4l7 7q7 6 8 10t-4 10l-6 8l-3 3q-18 23 -37 46l-58 70q-15 18 -12.5 33t24.5 33q35 31 72 62q20 17 36 17t30 -17
q33 -40 66 -81l26 -30q3 -4 6 -9q8 -8 12 -11t8.5 -0.5t13.5 11.5q37 30 73 61q31 26 61 52q2 2 4 3l6 6q18 15 33 15t29 -15q19 -23 37 -46q5 -5 9 -10q2 -2 3 -4q5 -5 8 -11q4 -9 6 -16q0 -2 1 -3z" />
    <glyph glyph-name="Oslash" unicode="&#xd8;" horiz-adv-x="572" 
d="M346 200q-7 -14 -8.5 -20t4 -7.5t19.5 -1.5q16 0 23 6.5t10 22.5l18 100l-2 6q0 1 -1 2l-2 -2q-3 -3 -5 -6q-1 -1 -2 -3q0 -1 -1 -2q-10 -19 -21 -38q-16 -29 -32 -57zM372 576q0 1 1 3l46 82l2 4q8 15 10.5 21t-3 7.5t-20.5 0.5h-8q-12 0 -17 -4.5t-7 -16.5
q-5 -18 -8 -37l-3 -15l-8 -54q0 -2 1 -4q1 -1 1 -2q1 0 2 1q2 1 4 3q4 5 7 11zM707 847q-16 -29 -32 -57q-3 -5 -5 -10q-9 -15 -9 -31q0 -29 -5 -58q-45 -260 -92 -520q-6 -35 -22 -69q-20 -44 -58 -71t-94 -32q-24 -2 -47 -1q-11 1 -22 1v-1h-70q-9 1 -15 -2.5t-11 -11.5
q-7 -15 -19.5 -21t-27.5 -6h-25q-36 -1 -73 0q-23 0 -30 13.5t4 36.5q17 33 36 65q3 6 7 13q7 12 7 26q-2 19 -0.5 38.5t5.5 39.5l89 504q4 21 10.5 41.5t16.5 39.5q18 34 45.5 56t64.5 31q16 4 32 6t32 3q58 1 114 0h3q9 0 15.5 3t12.5 13q9 14 21.5 20t27.5 6h89
q12 0 21 -4t14 -11.5t2 -18.5q-4 -16 -12 -31z" />
    <glyph glyph-name="Ugrave" unicode="&#xd9;" horiz-adv-x="509" 
d="M540 178q-6 -34 -19 -66q-21 -52 -63 -81t-92 -32q-87 -5 -172 0q-37 3 -63.5 18t-40.5 43.5t-13 70.5q1 26 5 52l112 634q1 6 3 13q5 19 17.5 29.5t31.5 10.5q48 1 95 0q41 0 39 -41q0 -9 -3 -17l-106 -601q-3 -18 -2.5 -25t7.5 -9t24 -1q5 0 10 -1q15 0 30 1
q11 0 16.5 5t7.5 16q2 6 2 13l106 603q4 22 11.5 34.5t20.5 17.5t35 5h74q13 1 22.5 -3t15 -14t3.5 -28zM347 1061q-6 7 -8 17q-4 12 0.5 22.5t16.5 17.5q33 19 67 35q28 13 40 -11q7 -14 12 -29q2 -5 4 -9q3 -6 5 -12l36 -90q2 -9 4 -17q0 -4 1 -7q-1 -3 -3 -6q-2 -6 -5 -9
q-24 -25 -56 -31q-8 -1 -14 2t-10 8q-44 59 -90 119z" />
    <glyph glyph-name="Uacute" unicode="&#xda;" 
d="M443 932q-15 3 -27.5 10t-18.5 21q-5 9 -1.5 18.5t9.5 18.5q36 47 71 93l10 14q12 15 22 30q13 16 26 19.5t28 -5.5q24 -14 47 -30q13 -10 13 -24t-15 -28q-15 -16 -32 -31q-5 -4 -11 -9q-22 -21 -46 -43l-48 -42q-6 -6 -12.5 -9t-14.5 -3zM653 834q0 -8 -2 -16
l-114 -647q-5 -30 -16 -58q-21 -50 -62.5 -80.5t-93.5 -33.5q-44 -2 -86.5 -2t-84.5 2q-62 5 -92.5 42t-24.5 101q2 21 6 41l115 648q4 17 15.5 27.5t28.5 11.5q53 1 104 0q17 -1 25.5 -11t7.5 -27q-1 -9 -3 -18l-106 -601q-4 -18 -3 -26t8.5 -10t25.5 -1q4 0 9 -1
q14 0 28 1q12 0 17.5 5t8.5 16l4 18l109 617q4 17 15 27t28 11q52 1 102 0q15 -1 23.5 -11t7.5 -25z" />
    <glyph glyph-name="Ucircumflex" unicode="&#xdb;" horiz-adv-x="508" 
d="M315 950q-9 10 -16 21q-8 14 -5 26t17 24q31 26 61 52l26 22q7 6 15 13l38 32q33 28 56 0q48 -56 96 -114q5 -6 8 -13t1 -15q-2 -14 -13.5 -28t-27 -24t-27.5 -11q-10 0 -17 3.5t-12 10.5q-24 29 -48 57q-6 9 -10 9t-15 -9l-30 -26q-18 -15 -35 -29q-18 -16 -33 -16
t-29 15zM652 830q0 -5 -1 -9l-117 -662q-4 -21 -11.5 -42t-20.5 -40q-27 -38 -62 -57t-76 -21q-44 -2 -86 -2t-83 2q-64 5 -95 43t-23 105q4 28 8.5 55t10.5 55l102 575q4 17 15 27t28 11q54 1 106 0q15 -1 23.5 -10.5t7.5 -25.5q0 -11 -3 -22l-105 -598q-4 -19 -3 -27
t9 -10t26 -1q5 0 10 -1q14 0 28 1q9 0 14 4t9 13q3 12 5 24l108 613q5 18 16.5 28.5t29.5 11.5q50 1 98 0q17 -1 25.5 -12t6.5 -28z" />
    <glyph glyph-name="Udieresis" unicode="&#xdc;" horiz-adv-x="506" 
d="M533 154q-7 -43 -33 -80q-26 -36 -60 -54.5t-74 -20.5q-44 -2 -87 -2t-85 2q-56 4 -87 36t-31 91q0 24 5 48l116 658q4 15 16 26t28 12q54 1 106 0q30 -1 32 -31q0 -17 -3 -35l-105 -593q-3 -17 -2.5 -24.5t7.5 -9.5t24 -1q4 0 8 -1q13 0 25 1q16 0 22.5 5.5t9.5 21.5
l110 625q4 19 17 30.5t32 11.5q47 1 92 0q43 0 36 -44zM356 929q-22 1 -35 11t-18 25t-2 31q3 19 15.5 35t29.5 25.5t35 8.5q19 0 32 -9.5t19.5 -25t3.5 -34.5q-5 -18 -17 -34t-28.5 -25t-34.5 -8zM531 928q-29 1 -44.5 19.5t-12.5 47.5q2 17 12.5 32.5t28 26t39.5 11.5
q18 1 31.5 -8.5t20.5 -25.5t4 -34t-15.5 -33.5t-29 -25t-34.5 -10.5z" />
    <glyph glyph-name="germandbls" unicode="&#xdf;" horiz-adv-x="664" 
d="M699 215q-1 -2 -3 -4q-2 -3 -4 -7q-20 -54 -57 -92.5t-90 -64.5q-47 -23 -95 -34.5t-97 -13.5q-6 0 -12 -1q-9 -1 -16.5 -1t-14.5 2q-17 6 -25.5 18.5t-4.5 31.5q5 37 13 75q4 22 19 35.5t38 17.5q23 3 45.5 6.5t44.5 9.5q14 3 26.5 8t25.5 12q14 6 22.5 17t10.5 27
q0 6 2 13l2 14q3 27 -5.5 40t-32.5 21q-22 7 -42 16q-29 14 -45.5 37t-16.5 57q-1 45 16 85.5t56 73.5q11 9 21 17q6 6 13 11q10 8 10 12t-10 7q-24 7 -50 11q-37 7 -76 11q-10 1 -13.5 -1.5t-5.5 -14.5l-106 -599q-1 -11 -3 -16t-7 -6t-16 0h-139q-9 0 -13 1t-4 4.5t1 12.5
l139 784q0 11 4.5 15t21.5 5q75 5 148 0q74 -4 145 -18q29 -5 56 -14.5t51 -24.5q45 -28 59.5 -72.5t-2.5 -102.5q-20 -65 -74 -113q-9 -8 -9 -11.5t9 -8.5q3 -2 7 -4q48 -23 71 -63.5t24 -95.5q1 -7 0 -14v-15q0 -5 1 -9l2 -4z" />
    <glyph glyph-name="agrave" unicode="&#xe0;" horiz-adv-x="626" 
d="M407 304q12 0 15.5 3.5t2.5 15.5q-1 32 -3 63q0 4 -1 8q-1 31 -4 62q1 2 -1 4l-2 2q-1 -1 -1 -2q-2 -1 -3 -3q-2 -3 -4 -7v-1q-3 -7 -6 -15q-18 -45 -37 -90q-6 -14 -10 -29q-4 -10 6 -11h25v0v0v0h23zM624 37q-1 -17 -11 -27.5t-28 -11.5q-3 -1 -5 -1h-65q-18 0 -34 1
q-15 0 -22.5 6.5t-9.5 20.5q-3 34 -5 67l-2 28q-1 11 -2.5 16t-6.5 6t-17 1h-118q-14 1 -19 -2.5t-10 -17.5q-10 -22 -19 -44t-19 -45q-9 -21 -20.5 -29t-32.5 -8h-86q-28 0 -35 12.5t5 39.5q29 71 60 142q20 49 42 98q57 136 115 272q34 82 70 164q2 7 6 14q7 14 16 20
t23 7h142q20 0 28 -7.5t10 -27.5q13 -184 26 -369q6 -79 12 -159q2 -37 6 -74q2 -37 5 -74v-3q1 -8 1 -15zM346 949v1q-4 4 -6 9q-6 14 -1.5 26.5t20.5 21.5q28 16 58 30q17 9 29 6t20 -19q13 -35 27 -70q5 -13 11 -26q1 -3 2 -7q8 -18 15 -36q12 -32 -23 -51
q-12 -7 -26 -12q-7 -3 -13 -6q-5 2 -8 4q-5 2 -8.5 4.5t-7.5 5.5q-35 46 -68 92q-10 13 -21 27z" />
    <glyph glyph-name="aacute" unicode="&#xe1;" horiz-adv-x="630" 
d="M403 304q11 0 16 1t6.5 6t0.5 16q-1 7 -1 14q0 9 -1 18v9q-3 42 -5 84q-1 2 -2 3t-1 2q-2 1 -3 2q0 -1 -1 -2q-3 -2 -3 -5q-12 -27 -23 -54q-3 -8 -7 -16q-12 -28 -23 -57q-5 -13 -2.5 -17t16.5 -4h33zM623 51q3 -30 -11 -42.5t-40 -11.5t-52 1q-16 -1 -31 -1
q-21 0 -29.5 7.5t-9.5 27.5q-2 28 -5 56q-1 17 -3 35q-1 14 -4.5 17.5t-17.5 2.5h-123q-13 0 -18 -3.5t-10 -16.5q-19 -45 -38 -89q-7 -19 -19.5 -28t-32.5 -9q-25 1 -52 1q-20 -1 -38 0q-48 0 -28 46q101 241 204 481q43 103 87 205q8 21 19.5 28.5t31.5 7.5h129
q16 0 25 -3t12.5 -11.5t4.5 -24.5l14 -178l2 -34q2 -24 4 -47q7 -108 15 -215q2 -35 4 -69q5 -67 10 -133zM491 819q-10 3 -22 10t-19 20q-5 9 -1.5 18.5t10.5 18.5q14 19 29 38l8 12q31 41 61 81q7 8 14 15q20 19 40 8q27 -16 53 -33q13 -10 12.5 -24t-14.5 -28
q-9 -9 -20 -18q-5 -5 -10 -9q-12 -12 -25 -23q-41 -36 -80 -73q-8 -7 -15.5 -10.5t-20.5 -2.5z" />
    <glyph glyph-name="acircumflex" unicode="&#xe2;" horiz-adv-x="619" 
d="M408 304q12 0 15.5 4t2.5 15q-1 32 -3 63l-2 28q-1 6 -1 13q0 15 -2 29q0 2 -1 4q0 1 -1 2q-1 -1 -1 -2q-3 -2 -5 -4l-6 -14l-28 -68q-4 -10 -8 -21l-10 -24t-6 -17t4 -6.5t17 -1.5h35zM623 56q0 -1 1 -2q1 -11 0 -22q-2 -14 -11.5 -23.5t-23.5 -10.5q-57 -1 -112 0
q-13 0 -19.5 7.5t-7.5 18.5q-2 21 -3 42q-2 10 -2 21q0 7 -1 15q-2 13 -2 27q-1 14 -16 14h-133q-10 0 -14 -3t-9 -14l-24 -58q-6 -14 -12 -29l-2 -4l-6 -14q-5 -10 -13.5 -16.5t-19.5 -6.5q-58 -1 -114 0q-14 1 -20 10t-3 23q3 10 8 20v2q46 107 91 215q22 52 45 104
l74 176t74 175l1 2q3 5 5 10q8 18 18 24.5t28 6.5h137q19 0 27.5 -7.5t9.5 -25.5q6 -79 12 -157q1 -18 2 -37q18 -241 35 -483zM352 835q-10 11 -17 23q-3 7 -5 15q0 4 -2 8q3 4 5 9q3 4 5 8t6 7q73 64 147 126q13 10 25.5 10t21.5 -9q2 -2 3 -4h1l22 -26q34 -41 69 -82
q5 -6 10 -14q8 -14 5.5 -26.5t-16.5 -25.5q-11 -11 -24 -21q-33 -24 -56 2q-16 18 -30 36q-8 9 -15 18q-7 8 -10.5 11t-8 0.5t-13.5 -10.5q-13 -11 -25 -21q-19 -16 -37 -32q-36 -30 -61 -2z" />
    <glyph glyph-name="atilde" unicode="&#xe3;" horiz-adv-x="623" 
d="M301 806q-34 3 -29 38q3 31 21.5 57.5t50 43t77.5 16.5q19 -1 43 -7.5t50 -14.5q31 -11 62 -19q11 -2 15 0t11 13q12 20 34 20h7q16 1 33 0q16 -1 24 -11t7 -26q-6 -35 -29.5 -63t-57.5 -40q-33 -12 -64 -5q-35 8 -70 17l-22 6q-12 3 -23 6q-20 6 -41 11q-9 3 -12.5 1
t-8.5 -13q-8 -16 -19 -23t-28 -7h-31zM414 304q9 1 10 10q1 6 0 12q-2 58 -6 117q0 6 -2 12q0 1 -1 3q-1 0 -1 1l-2 -2q-3 -1 -4 -3q-3 -5 -5 -10q-19 -45 -36 -89q-8 -18 -15 -37q-2 -6 0 -9.5t9 -4.5h53zM621 66v-2q1 -16 1 -32q-2 -15 -11 -23.5t-24 -10.5q-6 -1 -11 -1
h-26q-34 0 -67 1q-18 -1 -25.5 5.5t-8.5 23.5q-3 24 -5 48l-2 34q-1 6 -1 10q-1 12 -2.5 17t-7 6t-18.5 1h-116q-10 0 -15 -1t-8 -5.5t-6 -14.5q-7 -14 -12 -28q-14 -31 -26 -61q-9 -21 -20.5 -28.5t-32.5 -7.5q-45 0 -90 1q-46 1 -28 45q48 113 95 226q33 78 67 156
q36 87 74 174q26 63 53 127q1 2 2 5q1 1 1 3q9 18 19.5 25t28.5 7h133q23 0 31.5 -7.5t9.5 -30.5q5 -60 9 -121l4 -46q4 -53 7 -106q14 -195 28 -389z" />
    <glyph glyph-name="adieresis" unicode="&#xe4;" horiz-adv-x="626" 
d="M392 815q-19 0 -32.5 9t-21 24.5t-3.5 33.5q3 19 15 35t29 25.5t36 9.5q18 0 31.5 -9.5t20 -25t3.5 -33.5q-5 -27 -26 -46.5t-52 -22.5zM409 304q11 0 14 3.5t2 14.5q-1 39 -4 78q-1 14 -1 29q-1 3 -1 6q0 11 -1 22q0 2 -2 4l-1 1l-1 -1q-2 -1 -3 -3q-3 -5 -5 -10
l-42 -102q-3 -7 -5 -13q-4 -8 -6 -16q-5 -13 8 -13h25v0v0v0h23zM624 37q-1 -17 -11 -27.5t-28 -11.5q-20 -1 -37 0h-17l-0.5 -0.5l-0.5 -0.5h-15q-16 0 -32 1q-17 0 -24.5 6.5t-9.5 22.5q-3 31 -5 63q0 15 -2 30q-1 11 -2.5 16t-6.5 6t-17 1h-118q-10 0 -15 -1t-8 -5.5
t-6 -14.5q-2 -2 -2 -3q-19 -45 -39 -90q-7 -17 -17 -24t-28 -7q-46 -1 -92 -1q-26 1 -33.5 13t3.5 38q42 99 85 199q8 22 18 45q74 172 147 345q19 43 36 86q2 1 2 2l4 10q8 17 18 24t28 7h139q18 0 26 -6.5t9 -24.5q5 -58 9 -116q0 -6 1 -11q16 -213 30 -425l10 -128
q-1 -2 0 -3q1 -8 1 -15zM565 815q-19 0 -32.5 9t-20 24t-2.5 34q3 20 15 35.5t28.5 25t35.5 9.5q18 0 31.5 -9.5t20 -25t3.5 -34.5q-3 -18 -15.5 -33.5t-29 -25t-34.5 -9.5z" />
    <glyph glyph-name="aring" unicode="&#xe5;" horiz-adv-x="621" 
d="M497 938q-13 -1 -25 -11.5t-15 -24.5q-2 -13 6.5 -22.5t23.5 -10.5q14 1 26 11t14 24t-7 24t-23 10zM475 798q-31 1 -52.5 15t-31 38t-4.5 53q7 29 25.5 53t44.5 38t55 13q26 1 47 -12t32 -37t6 -56q-4 -23 -19.5 -47t-41.5 -40.5t-61 -17.5zM410 304q10 0 13 3.5t3 13.5
q-4 50 -6 101q0 13 -1 26q0 3 -1 6q-2 2 -3 4q-1 0 -2 1l-1 -1q-2 -2 -3 -4q-3 -5 -6 -11q-18 -46 -37 -92q-4 -9 -7 -17q0 -2 -2 -3l-4 -14q-4 -11 7 -12q10 -1 19 -1h31zM622 60q1 0 0 -1q2 -14 0 -28t-11 -23t-24 -10q-57 -1 -112 0q-13 1 -19 8.5t-7 18.5q-2 26 -4 51
q0 7 -1 14t-1 15q-1 11 -2 21q-1 11 -4 14t-15 3h-122q-11 0 -16.5 -1t-8.5 -5.5t-8 -15.5q-9 -22 -19 -45q-8 -19 -15 -37q0 -1 -1 -2l-8 -16q-12 -23 -35 -23h-8q-51 -1 -100 0q-17 1 -23.5 11t-1.5 27l6 14q0 2 2 4q37 89 75 177l140 330q15 37 32 75q21 48 41 96
q7 19 18 26.5t30 7.5h133q23 0 31 -7.5t9 -30.5q9 -101 16 -202q17 -233 33 -466z" />
    <glyph glyph-name="ae" unicode="&#xe6;" horiz-adv-x="782" 
d="M413 304q12 -1 13 13v12q-4 58 -6 117q0 5 -2 9q-1 2 -2 3t-2 1l-1 -1l-3 -3l-6 -12q-9 -24 -19 -47l-18 -46q-2 -6 -5 -11q-4 -10 -8 -19q-3 -8 -1 -11.5t10 -4.5h50zM782 174q10 -3 15.5 -9.5t4.5 -17.5q-10 -60 -21 -119q-3 -13 -12 -20.5t-22 -9.5q-7 -1 -14 -1h-75
q-83 1 -168 0q-22 0 -31 8t-10 30q-2 22 -3 45l-4 44q-1 13 -4.5 16t-15.5 3h-125q-13 0 -18 -3t-9 -16q-13 -29 -25 -58q-6 -15 -12 -29l-6 -12q-7 -14 -16.5 -20.5t-24.5 -6.5q-21 -1 -40 0q-29 0 -59 -1q-20 0 -28 12.5t1 33.5q47 110 93 219l38 88q77 185 156 370
q8 20 15.5 30t19 13t33.5 3h464q15 -1 21.5 -9t4.5 -23q-8 -56 -19 -112q-3 -17 -13.5 -25t-28.5 -8h-230q-14 0 -20 -1t-7.5 -7t0.5 -19q0 -4 1 -8q0 -14 2 -29q1 -15 1 -29q1 -1 1 -2q1 -14 2.5 -20t6.5 -7t17 -1h138q22 0 31 -10t5 -31q-5 -36 -13 -71l-3 -21
q-2 -7 -5 -14q-6 -16 -15.5 -23t-25.5 -7h-94q-15 0 -21 -1.5t-7 -7.5t1 -20q0 -11 1 -22q2 -22 3 -45q1 -12 4.5 -15.5t17.5 -2.5h130q9 0 17 -1z" />
    <glyph glyph-name="ccedilla" unicode="&#xe7;" horiz-adv-x="508" 
d="M556 281q-3 -17 -6 -35q-4 -26 -9 -53l-10 -54q-14 -53 -50.5 -89t-92.5 -48q-10 -2 -19 -3t-19 -2q-9 -2 -11 -6.5t3 -10.5q11 -11 18.5 -23.5t10.5 -27.5q11 -46 -12 -92q-15 -31 -46 -48q-49 -29 -103 -33q-43 -2 -37 41q2 16 8 33q5 16 15 24t26 11q3 1 8 2
q10 1 19 4q11 4 12.5 10t-5.5 13q-6 4 -13 7l-8 2l-6 2q-17 5 -21.5 14t-0.5 27q4 12 9 23v4q5 11 6 16t-3.5 6.5t-14.5 2.5q-13 1 -24.5 3t-23.5 6q-40 12 -60 40.5t-20 70.5q-1 25 4 50l75 428q4 25 13 48t23 45q27 37 63 55.5t77 20.5q83 4 164 0q41 -2 70 -19t43 -54
q13 -33 7 -71q-11 -69 -24 -137q-3 -19 -13 -27.5t-28 -9.5h-98q-18 1 -25 9.5t-4 27.5l6 40l6 31l2 18q-1 8 -4.5 12t-11.5 4h-14q-29 1 -59 0q-8 0 -13 -4t-6 -13q-2 -6 -3 -13l-63 -356l-2 -14q0 -9 3 -13.5t11 -4.5q37 -1 74 0q14 1 19 14q3 10 5 21l6 30q3 22 9 45
q6 35 40 35q50 1 100 0q34 0 28 -35z" />
    <glyph glyph-name="egrave" unicode="&#xe8;" horiz-adv-x="506" 
d="M501 175q17 -1 24.5 -9t4.5 -24q-8 -55 -19 -110q-4 -16 -14.5 -24.5t-26.5 -9.5q-7 -1 -14 -1h-362q-7 0 -13 1q-28 3 -25 31q1 8 2 15l119 675q1 8 3 15q7 28 36 32h389q16 -1 23.5 -9.5t5.5 -24.5q-8 -55 -19 -110q-3 -17 -14 -25t-29 -8h-206q-15 0 -22 -1.5
t-9.5 -7.5t-3.5 -21l-11 -62q-4 -15 -3.5 -21.5t6.5 -8t20 -1.5h146q17 0 24.5 -8.5t5.5 -25.5q-1 -12 -3 -24l-14 -78q-5 -21 -16.5 -31t-33.5 -10h-156q-13 -1 -16 -14l-15 -87q-2 -13 11 -13h225zM329 948q-1 1 0 2q-3 3 -5 6q-8 14 -3.5 27t19.5 23q30 17 62 32
q17 8 27.5 5t17.5 -18q12 -28 23 -56q4 -11 9 -21l6 -14q9 -22 17 -44q3 -8 3 -17l2 -8q-5 -19 -21 -28q-3 -2 -6 -3q-4 -3 -10 -6q-22 -11 -33 -9t-23 18q-30 40 -60 79q-13 16 -25 32z" />
    <glyph glyph-name="eacute" unicode="&#xe9;" horiz-adv-x="506" 
d="M499 175q21 -1 28 -9.5t3 -29.5l-18 -100q-3 -20 -14.5 -29.5t-31.5 -8.5q-187 -1 -372 0q-24 -1 -32.5 10t-3.5 35l120 685q9 37 47 38h381q17 -1 24 -9.5t4 -25.5q-9 -54 -18 -109q-4 -17 -14 -25t-28 -8h-220q-9 -1 -13 -4t-6 -11l-16 -92q-2 -9 1 -12t13 -4h75
q41 -1 81 1q19 0 27 -10.5t6 -26.5q-7 -52 -19 -104q-4 -18 -15.5 -27.5t-29.5 -9.5h-152q-14 0 -18 -3.5t-7 -16.5l-13 -75q-2 -13 1 -16.5t16 -2.5q46 -1 93 0h121zM420 819q-11 3 -22.5 9t-19.5 18q-8 14 3 31q6 11 13 21l94 124q13 17 26 20.5t29 -5.5q22 -14 45 -29
q16 -11 15.5 -25.5t-18.5 -29.5q-38 -36 -77 -71q-29 -26 -56 -51q-7 -6 -14.5 -9t-17.5 -3z" />
    <glyph glyph-name="ecircumflex" unicode="&#xea;" 
d="M498 175q17 1 25.5 -8.5t5.5 -28.5q-1 -14 -4 -28l-11 -64q-5 -27 -17.5 -38t-39.5 -11h-362q-8 0 -14 1q-28 3 -25 31q1 8 2 15l119 675q1 8 4 16q6 27 35 31h387q17 -1 25 -9.5t6 -24.5q-7 -54 -19 -109q-4 -18 -15 -26t-30 -8h-213q-14 0 -19 -4t-6 -18
q-8 -40 -14 -79q-3 -14 0 -18t17 -4h155q34 -1 29 -34q-8 -53 -19 -107q-7 -35 -45 -36h-140q-16 0 -23.5 -1.5t-10 -8t-4.5 -21.5l-4 -24q-4 -20 -7 -39q-2 -13 1 -17t17 -3h186q14 -1 28 0zM302 837q-9 11 -17 23q-13 24 12 45q72 63 144 124q31 24 52 0q51 -60 100 -122
q3 -3 4.5 -7.5t2.5 -8.5q0 -4 2 -8q-3 -4 -4 -8q-3 -9 -8 -14l-20 -18t-21 -16t-23.5 -5t-21.5 12l-30 36q-5 7 -12 15q-1 1 -2 3q-3 3 -5 6q-7 8 -11 8t-12 -8q-18 -14 -34 -29q-17 -14 -32 -27q-20 -16 -35 -16.5t-29 15.5z" />
    <glyph glyph-name="edieresis" unicode="&#xeb;" horiz-adv-x="508" 
d="M361 589q-10 0 -15.5 -1.5t-7.5 -6t-4 -15.5l-13 -73q-2 -13 -1.5 -18.5t5.5 -7t18 -1.5h154q22 -2 24 -24q0 -14 -1 -28l-13 -73q-3 -10 -6 -19q-6 -18 -16.5 -25.5t-28.5 -7.5h-142q-14 0 -20.5 -1.5t-9 -7.5t-4.5 -20l-3 -17q-5 -26 -8 -52q-3 -10 0 -13t12 -3
q10 -1 19 0h193q8 0 15 -1q13 -1 19 -8.5t4 -19.5q-10 -60 -21 -119q-2 -12 -11 -19.5t-21 -9.5q-9 -1 -18 -1h-365q-8 0 -15 1q-12 2 -18.5 10.5t-5.5 20.5q0 7 2 14l119 676q1 7 3 13q4 14 14 23t23 11h379q22 2 32.5 -8.5t4.5 -35.5q-6 -31 -11 -62l-7 -40
q-8 -30 -38 -31h-216zM337 815q-21 1 -35.5 11t-19.5 25.5t-1 32.5q3 18 15 33.5t28.5 25t35.5 9.5q18 0 31.5 -9t20 -24.5t3.5 -34.5t-14.5 -34.5t-28 -25t-35.5 -9.5zM510 816q-29 0 -45 17.5t-11 48.5q5 30 26 48.5t54 21.5q28 -3 43.5 -20t11.5 -48q-5 -29 -26.5 -48
t-52.5 -20z" />
    <glyph glyph-name="igrave" unicode="&#xec;" horiz-adv-x="264" 
d="M387 731l-123 -695q-9 -38 -46 -38q-52 -1 -102 0q-22 0 -30 10t-5 32l122 689q9 36 45 37q53 1 106 0q35 -1 33 -35zM311 845q-10 16 -22 31.5t-24 30.5q-12 14 -23 29q-1 1 -2 3q-9 10 -14 21q-13 27 16 45q32 19 65 34q31 15 43 -12q11 -25 20 -51q4 -8 7 -16l2 -4
q13 -35 27 -70l4 -14q1 -4 1 -8q-1 -3 -4 -7l-10 -14q-4 -3 -7.5 -5.5t-6.5 -3.5q-16 -9 -28 -13t-22 1t-22 23z" />
    <glyph glyph-name="iacute" unicode="&#xed;" horiz-adv-x="317" 
d="M478 1005q6 -5 9 -11.5t2 -16.5q-2 -3 -4 -7q-4 -8 -10 -14q-36 -34 -73 -67q-11 -10 -22 -19q-7 -7 -14 -13q-15 -13 -29 -27q-8 -8 -17.5 -11t-17.5 1q-11 4 -19.5 10.5t-16.5 13.5q-7 6 -6 14t5 17q6 11 14 21l78 104l16 20q0 1 1 2q3 3 5 7q10 11 21 14t23 -3
q23 -14 45 -29q6 -3 10 -6zM325 766q23 0 31 -9.5t3 -32.5q-60 -342 -121 -685q-3 -23 -14.5 -32.5t-34.5 -9.5q-50 0 -99 1q-22 -1 -29.5 8.5t-3.5 31.5l61 346l5.5 32t14 79t16.5 94t13.5 79t6.5 34l3 17q3 19 9 29t16.5 14t29.5 4h93z" />
    <glyph glyph-name="icircumflex" unicode="&#xee;" horiz-adv-x="375" 
d="M303 29q-3 -14 -12.5 -22t-23.5 -9q-17 -1 -33 -1h-25q-28 0 -54 1q-36 0 -32 37q0 7 3 14l117 666q1 9 3 18q5 16 15 24t25 9q57 1 113 0q34 -1 27 -38zM513 910q13 -15 10.5 -28.5t-21.5 -29.5q-9 -9 -19 -17q-34 -27 -57 0l-26 32q-11 13 -21 25q-4 7 -7.5 9t-7 0
t-11.5 -8q-16 -13 -31 -27q-14 -12 -28 -23l-2 -2q-8 -7 -16 -12q-10 -5 -20 -7q-13 0 -25.5 9t-20 23t-4.5 28q0 8 4.5 15t11.5 13q16 14 32 27q53 46 107 91q17 14 31 13.5t25 -14.5q49 -58 96 -117z" />
    <glyph glyph-name="idieresis" unicode="&#xef;" horiz-adv-x="360" 
d="M305 52q-2 -17 -8 -30t-19.5 -19.5t-37.5 -5.5q-26 1 -52 1q-14 -1 -27 -1q-29 0 -38 10.5t-3 39.5l121 682q4 18 15 27t28 10q55 1 110 0q16 -1 23.5 -9.5t6.5 -24.5q0 -7 -2 -15zM460 952q18 0 31.5 -9.5t19.5 -25t3 -34.5q-3 -18 -15 -34t-28.5 -25t-35.5 -9
q-22 1 -35 11.5t-18.5 26.5t-2.5 32q4 18 16.5 33t29.5 24.5t35 9.5zM340 882q-4 -18 -16 -33.5t-28.5 -25t-34.5 -8.5q-23 2 -36.5 12.5t-18 26t-1.5 31.5q4 18 16.5 33t29 24.5t33.5 9.5q22 -1 35.5 -11.5t19 -26t1.5 -32.5z" />
    <glyph glyph-name="ntilde" unicode="&#xf1;" horiz-adv-x="535" 
d="M263 806q-20 1 -28.5 14t-3.5 33q4 14 10 27q17 40 51 60.5t88 20.5q5 -1 13 -3q22 -4 52 -11q27 -7 52 -16l28 -8q8 -2 18 -4q4 0 7.5 1.5t5.5 6.5q10 16 22.5 22t29.5 4h13q8 1 16 0q30 -4 27 -35q-4 -33 -23 -60t-51 -41.5t-74 -9.5q-22 4 -44 10t-44 13q-12 4 -24 7
q-14 4 -26 7q-10 2 -19 5q-6 1 -10.5 -1t-8.5 -9q-8 -14 -15 -21t-16.5 -9.5t-24.5 -2.5h-21zM541 35q-4 -17 -14.5 -27t-27.5 -10q-31 -1 -62 -1q-11 1 -23 1q-13 0 -20 6t-10 16l-22 68q-6 18 -13 37q-19 58 -37 117q-6 20 -11 39q-5 15 -9 29q-2 6 -5 13l-1 0.5t-1.5 1
l-0.5 0.5q-1 -1 -2.5 -2t-1.5 -2q-3 -10 -5 -19l-44 -250v-5q-1 -7 -3 -14q-9 -35 -44 -35q-49 -1 -95 0q-20 0 -28 9t-5 29l121 687q5 24 16 33.5t35 9.5h68q18 1 28.5 -6.5t14.5 -22.5q25 -83 51 -164l14 -42q10 -32 19 -64q3 -6 5 -12q0 -1 1 -3q0 -3 3 -6q1 -2 3 -3
q1 -1 2 -1l1 1q2 2 3 4q3 10 4 19l44 250q1 10 5 21q4 13 14 20.5t23 8.5q52 1 104 0q16 -1 23.5 -10.5t5.5 -24.5z" />
    <glyph glyph-name="ograve" unicode="&#xf2;" horiz-adv-x="510" 
d="M344 935q-2 3 -3 5q-7 8 -12 17q-8 15 -3 28t22 22q27 16 57 30q17 9 28.5 6t18.5 -18l58 -142q5 -14 -0.5 -26t-20.5 -21q-29 -18 -40 -17q-10 0 -16 3.5t-11 9.5q-24 32 -48 63zM374 208l44 250q10 52 18 104q3 17 -2 23.5t-21 7.5q-26 1 -52 0q-17 -1 -24 -7.5
t-11 -22.5l-63 -360q-4 -19 1 -25.5t23 -6.5q22 -1 44 0q15 0 23.5 2.5t13 10.5t6.5 24zM617 630q-3 -42 -11 -85q-32 -183 -65 -366q-4 -20 -10 -40t-16 -40q-18 -37 -47 -60.5t-68 -33.5q-28 -7 -55 -7q-48 -1 -94 -1h-40q-43 0 -78 20q-29 16 -42.5 42.5t-13.5 61.5
q0 26 5 52l47 270q13 78 28 156q7 34 22 67q19 39 50 62t72 32q22 6 44 6h9q33 0 65.5 0.5t64.5 -1.5q34 -1 63 -12q40 -16 56.5 -47.5t13.5 -75.5z" />
    <glyph glyph-name="oacute" unicode="&#xf3;" 
d="M368 201l64 360q4 18 -1.5 24.5t-22.5 7.5q-26 1 -52 0q-16 -1 -22 -7t-8 -21l-65 -366q-4 -15 0.5 -21t21.5 -7q25 -2 51 0q18 0 25 6.5t9 23.5zM536 169q-3 -17 -8 -33.5t-13 -32.5q-19 -41 -51 -66t-75 -34q-23 -5 -46 -5q-67 -2 -133 0q-28 1 -54 8
q-40 12 -59.5 39.5t-22.5 69.5q0 24 5 49q13 80 27 160l50 282q8 47 38 87q26 35 61 52.5t74 19.5q41 2 83 2t83 -2q63 -5 93.5 -42t25.5 -102q-1 -13 -3 -26zM408 817q-18 4 -30.5 12t-20.5 21q-4 8 -1.5 16t9.5 16q25 35 51 71l2 2l50 66q14 19 27.5 22t31.5 -7q0 -1 1 -2
q20 -12 40 -25q16 -11 15.5 -26t-16.5 -30q-68 -62 -137 -123q-3 -3 -7 -5.5t-8 -4.5q-4 -1 -7 -3z" />
    <glyph glyph-name="ocircumflex" unicode="&#xf4;" horiz-adv-x="506" 
d="M367 193q2 6 3 12l1 5q15 85 29 170q5 27 11 55q11 64 21 128q4 16 -1 22.5t-20 6.5q-27 2 -56 0q-15 0 -21.5 -6.5t-9.5 -20.5q-2 -4 -3 -9l-61 -347q-2 -9 -1 -18q-1 -8 2.5 -12.5t11.5 -5.5h15q29 -1 60 0q9 1 13 5.5t6 14.5zM611 593q-39 -216 -77 -431
q-6 -32 -22 -63q-18 -39 -49.5 -63t-72.5 -33q-24 -5 -48 -5q-65 -2 -129 0q-29 1 -56 8q-34 9 -53.5 31.5t-25.5 51.5t-2 58l82 466q4 24 14.5 45.5t25.5 41.5q18 22 40 36t47 21q29 7 57 9q61 1 122 0h20q41 0 75 -19q29 -17 42 -43.5t13 -61.5q1 -24 -3 -49zM297 837
q-1 1 -3 2q-7 8 -12 17q-4 8 -6 16l-2 8q3 9 8 16.5t12 13.5q30 25 59 50q40 34 80 67q32 28 54 1l38 -46q9 -9 16 -19q6 -8 14 -16q16 -19 31 -38q22 -27 -8 -55q-12 -12 -25 -21q-32 -24 -55 2q-16 18 -30 36q-8 9 -15 18q-7 8 -10.5 11t-8 0.5t-13.5 -10.5
q-13 -11 -25 -22q-19 -15 -37 -31q-37 -31 -62 0z" />
    <glyph glyph-name="otilde" unicode="&#xf5;" 
d="M248 806q-18 1 -26 11t-5 28q6 32 23 58.5t43 42.5t56 15q32 0 55 -4.5t43 -11.5l42 -12q18 -5 36 -11q6 -2 13 -3q11 -2 17 9q7 14 19 20t28 5h27q19 -1 27 -11.5t4 -29.5q-10 -45 -41 -73.5t-81 -32.5q-23 0 -44 4.5t-42 10.5q-20 6 -39 12q-21 6 -41 12q-5 1 -9 2
q-5 0 -9 1q-7 3 -11.5 0t-7.5 -10q-7 -17 -18 -24t-28 -8h-31zM262 199q-4 -15 0 -21t20 -7q27 -2 54 0q17 0 23.5 6.5t10.5 24.5l63 361q3 16 -1 22t-20 7q-25 2 -51 1q-17 0 -25 -6.5t-10 -23.5q-33 -182 -64 -364zM534 159q-3 -24 -12.5 -46.5t-25.5 -43.5
q-27 -34 -61 -51t-72 -19q-43 -2 -85.5 -2.5t-83.5 2.5q-63 5 -93.5 43t-23.5 104q1 12 3 25l75 422q3 17 8 34t13 34q19 41 51 66t74 34q23 4 45 5h135q26 0 49.5 -6t42.5 -21q28 -21 37 -50.5t5 -65.5q-4 -31 -10 -62z" />
    <glyph glyph-name="odieresis" unicode="&#xf6;" horiz-adv-x="509" 
d="M370 201l65 364q2 15 -2 21t-19 6q-28 2 -58 0q-14 -1 -20.5 -7t-7.5 -20q-34 -183 -65 -366q-4 -15 0.5 -20.5t17.5 -6.5q29 -3 59 -1q15 1 21 7t9 23zM562 311q-13 -80 -28 -159q-6 -33 -22.5 -62t-44.5 -52q-25 -19 -51 -28.5t-53 -10.5q-43 -2 -85 -2.5t-83 2.5
q-66 5 -95.5 44.5t-20.5 105.5q8 54 17 108t19 108l22 124q6 31 11.5 62.5t11.5 63.5q10 41 32.5 74.5t63.5 55.5q40 20 80 20q79 2 158 0q28 -1 51.5 -10t40.5 -28q20 -22 27 -49.5t3 -59.5zM340 815q-18 -1 -32.5 8.5t-21 25.5t-3.5 35q4 18 15.5 33.5t28 25t38.5 9.5
q20 -1 33 -10.5t18 -25t1 -34.5q-1 -15 -11 -30t-27 -25t-39 -12zM514 815q-18 -1 -32 8.5t-21 25t-4 33.5q3 19 14.5 34.5t29 25.5t36.5 10q17 0 31 -9.5t20.5 -25t3.5 -33.5q-5 -27 -25.5 -46.5t-52.5 -22.5z" />
    <glyph glyph-name="divide" unicode="&#xf7;" horiz-adv-x="711" 
d="M510 235l-18 -102q-7 -36 -44 -37h-100q-17 1 -25.5 10t-6.5 26q7 52 19 104q3 16 14.5 25.5t27.5 10.5q53 2 106 0q16 0 22.5 -10t4.5 -27zM795 482q-9 -57 -20 -114q-4 -14 -14 -22.5t-24 -10.5q-8 -1 -16 -1h-561q-6 0 -12 1q-16 1 -24.5 9.5t-6.5 24.5q7 55 18 110
q4 17 15.5 25.5t28.5 9.5h589q13 -1 20.5 -9.5t6.5 -22.5zM433 579q-17 1 -25.5 10t-6.5 26q8 52 19 104q4 17 15.5 26.5t28.5 9.5q50 2 100 0q37 -1 31 -39l-17 -100q-8 -36 -43 -36q-51 -1 -102 -1z" />
    <glyph glyph-name="oslash" unicode="&#xf8;" horiz-adv-x="529" 
d="M376 197q3 14 4 27l3 12v0v0l8 46q0 1 -1 2l-2 2q1 1 0 2l-1 -1q-3 -2 -4 -3q-17 -31 -35 -62q-3 -5 -5 -10q-8 -13 -15 -28q-1 -2 -0.5 -6t2.5 -5q8 -5 18 -2.5t17.5 9.5t10.5 17zM375 576q5 10 3 13.5t-13 3.5q-15 -1 -23 -7t-11 -21q-4 -13 -5 -25l-2 -12v0v0l-7 -39
q0 -1 0.5 -2l1 -2l0.5 -1q1 0 3 1t3 2q7 11 13 22v1l8 14q15 26 29 52zM650 764q-13 -25 -28 -50q-13 -20 -6 -40q10 -34 3 -72l-78 -442q-6 -38 -28 -73q-25 -43 -63 -64.5t-84 -24.5q-38 -2 -76 -1h-54q-13 1 -20 -13q-6 -14 -15.5 -21.5t-21 -10.5t-24.5 -4h-64
q-11 1 -21 3q-17 5 -22 16.5t5 30.5q14 28 30 55q5 8 6.5 16.5t-1.5 16.5q-5 17 -5.5 35.5t2.5 37.5q41 224 79 447q5 29 18 56q41 83 129 99q16 3 31.5 4t30.5 1l28 2v-2h63q9 0 15.5 3.5t10.5 11.5q8 18 22 25.5t31 8.5q29 1 58 0h19q6 0 11 -1q19 -5 24 -17.5t-5 -32.5z
" />
    <glyph glyph-name="ugrave" unicode="&#xf9;" horiz-adv-x="509" 
d="M314 941q-9 12 -14 27q-4 10 0.5 19t13.5 14q29 17 57 31q11 5 22 11q1 1 4 1h2q21 -2 28 -20q14 -36 29 -73q6 -16 13 -32l4 -10q5 -12 9 -24q7 -17 1 -29.5t-25 -22.5h-1q0 -1 -1 -1q-19 -10 -30 -12.5t-19.5 3.5t-18.5 21q-21 28 -42 55q-17 21 -32 42zM636 736
q0 -13 -2 -26l-94 -536q-4 -21 -11 -42.5t-18 -42.5q-19 -33 -46 -53.5t-62 -29.5q-29 -7 -58 -8q-50 -1 -99 -1h-34q-41 0 -75 17q-32 17 -46.5 45t-13.5 65q0 15 2 30.5t5 31.5q15 93 31 185l61 342q1 7 3 14q5 17 17.5 27.5t28.5 11.5q52 1 104 0q17 -1 25.5 -11.5
t7.5 -27.5q0 -8 -3 -16l-88 -500q-3 -17 -2 -24.5t8.5 -10t24.5 -1.5h8q13 -1 25 0q15 0 21 5t8 20l90 511q2 9 4 17q5 16 17.5 26.5t27.5 11.5q51 1 102 0q14 -1 22 -8.5t9 -21.5z" />
    <glyph glyph-name="uacute" unicode="&#xfa;" horiz-adv-x="510" 
d="M541 179q-4 -21 -10 -41.5t-17 -40.5q-17 -34 -44 -56.5t-63 -33.5q-24 -8 -48 -9q-82 -1 -162 0q-21 1 -39 7t-34 17q-43 29 -46 83q-3 33 3 66q36 209 73 419l21 121l4 16q5 17 17.5 27.5t30.5 11.5q51 1 102 0q30 -1 32 -30q0 -15 -3 -31l-88 -500q-2 -13 -1 -19.5
t7 -8.5t19 -2h3q19 -1 38 0q13 0 19.5 5.5t8.5 18.5q2 7 3 14l88 499q1 8 3 16q5 17 17.5 27t29.5 11q49 1 98 0q28 -1 32 -28q1 -15 -1 -31zM395 833q-15 10 -16.5 22.5t10.5 30.5l42 56q8 10 17 21q5 8 12 16q14 21 31 42q14 19 27.5 22.5t30.5 -7.5q22 -14 45 -29
q7 -5 10.5 -12.5t1.5 -20.5q-2 -2 -3 -5q-3 -3 -5.5 -7t-6.5 -8q-31 -29 -63 -57q-14 -13 -27 -25q-10 -8 -18 -16q-13 -13 -27 -25q-11 -10 -21.5 -12t-21.5 4q-10 4 -18 10z" />
    <glyph glyph-name="ucircumflex" unicode="&#xfb;" 
d="M571 368q-17 -101 -36 -202q-5 -31 -18 -61q-19 -42 -51.5 -67.5t-75.5 -34.5q-25 -5 -49 -5q-64 -2 -127 0q-32 1 -62 10q-32 10 -51 33t-24 57q-4 30 1 63l100 566q4 18 16 28t30 11q51 1 103 0q19 -1 26.5 -11.5t5.5 -28.5q0 -8 -2 -16l-87 -496q-3 -18 -2.5 -26.5
t8.5 -11t26 -1.5h9q14 -1 28 0q11 1 16.5 5.5t8.5 15.5l91 516q1 9 4 19q4 15 15 24.5t26 9.5q53 2 106 0q15 0 22 -10t7 -25q-1 -8 -3 -17zM301 831q-11 12 -21 25q-18 25 9 51q11 9 21 18q5 4 11 8q17 16 36 32l68 58q11 9 23 15q13 5 23 1.5t17 -12.5l30 -36t29 -36
q5 -6 11 -12q14 -17 26 -34q4 -4 6 -9t3 -9q1 -3 2 -5q-3 -15 -17.5 -30t-31 -24.5t-28.5 -9.5q-9 1 -14.5 5.5t-10.5 10.5l-32 38l-6 8q-2 1 -3 3q-3 3 -5 7q-6 6 -10 6t-11 -6q-18 -14 -34 -29l-22 -18l-2 -2q-9 -8 -20 -15q-13 -9 -25.5 -8.5t-21.5 9.5z" />
    <glyph glyph-name="udieresis" unicode="&#xfc;" 
d="M634 721q-19 -103 -37 -207l-63 -355q-4 -25 -14 -48.5t-26 -44.5q-27 -32 -59.5 -48.5t-69.5 -18.5q-44 -2 -87 -2.5t-85 2.5q-64 6 -93.5 44.5t-22.5 101.5q1 14 3 27l95 535q4 24 11 36.5t20.5 17.5t37.5 5h24q27 -1 53 0q21 1 31.5 -12t6.5 -34q-33 -182 -65 -364
q-11 -68 -23 -136l-2 -6q-2 -8 -2 -17q-1 -11 3.5 -16t15.5 -6q27 -1 54 0q10 1 15.5 5.5t8.5 15.5l92 527q10 42 51 43h36q27 -1 54 0q20 1 30.5 -12t6.5 -33zM510 816q-28 -1 -44.5 16.5t-11.5 49.5q4 29 26 48.5t54 21.5q17 0 30 -7.5t20.5 -23t4.5 -37.5
q-7 -30 -27.5 -48.5t-51.5 -19.5zM337 815q-22 1 -35.5 11t-18.5 25t-2 33q3 15 13 30.5t27.5 26t38.5 11.5q18 0 32 -9.5t20 -25t4 -33.5q-3 -18 -15.5 -34t-29 -25.5t-34.5 -9.5z" />
    <glyph glyph-name="OE" unicode="&#x152;" horiz-adv-x="756" 
d="M450 661q1 7 1 14q1 10 -3.5 14.5t-13.5 4.5q-31 1 -65 0q-8 0 -12.5 -4t-7.5 -13l-84 -480q-3 -15 1 -20t18 -5q26 -1 52 0q14 0 21 6t10 19q2 5 3 11zM748 175q21 0 28.5 -9t3.5 -30l-18 -100q-3 -20 -13.5 -29t-31.5 -9h-104q-206 0 -412 1q-42 0 -72 18t-45 55
q-8 19 -9 40.5t3 43.5l98 558q4 24 14.5 47t27.5 44q20 25 47 40t57 20q26 5 52 5h500q17 -1 24 -9t4 -26q-3 -24 -8 -48q-6 -30 -10 -60q-2 -12 -11.5 -22.5t-25.5 -13.5q-9 -1 -17 -1h-175q-6 1 -12 0q-9 0 -12.5 -3t-5.5 -12q-3 -10 -4 -20l-19 -109q-3 -14 0 -18t19 -3
q37 -1 77 0h39q5 0 10 -1q19 0 28 -9t7 -28q-7 -53 -19 -106q-4 -19 -16 -27.5t-32 -8.5h-131q-11 -1 -14.5 -3.5t-5.5 -12.5q-13 -69 -24 -138q-2 -9 1.5 -12t14.5 -3q36 -1 72 0h58q31 0 62 -1z" />
    <glyph glyph-name="oe" unicode="&#x153;" horiz-adv-x="760" 
d="M280 172q31 -3 63 0q13 0 19.5 6t9.5 20l64 363q3 18 -2.5 24.5t-22.5 7.5h-39q-18 0 -27 -3t-13 -11t-7 -25l-63 -357q-3 -13 1.5 -18.5t16.5 -6.5zM751 175q17 0 25.5 -8.5t6.5 -28.5l-17 -98q-4 -22 -16.5 -32.5t-34.5 -9.5q-251 -1 -501 0q-42 -1 -77 16
q-33 18 -47.5 47.5t-11.5 68.5q3 38 9 77q33 191 68 383q4 22 10.5 43.5t18.5 41.5q19 32 45.5 52t59.5 30t66 9h503q16 -1 24 -10t5 -24q-6 -54 -19 -109q-3 -18 -13.5 -26t-29.5 -8h-183q-14 0 -20.5 -1.5t-9 -7.5t-4.5 -20l-13 -73q-3 -14 0 -17.5t17 -3.5h131
q34 -1 29 -34q-2 -20 -6 -40l-10 -60q-5 -23 -17 -33t-35 -10h-112q-16 0 -23 -1.5t-9.5 -8t-5.5 -22.5l-11 -63q-2 -12 1 -16t16 -3h154q19 -1 37 0z" />
    <glyph glyph-name="endash" unicode="&#x2013;" horiz-adv-x="538" 
d="M509 304h-355q-8 0 -15 1q-24 2 -26 24q-1 15 1 29q5 35 13 71q2 12 7 24t15 19t23 9h414q26 -3 29 -29q1 -9 0 -18q-7 -42 -15 -84q-2 -8 -5 -16q-7 -15 -17 -22t-25 -7q-22 -1 -44 -1z" />
    <glyph glyph-name="emdash" unicode="&#x2014;" horiz-adv-x="764" 
d="M767 304h-613q-8 0 -15 1q-25 2 -28 25q0 4 1 9l4 30q2 19 5.5 38t7.5 37q6 20 18.5 28.5t32.5 8.5h621q22 0 31 -10t7 -32q-5 -37 -13 -74l-3 -18q-2 -9 -7 -18q-11 -22 -34 -24q-7 -1 -15 -1z" />
    <glyph glyph-name="quoteleft" unicode="&#x2018;" horiz-adv-x="228" 
d="M290 588h-91q-20 1 -30 11t-7 29q7 53 19 106q2 10 7.5 19.5t11.5 17.5q19 25 41 49q12 15 25 31q8 9 16.5 13.5t19.5 4.5h48q16 -1 21.5 -10.5t-2.5 -24.5q-7 -15 -16 -29q-4 -6 -7 -11q-2 -3 -3 -6l-6 -10q-4 -5 -3.5 -8.5t6.5 -6.5q12 -5 15 -15.5t-1 -24.5l-16 -93
q-7 -41 -48 -42z" />
    <glyph glyph-name="quoteright" unicode="&#x2019;" horiz-adv-x="229" 
d="M372 828l-18 -102q-3 -21 -18 -39l-32 -38q-17 -21 -35 -42q-15 -20 -39 -19q-11 1 -22 0q-10 0 -20 1q-18 1 -23.5 12.5t3.5 28.5l28 46q5 6 5.5 11.5t-6.5 8.5q-12 6 -14.5 17t-0.5 24l15 88q5 23 17 33.5t35 10.5h91q21 0 29.5 -10t4.5 -31z" />
    <glyph glyph-name="quotedblleft" unicode="&#x201c;" horiz-adv-x="455" 
d="M579 727q-8 -50 -17 -100q-4 -18 -15.5 -28t-29.5 -10q-50 -2 -100 0q-18 0 -26 10t-5 28l12 70q4 16 6 32q3 25 20 45q9 10 18 21q23 27 46 55q9 10 18 15t22 4h43q19 -1 24 -12t-5 -28q-7 -14 -17 -28q-5 -8 -9 -15q-7 -11 -7 -15t9 -10q17 -12 13 -34zM340 762
q11 -5 14.5 -14.5t1.5 -22.5l-10 -48q-3 -24 -8 -48q-7 -40 -48 -40q-47 -1 -94 0q-40 1 -34 41l9 52v0v0l2 10q3 10 4 20q1 21 10.5 39.5t24.5 35.5q27 31 53 63l1 1q8 10 16 14.5t19 3.5h46q18 -1 24 -10.5t-2 -26.5q-6 -12 -15 -24q-2 -5 -6 -11l-1 -1q-4 -7 -9 -14
q-4 -6 -4.5 -11t6.5 -9z" />
    <glyph glyph-name="quotedblright" unicode="&#x201d;" horiz-adv-x="455" 
d="M374 831l-10 -54v0v0l-9 -50q-4 -22 -19 -40q-6 -8 -14 -17q-22 -26 -44 -54q-12 -15 -25.5 -22.5t-30.5 -5.5q-9 1 -18 1q-6 -1 -11 -1q-23 1 -29 13.5t8 34.5q0 1 1 2q12 20 26 40q4 6 3.5 10.5t-6.5 7.5q-12 6 -15.5 16.5t-0.5 24.5l16 91q5 21 16.5 31t32.5 10h95
q38 -1 34 -38zM596 820q-2 -16 -6 -32l-9 -53q-4 -27 -23 -51q-33 -37 -65 -76q-16 -21 -41 -20q-11 1 -22 0q-10 0 -20 1q-30 1 -22 30q4 11 10 20q7 14 16 27q2 4 5 7q4 7 5.5 11t-1 6.5t-7.5 6.5q-16 12 -12 34l18 103q7 33 40 35h106q12 0 19 -6.5t9 -17.5q2 -12 0 -25z
" />
    <glyph glyph-name="ellipsis" unicode="&#x2026;" horiz-adv-x="673" 
d="M685 71q-3 -18 -7 -36q-3 -17 -14 -27t-29 -11q-51 -1 -102 0q-14 1 -23 11t-7 27q7 52 19 104q2 14 11.5 22.5t24.5 11.5q13 3 27 4h64q13 -1 25 -3q14 -4 19.5 -12.5t2.5 -24.5q-2 -19 -6 -37zM451 173q27 -6 23 -36q-7 -50 -17 -100q-4 -19 -16.5 -29t-32.5 -11
q-47 -1 -94 0q-39 1 -32 42q2 16 6 32l2 16q2 7 2 14q3 18 7 36q3 16 11.5 24.5t26.5 12.5q11 2 23 3h66q12 -1 25 -4zM242 86v0v0l-9 -50q-4 -18 -15 -28t-30 -11q-50 -1 -99 0q-18 1 -26.5 11.5t-4.5 28.5q7 50 17 100q3 15 12.5 25t26.5 11q38 2 77 2h30q2 0 4 -1h2
q14 -4 20 -12.5t3 -23.5q-2 -18 -5 -36z" />
    <glyph glyph-name="Euro" unicode="&#x20ac;" horiz-adv-x="593" 
d="M565 693h-30q-36 0 -72 -1q-19 1 -26 -5.5t-10 -24.5l-5 -29q-2 -11 -1.5 -15.5t5 -6t15.5 -1.5h141q14 -2 21 -11t3 -24q-12 -48 -30 -94q-4 -13 -15 -19.5t-25 -6.5q-38 -1 -77 -1h-48q-14 -1 -21 -10.5t-3 -21.5q2 -3 6 -4.5t8 -2.5h83q10 0 19 -1q18 -1 25 -10t3 -26
q-13 -47 -31 -93q-5 -13 -15.5 -19.5t-25.5 -6.5h-79q-11 0 -16.5 -1.5t-8 -7t-4.5 -15.5l-6 -38q-1 -11 2.5 -15.5t14.5 -4.5h200q12 0 24 -3q16 -3 23 -13t4 -27q-7 -41 -15 -82q-8 -44 -52 -46q-16 -1 -31 -1h-19q-69 -2 -138 -5q-14 0 -28 -1q-25 -2 -50 -2
q-23 1 -44 7.5t-39 20.5q-20 17 -29 40t-10 50q1 14 2.5 27.5t3.5 27.5q0 6 1 11l10 59q2 11 -1 14.5t-14 3.5q-12 1 -24 1q-16 -1 -23.5 5t-10 16.5t0.5 21.5q8 23 15 45q4 9 7 19q1 1 1 2v2q7 23 21 34t38 11q14 0 21 9t5 22l-4 4t-4 3q-6 2 -12 1h-5q-17 2 -24.5 11
t-4.5 25q8 24 16 47.5t17 46.5q4 12 13.5 17.5t21.5 8.5q7 1 10.5 2.5t5 5t3.5 10.5l15 86q5 28 17.5 53t33.5 48q47 50 110 54q38 1 77 0h6q75 -2 149 -5q26 -1 52 -4q16 -2 24 -12t6 -27q-7 -45 -16 -90q-9 -37 -47 -38q-37 -1 -74 0h-32z" />
  </font>
</defs>
</svg>
