<?xml version="1.0" standalone="no"?>
<!DOCTYPE svg PUBLIC "-//W3C//DTD SVG 1.1//EN" "http://www.w3.org/Graphics/SVG/1.1/DTD/svg11.dtd" >
<svg xmlns="http://www.w3.org/2000/svg" xmlns:xlink="http://www.w3.org/1999/xlink" version="1.1">
<metadata>
Created by FontForge 20170731 at Wed Mar 22 18:01:19 2017
 By Aleksey,,,
Copyright 2014 Pria Ravichandran (pria.ravichandran@gmail.com)
</metadata>
<defs>
<font id="Catamaran-Bold" horiz-adv-x="568" >
  <font-face 
    font-family="Catamaran"
    font-weight="700"
    font-stretch="normal"
    units-per-em="1000"
    panose-1="0 0 8 0 0 0 0 0 0 0"
    ascent="770"
    descent="-230"
    x-height="485"
    cap-height="680"
    bbox="-585 -385 2596 1320"
    underline-thickness="50"
    underline-position="-175"
    unicode-range="U+000D-FB02"
  />
<missing-glyph horiz-adv-x="697" 
d="M94 696v-696h508v696h-508zM470 593l1 -491h-246v491h245z" />
    <glyph glyph-name=".notdef" horiz-adv-x="697" 
d="M94 696v-696h508v696h-508zM470 593l1 -491h-246v491h245z" />
    <glyph glyph-name="uni0000" horiz-adv-x="0" 
 />
    <glyph glyph-name="uni0000" horiz-adv-x="0" 
 />
    <glyph glyph-name="nonmarkingreturn" unicode="&#xd;" horiz-adv-x="0" 
 />
    <glyph glyph-name="space" unicode=" " horiz-adv-x="225" 
 />
    <glyph glyph-name="exclam" unicode="!" horiz-adv-x="207" 
d="M52 244l104 -48l15 506h-136zM51.5 125q-21.5 -21 -21.5 -52t21.5 -52t51.5 -21q31 0 52.5 21t21.5 52t-21.5 52t-52.5 21q-30 0 -51.5 -21z" />
    <glyph glyph-name="quotedbl" unicode="&#x22;" horiz-adv-x="394" 
d="M52.5 718.5q-21.5 -23.5 -21.5 -50.5q0 -26 19 -48.5t37 -22.5q-6 -29 -20.5 -47t-46.5 -46l28 -61q57 32 94.5 92.5t37.5 117.5q0 39 -22 64t-54 25q-30 0 -51.5 -23.5zM238 718.5q-22 -23.5 -22 -50.5q0 -26 18.5 -48.5t37.5 -22.5q-6 -29 -20.5 -46.5t-47.5 -46.5
l29 -61q56 32 93.5 92.5t37.5 117.5q0 39 -21.5 64t-52.5 25q-30 0 -52 -23.5z" />
    <glyph glyph-name="numbersign" unicode="#" horiz-adv-x="584" 
d="M412 520l-25 -112h-120l26 109l-111 3l-26 -112h-126l11 -97h92l-25 -112h-78l11 -96h45l-25 -113l110 -5l27 118h120l-25 -113l111 -5l26 118h124l-10 96h-92l26 112h76l-10 97h-44l24 109zM365 311l-26 -112h-118l25 112h119z" />
    <glyph glyph-name="dollar" unicode="$" horiz-adv-x="527" 
d="M389 674q31 -10 72 -29l-43 -104q-41 20 -74.5 31t-72.5 11q-45 0 -73.5 -17.5t-28.5 -51.5q0 -29 22.5 -48.5t73.5 -49.5l32 -18l29 -17q59 -34 94 -59.5t58.5 -62t23.5 -85.5q0 -56 -32 -99.5t-91 -66.5v-136h-89v117q-26 -2 -42 -2h-15v-115h-88v133q-64 19 -98 40
l29 105q37 -19 84 -33.5t86 -14.5q60 0 91 19t31 55q0 25 -24.5 45.5t-75.5 48.5l-30 18q-67 40 -106.5 69t-68 68.5t-28.5 88.5q0 55 31 98.5t89 64.5v117l88 14v-113l26 1q11 0 31 -2v100l89 14v-134z" />
    <glyph glyph-name="percent" unicode="%" horiz-adv-x="932" 
d="M547 710l-298 -710l131 -4l298 710zM48.5 443q23.5 -39 61.5 -59.5t81 -20.5t81 21t61.5 60t23.5 89q0 51 -23 89.5t-61.5 59t-81.5 20.5t-81 -21t-61.5 -59.5t-23.5 -88.5q0 -51 23.5 -90zM151 588q17 20 40 20q25 0 41.5 -20t16.5 -56q0 -35 -17.5 -55.5t-40.5 -20.5
q-26 0 -41.5 20t-15.5 58q0 34 17 54zM600.5 79.5q23.5 -38.5 61.5 -59t81 -20.5q42 0 80 21t61 60t23 89q0 52 -23 90t-60.5 58t-80.5 20t-81 -20.5t-61.5 -59t-23.5 -89.5t23.5 -89.5zM702.5 225q17.5 20 40.5 20q24 0 40.5 -20.5t16.5 -55.5t-17 -56t-40 -21
q-26 0 -42 20.5t-16 58.5q0 34 17.5 54z" />
    <glyph glyph-name="ampersand" unicode="&#x26;" horiz-adv-x="683" 
d="M410 682q-49 14 -96 14q-62 0 -110 -26t-74.5 -69.5t-26.5 -95.5t28 -93q-44 -38 -70 -89t-26 -103q0 -74 35 -125.5t95.5 -78t135.5 -27.5q62 0 113.5 17t89.5 49l76 -70l78 97l-79 69q40 89 46 188l-117 47q-4 -84 -29 -145l-160 145q-43 38 -62.5 66.5t-19.5 57.5
q0 31 21 52t57 21q39 0 72 -11t69 -31l44 104q-41 23 -90 37zM301 106q-55 0 -92 29t-37 86q1 54 41 100l198 -181q-47 -34 -110 -34z" />
    <glyph glyph-name="quotesingle" unicode="'" horiz-adv-x="210" 
d="M52.5 718.5q-21.5 -23.5 -21.5 -50.5q0 -26 19 -48.5t37 -22.5q-6 -29 -20.5 -47t-46.5 -46l28 -61q57 32 94.5 92.5t37.5 117.5q0 39 -22 64t-54 25q-30 0 -51.5 -23.5z" />
    <glyph glyph-name="parenleft" unicode="(" horiz-adv-x="308" 
d="M202 148q-32 97 -32 174q0 74 32 168t76 155l-101 37q-63 -90 -95 -178.5t-32 -182.5q0 -97 33 -188.5t94 -171.5l100 38q-43 52 -75 149z" />
    <glyph glyph-name="parenright" unicode=")" horiz-adv-x="308" 
d="M104.5 495.5q31.5 -97.5 31.5 -174.5q0 -74 -31.5 -168.5t-74.5 -154.5l100 -37q63 91 95.5 179t32.5 181q0 96 -33.5 188t-93.5 173l-100 -39q42 -50 73.5 -147.5z" />
    <glyph glyph-name="asterisk" unicode="*" horiz-adv-x="388" 
d="M245 767h-102l-2 -99l-101 22l-30 -91l101 -21l-69 -97l79 -61l73 99l74 -99l78 61l-69 98l101 20l-30 91l-102 -22z" />
    <glyph glyph-name="plus" unicode="+" horiz-adv-x="538" 
d="M498 324h-163v207l-122 3v-210h-183l8 -99h175v-217l122 -4v221h173z" />
    <glyph glyph-name="comma" unicode="," horiz-adv-x="211" 
d="M54.5 123q-21.5 -23 -21.5 -51q0 -26 18.5 -49t36.5 -23q-6 -29 -21 -47t-47 -45l29 -62q56 32 94 93t38 117q0 39 -22.5 64.5t-53.5 25.5q-29 0 -50.5 -23z" />
    <glyph glyph-name="hyphen" unicode="-" horiz-adv-x="332" 
d="M292 325h-262l11 -102h261z" />
    <glyph glyph-name="period" unicode="." horiz-adv-x="206" 
d="M155.5 21q20.5 21 20.5 52t-20.5 52t-51.5 21t-52.5 -21t-21.5 -52t21.5 -52t52.5 -21t51.5 21z" />
    <glyph glyph-name="slash" unicode="/" horiz-adv-x="454" 
d="M308 710l-298 -710l135 -4l299 710z" />
    <glyph glyph-name="zero" unicode="0" horiz-adv-x="606" 
d="M61 132q36 -68 99.5 -106.5t142.5 -38.5t142.5 38.5t99.5 107t36 154.5q0 83 -35.5 150t-99 104.5t-142.5 37.5q-80 0 -143.5 -38t-99.5 -105t-36 -151q0 -85 36 -153zM164.5 381q20.5 41 57 64.5t81.5 23.5q46 0 82.5 -24t57.5 -66.5t21 -95.5t-20.5 -95t-57 -66
t-82.5 -24t-82.5 24.5t-57 68t-20.5 97.5q0 52 20.5 93z" />
    <glyph glyph-name="one" unicode="1" horiz-adv-x="368" 
d="M303 0v566h-87l-206 -91l49 -97l114 44v-422h130z" />
    <glyph glyph-name="two" unicode="2" horiz-adv-x="487" 
d="M38 527l23 -104q89 51 157 51q50 0 79.5 -19.5t29.5 -56.5q0 -29 -24 -62t-76 -77l-202 -172v-87h442l-12 99h-253l95 79q77 65 108 112t31 113q0 50 -25 90t-71 63t-109 23q-106 0 -193 -52z" />
    <glyph glyph-name="three" unicode="3" horiz-adv-x="484" 
d="M123 561q-52 -18 -104 -52l61 -87q75 52 149 52q42 0 68 -20.5t26 -50.5q0 -37 -36 -59.5t-96 -22.5h-66l18 -101h42q76 0 113 -26.5t37 -73.5q0 -41 -34 -66t-81 -25q-44 0 -79 10.5t-75 34.5l-66 -87q51 -27 109 -45t109 -18q70 0 124 26t83 71t29 100q0 39 -15 72
t-36.5 54t-41.5 26q31 14 56 51.5t25 80.5q0 48 -24 87.5t-71.5 63t-114.5 23.5q-57 0 -109 -18z" />
    <glyph glyph-name="four" unicode="4" horiz-adv-x="560" 
d="M540 166h-105v405h-97l-328 -405l17 -107h277v-128h131v128h92zM304 363v-197h-154z" />
    <glyph glyph-name="five" unicode="5" horiz-adv-x="512" 
d="M214 238.5q23 14.5 55 14.5q44 0 72 -29t28 -77q0 -52 -35.5 -83t-89.5 -31q-43 0 -78 10.5t-77 33.5l-64 -91q49 -27 106.5 -44.5t109.5 -17.5q75 0 130.5 28t85.5 79t30 116q-1 58 -26 105.5t-75 76t-122 28.5q-45 0 -74 -15l6 119h242l14 105h-366l-18 -360h115
q8 18 31 32.5z" />
    <glyph glyph-name="six" unicode="6" horiz-adv-x="525" 
d="M393 374q50 -28 78.5 -75t28.5 -104q0 -61 -28 -108t-77 -73.5t-111 -26.5q-76 0 -134.5 30.5t-91.5 90t-33 144.5q0 110 61 192.5t151 130.5t178 59l18 -107q-186 -51 -252 -148q48 23 100 23q62 0 112 -28zM354 122q30 28 30 68q0 47 -30 78.5t-76 31.5q-77 0 -132 -41
q1 -84 37 -124.5t97 -40.5q44 0 74 28z" />
    <glyph glyph-name="seven" unicode="7" horiz-adv-x="474" 
d="M258 -69l196 583l-38 52h-406l16 -105h285l-174 -495z" />
    <glyph glyph-name="eight" unicode="8" horiz-adv-x="514" 
d="M149 619.5q-47 -23.5 -72.5 -63.5t-25.5 -88q0 -41 23.5 -76t62.5 -52q-44 -15 -78 -60.5t-34 -94.5q0 -55 28 -100t81 -71.5t124 -26.5q70 0 122.5 26.5t80.5 72t28 99.5q0 49 -34 94.5t-78 60.5q39 18 63 52.5t24 75.5q0 48 -25.5 88t-72 63.5t-108.5 23.5t-109 -23.5z
M320.5 516.5q26.5 -20.5 26.5 -48.5q0 -34 -22.5 -55t-66.5 -28q-44 7 -67.5 27.5t-23.5 53.5q0 29 26 50t63 21q38 0 64.5 -20.5zM342.5 250q30.5 -29 30.5 -67q0 -41 -35 -66t-81 -25q-47 0 -81 25t-34 66q0 38 30 67t86 38q54 -9 84.5 -38z" />
    <glyph glyph-name="nine" unicode="9" horiz-adv-x="525" 
d="M375.5 548.5q58.5 -30.5 91.5 -90t33 -144.5q0 -110 -61 -192.5t-151 -130.5t-178 -59l-18 107q186 51 252 148q-48 -23 -100 -23q-62 0 -112 28t-78.5 75t-28.5 104q0 61 28 108t77 73.5t111 26.5q76 0 134.5 -30.5zM171 297.5q30 -31.5 76 -31.5q77 0 132 41
q-1 84 -37 124.5t-97 40.5q-44 0 -74 -28t-30 -68q0 -47 30 -78.5z" />
    <glyph glyph-name="colon" unicode=":" horiz-adv-x="206" 
d="M155.5 348.5q20.5 21.5 20.5 52.5q0 30 -21 51.5t-51 21.5q-31 0 -52.5 -21.5t-21.5 -51.5q0 -31 21.5 -52.5t52.5 -21.5t51.5 21.5zM155.5 21q20.5 21 20.5 52t-20.5 52t-51.5 21t-52.5 -21t-21.5 -52t21.5 -52t52.5 -21t51.5 21z" />
    <glyph glyph-name="semicolon" unicode=";" horiz-adv-x="212" 
d="M56 452.5q-22 -21.5 -22 -51.5q0 -31 22 -52.5t53 -21.5t52 21.5t21 52.5q0 30 -21 51.5t-52 21.5t-53 -21.5zM54.5 123q-21.5 -23 -21.5 -51q0 -26 18.5 -49t36.5 -23q-6 -29 -21 -47t-47 -45l29 -62q56 32 94 93t38 117q0 39 -22.5 64.5t-53.5 25.5q-29 0 -50.5 -23z
" />
    <glyph glyph-name="less" unicode="&#x3c;" horiz-adv-x="348" 
d="M328 127l-168 118l168 118l-23 107l-275 -196v-58l275 -197z" />
    <glyph glyph-name="equal" unicode="=" horiz-adv-x="516" 
d="M477 408h-447l11 -97h445zM477 199h-447l11 -96h445z" />
    <glyph glyph-name="greater" unicode="&#x3e;" horiz-adv-x="348" 
d="M318 274l-275 196l-23 -107l168 -118l-168 -118l23 -108l275 197v58z" />
    <glyph glyph-name="question" unicode="?" horiz-adv-x="435" 
d="M102.5 687.5q-47.5 -13.5 -92.5 -42.5l17 -116q47 32 93.5 48t80.5 16q37 0 61 -20t24 -53q0 -40 -45 -76.5t-118 -60.5l8 -165l92 -39l17 137q71 37 118 95t47 111q0 82 -52 130.5t-149 48.5q-54 0 -101.5 -13.5zM117.5 125q-21.5 -21 -21.5 -52t21.5 -52t52.5 -21
t52 21t21 52t-21 52t-52 21t-52.5 -21z" />
    <glyph glyph-name="at" unicode="@" horiz-adv-x="765" 
d="M521 434h-80q-61 0 -114 -26.5t-85.5 -74.5t-32.5 -110q0 -75 45 -119t133 -44q21 0 43 7t41 17q33 -25 79 -25q55 0 98 28.5t67.5 84t24.5 135.5q0 84 -41.5 151.5t-115 106t-163.5 38.5q-117 0 -207 -51t-139 -138t-49 -189q0 -94 47.5 -167.5t124 -114t160.5 -40.5
q60 0 110 8.5t99 33.5l-32 99q-70 -36 -167 -36q-61 0 -113 26.5t-83 76t-31 114.5q0 81 39.5 143.5t104 96.5t135.5 34q61 0 109.5 -25t76 -70t27.5 -102q0 -42 -11 -74t-28.5 -49t-36.5 -17q-8 0 -15 9t-7 23l23 195zM427 208q-2 -19 -13.5 -32.5t-28.5 -13.5
q-31 0 -46.5 18t-15.5 43q0 52 35 83t86 31z" />
    <glyph glyph-name="A" unicode="A" horiz-adv-x="659" 
d="M275 680l-265 -680h130l60 160h258l61 -170l130 18l-264 672h-110zM418 265h-180l89 237z" />
    <glyph glyph-name="B" unicode="B" horiz-adv-x="629" 
d="M539 53.5q65 53.5 65 146.5q0 114 -105 169q73 57 73 121q0 98 -59 144t-164 46h-264v-680h279q110 0 175 53.5zM408.5 553q26.5 -19 26.5 -65q0 -42 -34 -63.5t-91 -21.5h-96v169h116q52 0 78.5 -19zM440.5 272q28.5 -26 28.5 -73q0 -44 -31 -68t-84 -24h-140v191h149
q49 0 77.5 -26z" />
    <glyph glyph-name="C" unicode="C" horiz-adv-x="564" 
d="M451 683q-52 11 -88 11q-98 0 -172.5 -45.5t-115 -126.5t-40.5 -185q0 -100 37 -179.5t110 -125.5t176 -46q44 0 98.5 12t92.5 32l-49 96q-75 -31 -149 -31q-56 0 -97 32.5t-62.5 88t-21.5 122.5q0 75 24.5 131t67.5 86t97 30q34 0 57 -4.5t62 -16.5l25 -7l40 93
q-40 22 -92 33z" />
    <glyph glyph-name="D" unicode="D" horiz-adv-x="691" 
d="M574.5 92.5q81.5 90.5 81.5 251.5q0 100 -34.5 175.5t-105 118t-173.5 42.5h-258v-680h258q150 2 231.5 92.5zM479 511.5q43 -58.5 43 -167.5q0 -122 -47.5 -178.5t-133.5 -56.5h-127v461h134q88 0 131 -58.5z" />
    <glyph glyph-name="E" unicode="E" horiz-adv-x="581" 
d="M561 0l-21 101h-326v191h243l-21 103h-222v183h297l-20 102h-406v-680h476z" />
    <glyph glyph-name="F" unicode="F" horiz-adv-x="510" 
d="M427 389h-213v189h276l-20 102h-385v-680h129v288h232z" />
    <glyph glyph-name="G" unicode="G" horiz-adv-x="630" 
d="M469 272v-166q-53 -11 -99 -11q-59 0 -104.5 29.5t-70.5 85t-25 128.5q0 80 29.5 135.5t79.5 83.5t112 28q33 0 55.5 -4.5t60.5 -15.5q-1 1 27 -8l41 93q-41 22 -95 33t-91 11q-101 0 -182 -46t-126.5 -127.5t-45.5 -183.5q0 -98 41 -178t117.5 -126.5t179.5 -46.5
q60 0 115 14t97 36v336h-248l-11 -100h143z" />
    <glyph glyph-name="H" unicode="H" horiz-adv-x="696" 
d="M611 0v680h-129v-288h-268v293l-129 -5v-680h129v288h268v-288h129z" />
    <glyph glyph-name="I" unicode="I" horiz-adv-x="299" 
d="M214 0v680h-129v-680h129z" />
    <glyph glyph-name="J" unicode="J" horiz-adv-x="294" 
d="M83 42.5q-5 -14.5 -20.5 -25t-52.5 -23.5l52 -96q61 20 94.5 41.5t48 51.5t14.5 77v612h-131v-593q0 -30 -5 -44.5z" />
    <glyph glyph-name="K" unicode="K" horiz-adv-x="658" 
d="M487 0l-205 283l-67 -70v-213h-130v680h130v-285l295 300l96 -74l-234 -244l276 -377h-161z" />
    <glyph glyph-name="L" unicode="L" horiz-adv-x="544" 
d="M514 101h-300v579h-129v-680h449z" />
    <glyph glyph-name="M" unicode="M" horiz-adv-x="770" 
d="M427 213l127 179v-392h131v680h-79l-209 -314l-230 314h-82v-680h129v415l163 -209z" />
    <glyph glyph-name="N" unicode="N" horiz-adv-x="744" 
d="M214 0v455l315 -455h130v680h-130v-454l-315 454h-129v-680h129z" />
    <glyph glyph-name="O" unicode="O" horiz-adv-x="737" 
d="M194 648q-76 -46 -117.5 -127t-41.5 -184q0 -99 39.5 -178.5t115 -126t178.5 -46.5q99 2 174.5 47.5t117.5 126t42 184.5q0 99 -39.5 179t-115.5 126.5t-179 46.5q-98 -2 -174 -48zM197.5 468.5q27.5 56.5 73 87t99.5 30.5q59 0 104 -31t69 -86t24 -125
q0 -81 -26.5 -137.5t-72 -84t-101.5 -27.5q-60 0 -104.5 30.5t-68.5 86t-24 126.5q0 74 27.5 130.5z" />
    <glyph glyph-name="P" unicode="P" horiz-adv-x="592" 
d="M214 237h75q75 0 138 24.5t101.5 75.5t38.5 125q0 111 -74.5 164.5t-194.5 53.5h-213v-680h129v237zM395.5 544.5q34.5 -27.5 34.5 -90.5q-4 -55 -39 -82.5t-95 -27.5h-82v228h80q67 0 101.5 -27.5z" />
    <glyph glyph-name="Q" unicode="Q" horiz-adv-x="737" 
d="M680 206q-22 -63 -63 -110l67 -65l-76 -67l-71 66q-76 -43 -169 -44q-103 0 -178.5 46.5t-115 126t-39.5 178.5q0 103 41.5 184t117.5 127t174 48q103 0 179 -46.5t115.5 -126.5t39.5 -179q0 -75 -22 -138zM449 112l-82 76l88 67l73 -71q39 63 39 160q0 70 -24 125
t-69 86t-104 31q-54 0 -99.5 -30.5t-73 -87t-27.5 -130.5q0 -71 24 -126.5t68.5 -86t104.5 -30.5q43 0 82 17z" />
    <glyph glyph-name="R" unicode="R" horiz-adv-x="628" 
d="M85 0h129v258h122l144 -258h138l-167 292q53 26 84.5 72t31.5 107q0 102 -75.5 155.5t-193.5 53.5h-213v-680zM430 465q0 -52 -36.5 -76.5t-97.5 -24.5h-82v208h80q136 0 136 -107z" />
    <glyph glyph-name="S" unicode="S" horiz-adv-x="527" 
d="M143.5 5.5q62.5 -18.5 104.5 -18.5q80 0 137.5 24t87 66t29.5 97q0 49 -23.5 85.5t-58.5 62t-94 59.5l-29 17l-32 18q-51 30 -73.5 49.5t-22.5 48.5q0 34 28.5 51.5t73.5 17.5q39 0 72.5 -11t74.5 -31l43 104q-106 51 -192 51q-73 0 -125.5 -23.5t-80.5 -65t-28 -93.5
q0 -49 28.5 -88.5t68 -68.5t106.5 -69l30 -18q51 -28 75.5 -48.5t24.5 -45.5q0 -36 -31 -55t-91 -19q-39 0 -86 14.5t-84 33.5l-29 -105q34 -21 96.5 -39.5z" />
    <glyph glyph-name="T" unicode="T" horiz-adv-x="591" 
d="M560 680h-550v-102h207v-578h131v578h233z" />
    <glyph glyph-name="U" unicode="U" horiz-adv-x="710" 
d="M75 680l1 -433q0 -73 34 -132t97 -92.5t146 -33.5q84 0 148 33.5t99 92t35 132.5v433h-131v-423q0 -79 -40.5 -120.5t-108.5 -41.5t-108.5 40.5t-40.5 121.5v423h-131z" />
    <glyph glyph-name="V" unicode="V" horiz-adv-x="659" 
d="M140 690l-130 -18l264 -672h110l265 680h-130l-187 -502z" />
    <glyph glyph-name="W" unicode="W" horiz-adv-x="925" 
d="M915 680l-205 -680h-110l-138 496l-138 -496h-110l-204 672l130 18l132 -512l127 502h130l129 -502l127 502h130z" />
    <glyph glyph-name="X" unicode="X" horiz-adv-x="637" 
d="M143 0l171 256l164 -256h136l-224 339l237 341h-135l-167 -252l-190 272l-113 -44l226 -312l-238 -344h133z" />
    <glyph glyph-name="Y" unicode="Y" horiz-adv-x="608" 
d="M362 0v260l236 420h-137l-165 -284l-158 298l-128 -37l222 -392v-265h130z" />
    <glyph glyph-name="Z" unicode="Z" horiz-adv-x="577" 
d="M547 101h-392l399 477l-15 102h-495l15 -102h344l-388 -477l15 -101h532z" />
    <glyph glyph-name="bracketleft" unicode="[" horiz-adv-x="362" 
d="M100 -88h252l-20 101h-103v581h103l20 102h-252v-784z" />
    <glyph glyph-name="backslash" unicode="\" horiz-adv-x="454" 
d="M444 0l-299 710l-135 -4l298 -710z" />
    <glyph glyph-name="bracketright" unicode="]" horiz-adv-x="362" 
d="M262 696h-252l18 -102h103v-581h-103l-18 -101h252v784z" />
    <glyph glyph-name="asciicircum" unicode="^" horiz-adv-x="454" 
d="M227 258l83 -115h134l-177 247h-79l-178 -247h135z" />
    <glyph glyph-name="underscore" unicode="_" horiz-adv-x="442" 
d="M402 101h-372l11 -101h371z" />
    <glyph glyph-name="grave" unicode="`" horiz-adv-x="205" 
d="M105 589l90 25l-51 139h-134z" />
    <glyph glyph-name="a" unicode="a" horiz-adv-x="503" 
d="M170 368.5q40 9.5 73 9.5q36 0 56.5 -20.5t21.5 -57.5h-95q-84 0 -134 -40.5t-50 -114.5q0 -72 44 -114.5t131 -42.5q67 0 128 64l22 -52h85v319q0 51 -28.5 92t-76.5 64t-106 23q-34 0 -91 -13.5t-83 -30.5l35 -108q28 13 68 22.5zM172.5 193q19.5 20 51.5 20h98v-74
q-49 -48 -107 -48q-27 0 -44.5 16t-17.5 38q0 28 19.5 48z" />
    <glyph glyph-name="b" unicode="b" horiz-adv-x="554" 
d="M463.5 429.5q65.5 -68.5 65.5 -185.5q0 -76 -29.5 -134t-85.5 -90t-133 -32q-30 0 -63 13t-61 33l-26 -34h-66v695l129 11v-230q44 22 91 22q113 0 178.5 -68.5zM364 139.5q31 40.5 31 104.5t-30.5 103.5t-84.5 39.5q-42 0 -86 -29v-231q41 -28 86 -28q53 0 84 40.5z" />
    <glyph glyph-name="c" unicode="c" horiz-adv-x="472" 
d="M367 484q-50 14 -84 14q-78 0 -136.5 -31.5t-90 -89.5t-31.5 -135t31.5 -134.5t90 -88.5t136.5 -31q37 0 87 13t81 37l-37 94q-38 -17 -68 -25t-62 -8q-55 0 -90 40t-35 103t35.5 104t89.5 41q32 0 62 -8t68 -25l37 93q-34 23 -84 37z" />
    <glyph glyph-name="d" unicode="d" horiz-adv-x="572" 
d="M507 706v-706h-68l-30 44q-64 -56 -140 -56q-113 0 -178.5 68.5t-65.5 185.5q0 76 29.5 134t85.5 90t133 32q24 0 51 -8.5t52 -23.5v229zM189.5 138.5q30.5 -39.5 84.5 -39.5q26 0 50.5 10t51.5 30v207q-26 22 -50 31.5t-52 9.5q-53 0 -84 -40.5t-31 -104.5t30.5 -103.5z
" />
    <glyph glyph-name="e" unicode="e" horiz-adv-x="515" 
d="M490 244q0 71 -24 128.5t-74 91.5t-123 34q-75 0 -130 -31.5t-84.5 -89.5t-29.5 -135q0 -119 71.5 -186.5t209.5 -67.5q59 0 102 15.5t80 44.5l-38 94q-37 -21 -69 -32t-72 -11q-69 0 -102.5 27t-43.5 78h327v40zM199 362.5q27 24.5 67 24.5t65.5 -24t35.5 -72h-203
q8 47 35 71.5z" />
    <glyph glyph-name="f" unicode="f" horiz-adv-x="373" 
d="M87 384v-384h130v384h133l-41 100h-92v19q0 40 16 63.5t49 23.5q21 0 54 -13l37 94q-16 13 -45 22t-52 9q-89 0 -139 -48t-50 -133v-37h-75v-100h75z" />
    <glyph glyph-name="g" unicode="g" 
d="M507 485v-508q0 -100 -70 -153.5t-188 -53.5q-37 0 -100 15.5t-98 39.5l39 92q45 -22 82 -32t74 -11q59 1 94.5 29t35.5 75v41q-50 -31 -107 -31q-113 0 -178.5 68.5t-65.5 185.5q0 76 29.5 134t85.5 90t133 32q33 0 70.5 -16t66.5 -41l29 44h68zM324.5 109
q24.5 10 51.5 30v207q-26 22 -50 31.5t-52 9.5q-53 0 -84 -40.5t-31 -104.5t30.5 -103.5t84.5 -39.5q26 0 50.5 10z" />
    <glyph glyph-name="h" unicode="h" horiz-adv-x="575" 
d="M487 449q37 -52 37 -145v-304h-130v298q0 45 -18.5 70t-51.5 25q-34 0 -64 -15.5t-66 -41.5v-336h-129v695l129 11v-258q41 25 85 39t79 14q92 0 129 -52z" />
    <glyph glyph-name="i" unicode="i" horiz-adv-x="240" 
d="M171.5 575q21.5 21 21.5 52t-21.5 52t-52.5 21q-30 0 -51 -21t-21 -52t21 -52t51 -21q31 0 52.5 21zM185 0v485h-130v-485h130z" />
    <glyph glyph-name="j" unicode="j" horiz-adv-x="261" 
d="M84 575q-21 21 -21 52t21 52t52 21t52.5 -21t21.5 -52t-21.5 -52t-52.5 -21t-52 21zM202 -11q0 -49 -13 -81.5t-46.5 -57t-96.5 -44.5l-51 99q34 12 50.5 27.5t21 35t4.5 52.5v465h131v-496z" />
    <glyph glyph-name="k" unicode="k" horiz-adv-x="517" 
d="M194 0v159l52 46l122 -205h149l-178 288l136 119l-73 92l-208 -191v398l-129 -11v-695h129z" />
    <glyph glyph-name="l" unicode="l" horiz-adv-x="259" 
d="M194 0v706l-129 -11v-695h129z" />
    <glyph glyph-name="m" unicode="m" horiz-adv-x="855" 
d="M767.5 456.5q36.5 -44.5 36.5 -132.5v-324h-130v298q0 47 -14.5 71t-45.5 24q-30 0 -55 -14t-64 -42v-13v-324h-130v298q0 47 -14.5 71t-45.5 24q-30 0 -55 -14t-65 -43v-336h-130v485h85l22 -52q45 32 93 50t84 18q99 0 134 -66q45 31 92 48.5t83 17.5q83 0 119.5 -44.5
z" />
    <glyph glyph-name="n" unicode="n" horiz-adv-x="566" 
d="M185 336q36 26 66 41.5t64 15.5q33 0 51.5 -25t18.5 -70v-298h130v304q0 93 -37 145t-129 52q-40 0 -91 -18t-96 -50l-22 52h-85v-485h130v336z" />
    <glyph glyph-name="o" unicode="o" 
d="M511 109q-32 -58 -90.5 -89.5t-136.5 -31.5t-136.5 31t-90.5 88.5t-32 134.5t32 135t90.5 89.5t136.5 31.5t136.5 -31t90.5 -88.5t32 -134.5t-32 -135zM373.5 140q35.5 41 35.5 104t-35 103t-90 40q-54 0 -89.5 -41t-35.5 -104t35 -103t90 -40q54 0 89.5 41z" />
    <glyph glyph-name="p" unicode="p" horiz-adv-x="550" 
d="M459.5 429.5q65.5 -68.5 65.5 -185.5q0 -76 -29.5 -134t-85.5 -90t-133 -32q-41 0 -87 23v-220l-129 -10v704h66l26 -33q59 46 128 46q113 0 178.5 -68.5zM360 139.5q31 40.5 31 104.5t-30.5 103.5t-84.5 39.5q-42 0 -86 -29v-231q41 -28 86 -28q53 0 84 40.5z" />
    <glyph glyph-name="q" unicode="q" 
d="M507 485v-694l-131 -10v238q-50 -31 -107 -31q-113 0 -178.5 68.5t-65.5 185.5q0 76 29.5 134t85.5 90t133 32q33 0 70.5 -16t66.5 -41l29 44h68zM324.5 109q24.5 10 51.5 30v207q-26 22 -50 31.5t-52 9.5q-53 0 -84 -40.5t-31 -104.5t30.5 -103.5t84.5 -39.5
q26 0 50.5 10z" />
    <glyph glyph-name="r" unicode="r" horiz-adv-x="367" 
d="M185 296q42 37 90.5 61t81.5 24l-26 104q-36 0 -83 -25t-82 -56l-43 81h-68v-485h130v296z" />
    <glyph glyph-name="s" unicode="s" horiz-adv-x="422" 
d="M108 1q50 -13 87 -13q98 0 150 39.5t52 112.5q0 58 -47 98t-118 66q-37 13 -56.5 23.5t-19.5 23.5q0 17 16.5 29.5t41.5 12.5q32 0 61.5 -8t67.5 -25l39 87q-34 23 -83 37t-83 14q-87 0 -138 -39.5t-51 -108.5q0 -55 46 -91t115 -59q85 -26 85 -65q0 -20 -25 -31t-55 -11
q-53 0 -127 33l-39 -88q31 -24 81 -37z" />
    <glyph glyph-name="t" unicode="t" horiz-adv-x="381" 
d="M204 484v138l-129 -23v-115h-65v-100h65v-229q0 -83 51 -129t142 -46q24 0 53.5 9t44.5 21l-38 94q-27 -13 -53 -13q-34 0 -52.5 24t-18.5 63v206h128l-40 100h-88z" />
    <glyph glyph-name="u" unicode="u" horiz-adv-x="566" 
d="M381 149q-36 -26 -66 -41.5t-64 -15.5q-33 0 -51.5 25t-18.5 70v298h-130v-304q0 -93 37 -145t129 -52q40 0 91 18t96 50l22 -52h85v485h-130v-336z" />
    <glyph glyph-name="v" unicode="v" horiz-adv-x="502" 
d="M301 0l191 485h-137l-106 -294l-112 312l-127 -38l179 -465h112z" />
    <glyph glyph-name="w" unicode="w" horiz-adv-x="717" 
d="M552 0l155 485h-137l-69 -282l-75 282h-143l-70 -282l-75 300l-128 -38l145 -465h110l87 297l91 -297h109z" />
    <glyph glyph-name="x" unicode="x" horiz-adv-x="510" 
d="M154 0l97 146l90 -146h143l-149 228l165 257h-142l-100 -155l-110 171l-121 -37l148 -217l-165 -247h144z" />
    <glyph glyph-name="y" unicode="y" horiz-adv-x="503" 
d="M110.5 -73q-32.5 -20 -83.5 -42l46 -107q67 16 124 58.5t79 99.5l217 549h-137l-106 -294l-112 312l-128 -38l167 -431l-23 -57q-11 -30 -43.5 -50z" />
    <glyph glyph-name="z" unicode="z" horiz-adv-x="443" 
d="M413 485h-388l25 -107h204l-241 -309l17 -69h400l-10 105h-244l244 306z" />
    <glyph glyph-name="braceleft" unicode="{" horiz-adv-x="294" 
d="M217.5 350q8.5 24 8.5 58q0 20 -4.5 34.5t-13.5 32.5q-9 16 -13 28.5t-4 28.5q0 10 10.5 18.5t27.5 8.5h42l13 100h-58q-72 0 -107 -33.5t-35 -92.5q0 -26 19 -85q14 -38 14 -53q0 -19 -12.5 -31.5t-29.5 -12.5h-45v-86h45q17 0 29.5 -12.5t12.5 -31.5q0 -11 -5 -28.5
t-11 -35.5q-1 -5 -9 -29.5t-8 -42.5q0 -59 35 -93t107 -34h58l-13 100h-42q-17 0 -27.5 8.5t-10.5 18.5q0 16 4 28.5t13 32.5q9 18 13.5 32t4.5 31q0 65 -35 100q18 17 26.5 41z" />
    <glyph glyph-name="bar" unicode="|" horiz-adv-x="299" 
d="M85 713v-713l129 -10v713z" />
    <glyph glyph-name="braceright" unicode="}" horiz-adv-x="292" 
d="M66 209q0 -17 4.5 -31t13.5 -32q9 -20 13 -32.5t4 -28.5q0 -10 -10.5 -18.5t-27.5 -8.5h-42l-13 -100h58q72 0 107 34t35 93q0 18 -8 42.5t-9 29.5q-6 18 -11 35.5t-5 28.5q0 19 12.5 31.5t29.5 12.5h45v86h-45q-17 0 -29.5 12.5t-12.5 31.5q0 15 14 53q19 59 19 85
q0 59 -35 92.5t-107 33.5h-58l13 -100h42q17 0 27.5 -8.5t10.5 -18.5q0 -16 -4 -28.5t-13 -28.5q-9 -18 -13.5 -32.5t-4.5 -34.5q0 -34 8.5 -58t26.5 -41q-35 -35 -35 -100z" />
    <glyph glyph-name="asciitilde" unicode="~" horiz-adv-x="479" 
d="M146 172q1 18 9.5 28t16.5 10q21 0 35.5 -3.5t32.5 -11.5q22 -9 39.5 -13t43.5 -4q54 0 90 41.5t36 126.5h-116q-1 -19 -9 -28.5t-18 -9.5q-19 0 -33.5 3.5t-33.5 10.5q-22 9 -39.5 13t-43.5 4q-54 0 -90 -41.5t-36 -125.5h116z" />
    <glyph glyph-name="uni00A0" unicode="&#xa0;" horiz-adv-x="236" 
 />
    <glyph glyph-name="exclamdown" unicode="&#xa1;" horiz-adv-x="207" 
d="M155.5 576.5q21.5 21.5 21.5 52.5q0 30 -21.5 51.5t-52.5 21.5q-30 0 -51.5 -21.5t-21.5 -51.5q0 -31 21.5 -52.5t51.5 -21.5q31 0 52.5 21.5zM156 458l-105 47l-16 -505h135z" />
    <glyph glyph-name="cent" unicode="&#xa2;" horiz-adv-x="472" 
d="M451 38q-32 -26 -92 -40v-113h-130v107q-95 16 -149.5 82t-54.5 168t54 168.5t148 82.5v105l130 13v-124q60 -16 94 -40l-37 -93q-38 17 -68 25t-62 8q-54 0 -89.5 -41t-35.5 -104t35 -103t90 -40q32 0 62 8t68 25z" />
    <glyph glyph-name="sterling" unicode="&#xa3;" horiz-adv-x="506" 
d="M496 0l-20 101h-246q21 38 21 99v91h161l-43 99h-118v96q0 39 15.5 62.5t49.5 23.5q26 0 54 -12l38 92q-15 14 -44 23t-54 9q-90 0 -140 -48.5t-50 -132.5v-113h-75v-99h75v-104q0 -42 -15.5 -63.5t-57.5 -22.5l10 -101h439z" />
    <glyph glyph-name="currency" unicode="&#xa4;" horiz-adv-x="701" 
d="M575 108q36 57 37 135q-2 76 -37 133l96 97l-80 96l-106 -106q-62 34 -132 35q-71 -1 -137 -36l-106 107l-80 -96l99 -101q-16 -27 -25.5 -61t-9.5 -70q0 -70 34 -130l-98 -100l80 -96l106 108q66 -35 137 -36q72 1 132 34l106 -106l80 96zM460 176.5q-18 -30.5 -47 -48
t-62 -17.5q-32 0 -60 18t-45.5 48t-17.5 65t17.5 65t45.5 47.5t60 17.5q33 0 62 -17.5t47 -47t18 -65.5q0 -35 -18 -65.5z" />
    <glyph glyph-name="yen" unicode="&#xa5;" horiz-adv-x="608" 
d="M532 218h-170v-56h160l10 -96h-170v-66h-130v66h-146l-11 96h157v56h-146l-11 96h129l-194 343l128 37l158 -298l165 284h137l-206 -366h130z" />
    <glyph glyph-name="brokenbar" unicode="&#xa6;" horiz-adv-x="299" 
d="M85 713v-296l129 -11v297zM85 297v-297l129 -10v298z" />
    <glyph glyph-name="section" unicode="&#xa7;" horiz-adv-x="601" 
d="M555.5 176q-20.5 -37 -59.5 -62q6 -21 6 -46q0 -55 -29.5 -97t-87 -66t-137.5 -24q-42 0 -104.5 18.5t-96.5 39.5l29 105q37 -19 84 -33.5t86 -14.5q60 0 91 19t31 55q0 25 -24.5 45.5t-75.5 48.5l-30 18q-67 40 -106.5 69t-68 68.5t-28.5 88.5q0 45 21 82t60 62
q-7 25 -7 46q0 52 28 93.5t80.5 65t125.5 23.5q86 0 192 -51l-43 -104q-41 20 -74.5 31t-72.5 11q-45 0 -73.5 -17.5t-28.5 -51.5q0 -29 22.5 -48.5t73.5 -49.5l32 -18l29 -17q59 -34 94 -59.5t58.5 -62t23.5 -85.5q0 -45 -20.5 -82zM191.5 359.5q22.5 -19.5 73.5 -49.5
l32 -18l32 -19q62 -36 93 -60q20 18 20 47q0 25 -24.5 45.5t-75.5 48.5l-30 18q-83 49 -122 82q-21 -18 -21 -46q0 -29 22.5 -48.5z" />
    <glyph glyph-name="dieresis" unicode="&#xa8;" horiz-adv-x="341" 
d="M121 621.5q18 18.5 18 45.5t-18 46t-45 19q-28 0 -47 -19t-19 -46t19 -45.5t47 -18.5q27 0 45 18.5zM312.5 621.5q18.5 18.5 18.5 45.5t-18.5 46t-46.5 19q-26 0 -45.5 -19t-19.5 -46t19 -45.5t46 -18.5q28 0 46.5 18.5z" />
    <glyph glyph-name="copyright" unicode="&#xa9;" horiz-adv-x="823" 
d="M750 530.5q-48 87.5 -135.5 138t-203.5 50.5t-203.5 -50.5t-135 -138t-47.5 -194.5q0 -106 47.5 -193.5t135 -138t203.5 -50.5t203.5 50.5t135.5 138t48 193.5q0 107 -48 194.5zM145 495q37 70 106 110t160 40q92 0 160.5 -40t105.5 -110t37 -158t-37 -158t-105.5 -110
t-160.5 -40q-91 0 -160 40t-106 110t-37 158t37 158zM507 114q44 12 72 34l-35 97q-36 -17 -59.5 -24.5t-52.5 -7.5q-46 0 -72.5 32.5t-26.5 91.5q0 57 26.5 89.5t72.5 32.5q29 0 53 -7t59 -24l35 98q-31 20 -74.5 32.5t-74.5 12.5q-66 0 -118.5 -29t-82.5 -82t-30 -123
q0 -108 62 -171.5t169 -63.5q33 0 77 12z" />
    <glyph glyph-name="ordfeminine" unicode="&#xaa;" horiz-adv-x="327" 
d="M113 605.5q26 6.5 46 6.5q38 0 44 -36h-55q-54 1 -88.5 -28.5t-34.5 -78.5q0 -48 29.5 -77t86.5 -29q22 0 45.5 10t42.5 24l24 -26h49v212q0 53 -37.5 86t-106.5 33q-30 0 -62.5 -9t-53.5 -20l23 -82q22 8 48 14.5zM129 491.5q8 6.5 23 6.5h54v-27q-26 -18 -61 -18
q-12 0 -18 6t-6 16t8 16.5z" />
    <glyph glyph-name="guillemotleft" unicode="&#xab;" horiz-adv-x="401" 
d="M30 221l160 -138l23 86l-85 76l85 76l-23 87l-160 -139v-48zM199 221l161 -138l21 86l-84 76l84 76l-21 87l-161 -139v-48z" />
    <glyph glyph-name="logicalnot" unicode="&#xac;" horiz-adv-x="514" 
d="M476 406h-466l8 -102h357v-187l109 -5v244z" />
    <glyph glyph-name="softhyphen" unicode="&#xad;" horiz-adv-x="120" 
 />
    <glyph glyph-name="registered" unicode="&#xae;" horiz-adv-x="733" 
d="M666 660.5q-42 77.5 -119.5 122t-180.5 44.5q-102 0 -179.5 -44.5t-119.5 -122t-42 -173.5q0 -94 42 -171t119.5 -121.5t179.5 -44.5q103 0 180.5 44.5t119.5 121.5t42 171q0 96 -42 173.5zM134.5 626.5q31.5 60.5 91 94.5t140.5 34q80 0 140 -34t92 -94.5t32 -138.5
q0 -76 -32 -136.5t-92 -95.5t-140 -35q-81 0 -140.5 35t-91 95.5t-31.5 136.5q0 78 31.5 138.5zM460 465q30 15 47.5 40.5t17.5 60.5q0 57 -41 86t-106 29h-150v-377h92v143h54l62 -143h103zM411 596.5q18 -8.5 18 -34.5q0 -23 -19 -32t-55 -9h-35v84h34q39 0 57 -8.5z" />
    <glyph glyph-name="macron" unicode="&#xaf;" horiz-adv-x="282" 
d="M10 613h262l-10 103h-252v-103z" />
    <glyph glyph-name="degree" unicode="&#xb0;" horiz-adv-x="259" 
d="M45.5 690.5q-35.5 -33.5 -35.5 -80.5q0 -48 35.5 -80.5t84.5 -32.5q48 0 83.5 32.5t35.5 80.5q0 31 -16.5 57t-44 41.5t-58.5 15.5q-49 0 -84.5 -33.5zM157.5 580q-11.5 -12 -27.5 -12q-15 0 -27 13t-12 29q0 15 12 26.5t27 11.5q16 0 27.5 -12.5t11.5 -28.5
q0 -15 -11.5 -27z" />
    <glyph glyph-name="plusminus" unicode="&#xb1;" horiz-adv-x="469" 
d="M430 387h-137v144l-111 3v-147h-152l10 -89h142v-153l111 -5v158h146zM435 90h-402l7 -90h399z" />
    <glyph glyph-name="twosuperior" unicode="&#xb2;" horiz-adv-x="372" 
d="M13 728l44 -84q60 31 111 31q23 0 37 -11.5t14 -27.5q0 -33 -13.5 -56.5t-43.5 -48.5l-137 -112v-82h327l-14 90h-155l53 43q56 47 80 84.5t24 81.5q0 33 -18.5 64t-55.5 51t-91 20q-86 0 -162 -43z" />
    <glyph glyph-name="threesuperior" unicode="&#xb3;" horiz-adv-x="371" 
d="M93 757q-38 -14 -78 -40l47 -81q23 19 44 28.5t50 9.5q56 0 56 -36q0 -55 -69 -55h-49l13 -90h31q40 0 61 -17t21 -50q0 -22 -19 -37t-51 -15q-26 0 -46.5 7.5t-53.5 27.5l-50 -83q33 -23 77 -35t87 -12q53 0 93 19.5t62 53t22 75.5q0 29 -11 53.5t-27.5 40t-31.5 19.5
q23 10 42.5 38.5t19.5 60.5q0 57 -41 94.5t-118 37.5q-43 0 -81 -14z" />
    <glyph glyph-name="acute" unicode="&#xb4;" horiz-adv-x="205" 
d="M100 589l95 164h-134l-51 -139z" />
    <glyph glyph-name="mu" unicode="&#xb5;" horiz-adv-x="576" 
d="M521 485v-485h-85l-22 52q-45 -32 -96 -50t-91 -18q-14 0 -36 2v-195l-130 -10v704h130v-298q0 -45 18.5 -70t51.5 -25q34 0 64 15.5t66 41.5v336h130z" />
    <glyph glyph-name="paragraph" unicode="&#xb6;" horiz-adv-x="910" 
d="M458 578h202v-578h131v578h94v102h-592q-119 0 -193.5 -53.5t-74.5 -164.5q0 -74 38 -125t101.5 -75.5t139.5 -24.5h23v-237h131v578z" />
    <glyph glyph-name="periodcentered" unicode="&#xb7;" horiz-adv-x="206" 
d="M155.5 210q20.5 21 20.5 52t-20.5 52t-51.5 21t-52.5 -21t-21.5 -52t21.5 -52t52.5 -21t51.5 21z" />
    <glyph glyph-name="cedilla" unicode="&#xb8;" horiz-adv-x="241" 
d="M113.5 -90.5q25.5 -11.5 25.5 -29.5q0 -9 -10 -13t-24 -4q-12 0 -31.5 6.5t-33.5 13.5l-30 -76q15 -12 44.5 -20t50.5 -8q53 0 89.5 26.5t36.5 76.5q0 26 -20 51.5t-50 37.5l18 42h-93l-35 -88q37 -4 62.5 -15.5z" />
    <glyph glyph-name="onesuperior" unicode="&#xb9;" horiz-adv-x="309" 
d="M244 337v426h-77l-157 -69l46 -83l70 32v-306h118z" />
    <glyph glyph-name="ordmasculine" unicode="&#xba;" horiz-adv-x="385" 
d="M70 656.5q-45 -45.5 -45 -123.5q0 -79 42.5 -124t119.5 -46q79 1 126 46t47 122q0 79 -44 125t-124 46q-77 0 -122 -45.5zM237.5 591.5q12.5 -20.5 12.5 -61.5q0 -78 -61 -78q-29 0 -41.5 20t-12.5 61q0 79 59 79q31 0 43.5 -20.5z" />
    <glyph glyph-name="guillemotright" unicode="&#xbb;" horiz-adv-x="403" 
d="M202 269l-159 139l-23 -87l85 -76l-85 -76l23 -86l159 138v48zM373 269l-161 139l-22 -87l85 -76l-85 -76l22 -86l161 138v48z" />
    <glyph glyph-name="onequarter" unicode="&#xbc;" horiz-adv-x="917" 
d="M244 763h-77l-157 -69l46 -83l70 32v-306h118v426zM35 -134h140l587 834h-141zM886 -81l11 96h-91v307h-82l-247 -307l12 -96h198v-84h119v84h80zM687 15h-89l89 107v-107z" />
    <glyph glyph-name="onehalf" unicode="&#xbd;" horiz-adv-x="927" 
d="M244 337v426h-77l-157 -69l46 -83l70 32v-306h118zM621 700l-586 -834h140l587 834h-141zM568 281l44 -84q60 31 111 31q22 0 36.5 -15t14.5 -32q0 -32 -12.5 -51t-44.5 -46l-137 -112v-82h327l-14 90h-155l53 43q56 47 80 84.5t24 81.5q0 33 -18.5 64t-55.5 51t-91 20
q-86 0 -162 -43z" />
    <glyph glyph-name="threequarters" unicode="&#xbe;" horiz-adv-x="901" 
d="M93 757q-38 -14 -78 -40l47 -81q23 19 44 28.5t50 9.5q56 0 56 -36q0 -55 -69 -55h-49l13 -90h31q40 0 61 -17t21 -50q0 -22 -19 -37t-51 -15q-26 0 -46.5 7.5t-53.5 27.5l-50 -83q33 -23 77 -35t87 -12q53 0 93 19.5t62 53t22 75.5q0 29 -11 53.5t-27.5 40t-31.5 19.5
q23 10 42.5 38.5t19.5 60.5q0 57 -41 94.5t-118 37.5q-43 0 -81 -14zM660 700l-586 -834h140l587 834h-141zM791 322h-82l-248 -307l13 -96h198v-84h119v84h80l10 96h-90v307zM581 15l91 107v-107h-91z" />
    <glyph glyph-name="questiondown" unicode="&#xbf;" horiz-adv-x="434" 
d="M316.5 538.5q21.5 21.5 21.5 52.5q0 30 -21.5 51.5t-52.5 21.5t-52 -21.5t-21 -51.5q0 -31 21 -52.5t52 -21.5t52.5 21.5zM331.5 -23.5q47.5 13.5 92.5 42.5l-17 117q-47 -34 -92.5 -49.5t-81.5 -15.5q-37 0 -61 20t-24 52q0 41 45 78t119 61l-9 165l-92 38l-17 -136
q-71 -39 -117.5 -96.5t-46.5 -110.5q0 -81 51.5 -130t147.5 -49q55 0 102.5 13.5z" />
    <glyph glyph-name="Agrave" unicode="&#xc0;" horiz-adv-x="659" 
d="M275 680l-265 -680h130l60 160h258l61 -170l130 18l-264 672h-110zM418 265h-180l89 237zM286 739l90 25l-51 139h-134z" />
    <glyph glyph-name="Aacute" unicode="&#xc1;" horiz-adv-x="659" 
d="M275 680l-265 -680h130l60 160h258l61 -170l130 18l-264 672h-110zM418 265h-180l89 237zM366 739l95 164h-134l-51 -139z" />
    <glyph glyph-name="Acircumflex" unicode="&#xc2;" horiz-adv-x="659" 
d="M275 680l-265 -680h130l60 160h258l61 -170l130 18l-264 672h-110zM418 265h-180l89 237zM325 804l66 -65l119 16l-152 148h-71l-152 -148l123 -16z" />
    <glyph glyph-name="Atilde" unicode="&#xc3;" horiz-adv-x="659" 
d="M275 680l-265 -680h130l60 160h258l61 -170l130 18l-264 672h-110zM418 265h-180l89 237zM393 844.5q-8 -9.5 -19 -9.5q-17 0 -28 4t-26 13q-14 9 -26.5 13.5t-31.5 4.5q-45 0 -76 -29t-31 -91h86q0 10 8.5 20.5t19.5 10.5q17 0 26.5 -4t24.5 -13q12 -9 23.5 -14t31.5 -5
q45 0 76 29t31 92h-81q0 -12 -8 -21.5z" />
    <glyph glyph-name="Adieresis" unicode="&#xc4;" horiz-adv-x="659" 
d="M275 680l-265 -680h130l60 160h258l61 -170l130 18l-264 672h-110zM418 265h-180l89 237zM277 771.5q18 18.5 18 45.5t-18 46t-45 19q-28 0 -47 -19t-19 -46t19 -45.5t47 -18.5q27 0 45 18.5zM468.5 771.5q18.5 18.5 18.5 45.5t-18.5 46t-46.5 19q-26 0 -45.5 -19
t-19.5 -46t19 -45.5t46 -18.5q28 0 46.5 18.5z" />
    <glyph glyph-name="Aring" unicode="&#xc5;" horiz-adv-x="659" 
d="M275 680l-265 -680h130l60 160h258l61 -170l130 18l-264 672h-110zM418 265h-180l89 237zM250 913.5q-32 -29.5 -32 -71.5t31.5 -70t75.5 -28t75.5 28t31.5 70t-32 71.5t-75 29.5t-75 -29.5zM297 814q-12 12 -12 28t12 27.5t28 11.5t27.5 -11.5t11.5 -27.5t-11.5 -28
t-27.5 -12t-28 12z" />
    <glyph glyph-name="AE" unicode="&#xc6;" horiz-adv-x="962" 
d="M124 -10l110 170h232v-160h476l-20 101h-325v191h243l-21 103h-222v183h296l-19 102h-421l-453 -672zM466 502v-237h-162z" />
    <glyph glyph-name="Ccedilla" unicode="&#xc7;" horiz-adv-x="564" 
d="M441 -66.5q20 -25.5 20 -51.5q0 -50 -36.5 -76.5t-89.5 -26.5q-21 0 -50.5 8t-44.5 20l30 76q14 -7 33.5 -13.5t31.5 -6.5q14 0 24 4t10 13q0 18 -25.5 29.5t-62.5 15.5l26 64q-87 11 -148.5 59.5t-92.5 123t-31 165.5q0 104 40.5 185t115 126.5t172.5 45.5q36 0 88 -11
t92 -33l-40 -93l-25 7q-39 12 -62 16.5t-57 4.5q-54 0 -97 -30t-67.5 -86t-24.5 -131q0 -67 21.5 -122.5t62.5 -88t97 -32.5q74 0 149 31l49 -96q-30 -15 -70.5 -26t-80.5 -16l-7 -17q30 -12 50 -37.5z" />
    <glyph glyph-name="Egrave" unicode="&#xc8;" horiz-adv-x="581" 
d="M561 0l-21 101h-326v191h243l-21 103h-222v183h297l-20 102h-406v-680h476zM261 739l90 25l-51 139h-134z" />
    <glyph glyph-name="Eacute" unicode="&#xc9;" horiz-adv-x="581" 
d="M561 0l-21 101h-326v191h243l-21 103h-222v183h297l-20 102h-406v-680h476zM341 739l95 164h-134l-51 -139z" />
    <glyph glyph-name="Ecircumflex" unicode="&#xca;" horiz-adv-x="581" 
d="M561 0l-21 101h-326v191h243l-21 103h-222v183h297l-20 102h-406v-680h476zM300 804l66 -65l119 16l-152 148h-71l-152 -148l123 -16z" />
    <glyph glyph-name="Edieresis" unicode="&#xcb;" horiz-adv-x="581" 
d="M561 0l-21 101h-326v191h243l-21 103h-222v183h297l-20 102h-406v-680h476zM252 771.5q18 18.5 18 45.5t-18 46t-45 19q-28 0 -47 -19t-19 -46t19 -45.5t47 -18.5q27 0 45 18.5zM443.5 771.5q18.5 18.5 18.5 45.5t-18.5 46t-46.5 19q-26 0 -45.5 -19t-19.5 -46t19 -45.5
t46 -18.5q28 0 46.5 18.5z" />
    <glyph glyph-name="Igrave" unicode="&#xcc;" horiz-adv-x="299" 
d="M214 0v680h-129v-680h129zM111 739l90 25l-51 139h-134z" />
    <glyph glyph-name="Iacute" unicode="&#xcd;" horiz-adv-x="299" 
d="M214 0v680h-129v-680h129zM191 739l95 164h-134l-51 -139z" />
    <glyph glyph-name="Icircumflex" unicode="&#xce;" horiz-adv-x="299" 
d="M214 0v680h-129v-680h129zM150 804l66 -65l119 16l-152 148h-71l-152 -148l123 -16z" />
    <glyph glyph-name="Idieresis" unicode="&#xcf;" horiz-adv-x="299" 
d="M214 0v680h-129v-680h129zM102 771.5q18 18.5 18 45.5t-18 46t-45 19q-28 0 -47 -19t-19 -46t19 -45.5t47 -18.5q27 0 45 18.5zM293.5 771.5q18.5 18.5 18.5 45.5t-18.5 46t-46.5 19q-26 0 -45.5 -19t-19.5 -46t19 -45.5t46 -18.5q28 0 46.5 18.5z" />
    <glyph glyph-name="Eth" unicode="&#xd0;" horiz-adv-x="691" 
d="M516.5 637.5q70.5 -42.5 105 -118t34.5 -175.5q0 -159 -82 -250.5t-231 -94.5l-258 1v291h-56l-11 101h67v288h258q103 0 173.5 -42.5zM474.5 165.5q47.5 56.5 47.5 178.5q0 109 -43 167.5t-131 58.5h-134v-178h72l9 -101h-81v-182h127q86 0 133.5 56.5z" />
    <glyph glyph-name="Ntilde" unicode="&#xd1;" horiz-adv-x="744" 
d="M214 0v455l315 -455h130v680h-130v-454l-315 454h-129v-680h129zM444 844.5q-8 -9.5 -19 -9.5q-17 0 -28 4t-26 13q-14 9 -26.5 13.5t-31.5 4.5q-45 0 -76 -29t-31 -91h86q0 10 8.5 20.5t19.5 10.5q17 0 26.5 -4t24.5 -13q12 -9 23.5 -14t31.5 -5q45 0 76 29t31 92h-81
q0 -12 -8 -21.5z" />
    <glyph glyph-name="Ograve" unicode="&#xd2;" horiz-adv-x="737" 
d="M194 648q-76 -46 -117.5 -127t-41.5 -184q0 -99 39.5 -178.5t115 -126t178.5 -46.5q99 2 174.5 47.5t117.5 126t42 184.5q0 99 -39.5 179t-115.5 126.5t-179 46.5q-98 -2 -174 -48zM197.5 468.5q27.5 56.5 73 87t99.5 30.5q59 0 104 -31t69 -86t24 -125
q0 -81 -26.5 -137.5t-72 -84t-101.5 -27.5q-60 0 -104.5 30.5t-68.5 86t-24 126.5q0 74 27.5 130.5zM327 739l90 25l-51 139h-134z" />
    <glyph glyph-name="Oacute" unicode="&#xd3;" horiz-adv-x="737" 
d="M194 648q-76 -46 -117.5 -127t-41.5 -184q0 -99 39.5 -178.5t115 -126t178.5 -46.5q99 2 174.5 47.5t117.5 126t42 184.5q0 99 -39.5 179t-115.5 126.5t-179 46.5q-98 -2 -174 -48zM197.5 468.5q27.5 56.5 73 87t99.5 30.5q59 0 104 -31t69 -86t24 -125
q0 -81 -26.5 -137.5t-72 -84t-101.5 -27.5q-60 0 -104.5 30.5t-68.5 86t-24 126.5q0 74 27.5 130.5zM407 739l95 164h-134l-51 -139z" />
    <glyph glyph-name="Ocircumflex" unicode="&#xd4;" horiz-adv-x="737" 
d="M194 648q-76 -46 -117.5 -127t-41.5 -184q0 -99 39.5 -178.5t115 -126t178.5 -46.5q99 2 174.5 47.5t117.5 126t42 184.5q0 99 -39.5 179t-115.5 126.5t-179 46.5q-98 -2 -174 -48zM197.5 468.5q27.5 56.5 73 87t99.5 30.5q59 0 104 -31t69 -86t24 -125
q0 -81 -26.5 -137.5t-72 -84t-101.5 -27.5q-60 0 -104.5 30.5t-68.5 86t-24 126.5q0 74 27.5 130.5zM366 804l66 -65l119 16l-152 148h-71l-152 -148l123 -16z" />
    <glyph glyph-name="Otilde" unicode="&#xd5;" horiz-adv-x="737" 
d="M194 648q-76 -46 -117.5 -127t-41.5 -184q0 -99 39.5 -178.5t115 -126t178.5 -46.5q99 2 174.5 47.5t117.5 126t42 184.5q0 99 -39.5 179t-115.5 126.5t-179 46.5q-98 -2 -174 -48zM197.5 468.5q27.5 56.5 73 87t99.5 30.5q59 0 104 -31t69 -86t24 -125
q0 -81 -26.5 -137.5t-72 -84t-101.5 -27.5q-60 0 -104.5 30.5t-68.5 86t-24 126.5q0 74 27.5 130.5zM434 844.5q-8 -9.5 -19 -9.5q-17 0 -28 4t-26 13q-14 9 -26.5 13.5t-31.5 4.5q-45 0 -76 -29t-31 -91h86q0 10 8.5 20.5t19.5 10.5q17 0 26.5 -4t24.5 -13q12 -9 23.5 -14
t31.5 -5q45 0 76 29t31 92h-81q0 -12 -8 -21.5z" />
    <glyph glyph-name="Odieresis" unicode="&#xd6;" horiz-adv-x="737" 
d="M194 648q-76 -46 -117.5 -127t-41.5 -184q0 -99 39.5 -178.5t115 -126t178.5 -46.5q99 2 174.5 47.5t117.5 126t42 184.5q0 99 -39.5 179t-115.5 126.5t-179 46.5q-98 -2 -174 -48zM197.5 468.5q27.5 56.5 73 87t99.5 30.5q59 0 104 -31t69 -86t24 -125
q0 -81 -26.5 -137.5t-72 -84t-101.5 -27.5q-60 0 -104.5 30.5t-68.5 86t-24 126.5q0 74 27.5 130.5zM318 771.5q18 18.5 18 45.5t-18 46t-45 19q-28 0 -47 -19t-19 -46t19 -45.5t47 -18.5q27 0 45 18.5zM509.5 771.5q18.5 18.5 18.5 45.5t-18.5 46t-46.5 19q-26 0 -45.5 -19
t-19.5 -46t19 -45.5t46 -18.5q28 0 46.5 18.5z" />
    <glyph glyph-name="multiply" unicode="&#xd7;" horiz-adv-x="569" 
d="M346 256l177 -227h-133l-107 137l-119 -137h-134l193 228l-177 227h133l107 -137l119 137h134z" />
    <glyph glyph-name="Oslash" unicode="&#xd8;" horiz-adv-x="737" 
d="M547 649.5q76 -46.5 115.5 -126.5t39.5 -179q0 -104 -42 -184.5t-117.5 -126t-174.5 -47.5q-103 0 -178.5 46.5t-115 126t-39.5 178.5q0 103 41.5 184t117.5 127t174 48q103 0 179 -46.5zM270.5 555.5q-45.5 -30.5 -73 -87t-27.5 -130.5q0 -56 15 -103t44 -79l178 427
q-18 3 -37 3q-54 0 -99.5 -30.5zM468.5 122.5q45.5 27.5 72 84t26.5 137.5q0 105 -51 171l-175 -418q16 -2 26 -2q56 0 101.5 27.5z" />
    <glyph glyph-name="Ugrave" unicode="&#xd9;" horiz-adv-x="710" 
d="M75 680l1 -433q0 -73 34 -132t97 -92.5t146 -33.5q84 0 148 33.5t99 92t35 132.5v433h-131v-423q0 -79 -40.5 -120.5t-108.5 -41.5t-108.5 40.5t-40.5 121.5v423h-131zM314 739l90 25l-51 139h-134z" />
    <glyph glyph-name="Uacute" unicode="&#xda;" horiz-adv-x="710" 
d="M75 680l1 -433q0 -73 34 -132t97 -92.5t146 -33.5q84 0 148 33.5t99 92t35 132.5v433h-131v-423q0 -79 -40.5 -120.5t-108.5 -41.5t-108.5 40.5t-40.5 121.5v423h-131zM394 739l95 164h-134l-51 -139z" />
    <glyph glyph-name="Ucircumflex" unicode="&#xdb;" horiz-adv-x="710" 
d="M75 680l1 -433q0 -73 34 -132t97 -92.5t146 -33.5q84 0 148 33.5t99 92t35 132.5v433h-131v-423q0 -79 -40.5 -120.5t-108.5 -41.5t-108.5 40.5t-40.5 121.5v423h-131zM353 804l66 -65l119 16l-152 148h-71l-152 -148l123 -16z" />
    <glyph glyph-name="Udieresis" unicode="&#xdc;" horiz-adv-x="710" 
d="M75 680l1 -433q0 -73 34 -132t97 -92.5t146 -33.5q84 0 148 33.5t99 92t35 132.5v433h-131v-423q0 -79 -40.5 -120.5t-108.5 -41.5t-108.5 40.5t-40.5 121.5v423h-131zM305 771.5q18 18.5 18 45.5t-18 46t-45 19q-28 0 -47 -19t-19 -46t19 -45.5t47 -18.5q27 0 45 18.5z
M496.5 771.5q18.5 18.5 18.5 45.5t-18.5 46t-46.5 19q-26 0 -45.5 -19t-19.5 -46t19 -45.5t46 -18.5q28 0 46.5 18.5z" />
    <glyph glyph-name="Yacute" unicode="&#xdd;" horiz-adv-x="608" 
d="M362 0v260l236 420h-137l-165 -284l-158 298l-128 -37l222 -392v-265h130zM335 739l95 164h-134l-51 -139z" />
    <glyph glyph-name="Thorn" unicode="&#xde;" horiz-adv-x="607" 
d="M492.5 546.5q74.5 -53.5 74.5 -164.5q0 -74 -38.5 -125t-101.5 -75.5t-138 -24.5h-75v-157h-129v680h129v-80h84q120 0 194.5 -53.5zM391 291.5q35 27.5 39 82.5q0 63 -34.5 90.5t-101.5 27.5h-80v-228h82q60 0 95 27.5z" />
    <glyph glyph-name="germandbls" unicode="&#xdf;" horiz-adv-x="626" 
d="M194 0v471q0 54 31.5 86.5t80.5 32.5q44 0 74.5 -25t30.5 -66q0 -40 -32 -68t-84 -28h-35v-104h94q43 0 74 -29t31 -71q0 -39 -33.5 -65.5t-80.5 -26.5h-91v-107h100q72 0 127 24t85 68t30 103q0 43 -19 80.5t-49 63t-62 33.5q34 16 57.5 56t23.5 80q0 93 -69 143.5
t-178 50.5q-110 0 -172.5 -62.5t-62.5 -166.5v-473h129z" />
    <glyph glyph-name="agrave" unicode="&#xe0;" horiz-adv-x="503" 
d="M170 368.5q40 9.5 73 9.5q36 0 56.5 -20.5t21.5 -57.5h-95q-84 0 -134 -40.5t-50 -114.5q0 -72 44 -114.5t131 -42.5q67 0 128 64l22 -52h85v319q0 51 -28.5 92t-76.5 64t-106 23q-34 0 -91 -13.5t-83 -30.5l35 -108q28 13 68 22.5zM172.5 193q19.5 20 51.5 20h98v-74
q-49 -48 -107 -48q-27 0 -44.5 16t-17.5 38q0 28 19.5 48zM236 589l90 25l-51 139h-134z" />
    <glyph glyph-name="aacute" unicode="&#xe1;" horiz-adv-x="503" 
d="M170 368.5q40 9.5 73 9.5q36 0 56.5 -20.5t21.5 -57.5h-95q-84 0 -134 -40.5t-50 -114.5q0 -72 44 -114.5t131 -42.5q67 0 128 64l22 -52h85v319q0 51 -28.5 92t-76.5 64t-106 23q-34 0 -91 -13.5t-83 -30.5l35 -108q28 13 68 22.5zM172.5 193q19.5 20 51.5 20h98v-74
q-49 -48 -107 -48q-27 0 -44.5 16t-17.5 38q0 28 19.5 48zM264 589l95 164h-134l-51 -139z" />
    <glyph glyph-name="acircumflex" unicode="&#xe2;" horiz-adv-x="503" 
d="M170 368.5q40 9.5 73 9.5q36 0 56.5 -20.5t21.5 -57.5h-95q-84 0 -134 -40.5t-50 -114.5q0 -72 44 -114.5t131 -42.5q67 0 128 64l22 -52h85v319q0 51 -28.5 92t-76.5 64t-106 23q-34 0 -91 -13.5t-83 -30.5l35 -108q28 13 68 22.5zM172.5 193q19.5 20 51.5 20h98v-74
q-49 -48 -107 -48q-27 0 -44.5 16t-17.5 38q0 28 19.5 48zM250 654l66 -65l119 16l-152 148h-71l-152 -148l123 -16z" />
    <glyph glyph-name="atilde" unicode="&#xe3;" horiz-adv-x="503" 
d="M170 368.5q40 9.5 73 9.5q36 0 56.5 -20.5t21.5 -57.5h-95q-84 0 -134 -40.5t-50 -114.5q0 -72 44 -114.5t131 -42.5q67 0 128 64l22 -52h85v319q0 51 -28.5 92t-76.5 64t-106 23q-34 0 -91 -13.5t-83 -30.5l35 -108q28 13 68 22.5zM172.5 193q19.5 20 51.5 20h98v-74
q-49 -48 -107 -48q-27 0 -44.5 16t-17.5 38q0 28 19.5 48zM324 694.5q-8 -9.5 -19 -9.5q-17 0 -28 4t-26 13q-14 9 -26.5 13.5t-31.5 4.5q-45 0 -76 -29t-31 -91h86q0 10 8.5 20.5t19.5 10.5q17 0 26.5 -4t24.5 -13q12 -9 23.5 -14t31.5 -5q45 0 76 29t31 92h-81
q0 -12 -8 -21.5z" />
    <glyph glyph-name="adieresis" unicode="&#xe4;" horiz-adv-x="503" 
d="M170 368.5q40 9.5 73 9.5q36 0 56.5 -20.5t21.5 -57.5h-95q-84 0 -134 -40.5t-50 -114.5q0 -72 44 -114.5t131 -42.5q67 0 128 64l22 -52h85v319q0 51 -28.5 92t-76.5 64t-106 23q-34 0 -91 -13.5t-83 -30.5l35 -108q28 13 68 22.5zM172.5 193q19.5 20 51.5 20h98v-74
q-49 -48 -107 -48q-27 0 -44.5 16t-17.5 38q0 28 19.5 48zM194 621.5q18 18.5 18 45.5t-18 46t-45 19q-28 0 -47 -19t-19 -46t19 -45.5t47 -18.5q27 0 45 18.5zM385.5 621.5q18.5 18.5 18.5 45.5t-18.5 46t-46.5 19q-26 0 -45.5 -19t-19.5 -46t19 -45.5t46 -18.5
q28 0 46.5 18.5z" />
    <glyph glyph-name="aring" unicode="&#xe5;" horiz-adv-x="503" 
d="M170 368.5q40 9.5 73 9.5q36 0 56.5 -20.5t21.5 -57.5h-95q-84 0 -134 -40.5t-50 -114.5q0 -72 44 -114.5t131 -42.5q67 0 128 64l22 -52h85v319q0 51 -28.5 92t-76.5 64t-106 23q-34 0 -91 -13.5t-83 -30.5l35 -108q28 13 68 22.5zM172.5 193q19.5 20 51.5 20h98v-74
q-49 -48 -107 -48q-27 0 -44.5 16t-17.5 38q0 28 19.5 48zM171 763.5q-32 -29.5 -32 -71.5t31.5 -70t75.5 -28t75.5 28t31.5 70t-32 71.5t-75 29.5t-75 -29.5zM218 664q-12 12 -12 28t12 27.5t28 11.5t27.5 -11.5t11.5 -27.5t-11.5 -28t-27.5 -12t-28 12z" />
    <glyph glyph-name="ae" unicode="&#xe6;" horiz-adv-x="813" 
d="M788 204h-327q10 -51 43.5 -78t102.5 -27q40 0 72 11t69 32l38 -94q-37 -29 -80 -44.5t-102 -15.5q-144 0 -217 75q-35 -34 -73.5 -54.5t-96.5 -20.5q-87 0 -131 42.5t-44 114.5q0 74 50 114.5t134 40.5h95q-1 37 -21.5 57.5t-56.5 20.5q-33 0 -73 -9.5t-68 -22.5
l-35 108q26 17 83 30.5t91 13.5q47 0 88 -15.5t71 -43.5q64 59 167 59q73 0 123 -34t74 -91.5t24 -128.5v-40zM665 291q-10 48 -35.5 72t-65.5 24t-67 -24.5t-35 -71.5h203zM286.5 104.5q27.5 13.5 51.5 39.5q-11 33 -14 69h-100q-32 0 -51.5 -20t-19.5 -48q0 -22 17.5 -38
t44.5 -16q44 0 71.5 13.5z" />
    <glyph glyph-name="ccedilla" unicode="&#xe7;" horiz-adv-x="472" 
d="M387.5 6.5q-38.5 -12.5 -75.5 -16.5l-8 -19q30 -12 50 -37.5t20 -51.5q0 -50 -36.5 -76.5t-89.5 -26.5q-21 0 -50.5 8t-44.5 20l30 76q14 -7 33.5 -13.5t31.5 -6.5q14 0 24 4t10 13q0 18 -25.5 29.5t-62.5 15.5l27 69q-91 17 -143.5 82.5t-52.5 165.5q0 77 31.5 135
t90 89.5t136.5 31.5q34 0 84 -14t84 -37l-37 -93q-38 17 -68 25t-62 8q-54 0 -89.5 -41t-35.5 -104t35 -103t90 -40q32 0 62 8t68 25l37 -94q-25 -19 -63.5 -31.5z" />
    <glyph glyph-name="egrave" unicode="&#xe8;" horiz-adv-x="515" 
d="M490 244q0 71 -24 128.5t-74 91.5t-123 34q-75 0 -130 -31.5t-84.5 -89.5t-29.5 -135q0 -119 71.5 -186.5t209.5 -67.5q59 0 102 15.5t80 44.5l-38 94q-37 -21 -69 -32t-72 -11q-69 0 -102.5 27t-43.5 78h327v40zM199 362.5q27 24.5 67 24.5t65.5 -24t35.5 -72h-203
q8 47 35 71.5zM248 589l90 25l-51 139h-134z" />
    <glyph glyph-name="eacute" unicode="&#xe9;" horiz-adv-x="515" 
d="M490 244q0 71 -24 128.5t-74 91.5t-123 34q-75 0 -130 -31.5t-84.5 -89.5t-29.5 -135q0 -119 71.5 -186.5t209.5 -67.5q59 0 102 15.5t80 44.5l-38 94q-37 -21 -69 -32t-72 -11q-69 0 -102.5 27t-43.5 78h327v40zM199 362.5q27 24.5 67 24.5t65.5 -24t35.5 -72h-203
q8 47 35 71.5zM276 589l95 164h-134l-51 -139z" />
    <glyph glyph-name="ecircumflex" unicode="&#xea;" horiz-adv-x="515" 
d="M490 244q0 71 -24 128.5t-74 91.5t-123 34q-75 0 -130 -31.5t-84.5 -89.5t-29.5 -135q0 -119 71.5 -186.5t209.5 -67.5q59 0 102 15.5t80 44.5l-38 94q-37 -21 -69 -32t-72 -11q-69 0 -102.5 27t-43.5 78h327v40zM199 362.5q27 24.5 67 24.5t65.5 -24t35.5 -72h-203
q8 47 35 71.5zM262 654l66 -65l119 16l-152 148h-71l-152 -148l123 -16z" />
    <glyph glyph-name="edieresis" unicode="&#xeb;" horiz-adv-x="515" 
d="M490 244q0 71 -24 128.5t-74 91.5t-123 34q-75 0 -130 -31.5t-84.5 -89.5t-29.5 -135q0 -119 71.5 -186.5t209.5 -67.5q59 0 102 15.5t80 44.5l-38 94q-37 -21 -69 -32t-72 -11q-69 0 -102.5 27t-43.5 78h327v40zM199 362.5q27 24.5 67 24.5t65.5 -24t35.5 -72h-203
q8 47 35 71.5zM206 621.5q18 18.5 18 45.5t-18 46t-45 19q-28 0 -47 -19t-19 -46t19 -45.5t47 -18.5q27 0 45 18.5zM397.5 621.5q18.5 18.5 18.5 45.5t-18.5 46t-46.5 19q-26 0 -45.5 -19t-19.5 -46t19 -45.5t46 -18.5q28 0 46.5 18.5z" />
    <glyph glyph-name="igrave" unicode="&#xec;" horiz-adv-x="240" 
d="M185 0v485h-130v-485h130zM101 589l90 25l-51 139h-134z" />
    <glyph glyph-name="iacute" unicode="&#xed;" horiz-adv-x="240" 
d="M185 0v485h-130v-485h130zM129 589l95 164h-134l-51 -139z" />
    <glyph glyph-name="icircumflex" unicode="&#xee;" horiz-adv-x="240" 
d="M185 0v485h-130v-485h130zM115 654l66 -65l119 16l-152 148h-71l-152 -148l123 -16z" />
    <glyph glyph-name="idieresis" unicode="&#xef;" horiz-adv-x="240" 
d="M185 0v485h-130v-485h130zM59 621.5q18 18.5 18 45.5t-18 46t-45 19q-28 0 -47 -19t-19 -46t19 -45.5t47 -18.5q27 0 45 18.5zM250.5 621.5q18.5 18.5 18.5 45.5t-18.5 46t-46.5 19q-26 0 -45.5 -19t-19.5 -46t19 -45.5t46 -18.5q28 0 46.5 18.5z" />
    <glyph glyph-name="eth" unicode="&#xf0;" 
d="M491 452.5q52 -91.5 52 -182.5q0 -87 -32 -151t-90.5 -97.5t-136.5 -33.5t-136.5 31t-90.5 88.5t-32 134.5q0 76 31.5 134.5t88 90t129.5 31.5q9 0 27 -2q-27 30 -65 60l-131 -71l-51 92l82 43q-27 15 -72 35l50 94q74 -21 145 -64l108 57l50 -89l-65 -35
q87 -74 139 -165.5zM373.5 140q35.5 41 35.5 104q0 64 -23 122q-45 21 -102 21q-54 0 -89.5 -41t-35.5 -104t35 -103t90 -40q54 0 89.5 41z" />
    <glyph glyph-name="ntilde" unicode="&#xf1;" horiz-adv-x="566" 
d="M185 336q36 26 66 41.5t64 15.5q33 0 51.5 -25t18.5 -70v-298h130v304q0 93 -37 145t-129 52q-40 0 -91 -18t-96 -50l-22 52h-85v-485h130v336zM365 694.5q-8 -9.5 -19 -9.5q-17 0 -28 4t-26 13q-14 9 -26.5 13.5t-31.5 4.5q-45 0 -76 -29t-31 -91h86q0 10 8.5 20.5
t19.5 10.5q17 0 26.5 -4t24.5 -13q12 -9 23.5 -14t31.5 -5q45 0 76 29t31 92h-81q0 -12 -8 -21.5z" />
    <glyph glyph-name="ograve" unicode="&#xf2;" 
d="M511 109q-32 -58 -90.5 -89.5t-136.5 -31.5t-136.5 31t-90.5 88.5t-32 134.5t32 135t90.5 89.5t136.5 31.5t136.5 -31t90.5 -88.5t32 -134.5t-32 -135zM373.5 140q35.5 41 35.5 104t-35 103t-90 40q-54 0 -89.5 -41t-35.5 -104t35 -103t90 -40q54 0 89.5 41zM264 589
l90 25l-51 139h-134z" />
    <glyph glyph-name="oacute" unicode="&#xf3;" 
d="M511 109q-32 -58 -90.5 -89.5t-136.5 -31.5t-136.5 31t-90.5 88.5t-32 134.5t32 135t90.5 89.5t136.5 31.5t136.5 -31t90.5 -88.5t32 -134.5t-32 -135zM373.5 140q35.5 41 35.5 104t-35 103t-90 40q-54 0 -89.5 -41t-35.5 -104t35 -103t90 -40q54 0 89.5 41zM292 589
l95 164h-134l-51 -139z" />
    <glyph glyph-name="ocircumflex" unicode="&#xf4;" 
d="M511 109q-32 -58 -90.5 -89.5t-136.5 -31.5t-136.5 31t-90.5 88.5t-32 134.5t32 135t90.5 89.5t136.5 31.5t136.5 -31t90.5 -88.5t32 -134.5t-32 -135zM373.5 140q35.5 41 35.5 104t-35 103t-90 40q-54 0 -89.5 -41t-35.5 -104t35 -103t90 -40q54 0 89.5 41zM278 654
l66 -65l119 16l-152 148h-71l-152 -148l123 -16z" />
    <glyph glyph-name="otilde" unicode="&#xf5;" 
d="M511 109q-32 -58 -90.5 -89.5t-136.5 -31.5t-136.5 31t-90.5 88.5t-32 134.5t32 135t90.5 89.5t136.5 31.5t136.5 -31t90.5 -88.5t32 -134.5t-32 -135zM373.5 140q35.5 41 35.5 104t-35 103t-90 40q-54 0 -89.5 -41t-35.5 -104t35 -103t90 -40q54 0 89.5 41zM352 694.5
q-8 -9.5 -19 -9.5q-17 0 -28 4t-26 13q-14 9 -26.5 13.5t-31.5 4.5q-45 0 -76 -29t-31 -91h86q0 10 8.5 20.5t19.5 10.5q17 0 26.5 -4t24.5 -13q12 -9 23.5 -14t31.5 -5q45 0 76 29t31 92h-81q0 -12 -8 -21.5z" />
    <glyph glyph-name="odieresis" unicode="&#xf6;" 
d="M511 109q-32 -58 -90.5 -89.5t-136.5 -31.5t-136.5 31t-90.5 88.5t-32 134.5t32 135t90.5 89.5t136.5 31.5t136.5 -31t90.5 -88.5t32 -134.5t-32 -135zM373.5 140q35.5 41 35.5 104t-35 103t-90 40q-54 0 -89.5 -41t-35.5 -104t35 -103t90 -40q54 0 89.5 41zM222 621.5
q18 18.5 18 45.5t-18 46t-45 19q-28 0 -47 -19t-19 -46t19 -45.5t47 -18.5q27 0 45 18.5zM413.5 621.5q18.5 18.5 18.5 45.5t-18.5 46t-46.5 19q-26 0 -45.5 -19t-19.5 -46t19 -45.5t46 -18.5q28 0 46.5 18.5z" />
    <glyph glyph-name="divide" unicode="&#xf7;" horiz-adv-x="509" 
d="M308 382.5q23 22.5 23 53.5q0 33 -23 55.5t-55 22.5t-54.5 -22.5t-22.5 -55.5q0 -31 22.5 -53.5t54.5 -22.5t55 22.5zM468 325h-438l9 -102h440zM308 47q23 23 23 54q0 33 -23 55.5t-55 22.5t-54.5 -22.5t-22.5 -55.5q0 -31 22.5 -54t54.5 -23t55 23z" />
    <glyph glyph-name="oslash" unicode="&#xf8;" 
d="M420.5 467q58.5 -31 90.5 -88.5t32 -134.5t-32 -135t-90.5 -89.5t-136.5 -31.5t-136.5 31t-90.5 88.5t-32 134.5t32 135t90.5 89.5t136.5 31.5t136.5 -31zM194.5 346q-35.5 -41 -35.5 -104q0 -47 20 -82l128 225q-14 2 -23 2q-54 0 -89.5 -41zM373.5 140
q35.5 41 35.5 104q0 43 -17 75l-129 -218q14 -2 21 -2q54 0 89.5 41z" />
    <glyph glyph-name="ugrave" unicode="&#xf9;" horiz-adv-x="566" 
d="M381 149q-36 -26 -66 -41.5t-64 -15.5q-33 0 -51.5 25t-18.5 70v298h-130v-304q0 -93 37 -145t129 -52q40 0 91 18t96 50l22 -52h85v485h-130v-336zM268 589l90 25l-51 139h-134z" />
    <glyph glyph-name="uacute" unicode="&#xfa;" horiz-adv-x="566" 
d="M381 149q-36 -26 -66 -41.5t-64 -15.5q-33 0 -51.5 25t-18.5 70v298h-130v-304q0 -93 37 -145t129 -52q40 0 91 18t96 50l22 -52h85v485h-130v-336zM296 589l95 164h-134l-51 -139z" />
    <glyph glyph-name="ucircumflex" unicode="&#xfb;" horiz-adv-x="566" 
d="M381 149q-36 -26 -66 -41.5t-64 -15.5q-33 0 -51.5 25t-18.5 70v298h-130v-304q0 -93 37 -145t129 -52q40 0 91 18t96 50l22 -52h85v485h-130v-336zM282 654l66 -65l119 16l-152 148h-71l-152 -148l123 -16z" />
    <glyph glyph-name="udieresis" unicode="&#xfc;" horiz-adv-x="566" 
d="M381 149q-36 -26 -66 -41.5t-64 -15.5q-33 0 -51.5 25t-18.5 70v298h-130v-304q0 -93 37 -145t129 -52q40 0 91 18t96 50l22 -52h85v485h-130v-336zM226 621.5q18 18.5 18 45.5t-18 46t-45 19q-28 0 -47 -19t-19 -46t19 -45.5t47 -18.5q27 0 45 18.5zM417.5 621.5
q18.5 18.5 18.5 45.5t-18.5 46t-46.5 19q-26 0 -45.5 -19t-19.5 -46t19 -45.5t46 -18.5q28 0 46.5 18.5z" />
    <glyph glyph-name="yacute" unicode="&#xfd;" horiz-adv-x="503" 
d="M110.5 -73q-32.5 -20 -83.5 -42l46 -107q67 16 124 58.5t79 99.5l217 549h-137l-106 -294l-112 312l-128 -38l167 -431l-23 -57q-11 -30 -43.5 -50zM256 590l95 164h-134l-51 -139z" />
    <glyph glyph-name="thorn" unicode="&#xfe;" horiz-adv-x="550" 
d="M459.5 429.5q65.5 -68.5 65.5 -185.5q0 -76 -29.5 -134t-85.5 -90t-133 -32q-38 0 -87 26v-223l-129 -10v914l129 11v-232q48 24 91 24q113 0 178.5 -68.5zM360 139.5q31 40.5 31 104.5t-30.5 103.5t-84.5 39.5q-42 0 -86 -29v-231q41 -28 86 -28q53 0 84 40.5z" />
    <glyph glyph-name="ydieresis" unicode="&#xff;" horiz-adv-x="503" 
d="M110.5 -73q-32.5 -20 -83.5 -42l46 -107q67 16 124 58.5t79 99.5l217 549h-137l-106 -294l-112 312l-128 -38l167 -431l-23 -57q-11 -30 -43.5 -50zM186 622.5q18 18.5 18 45.5t-18 46t-45 19q-28 0 -47 -19t-19 -46t19 -45.5t47 -18.5q27 0 45 18.5zM377.5 622.5
q18.5 18.5 18.5 45.5t-18.5 46t-46.5 19q-26 0 -45.5 -19t-19.5 -46t19 -45.5t46 -18.5q28 0 46.5 18.5z" />
    <glyph glyph-name="Amacron" unicode="&#x100;" horiz-adv-x="659" 
d="M275 680l-265 -680h130l60 160h258l61 -170l130 18l-264 672h-110zM418 265h-180l89 237zM191 763h262l-10 103h-252v-103z" />
    <glyph glyph-name="amacron" unicode="&#x101;" horiz-adv-x="503" 
d="M170 368.5q40 9.5 73 9.5q36 0 56.5 -20.5t21.5 -57.5h-95q-84 0 -134 -40.5t-50 -114.5q0 -72 44 -114.5t131 -42.5q67 0 128 64l22 -52h85v319q0 51 -28.5 92t-76.5 64t-106 23q-34 0 -91 -13.5t-83 -30.5l35 -108q28 13 68 22.5zM172.5 193q19.5 20 51.5 20h98v-74
q-49 -48 -107 -48q-27 0 -44.5 16t-17.5 38q0 28 19.5 48zM117 613h262l-10 103h-252v-103z" />
    <glyph glyph-name="Abreve" unicode="&#x102;" horiz-adv-x="659" 
d="M275 680l-265 -680h130l60 160h258l61 -170l130 18l-264 672h-110zM418 265h-180l89 237zM371 853q-15 -21 -45 -21t-44 20.5t-14 50.5h-89q0 -68 38 -115.5t109 -48.5q71 1 109 48.5t38 115.5h-87q0 -29 -15 -50z" />
    <glyph glyph-name="abreve" unicode="&#x103;" horiz-adv-x="503" 
d="M170 368.5q40 9.5 73 9.5q36 0 56.5 -20.5t21.5 -57.5h-95q-84 0 -134 -40.5t-50 -114.5q0 -72 44 -114.5t131 -42.5q67 0 128 64l22 -52h85v319q0 51 -28.5 92t-76.5 64t-106 23q-34 0 -91 -13.5t-83 -30.5l35 -108q28 13 68 22.5zM172.5 193q19.5 20 51.5 20h98v-74
q-49 -48 -107 -48q-27 0 -44.5 16t-17.5 38q0 28 19.5 48zM299 703q-15 -21 -45 -21t-44 20.5t-14 50.5h-89q0 -68 38 -115.5t109 -48.5q71 1 109 48.5t38 115.5h-87q0 -29 -15 -50z" />
    <glyph glyph-name="Aogonek" unicode="&#x104;" horiz-adv-x="659" 
d="M715 -170q-44 -33 -102 -33q-51 0 -85 33t-34 80q0 16 7.5 38.5t17.5 41.5l-61 170h-258l-60 -160h-130l265 680h110l264 -671h1l-1 -1v0q-15 -15 -29 -41.5t-14 -45.5q0 -12 8 -20t23 -8q7 0 18.5 4.5t22.5 12.5zM238 265h180l-91 237z" />
    <glyph glyph-name="aogonek" unicode="&#x105;" horiz-adv-x="503" 
d="M517 -179q-44 -33 -102 -33q-51 0 -83.5 33t-32.5 80q0 44 14.5 71t41.5 57l-10 23q-61 -64 -128 -64q-87 0 -131 42.5t-44 114.5q0 74 50 114.5t134 40.5h95q-1 37 -21.5 57.5t-56.5 20.5q-33 0 -73 -9.5t-68 -22.5l-35 108q26 17 83 30.5t91 13.5q58 0 106 -23
t76.5 -64t28.5 -92v-319q-15 -14 -29.5 -41t-14.5 -47q0 -12 8 -20t23 -8q7 0 18.5 4.5t22.5 12.5zM322 213h-98q-32 0 -51.5 -20t-19.5 -48q0 -22 17.5 -38t44.5 -16q58 0 107 48v74z" />
    <glyph glyph-name="Cacute" unicode="&#x106;" horiz-adv-x="564" 
d="M451 683q-52 11 -88 11q-98 0 -172.5 -45.5t-115 -126.5t-40.5 -185q0 -100 37 -179.5t110 -125.5t176 -46q44 0 98.5 12t92.5 32l-49 96q-75 -31 -149 -31q-56 0 -97 32.5t-62.5 88t-21.5 122.5q0 75 24.5 131t67.5 86t97 30q34 0 57 -4.5t62 -16.5l25 -7l40 93
q-40 22 -92 33zM403 739l95 164h-134l-51 -139z" />
    <glyph glyph-name="cacute" unicode="&#x107;" horiz-adv-x="472" 
d="M367 484q-50 14 -84 14q-78 0 -136.5 -31.5t-90 -89.5t-31.5 -135t31.5 -134.5t90 -88.5t136.5 -31q37 0 87 13t81 37l-37 94q-38 -17 -68 -25t-62 -8q-55 0 -90 40t-35 103t35.5 104t89.5 41q32 0 62 -8t68 -25l37 93q-34 23 -84 37zM270 589l95 164h-134l-51 -139z" />
    <glyph glyph-name="Ccaron" unicode="&#x10c;" horiz-adv-x="564" 
d="M451 683q-52 11 -88 11q-98 0 -172.5 -45.5t-115 -126.5t-40.5 -185q0 -100 37 -179.5t110 -125.5t176 -46q44 0 98.5 12t92.5 32l-49 96q-75 -31 -149 -31q-56 0 -97 32.5t-62.5 88t-21.5 122.5q0 75 24.5 131t67.5 86t97 30q34 0 57 -4.5t62 -16.5l25 -7l40 93
q-40 22 -92 33zM368 838l-67 65l-123 -16l152 -148h71l152 148l-119 16z" />
    <glyph glyph-name="ccaron" unicode="&#x10d;" horiz-adv-x="472" 
d="M367 484q-50 14 -84 14q-78 0 -136.5 -31.5t-90 -89.5t-31.5 -135t31.5 -134.5t90 -88.5t136.5 -31q37 0 87 13t81 37l-37 94q-38 -17 -68 -25t-62 -8q-55 0 -90 40t-35 103t35.5 104t89.5 41q32 0 62 -8t68 -25l37 93q-34 23 -84 37zM263 688l-67 65l-123 -16l152 -148
h71l152 148l-119 16z" />
    <glyph glyph-name="Dcaron" unicode="&#x10e;" horiz-adv-x="691" 
d="M574.5 92.5q81.5 90.5 81.5 251.5q0 100 -34.5 175.5t-105 118t-173.5 42.5h-258v-680h258q150 2 231.5 92.5zM479 511.5q43 -58.5 43 -167.5q0 -122 -47.5 -178.5t-133.5 -56.5h-127v461h134q88 0 131 -58.5zM331 838l-67 65l-123 -16l152 -148h71l152 148l-119 16z" />
    <glyph glyph-name="dcaron" unicode="&#x10f;" horiz-adv-x="767" 
d="M715 717q22 -25 22 -64q0 -57 -37.5 -117.5t-94.5 -92.5l-28 61q32 28 46.5 46t20.5 47q-18 0 -37 22.5t-19 48.5q0 27 21.5 50.5t51.5 23.5q32 0 54 -25zM376 695l131 11v-706h-68l-30 44q-64 -56 -140 -56q-113 0 -178.5 68.5t-65.5 185.5q0 76 29.5 134t85.5 90
t133 32q24 0 51 -8.5t52 -23.5v229zM189.5 138.5q30.5 -39.5 84.5 -39.5q26 0 50.5 10t51.5 30v207q-26 22 -50 31.5t-52 9.5q-53 0 -84 -40.5t-31 -104.5t30.5 -103.5z" />
    <glyph glyph-name="Dcroat" unicode="&#x110;" horiz-adv-x="691" 
d="M516.5 637.5q70.5 -42.5 105 -118t34.5 -175.5q0 -161 -81.5 -251.5t-231.5 -92.5h-258v291h-56l-11 101h67v288h258q103 0 173.5 -42.5zM474.5 165.5q47.5 56.5 47.5 178.5q0 109 -43 167.5t-131 58.5h-134v-178h72l9 -101h-81v-182h127q86 0 133.5 56.5z" />
    <glyph glyph-name="dcroat" unicode="&#x111;" horiz-adv-x="572" 
d="M577 545h-70v-545h-68l-31 45q-32 -27 -68.5 -42t-70.5 -15q-113 0 -178.5 68.5t-65.5 185.5q0 76 29.5 134t85.5 90t133 32q21 0 48.5 -9.5t54.5 -24.5v81h-60l-12 95h72v55l131 11v-66h59zM189.5 138.5q30.5 -39.5 84.5 -39.5q26 0 50.5 10t51.5 30v207
q-26 22 -50 31.5t-52 9.5q-53 0 -84 -40.5t-31 -104.5t30.5 -103.5z" />
    <glyph glyph-name="Emacron" unicode="&#x112;" horiz-adv-x="581" 
d="M561 0l-21 101h-326v191h243l-21 103h-222v183h297l-20 102h-406v-680h476zM166 763h262l-10 103h-252v-103z" />
    <glyph glyph-name="emacron" unicode="&#x113;" horiz-adv-x="515" 
d="M490 244q0 71 -24 128.5t-74 91.5t-123 34q-75 0 -130 -31.5t-84.5 -89.5t-29.5 -135q0 -119 71.5 -186.5t209.5 -67.5q59 0 102 15.5t80 44.5l-38 94q-37 -21 -69 -32t-72 -11q-69 0 -102.5 27t-43.5 78h327v40zM199 362.5q27 24.5 67 24.5t65.5 -24t35.5 -72h-203
q8 47 35 71.5zM129 613h262l-10 103h-252v-103z" />
    <glyph glyph-name="Edotaccent" unicode="&#x116;" horiz-adv-x="581" 
d="M561 0l-21 101h-326v191h243l-21 103h-222v183h297l-20 102h-406v-680h476zM353.5 765q20.5 21 20.5 52t-20.5 52.5t-51.5 21.5t-52.5 -21.5t-21.5 -52.5t21.5 -52t52.5 -21t51.5 21z" />
    <glyph glyph-name="edotaccent" unicode="&#x117;" horiz-adv-x="515" 
d="M490 244q0 71 -24 128.5t-74 91.5t-123 34q-75 0 -130 -31.5t-84.5 -89.5t-29.5 -135q0 -119 71.5 -186.5t209.5 -67.5q59 0 102 15.5t80 44.5l-38 94q-37 -21 -69 -32t-72 -11q-69 0 -102.5 27t-43.5 78h327v40zM199 362.5q27 24.5 67 24.5t65.5 -24t35.5 -72h-203
q8 47 35 71.5zM316.5 615q20.5 21 20.5 52t-20.5 52.5t-51.5 21.5t-52.5 -21.5t-21.5 -52.5t21.5 -52t52.5 -21t51.5 21z" />
    <glyph glyph-name="Eogonek" unicode="&#x118;" horiz-adv-x="581" 
d="M569 -174q-44 -33 -102 -33q-51 0 -83.5 33t-32.5 80q0 19 10.5 48t23.5 46h-300v680h406l20 -102h-297v-183h222l21 -103h-243v-191h326l21 -101h-62q-15 -15 -27 -40t-12 -43q0 -12 8 -20t23 -8q7 0 18.5 4.5t22.5 12.5z" />
    <glyph glyph-name="eogonek" unicode="&#x119;" horiz-adv-x="515" 
d="M490 204h-327q10 -51 43.5 -78t102.5 -27q40 0 72 11t69 32l38 -94q-38 -30 -82 -45q-15 -14 -28.5 -40.5t-13.5 -45.5q0 -12 8 -20t23 -8q7 0 18.5 4.5t22.5 12.5l37 -80q-44 -33 -102 -33q-51 0 -83.5 33t-32.5 80q0 17 8 40.5t19 42.5q-126 6 -191.5 72.5t-65.5 180.5
q0 77 29.5 135t84.5 89.5t130 31.5q73 0 123 -34t74 -91.5t24 -128.5v-40zM367 291q-10 48 -35.5 72t-65.5 24t-67 -24.5t-35 -71.5h203z" />
    <glyph glyph-name="Ecaron" unicode="&#x11a;" horiz-adv-x="581" 
d="M561 0l-21 101h-326v191h243l-21 103h-222v183h297l-20 102h-406v-680h476zM306 838l-67 65l-123 -16l152 -148h71l152 148l-119 16z" />
    <glyph glyph-name="ecaron" unicode="&#x11b;" horiz-adv-x="515" 
d="M490 244q0 71 -24 128.5t-74 91.5t-123 34q-75 0 -130 -31.5t-84.5 -89.5t-29.5 -135q0 -119 71.5 -186.5t209.5 -67.5q59 0 102 15.5t80 44.5l-38 94q-37 -21 -69 -32t-72 -11q-69 0 -102.5 27t-43.5 78h327v40zM199 362.5q27 24.5 67 24.5t65.5 -24t35.5 -72h-203
q8 47 35 71.5zM269 688l-67 65l-123 -16l152 -148h71l152 148l-119 16z" />
    <glyph glyph-name="Gbreve" unicode="&#x11e;" horiz-adv-x="630" 
d="M469 272v-166q-53 -11 -99 -11q-59 0 -104.5 29.5t-70.5 85t-25 128.5q0 80 29.5 135.5t79.5 83.5t112 28q33 0 55.5 -4.5t60.5 -15.5q-1 1 27 -8l41 93q-41 22 -95 33t-91 11q-101 0 -182 -46t-126.5 -127.5t-45.5 -183.5q0 -98 41 -178t117.5 -126.5t179.5 -46.5
q60 0 115 14t97 36v336h-248l-11 -100h143zM433 853q-15 -21 -45 -21t-44 20.5t-14 50.5h-89q0 -68 38 -115.5t109 -48.5q71 1 109 48.5t38 115.5h-87q0 -29 -15 -50z" />
    <glyph glyph-name="gbreve" unicode="&#x11f;" 
d="M507 485v-508q0 -100 -70 -153.5t-188 -53.5q-37 0 -100 15.5t-98 39.5l39 92q45 -22 82 -32t74 -11q59 1 94.5 29t35.5 75v41q-50 -31 -107 -31q-113 0 -178.5 68.5t-65.5 185.5q0 76 29.5 134t85.5 90t133 32q33 0 70.5 -16t66.5 -41l29 44h68zM324.5 109
q24.5 10 51.5 30v207q-26 22 -50 31.5t-52 9.5q-53 0 -84 -40.5t-31 -104.5t30.5 -103.5t84.5 -39.5q26 0 50.5 10zM305 703q-15 -21 -45 -21t-44 20.5t-14 50.5h-89q0 -68 38 -115.5t109 -48.5q71 1 109 48.5t38 115.5h-87q0 -29 -15 -50z" />
    <glyph glyph-name="Gcommaaccent" unicode="&#x122;" horiz-adv-x="630" 
d="M469 272v-166q-53 -11 -99 -11q-59 0 -104.5 29.5t-70.5 85t-25 128.5q0 80 29.5 135.5t79.5 83.5t112 28q33 0 55.5 -4.5t60.5 -15.5q-1 1 27 -8l41 93q-41 22 -95 33t-91 11q-101 0 -182 -46t-126.5 -127.5t-45.5 -183.5q0 -98 41 -178t117.5 -126.5t179.5 -46.5
q60 0 115 14t97 36v336h-248l-11 -100h143zM324 -44q-22 -23 -22 -51q0 -27 18.5 -49.5t37.5 -22.5q-6 -19 -21.5 -34.5t-30.5 -21.5l28 -61q50 24 83 71.5t33 101.5q0 39 -21.5 64.5t-52.5 25.5q-30 0 -52 -23z" />
    <glyph glyph-name="gcommaaccent" unicode="&#x123;" 
d="M217 566q-22 26 -22 65q0 52 33.5 99.5t82.5 73.5l28 -62q-14 -4 -29.5 -19.5t-21.5 -35.5q11 0 24 -10.5t22.5 -27.5t9.5 -34q0 -28 -22 -51.5t-52 -23.5q-31 0 -53 26zM507 485v-508q0 -100 -70 -153.5t-188 -53.5q-37 0 -100 15.5t-98 39.5l39 92q45 -22 82 -32
t74 -11q59 1 94.5 29t35.5 75v43q-53 -33 -107 -33q-113 0 -178.5 68.5t-65.5 185.5q0 76 29.5 134t85.5 90t133 32q29 0 68 -16.5t69 -40.5l29 44h68zM324.5 109q24.5 10 51.5 30v207q-26 22 -50 31.5t-52 9.5q-53 0 -84 -40.5t-31 -104.5t30.5 -103.5t84.5 -39.5
q26 0 50.5 10z" />
    <glyph glyph-name="Imacron" unicode="&#x12a;" horiz-adv-x="299" 
d="M214 0v680h-129v-680h129zM16 763h262l-10 103h-252v-103z" />
    <glyph glyph-name="imacron" unicode="&#x12b;" horiz-adv-x="240" 
d="M185 0v485h-130v-485h130zM-18 613h262l-10 103h-252v-103z" />
    <glyph glyph-name="Iogonek" unicode="&#x12e;" horiz-adv-x="299" 
d="M279 -179q-44 -33 -102 -33q-51 0 -83.5 33t-32.5 80q0 24 6.5 53.5t17.5 45.5v680h129v-680q-15 -14 -29.5 -41t-14.5 -47q0 -12 8 -20t23 -8q7 0 18.5 4.5t22.5 12.5z" />
    <glyph glyph-name="iogonek" unicode="&#x12f;" horiz-adv-x="240" 
d="M65.5 615q-21.5 21 -21.5 52t21.5 52.5t52.5 21.5t51.5 -21.5t20.5 -52.5t-20.5 -52t-51.5 -21t-52.5 21zM250 -179q-44 -33 -102 -33q-51 0 -83.5 33t-32.5 80q0 25 6 54t17 45v485h130v-485q-15 -14 -29.5 -41t-14.5 -47q0 -12 8 -20t23 -8q7 0 18.5 4.5t22.5 12.5z
" />
    <glyph glyph-name="Idotaccent" unicode="&#x130;" horiz-adv-x="299" 
d="M214 0v680h-129v-680h129zM203.5 765q20.5 21 20.5 52t-20.5 52.5t-51.5 21.5t-52.5 -21.5t-21.5 -52.5t21.5 -52t52.5 -21t51.5 21z" />
    <glyph glyph-name="dotlessi" unicode="&#x131;" horiz-adv-x="240" 
d="M185 0v485h-130v-485h130z" />
    <glyph glyph-name="Kcommaaccent" unicode="&#x136;" horiz-adv-x="658" 
d="M487 0l-205 283l-67 -70v-213h-130v680h130v-285l295 300l96 -74l-234 -244l276 -377h-161zM306 -44q-22 -23 -22 -51q0 -27 18.5 -49.5t37.5 -22.5q-6 -19 -21.5 -34.5t-30.5 -21.5l28 -61q50 24 83 71.5t33 101.5q0 39 -21.5 64.5t-52.5 25.5q-30 0 -52 -23z" />
    <glyph glyph-name="kcommaaccent" unicode="&#x137;" horiz-adv-x="517" 
d="M194 0v159l52 46l122 -205h149l-178 288l136 119l-73 92l-208 -191v398l-129 -11v-695h129zM225 -44q-22 -23 -22 -51q0 -27 18.5 -49.5t37.5 -22.5q-6 -19 -21.5 -34.5t-30.5 -21.5l28 -61q50 24 83 71.5t33 101.5q0 39 -21.5 64.5t-52.5 25.5q-30 0 -52 -23z" />
    <glyph glyph-name="Lacute" unicode="&#x139;" horiz-adv-x="544" 
d="M514 101h-300v579h-129v-680h449zM253 739l95 164h-134l-51 -139z" />
    <glyph glyph-name="lacute" unicode="&#x13a;" horiz-adv-x="259" 
d="M177 739l95 164h-134l-51 -139zM194 0v685l-129 -12v-673h129z" />
    <glyph glyph-name="Lcommaaccent" unicode="&#x13b;" horiz-adv-x="544" 
d="M514 101h-300v579h-129v-680h449zM319 -44q-22 -23 -22 -51q0 -27 18.5 -49.5t37.5 -22.5q-6 -19 -21.5 -34.5t-30.5 -21.5l28 -61q50 24 83 71.5t33 101.5q0 39 -21.5 64.5t-52.5 25.5q-30 0 -52 -23z" />
    <glyph glyph-name="lcommaaccent" unicode="&#x13c;" horiz-adv-x="259" 
d="M194 0v706l-129 -11v-695h129zM86 -44q-22 -23 -22 -51q0 -27 18.5 -49.5t37.5 -22.5q-6 -19 -21.5 -34.5t-30.5 -21.5l28 -61q50 24 83 71.5t33 101.5q0 39 -21.5 64.5t-52.5 25.5q-30 0 -52 -23z" />
    <glyph glyph-name="Lcaron" unicode="&#x13d;" horiz-adv-x="544" 
d="M514 101h-300v579h-129v-680h449zM369.5 718.5q-21.5 -23.5 -21.5 -50.5q0 -26 19 -48.5t37 -22.5q-6 -29 -20.5 -47t-46.5 -46l28 -61q57 32 94.5 92.5t37.5 117.5q0 39 -22 64t-54 25q-30 0 -51.5 -23.5z" />
    <glyph glyph-name="lcaron" unicode="&#x13e;" horiz-adv-x="452" 
d="M294.5 718.5q-21.5 -23.5 -21.5 -50.5q0 -26 19 -48.5t37 -22.5q-6 -29 -20.5 -47t-46.5 -46l28 -61q57 32 94.5 92.5t37.5 117.5q0 39 -22 64t-54 25q-30 0 -51.5 -23.5zM194 0v706l-129 -11v-695h129z" />
    <glyph glyph-name="Lslash" unicode="&#x141;" horiz-adv-x="556" 
d="M85 0v208l-31 -23l-49 91l80 60v344h129v-246l106 80l50 -91l-156 -117v-205h300l20 -101h-449z" />
    <glyph glyph-name="lslash" unicode="&#x142;" horiz-adv-x="366" 
d="M315 535l-67 -51v222l-129 -11v-309l-119 -90l50 -90l69 51v-257h129v356l118 89z" />
    <glyph glyph-name="Nacute" unicode="&#x143;" horiz-adv-x="744" 
d="M214 0v455l315 -455h130v680h-130v-454l-315 454h-129v-680h129zM417 739l95 164h-134l-51 -139z" />
    <glyph glyph-name="nacute" unicode="&#x144;" horiz-adv-x="566" 
d="M185 336q36 26 66 41.5t64 15.5q33 0 51.5 -25t18.5 -70v-298h130v304q0 93 -37 145t-129 52q-40 0 -91 -18t-96 -50l-22 52h-85v-485h130v336zM305 589l95 164h-134l-51 -139z" />
    <glyph glyph-name="Ncommaaccent" unicode="&#x145;" horiz-adv-x="744" 
d="M214 0v455l315 -455h130v680h-130v-454l-315 454h-129v-680h129zM331 -44q-22 -23 -22 -51q0 -27 18.5 -49.5t37.5 -22.5q-6 -19 -21.5 -34.5t-30.5 -21.5l28 -61q50 24 83 71.5t33 101.5q0 39 -21.5 64.5t-52.5 25.5q-30 0 -52 -23z" />
    <glyph glyph-name="ncommaaccent" unicode="&#x146;" horiz-adv-x="566" 
d="M185 336q36 26 66 41.5t64 15.5q33 0 51.5 -25t18.5 -70v-298h130v304q0 93 -37 145t-129 52q-40 0 -91 -18t-96 -50l-22 52h-85v-485h130v336zM243 -44q-22 -23 -22 -51q0 -27 18.5 -49.5t37.5 -22.5q-6 -19 -21.5 -34.5t-30.5 -21.5l28 -61q50 24 83 71.5t33 101.5
q0 39 -21.5 64.5t-52.5 25.5q-30 0 -52 -23z" />
    <glyph glyph-name="Ncaron" unicode="&#x147;" horiz-adv-x="744" 
d="M214 0v455l315 -455h130v680h-130v-454l-315 454h-129v-680h129zM382 838l-67 65l-123 -16l152 -148h71l152 148l-119 16z" />
    <glyph glyph-name="ncaron" unicode="&#x148;" horiz-adv-x="566" 
d="M185 336q36 26 66 41.5t64 15.5q33 0 51.5 -25t18.5 -70v-298h130v304q0 93 -37 145t-129 52q-40 0 -91 -18t-96 -50l-22 52h-85v-485h130v336zM298 688l-67 65l-123 -16l152 -148h71l152 148l-119 16z" />
    <glyph glyph-name="Omacron" unicode="&#x14c;" horiz-adv-x="737" 
d="M194 648q-76 -46 -117.5 -127t-41.5 -184q0 -99 39.5 -178.5t115 -126t178.5 -46.5q99 2 174.5 47.5t117.5 126t42 184.5q0 99 -39.5 179t-115.5 126.5t-179 46.5q-98 -2 -174 -48zM197.5 468.5q27.5 56.5 73 87t99.5 30.5q59 0 104 -31t69 -86t24 -125
q0 -81 -26.5 -137.5t-72 -84t-101.5 -27.5q-60 0 -104.5 30.5t-68.5 86t-24 126.5q0 74 27.5 130.5zM232 763h262l-10 103h-252v-103z" />
    <glyph glyph-name="omacron" unicode="&#x14d;" 
d="M511 109q-32 -58 -90.5 -89.5t-136.5 -31.5t-136.5 31t-90.5 88.5t-32 134.5t32 135t90.5 89.5t136.5 31.5t136.5 -31t90.5 -88.5t32 -134.5t-32 -135zM373.5 140q35.5 41 35.5 104t-35 103t-90 40q-54 0 -89.5 -41t-35.5 -104t35 -103t90 -40q54 0 89.5 41zM145 613h262
l-10 103h-252v-103z" />
    <glyph glyph-name="Ohungarumlaut" unicode="&#x150;" horiz-adv-x="737" 
d="M194 648q-76 -46 -117.5 -127t-41.5 -184q0 -99 39.5 -178.5t115 -126t178.5 -46.5q99 2 174.5 47.5t117.5 126t42 184.5q0 99 -39.5 179t-115.5 126.5t-179 46.5q-98 -2 -174 -48zM197.5 468.5q27.5 56.5 73 87t99.5 30.5q59 0 104 -31t69 -86t24 -125
q0 -81 -26.5 -137.5t-72 -84t-101.5 -27.5q-60 0 -104.5 30.5t-68.5 86t-24 126.5q0 74 27.5 130.5zM304 739l95 164h-134l-51 -139zM504 739l95 164h-134l-51 -139z" />
    <glyph glyph-name="ohungarumlaut" unicode="&#x151;" 
d="M511 109q-32 -58 -90.5 -89.5t-136.5 -31.5t-136.5 31t-90.5 88.5t-32 134.5t32 135t90.5 89.5t136.5 31.5t136.5 -31t90.5 -88.5t32 -134.5t-32 -135zM373.5 140q35.5 41 35.5 104t-35 103t-90 40q-54 0 -89.5 -41t-35.5 -104t35 -103t90 -40q54 0 89.5 41zM220 589
l95 164h-134l-51 -139zM420 589l95 164h-134l-51 -139z" />
    <glyph glyph-name="OE" unicode="&#x152;" horiz-adv-x="986" 
d="M490 0v7q-71 -21 -132 -21q-103 0 -176 46t-110 125.5t-37 179.5q0 104 40.5 185t115 126.5t172.5 45.5q25 0 59.5 -5.5t67.5 -16.5v8h406l20 -102h-297v-183h222l21 -103h-243v-191h326l21 -101h-476zM490 122v439q-47 14 -71 19t-60 5q-54 0 -97 -30t-67.5 -86
t-24.5 -131q0 -67 21.5 -122.5t62.5 -88t97 -32.5q69 0 139 27z" />
    <glyph glyph-name="oe" unicode="&#x153;" horiz-adv-x="842" 
d="M817 204h-327q10 -51 43.5 -78t102.5 -27q40 0 72 11t69 32l38 -94q-37 -29 -80 -44.5t-102 -15.5q-114 0 -185 48q-31 -23 -80 -35.5t-85 -12.5q-78 0 -136.5 31t-90 88.5t-31.5 134.5t31.5 135t90 89.5t136.5 31.5q32 0 79.5 -12.5t81.5 -33.5q61 46 152 46
q73 0 123 -34t74 -91.5t24 -128.5v-40zM194 139q35 -40 90 -40q46 0 94 18q-26 55 -26 125q0 72 26 127q-48 18 -94 18q-54 0 -89.5 -41t-35.5 -104t35 -103zM694 291q-10 48 -35.5 72t-65.5 24t-67 -24.5t-35 -71.5h203z" />
    <glyph glyph-name="Racute" unicode="&#x154;" horiz-adv-x="628" 
d="M85 0h129v258h122l144 -258h138l-167 292q53 26 84.5 72t31.5 107q0 102 -75.5 155.5t-193.5 53.5h-213v-680zM430 465q0 -52 -36.5 -76.5t-97.5 -24.5h-82v208h80q136 0 136 -107zM338 739l95 164h-134l-51 -139z" />
    <glyph glyph-name="racute" unicode="&#x155;" horiz-adv-x="367" 
d="M185 296q42 37 90.5 61t81.5 24l-26 104q-36 0 -83 -25t-82 -56l-43 81h-68v-485h130v296zM208 589l95 164h-134l-51 -139z" />
    <glyph glyph-name="Rcommaaccent" unicode="&#x156;" horiz-adv-x="628" 
d="M85 0h129v258h122l144 -258h138l-167 292q53 26 84.5 72t31.5 107q0 102 -75.5 155.5t-193.5 53.5h-213v-680zM430 465q0 -52 -36.5 -76.5t-97.5 -24.5h-82v208h80q136 0 136 -107zM298 -44q-22 -23 -22 -51q0 -27 18.5 -49.5t37.5 -22.5q-6 -19 -21.5 -34.5t-30.5 -21.5
l28 -61q50 24 83 71.5t33 101.5q0 39 -21.5 64.5t-52.5 25.5q-30 0 -52 -23z" />
    <glyph glyph-name="rcommaaccent" unicode="&#x157;" horiz-adv-x="367" 
d="M185 296q42 37 90.5 61t81.5 24l-26 104q-36 0 -83 -25t-82 -56l-43 81h-68v-485h130v296zM71 -44q-22 -23 -22 -51q0 -27 18.5 -49.5t37.5 -22.5q-6 -19 -21.5 -34.5t-30.5 -21.5l28 -61q50 24 83 71.5t33 101.5q0 39 -21.5 64.5t-52.5 25.5q-30 0 -52 -23z" />
    <glyph glyph-name="Rcaron" unicode="&#x158;" horiz-adv-x="628" 
d="M85 0h129v258h122l144 -258h138l-167 292q53 26 84.5 72t31.5 107q0 102 -75.5 155.5t-193.5 53.5h-213v-680zM430 465q0 -52 -36.5 -76.5t-97.5 -24.5h-82v208h80q136 0 136 -107zM303 838l-67 65l-123 -16l152 -148h71l152 148l-119 16z" />
    <glyph glyph-name="rcaron" unicode="&#x159;" horiz-adv-x="367" 
d="M185 296q42 37 90.5 61t81.5 24l-26 104q-36 0 -83 -25t-82 -56l-43 81h-68v-485h130v296zM201 688l-67 65l-123 -16l152 -148h71l152 148l-119 16z" />
    <glyph glyph-name="Sacute" unicode="&#x15a;" horiz-adv-x="527" 
d="M143.5 5.5q62.5 -18.5 104.5 -18.5q80 0 137.5 24t87 66t29.5 97q0 49 -23.5 85.5t-58.5 62t-94 59.5l-29 17l-32 18q-51 30 -73.5 49.5t-22.5 48.5q0 34 28.5 51.5t73.5 17.5q39 0 72.5 -11t74.5 -31l43 104q-106 51 -192 51q-73 0 -125.5 -23.5t-80.5 -65t-28 -93.5
q0 -49 28.5 -88.5t68 -68.5t106.5 -69l30 -18q51 -28 75.5 -48.5t24.5 -45.5q0 -36 -31 -55t-91 -19q-39 0 -86 14.5t-84 33.5l-29 -105q34 -21 96.5 -39.5zM308 739l95 164h-134l-51 -139z" />
    <glyph glyph-name="sacute" unicode="&#x15b;" horiz-adv-x="422" 
d="M108 1q50 -13 87 -13q98 0 150 39.5t52 112.5q0 58 -47 98t-118 66q-37 13 -56.5 23.5t-19.5 23.5q0 17 16.5 29.5t41.5 12.5q32 0 61.5 -8t67.5 -25l39 87q-34 23 -83 37t-83 14q-87 0 -138 -39.5t-51 -108.5q0 -55 46 -91t115 -59q85 -26 85 -65q0 -20 -25 -31t-55 -11
q-53 0 -127 33l-39 -88q31 -24 81 -37zM227 589l95 164h-134l-51 -139z" />
    <glyph glyph-name="Scedilla" unicode="&#x15e;" horiz-adv-x="527" 
d="M446.5 48.5q-55.5 -50.5 -156.5 -59.5l-8 -18q30 -12 50 -37.5t20 -51.5q0 -50 -36.5 -76.5t-89.5 -26.5q-21 0 -50.5 8t-44.5 20l30 76q14 -7 33.5 -13.5t31.5 -6.5q14 0 24 4t10 13q0 18 -25.5 29.5t-62.5 15.5l27 67q-40 7 -83.5 22.5t-68.5 30.5l29 105
q37 -19 84 -33.5t86 -14.5q60 0 91 19t31 55q0 25 -24.5 45.5t-75.5 48.5l-30 18q-67 40 -106.5 69t-68 68.5t-28.5 88.5q0 52 28 93.5t80.5 65t125.5 23.5q86 0 192 -51l-43 -104q-41 20 -74.5 31t-72.5 11q-45 0 -73.5 -17.5t-28.5 -51.5q0 -29 22.5 -48.5t73.5 -49.5
l32 -18l29 -17q59 -34 94 -59.5t58.5 -62t23.5 -85.5q0 -75 -55.5 -125.5z" />
    <glyph glyph-name="scedilla" unicode="&#x15f;" horiz-adv-x="422" 
d="M356 37q-41 -39 -119 -47l-8 -19q30 -12 50 -37.5t20 -51.5q0 -50 -36.5 -76.5t-89.5 -26.5q-21 0 -50.5 8t-44.5 20l30 76q14 -7 33.5 -13.5t31.5 -6.5q14 0 24 4t10 13q0 18 -25.5 29.5t-62.5 15.5l27 68q-79 14 -119 45l39 88q74 -33 127 -33q30 0 55 11t25 31
q0 39 -85 65q-69 23 -115 59t-46 91q0 69 51 108.5t138 39.5q34 0 83 -14t83 -37l-39 -87q-38 17 -67.5 25t-61.5 8q-25 0 -41.5 -12.5t-16.5 -29.5q0 -13 19.5 -23.5t56.5 -23.5q71 -26 118 -66t47 -98q0 -64 -41 -103z" />
    <glyph glyph-name="Scaron" unicode="&#x160;" horiz-adv-x="527" 
d="M143.5 5.5q62.5 -18.5 104.5 -18.5q80 0 137.5 24t87 66t29.5 97q0 49 -23.5 85.5t-58.5 62t-94 59.5l-29 17l-32 18q-51 30 -73.5 49.5t-22.5 48.5q0 34 28.5 51.5t73.5 17.5q39 0 72.5 -11t74.5 -31l43 104q-106 51 -192 51q-73 0 -125.5 -23.5t-80.5 -65t-28 -93.5
q0 -49 28.5 -88.5t68 -68.5t106.5 -69l30 -18q51 -28 75.5 -48.5t24.5 -45.5q0 -36 -31 -55t-91 -19q-39 0 -86 14.5t-84 33.5l-29 -105q34 -21 96.5 -39.5zM273 838l-67 65l-123 -16l152 -148h71l152 148l-119 16z" />
    <glyph glyph-name="scaron" unicode="&#x161;" horiz-adv-x="422" 
d="M108 1q50 -13 87 -13q98 0 150 39.5t52 112.5q0 58 -47 98t-118 66q-37 13 -56.5 23.5t-19.5 23.5q0 17 16.5 29.5t41.5 12.5q32 0 61.5 -8t67.5 -25l39 87q-34 23 -83 37t-83 14q-87 0 -138 -39.5t-51 -108.5q0 -55 46 -91t115 -59q85 -26 85 -65q0 -20 -25 -31t-55 -11
q-53 0 -127 33l-39 -88q31 -24 81 -37zM220 688l-67 65l-123 -16l152 -148h71l152 148l-119 16z" />
    <glyph glyph-name="Tcedilla" unicode="&#x162;" horiz-adv-x="591" 
d="M367 -66.5q20 -25.5 20 -51.5q0 -50 -36.5 -76.5t-89.5 -26.5q-21 0 -50.5 8t-44.5 20l30 76q14 -7 33.5 -13.5t31.5 -6.5q14 0 24 4t10 13q0 18 -25.5 29.5t-62.5 15.5l30 75h-20v578h-207v102h550l21 -102h-233v-578h-19l-12 -29q30 -12 50 -37.5z" />
    <glyph glyph-name="tcedilla" unicode="&#x163;" horiz-adv-x="381" 
d="M311 -66.5q20 -25.5 20 -51.5q0 -50 -36.5 -76.5t-89.5 -26.5q-21 0 -50.5 8t-44.5 20l30 76q14 -7 33.5 -13.5t31.5 -6.5q14 0 24 4t10 13q0 18 -25.5 29.5t-62.5 15.5l28 70q-50 18 -77 59t-27 101v229h-65v100h65v115l129 23v-138h88l40 -100h-128v-206
q0 -39 18.5 -63t52.5 -24q26 0 53 13l38 -94q-15 -12 -44.5 -21t-53.5 -9h-3l-4 -9q30 -12 50 -37.5z" />
    <glyph glyph-name="Tcaron" unicode="&#x164;" horiz-adv-x="591" 
d="M560 680h-550v-102h207v-578h131v578h233zM288 838l-67 65l-123 -16l152 -148h71l152 148l-119 16z" />
    <glyph glyph-name="tcaron" unicode="&#x165;" horiz-adv-x="550" 
d="M392.5 718.5q-21.5 -23.5 -21.5 -50.5q0 -26 19 -48.5t37 -22.5q-6 -29 -20.5 -47t-46.5 -46l28 -61q57 32 94.5 92.5t37.5 117.5q0 39 -22 64t-54 25q-30 0 -51.5 -23.5zM204 484v138l-129 -23v-115h-65v-100h65v-229q0 -83 51 -129t142 -46q24 0 53.5 9t44.5 21l-38 94
q-27 -13 -53 -13q-34 0 -52.5 24t-18.5 63v206h128l-40 100h-88z" />
    <glyph glyph-name="Umacron" unicode="&#x16a;" horiz-adv-x="710" 
d="M75 680l1 -433q0 -73 34 -132t97 -92.5t146 -33.5q84 0 148 33.5t99 92t35 132.5v433h-131v-423q0 -79 -40.5 -120.5t-108.5 -41.5t-108.5 40.5t-40.5 121.5v423h-131zM219 763h262l-10 103h-252v-103z" />
    <glyph glyph-name="umacron" unicode="&#x16b;" horiz-adv-x="566" 
d="M381 149q-36 -26 -66 -41.5t-64 -15.5q-33 0 -51.5 25t-18.5 70v298h-130v-304q0 -93 37 -145t129 -52q40 0 91 18t96 50l22 -52h85v485h-130v-336zM149 613h262l-10 103h-252v-103z" />
    <glyph glyph-name="Uring" unicode="&#x16e;" horiz-adv-x="710" 
d="M75 680l1 -433q0 -73 34 -132t97 -92.5t146 -33.5q84 0 148 33.5t99 92t35 132.5v433h-131v-423q0 -79 -40.5 -120.5t-108.5 -41.5t-108.5 40.5t-40.5 121.5v423h-131zM278 913.5q-32 -29.5 -32 -71.5t31.5 -70t75.5 -28t75.5 28t31.5 70t-32 71.5t-75 29.5t-75 -29.5z
M325 814q-12 12 -12 28t12 27.5t28 11.5t27.5 -11.5t11.5 -27.5t-11.5 -28t-27.5 -12t-28 12z" />
    <glyph glyph-name="uring" unicode="&#x16f;" horiz-adv-x="566" 
d="M381 149q-36 -26 -66 -41.5t-64 -15.5q-33 0 -51.5 25t-18.5 70v298h-130v-304q0 -93 37 -145t129 -52q40 0 91 18t96 50l22 -52h85v485h-130v-336zM203 763.5q-32 -29.5 -32 -71.5t31.5 -70t75.5 -28t75.5 28t31.5 70t-32 71.5t-75 29.5t-75 -29.5zM250 664
q-12 12 -12 28t12 27.5t28 11.5t27.5 -11.5t11.5 -27.5t-11.5 -28t-27.5 -12t-28 12z" />
    <glyph glyph-name="Uhungarumlaut" unicode="&#x170;" horiz-adv-x="710" 
d="M75 680l1 -433q0 -73 34 -132t97 -92.5t146 -33.5q84 0 148 33.5t99 92t35 132.5v433h-131v-423q0 -79 -40.5 -120.5t-108.5 -41.5t-108.5 40.5t-40.5 121.5v423h-131zM291 739l95 164h-134l-51 -139zM491 739l95 164h-134l-51 -139z" />
    <glyph glyph-name="uhungarumlaut" unicode="&#x171;" horiz-adv-x="566" 
d="M381 149q-36 -26 -66 -41.5t-64 -15.5q-33 0 -51.5 25t-18.5 70v298h-130v-304q0 -93 37 -145t129 -52q40 0 91 18t96 50l22 -52h85v485h-130v-336zM224 589l95 164h-134l-51 -139zM424 589l95 164h-134l-51 -139z" />
    <glyph glyph-name="Uogonek" unicode="&#x172;" horiz-adv-x="710" 
d="M635 680v-433q0 -65 -27.5 -119t-79 -89.5t-120.5 -45.5q-13 -18 -23 -39t-10 -37q0 -12 8 -20t23 -8q7 0 18.5 4.5t22.5 12.5l37 -80q-44 -33 -102 -33q-51 0 -83.5 33t-32.5 80q0 17 9 43t21 44q-102 17 -161 86.5t-59 167.5l-1 433h131v-423q0 -81 40.5 -121.5
t108.5 -40.5t108.5 41.5t40.5 120.5v423h131z" />
    <glyph glyph-name="uogonek" unicode="&#x173;" horiz-adv-x="566" 
d="M576 -179q-44 -33 -102 -33q-51 0 -83.5 33t-32.5 80q0 44 14.5 71t41.5 57l-10 23q-45 -32 -96 -50t-91 -18q-92 0 -129 52t-37 145v304h130v-298q0 -45 18.5 -70t51.5 -25q34 0 64 15.5t66 41.5v336h130v-485q-15 -14 -29.5 -41t-14.5 -47q0 -12 8 -20t23 -8
q7 0 18.5 4.5t22.5 12.5z" />
    <glyph glyph-name="Ydieresis" unicode="&#x178;" horiz-adv-x="608" 
d="M362 0v260l236 420h-137l-165 -284l-158 298l-128 -37l222 -392v-265h130zM246 771.5q18 18.5 18 45.5t-18 46t-45 19q-28 0 -47 -19t-19 -46t19 -45.5t47 -18.5q27 0 45 18.5zM437.5 771.5q18.5 18.5 18.5 45.5t-18.5 46t-46.5 19q-26 0 -45.5 -19t-19.5 -46t19 -45.5
t46 -18.5q28 0 46.5 18.5z" />
    <glyph glyph-name="Zacute" unicode="&#x179;" horiz-adv-x="577" 
d="M547 101h-392l399 477l-15 102h-495l15 -102h344l-388 -477l15 -101h532zM319 739l95 164h-134l-51 -139z" />
    <glyph glyph-name="zacute" unicode="&#x17a;" horiz-adv-x="443" 
d="M413 485h-388l25 -107h204l-241 -309l17 -69h400l-10 105h-244l244 306zM224 589l95 164h-134l-51 -139z" />
    <glyph glyph-name="Zdotaccent" unicode="&#x17b;" horiz-adv-x="577" 
d="M547 101h-392l399 477l-15 102h-495l15 -102h344l-388 -477l15 -101h532zM331.5 765q20.5 21 20.5 52t-20.5 52.5t-51.5 21.5t-52.5 -21.5t-21.5 -52.5t21.5 -52t52.5 -21t51.5 21z" />
    <glyph glyph-name="zdotaccent" unicode="&#x17c;" horiz-adv-x="443" 
d="M413 485h-388l25 -107h204l-241 -309l17 -69h400l-10 105h-244l244 306zM264.5 615q20.5 21 20.5 52t-20.5 52.5t-51.5 21.5t-52.5 -21.5t-21.5 -52.5t21.5 -52t52.5 -21t51.5 21z" />
    <glyph glyph-name="Zcaron" unicode="&#x17d;" horiz-adv-x="577" 
d="M547 101h-392l399 477l-15 102h-495l15 -102h344l-388 -477l15 -101h532zM284 838l-67 65l-123 -16l152 -148h71l152 148l-119 16z" />
    <glyph glyph-name="zcaron" unicode="&#x17e;" horiz-adv-x="443" 
d="M413 485h-388l25 -107h204l-241 -309l17 -69h400l-10 105h-244l244 306zM217 688l-67 65l-123 -16l152 -148h71l152 148l-119 16z" />
    <glyph glyph-name="florin" unicode="&#x192;" horiz-adv-x="442" 
d="M81 384h75v-308q0 -40 -16 -63.5t-49 -23.5q-21 0 -54 13l-37 -94q16 -13 45 -22t52 -9q89 0 139 48t50 133v326h133l-41 100h-92v19q0 40 16 63.5t49 23.5q22 0 54 -13l37 94q-16 13 -45 22t-52 9q-89 0 -139 -48t-50 -133v-37h-75v-100z" />
    <glyph glyph-name="Scommaaccent" unicode="&#x218;" horiz-adv-x="527" 
d="M143.5 5.5q62.5 -18.5 104.5 -18.5q80 0 137.5 24t87 66t29.5 97q0 49 -23.5 85.5t-58.5 62t-94 59.5l-29 17l-32 18q-51 30 -73.5 49.5t-22.5 48.5q0 34 28.5 51.5t73.5 17.5q39 0 72.5 -11t74.5 -31l43 104q-106 51 -192 51q-73 0 -125.5 -23.5t-80.5 -65t-28 -93.5
q0 -49 28.5 -88.5t68 -68.5t106.5 -69l30 -18q51 -28 75.5 -48.5t24.5 -45.5q0 -36 -31 -55t-91 -19q-39 0 -86 14.5t-84 33.5l-29 -105q34 -21 96.5 -39.5zM198 -44q-22 -23 -22 -51q0 -27 18.5 -49.5t37.5 -22.5q-6 -19 -21.5 -34.5t-30.5 -21.5l28 -61q50 24 83 71.5
t33 101.5q0 39 -21.5 64.5t-52.5 25.5q-30 0 -52 -23z" />
    <glyph glyph-name="scommaaccent" unicode="&#x219;" horiz-adv-x="422" 
d="M108 1q50 -13 87 -13q98 0 150 39.5t52 112.5q0 58 -47 98t-118 66q-37 13 -56.5 23.5t-19.5 23.5q0 17 16.5 29.5t41.5 12.5q32 0 61.5 -8t67.5 -25l39 87q-34 23 -83 37t-83 14q-87 0 -138 -39.5t-51 -108.5q0 -55 46 -91t115 -59q85 -26 85 -65q0 -20 -25 -31t-55 -11
q-53 0 -127 33l-39 -88q31 -24 81 -37zM145 -44q-22 -23 -22 -51q0 -27 18.5 -49.5t37.5 -22.5q-6 -19 -21.5 -34.5t-30.5 -21.5l28 -61q50 24 83 71.5t33 101.5q0 39 -21.5 64.5t-52.5 25.5q-30 0 -52 -23z" />
    <glyph glyph-name="Tcommaaccent" unicode="&#x21a;" horiz-adv-x="591" 
d="M560 680h-550v-102h207v-578h131v578h233zM233 -44q-22 -23 -22 -51q0 -27 18.5 -49.5t37.5 -22.5q-6 -19 -21.5 -34.5t-30.5 -21.5l28 -61q50 24 83 71.5t33 101.5q0 39 -21.5 64.5t-52.5 25.5q-30 0 -52 -23z" />
    <glyph glyph-name="tcommaaccent" unicode="&#x21b;" horiz-adv-x="381" 
d="M204 484v138l-129 -23v-115h-65v-100h65v-229q0 -83 51 -129t142 -46q24 0 53.5 9t44.5 21l-38 94q-27 -13 -53 -13q-34 0 -52.5 24t-18.5 63v206h128l-40 100h-88zM177 -44q-22 -23 -22 -51q0 -27 18.5 -49.5t37.5 -22.5q-6 -19 -21.5 -34.5t-30.5 -21.5l28 -61
q50 24 83 71.5t33 101.5q0 39 -21.5 64.5t-52.5 25.5q-30 0 -52 -23z" />
    <glyph glyph-name="circumflex" unicode="&#x2c6;" horiz-adv-x="395" 
d="M200 654l66 -65l119 16l-152 148h-71l-152 -148l123 -16z" />
    <glyph glyph-name="caron" unicode="&#x2c7;" horiz-adv-x="395" 
d="M200 688l-67 65l-123 -16l152 -148h71l152 148l-119 16z" />
    <glyph glyph-name="uni02C9" unicode="&#x2c9;" horiz-adv-x="282" 
d="M10 613h262l-10 103h-252v-103z" />
    <glyph glyph-name="breve" unicode="&#x2d8;" horiz-adv-x="314" 
d="M202 703q-15 -21 -45 -21t-44 20.5t-14 50.5h-89q0 -68 38 -115.5t109 -48.5q71 1 109 48.5t38 115.5h-87q0 -29 -15 -50z" />
    <glyph glyph-name="dotaccent" unicode="&#x2d9;" horiz-adv-x="166" 
d="M135.5 615q20.5 21 20.5 52t-20.5 52.5t-51.5 21.5t-52.5 -21.5t-21.5 -52.5t21.5 -52t52.5 -21t51.5 21z" />
    <glyph glyph-name="ring" unicode="&#x2da;" horiz-adv-x="234" 
d="M42 763.5q-32 -29.5 -32 -71.5t31.5 -70t75.5 -28t75.5 28t31.5 70t-32 71.5t-75 29.5t-75 -29.5zM89 664q-12 12 -12 28t12 27.5t28 11.5t27.5 -11.5t11.5 -27.5t-11.5 -28t-27.5 -12t-28 12z" />
    <glyph glyph-name="ogonek" unicode="&#x2db;" horiz-adv-x="238" 
d="M22.5 -42q-12.5 -31 -12.5 -52q0 -47 32.5 -80t83.5 -33q58 0 102 33l-37 80q-11 -8 -22.5 -12.5t-18.5 -4.5q-15 0 -23 8t-8 20q0 20 14.5 47t29.5 41h-115q-13 -16 -25.5 -47z" />
    <glyph glyph-name="tilde" unicode="&#x2dc;" horiz-adv-x="347" 
d="M248 694.5q-8 -9.5 -19 -9.5q-17 0 -28 4t-26 13q-14 9 -26.5 13.5t-31.5 4.5q-45 0 -76 -29t-31 -91h86q0 10 8.5 20.5t19.5 10.5q17 0 26.5 -4t24.5 -13q12 -9 23.5 -14t31.5 -5q45 0 76 29t31 92h-81q0 -12 -8 -21.5z" />
    <glyph glyph-name="hungarumlaut" unicode="&#x2dd;" horiz-adv-x="405" 
d="M100 589l95 164h-134l-51 -139zM300 589l95 164h-134l-51 -139z" />
    <glyph glyph-name="pi" unicode="&#x3c0;" horiz-adv-x="658" 
d="M244 0v384h169v-384h130v384h105v101h-638v-101h105v-384h129z" />
    <glyph glyph-name="tm_Anusvara" unicode="&#xb82;" horiz-adv-x="0" 
d="M63.5 629q30.5 17 48.5 45.5t18 60.5q0 34 -18 63t-48 46t-64 17q-33 0 -62.5 -17t-47.5 -46t-18 -63q0 -32 18 -60.5t47.5 -45.5t62.5 -17t63.5 17zM-29.5 707.5q-11.5 11.5 -11.5 28.5q0 18 11.5 29.5t29.5 11.5q17 0 28.5 -11.5t11.5 -29.5q0 -17 -11.5 -28.5
t-28.5 -11.5q-18 0 -29.5 11.5z" />
    <glyph glyph-name="tm_Visarga" unicode="&#xb83;" horiz-adv-x="678" 
d="M401.5 295q30.5 17 48.5 45.5t18 60.5q0 34 -18 63t-48 46t-64 17q-33 0 -62.5 -17t-47.5 -46t-18 -63q0 -32 18 -60.5t47.5 -45.5t62.5 -17t63.5 17zM309.5 373.5q-11.5 11.5 -11.5 28.5q0 18 11.5 29.5t29.5 11.5q17 0 28.5 -11.5t11.5 -29.5q0 -17 -11.5 -28.5
t-28.5 -11.5q-18 0 -29.5 11.5zM236 3q30 17 48 45.5t18 61.5t-18 62t-48 46t-64 17q-33 0 -62 -17t-47 -46t-18 -62t18 -61.5t47 -45.5t62 -17q34 0 64 17zM567 3q30 17 48 45.5t18 61.5t-18 62t-47.5 46t-63.5 17q-33 0 -62.5 -17t-47.5 -46t-18 -62t18 -61.5t47.5 -45.5
t62.5 -17t63 17zM144.5 81.5q-11.5 11.5 -11.5 29.5q0 17 11.5 28.5t28.5 11.5q18 0 29.5 -11.5t11.5 -28.5q0 -18 -11.5 -29.5t-29.5 -11.5q-17 0 -28.5 11.5zM475.5 81.5q-11.5 11.5 -11.5 29.5q0 17 11.5 28.5t28.5 11.5q18 0 29.5 -11.5t11.5 -28.5q0 -18 -11.5 -29.5
t-29.5 -11.5q-17 0 -28.5 11.5z" />
    <glyph glyph-name="tm_A" unicode="&#xb85;" horiz-adv-x="1097" 
d="M1012 513v-639h-116v177h-193q-48 -92 -147 -143.5t-235 -51.5q-85 0 -152.5 22t-105.5 60.5t-38 87.5q0 54 38.5 85t120.5 31h428q10 43 10 82q0 94 -50 152.5t-134 58.5q-12 0 -17 -1q27 -17 42.5 -43t15.5 -59q0 -62 -41 -101.5t-105 -39.5q-65 0 -107 39t-42 99
q0 58 32.5 104t90.5 72t131 26q89 0 158.5 -40t108.5 -110t39 -157q0 -40 -8 -82h160v371h116zM363.5 296.5q12.5 12.5 12.5 32.5q0 19 -12.5 31t-31.5 12q-20 0 -33 -12t-13 -31t13 -32t32 -13q20 0 32.5 12.5zM465.5 -22q62.5 26 100.5 73h-387q-33 0 -33 -25
q0 -31 48.5 -52.5t126.5 -21.5q82 0 144.5 26z" />
    <glyph glyph-name="tm_Aa" unicode="&#xb86;" horiz-adv-x="1299" 
d="M1239.5 61.5q49.5 -49.5 49.5 -131.5q0 -88 -52 -158t-144 -109.5t-207 -39.5q-77 0 -135 20.5t-89 57t-31 82.5q0 60 43.5 97.5t119.5 37.5h21v-91h-21q-22 0 -36.5 -12.5t-14.5 -31.5q0 -27 41 -45.5t102 -18.5q81 0 145.5 27t100.5 75t36 109q0 36 -19.5 60t-52.5 24
q-36 0 -60 -23.5t-24 -56.5v-60h-116v177h-193q-48 -92 -147 -143.5t-235 -51.5q-85 0 -152.5 22t-105.5 60.5t-38 87.5q0 54 38.5 85t120.5 31h428q10 43 10 82q0 94 -50 152.5t-134 58.5q-12 0 -17 -1q27 -17 42.5 -43t15.5 -59q0 -62 -41 -101.5t-105 -39.5
q-65 0 -107 39t-42 99q0 58 32.5 104t90.5 72t131 26q89 0 158.5 -40t108.5 -110t39 -157q0 -40 -8 -82h160v371h116v-427q44 25 97 25q81 0 130.5 -49.5zM363.5 296.5q12.5 12.5 12.5 32.5q0 19 -12.5 31t-31.5 12q-20 0 -33 -12t-13 -31t13 -32t32 -13q20 0 32.5 12.5z
M465.5 -22q62.5 26 100.5 73h-387q-33 0 -33 -25q0 -31 48.5 -52.5t126.5 -21.5q82 0 144.5 26z" />
    <glyph glyph-name="tm_I" unicode="&#xb87;" horiz-adv-x="1066" 
d="M776.5 665.5q97.5 -45.5 151 -125.5t53.5 -182v-506h-116v504q0 75 -38.5 134t-109.5 92t-164 33q-113 0 -192.5 -35t-120 -97t-40.5 -143q0 -113 52 -211q86 23 185 23q82 0 149 -18q40 82 40 177q0 56 -32.5 90t-92.5 34h-9q28 -17 43.5 -43.5t15.5 -59.5
q0 -62 -41 -101.5t-105 -39.5q-65 0 -107 39t-42 99q0 58 30.5 104t86 72t128.5 26q74 0 127.5 -28t81.5 -78t28 -114q0 -110 -54 -213q61 -32 95 -76.5t34 -98.5q0 -53 -43 -87t-109 -34q-125 0 -241 51q-115 -51 -243 -51q-67 0 -109.5 34t-42.5 87q0 51 33.5 93.5
t93.5 74.5q-64 117 -64 249q0 108 55 192t160 131.5t250 47.5q126 0 223.5 -45.5zM442.5 289.5q15.5 15.5 15.5 39.5q0 23 -15.5 38t-38.5 15q-24 0 -40 -15t-16 -38q0 -24 15.5 -39.5t39.5 -15.5t39.5 15.5zM311 45q48 -54 110 -89q65 38 110 92q-46 8 -94 8
q-66 0 -126 -11zM630 15q-44 -56 -107 -102q54 -15 111 -15q25 0 41 10t16 24q0 49 -61 83zM314 -88q-61 44 -106 99q-62 -33 -62 -79q0 -14 16.5 -24t41.5 -10q56 0 110 14z" />
    <glyph glyph-name="tm_Ii" unicode="&#xb88;" horiz-adv-x="805" 
d="M444 0v422h-243v-422h-116v513h692l18 -92h-235v-421h-116zM372 159.5q20 19.5 20 50.5q0 30 -20 50t-51 20q-30 0 -49.5 -20t-19.5 -50q0 -31 19.5 -50.5t49.5 -19.5q31 0 51 19.5zM731 159.5q20 19.5 20 50.5q0 30 -20 50t-51 20q-30 0 -49.5 -20t-19.5 -50
q0 -31 19.5 -50.5t49.5 -19.5q31 0 51 19.5z" />
    <glyph glyph-name="tm_U" unicode="&#xb89;" horiz-adv-x="1007" 
d="M997 91v-91h-926v91h221q89 0 141.5 50.5t52.5 131.5q0 71 -46 116.5t-125 45.5q-60 0 -104 -23q64 -1 101.5 -39.5t37.5 -97.5q0 -40 -20.5 -72t-57 -50.5t-82.5 -18.5q-47 0 -85 19.5t-59 54.5t-21 79q0 69 39 125t105.5 87.5t145.5 31.5q87 0 153.5 -33t103 -92
t36.5 -133q0 -53 -19 -99.5t-55 -82.5h463zM234.5 322.5q-18.5 18.5 -47.5 18.5q-28 0 -46.5 -18.5t-18.5 -47.5q0 -28 18.5 -46t47.5 -18q28 0 46.5 18t18.5 46q0 29 -18.5 47.5z" />
    <glyph glyph-name="tm_Uu" unicode="&#xb8a;" horiz-adv-x="1622" 
d="M1612 91v-91h-1541v91h221q89 0 141.5 50.5t52.5 131.5q0 71 -46 116.5t-125 45.5q-60 0 -104 -23q64 -1 101.5 -39.5t37.5 -97.5q0 -40 -20.5 -72t-57 -50.5t-82.5 -18.5q-47 0 -85 19.5t-59 54.5t-21 79q0 69 39 125t105.5 87.5t145.5 31.5q87 0 153.5 -33t103 -92
t36.5 -133q0 -54 -19 -100.5t-55 -81.5h1078zM775.5 152q-53.5 24 -83.5 66t-30 95q0 63 31.5 112.5t90 77.5t137.5 28q47 0 89 -14t74 -39v35h472l18 -91h-120v-281h-116v281h-138v-281h-116v160q0 38 -21 68.5t-58.5 48t-83.5 17.5q-63 0 -100.5 -34t-37.5 -88
q0 -23 9 -44q2 47 36.5 76.5t87.5 29.5q60 0 98 -32t38 -83q0 -58 -42.5 -95t-113.5 -37q-67 0 -120.5 24zM234.5 322.5q-18.5 18.5 -47.5 18.5q-28 0 -46.5 -18.5t-18.5 -47.5q0 -28 18.5 -46t47.5 -18q28 0 46.5 18t18.5 46q0 29 -18.5 47.5zM879.5 288
q-12.5 -12 -12.5 -31t13 -32t32 -13t31 12.5t12 32.5q0 19 -12 31t-31 12q-20 0 -32.5 -12z" />
    <glyph glyph-name="tm_E" unicode="&#xb8e;" horiz-adv-x="916" 
d="M906 421h-181v-421h-116v422h-204q-122 0 -180.5 -50t-58.5 -135q0 -43 18 -76q5 66 52.5 107.5t117.5 41.5q53 0 95.5 -21.5t66.5 -59t24 -84.5t-25.5 -84t-71 -58t-102.5 -21q-85 0 -152.5 33t-105.5 91t-38 131q0 81 39.5 143.5t118.5 97.5t193 35h492zM305 197.5
q-20 -20.5 -20 -52.5q0 -31 20 -51t51 -20t51.5 20t20.5 51t-20.5 52t-51.5 21t-51 -20.5z" />
    <glyph glyph-name="tm_Ee" unicode="&#xb8f;" horiz-adv-x="916" 
d="M906 421h-181v-404q0 -64 -12.5 -100t-55.5 -50l-389 -117l-44 89l334 105q33 10 42 33.5t9 77.5v367h-204q-122 0 -180.5 -50t-58.5 -135q0 -43 18 -76q5 66 52.5 107.5t117.5 41.5q53 0 95.5 -21.5t66.5 -59t24 -84.5t-25.5 -84t-71 -58t-102.5 -21q-85 0 -152.5 33
t-105.5 91t-38 131q0 81 39.5 143.5t118.5 97.5t193 35h492zM305 197.5q-20 -20.5 -20 -52.5q0 -31 20 -51t51 -20t51.5 20t20.5 51t-20.5 52t-51.5 21t-51 -20.5z" />
    <glyph glyph-name="tm_Ai" unicode="&#xb90;" horiz-adv-x="810" 
d="M713 101q20 -38 29 -69.5t9 -63.5q0 -50 -24 -89t-68 -61.5t-101 -22.5q-46 0 -84 17t-63 47q-28 -30 -69 -47t-90 -17q-59 0 -106.5 23.5t-74 65t-26.5 93.5q0 189 270 225l180 24q81 11 114.5 44t34.5 85q0 34 -19.5 57t-52.5 23q-43 0 -66 -26t-23 -66v-69h-116v69
q0 41 -26.5 66.5t-76.5 25.5q-33 0 -60 -15q41 -8 65.5 -38t24.5 -71q0 -46 -36.5 -77t-89.5 -31t-88 36t-35 89q0 58 28 104.5t78 72.5t113 26q47 0 88.5 -19t71.5 -53q28 34 66.5 53t81.5 19q55 0 99 -22.5t69 -63t25 -90.5q0 -94 -65 -152.5t-205 -77.5l-180 -24
q-82 -11 -115.5 -43.5t-33.5 -82.5q0 -36 23.5 -60t62.5 -24q42 0 70.5 26.5t28.5 65.5v69h117v-69q0 -39 25.5 -65.5t64.5 -26.5q33 0 52.5 22.5t19.5 59.5q0 22 -9 56.5t-27 65.5zM202 284.5q11 10.5 11 26.5q0 18 -10.5 29.5t-27.5 11.5t-28.5 -11.5t-11.5 -28.5
q0 -16 11.5 -27t28.5 -11q16 0 27 10.5z" />
    <glyph glyph-name="tm_O" unicode="&#xb92;" horiz-adv-x="833" 
d="M594.5 71q28.5 -15 81.5 -15h83v-91h-83q-18 0 -27 1v-7q0 -52 -27 -92t-78 -63t-120 -23t-120 23t-78 63t-27 92v41h116v-41q0 -37 28 -59t81 -22t81 22t28 59v39q-41 24 -62.5 63t-21.5 90v118h107q1 -28 18 -45.5t43 -17.5q23 0 39 21.5t16 54.5q0 44 -34.5 79.5
t-95 55.5t-136.5 20q-96 0 -166 -33.5t-93 -88.5q36 30 87 30q62 0 102 -35.5t40 -91.5q0 -58 -42.5 -96t-107.5 -38q-85 0 -135.5 50t-50.5 132q0 77 46 138t129.5 95.5t190.5 34.5q111 0 199 -32.5t138 -90t50 -129.5q0 -49 -22.5 -88.5t-62 -61.5t-88.5 -22q-32 0 -61 13
q7 -37 35.5 -52zM189 255q-16 -15 -16 -38t15.5 -38.5t39.5 -15.5t39.5 15.5t15.5 39.5q0 22 -15.5 37t-38.5 15q-24 0 -40 -15z" />
    <glyph glyph-name="tm_Oo" unicode="&#xb93;" horiz-adv-x="833" 
d="M594.5 71q28.5 -15 81.5 -15h83v-91h-83q-14 0 -21 1v-7q0 -51 -32.5 -91.5t-90 -63.5t-129.5 -23q-66 0 -118 18.5t-81.5 52t-29.5 75.5q0 59 43 95.5t119 36.5h21v-91h-21q-18 0 -29.5 -12t-11.5 -29q0 -21 30.5 -35t77.5 -14q59 0 97.5 23t38.5 58v36
q-43 24 -66.5 63.5t-23.5 92.5v118h107q1 -28 18 -45.5t43 -17.5q23 0 39 21.5t16 54.5q0 44 -34.5 79.5t-95 55.5t-136.5 20q-96 0 -166 -33.5t-93 -88.5q36 30 87 30q62 0 102 -35.5t40 -91.5q0 -58 -42.5 -96t-107.5 -38q-85 0 -135.5 50t-50.5 132q0 77 46 138
t129.5 95.5t190.5 34.5q111 0 199 -32.5t138 -90t50 -129.5q0 -49 -22.5 -88.5t-62 -61.5t-88.5 -22q-32 0 -61 13q7 -37 35.5 -52zM189 255q-16 -15 -16 -38t15.5 -38.5t39.5 -15.5t39.5 15.5t15.5 39.5q0 22 -15.5 37t-38.5 15q-24 0 -40 -15z" />
    <glyph glyph-name="tm_Au" unicode="&#xb94;" horiz-adv-x="2099" 
d="M594.5 71q28.5 -15 81.5 -15h83v-91h-83q-18 0 -27 1v-7q0 -52 -27 -92t-78 -63t-120 -23t-120 23t-78 63t-27 92v41h116v-41q0 -37 28 -59t81 -22t81 22t28 59v39q-41 24 -62.5 63t-21.5 90v118h107q1 -28 18 -45.5t43 -17.5q23 0 39 21.5t16 54.5q0 44 -34.5 79.5
t-95 55.5t-136.5 20q-96 0 -166 -33.5t-93 -88.5q36 30 87 30q62 0 102 -35.5t40 -91.5q0 -58 -42.5 -96t-107.5 -38q-85 0 -135.5 50t-50.5 132q0 77 46 138t129.5 95.5t190.5 34.5q111 0 199 -32.5t138 -90t50 -129.5q0 -49 -22.5 -88.5t-62 -61.5t-88.5 -22q-32 0 -61 13
q7 -37 35.5 -52zM189 255q-16 -15 -16 -38t15.5 -38.5t39.5 -15.5t39.5 15.5t15.5 39.5q0 22 -15.5 37t-38.5 15q-24 0 -40 -15zM2089 422h-181v-422h-116v422h-212v-422h-116v228q0 59 -30.5 106.5t-85 74t-123.5 26.5q-70 0 -121 -26t-78 -71t-27 -101q0 -43 18 -76
q5 66 52.5 107.5t117.5 41.5q53 0 95.5 -21.5t66.5 -59t24 -84.5t-25.5 -84t-71 -58t-102.5 -21q-85 0 -152.5 33t-105.5 91t-38 131q0 85 43 152t121.5 104.5t182.5 37.5q74 0 135 -24.5t104 -68.5v75h607zM1138 197.5q-20 -20.5 -20 -52.5q0 -31 20 -51t51 -20t51.5 20
t20.5 51t-20.5 52t-51.5 21t-51 -20.5z" />
    <glyph glyph-name="tm_Ka" unicode="&#xb95;" horiz-adv-x="771" 
d="M688 265.5q58 -45.5 58 -119.5q0 -48 -27.5 -85t-79 -58t-120.5 -21v92q54 0 80 19t26 53q0 73 -94 73h-28v-14q0 -64 -31 -115t-87.5 -79.5t-132.5 -28.5q-66 0 -115 21.5t-75.5 59t-26.5 86.5q0 50 29.5 89t83.5 58v217h522l18 -91h-185v-111h27q100 0 158 -45.5z
M386 422h-122v-111h122v111zM386 219h-137q-44 0 -68.5 -19t-24.5 -51t25.5 -51.5t70.5 -19.5q64 0 99 35t35 92v14z" />
    <glyph glyph-name="tm_Nga" unicode="&#xb99;" horiz-adv-x="1039" 
d="M954 513v-513h-608v91h151q59 0 89.5 27.5t30.5 73.5q0 36 -19.5 60t-52.5 24q-36 0 -59.5 -23.5t-23.5 -56.5v-36h-116v262h-145v-422h-116v513h540l18 -92h-181v-72q45 24 97 24q81 0 130.5 -49.5t49.5 -131.5q0 -57 -30 -101h129v422h116z" />
    <glyph glyph-name="tm_Ca" unicode="&#xb9a;" horiz-adv-x="713" 
d="M688 219h-185v-14q0 -64 -31 -115t-87.5 -79.5t-132.5 -28.5q-66 0 -115 21.5t-75.5 59t-26.5 86.5q0 50 29.5 89t83.5 58v217h522l18 -91h-185v-111h167zM386 422h-122v-111h122v111zM386 219h-137q-44 0 -68.5 -19t-24.5 -51t25.5 -51.5t70.5 -19.5q64 0 99 35t35 92
v14z" />
    <glyph glyph-name="tm_Ja" unicode="&#xb9c;" horiz-adv-x="810" 
d="M723 63.5q42 -42.5 42 -113.5q0 -67 -51 -109.5t-138 -42.5h-86v91h86q29 0 48.5 17t19.5 44q0 26 -14.5 43t-36.5 17q-32 0 -56 -20t-59 -63q-34 -42 -61.5 -68t-68.5 -45t-96 -19q-59 0 -106.5 23.5t-74 65t-26.5 93.5q0 189 270 225l180 24q81 11 114.5 44t34.5 85
q0 34 -19.5 57t-52.5 23q-43 0 -66 -26t-23 -66v-69h-116v69q0 41 -26.5 66.5t-76.5 25.5q-33 0 -60 -15q41 -8 65.5 -38t24.5 -71q0 -46 -36.5 -77t-89.5 -31t-88 36t-35 89q0 58 28 104.5t78 72.5t113 26q47 0 88.5 -19t71.5 -53q28 34 66.5 53t81.5 19q55 0 99 -22.5
t69 -63t25 -90.5q0 -94 -65 -152.5t-205 -77.5l-180 -24q-82 -11 -115.5 -43t-33.5 -81q0 -37 23.5 -61.5t62.5 -24.5q35 0 65 22.5t74 69.5q38 40 65.5 64t64 41.5t81.5 17.5q79 0 121 -42.5zM202 284.5q11 10.5 11 26.5q0 18 -10.5 29.5t-27.5 11.5t-28.5 -11.5
t-11.5 -28.5q0 -16 11.5 -27t28.5 -11q16 0 27 10.5z" />
    <glyph glyph-name="tm_Nya" unicode="&#xb9e;" horiz-adv-x="1302" 
d="M1204.5 281.5q52.5 -64.5 52.5 -169.5q0 -117 -70.5 -204.5t-203.5 -135.5t-315 -48q-179 0 -315.5 54t-212 155t-75.5 237q0 95 41 195t104 158l119 -10q-62 -52 -102.5 -148.5t-40.5 -196.5q0 -107 63 -185.5t173 -120.5t246 -42q140 0 245.5 34.5t164 100t58.5 157.5
q0 62 -22 99.5t-65 37.5q-37 0 -62 -27.5t-25 -61.5v-160h-116v422h-178q-122 0 -180 -50t-58 -135q0 -43 18 -76q5 66 52.5 107.5t117.5 41.5q53 0 95 -21.5t66 -59t24 -84.5t-25.5 -84t-70.5 -58t-102 -21q-85 0 -152.5 33t-106 91t-38.5 131q0 81 40 143.5t118.5 97.5
t192.5 35h466l18 -92h-181v-102q43 27 93 27q97 0 149.5 -64.5zM569 197.5q-20 -20.5 -20 -52.5q0 -31 20 -51t51 -20t51.5 20t20.5 51t-20.5 52t-51.5 21t-51 -20.5z" />
    <glyph glyph-name="tm_Tta" unicode="&#xb9f;" horiz-adv-x="730" 
d="M702 91h-501v427l-116 -5v-513h635z" />
    <glyph glyph-name="tm_Nna" unicode="&#xba3;" horiz-adv-x="1794" 
d="M1784 422h-181v-422h-116v422h-88q-55 0 -102 -15q44 -46 67.5 -103.5t23.5 -123.5q0 -57 -24.5 -102t-68.5 -70.5t-101 -25.5t-101 25.5t-69 70.5t-25 102q0 65 28.5 124.5t80.5 105.5q-59 25 -127 25q-73 0 -136 -30q56 -47 86.5 -104.5t30.5 -120.5q0 -57 -25 -102
t-69 -70.5t-101 -25.5t-101 25.5t-68.5 70.5t-24.5 102q0 59 24 115t68 102q-92 38 -195 38q-93 0 -162 -26t-105.5 -72t-36.5 -104q0 -40 17 -74q5 66 53 108.5t118 42.5q53 0 95.5 -21.5t66.5 -59t24 -84.5t-25.5 -84t-71 -58t-102.5 -21q-85 0 -152.5 32t-105.5 89
t-38 130q0 85 52 153t148.5 106.5t224.5 38.5q76 0 147.5 -16.5t132.5 -47.5q106 64 231 64q129 0 229 -57q86 39 189 39h367zM1249 273.5q-18 43.5 -52 77.5q-37 -33 -56.5 -76.5t-19.5 -94.5q0 -45 19 -73.5t54 -28.5t54 28.5t19 73.5q0 50 -18 93.5zM821 106.5
q19 28.5 19 73.5q0 46 -21.5 87t-60.5 74q-31 -34 -47.5 -75t-16.5 -86q0 -44 19.5 -73t53.5 -29q35 0 54 28.5zM305 197.5q-20 -20.5 -20 -52.5q0 -31 20 -51t51 -20t51.5 20t20.5 51t-20.5 52t-51.5 21t-51 -20.5z" />
    <glyph glyph-name="tm_Ta" unicode="&#xba4;" horiz-adv-x="790" 
d="M637.5 280.5q55.5 -30.5 86.5 -84.5t31 -122q0 -75 -38 -134.5t-105.5 -93t-151.5 -33.5h-156q-137 0 -174 -56l-95 59q19 40 85.5 64t170.5 24h169q50 0 89.5 22t62 60.5t22.5 87.5q0 63 -34 104t-87 41h-10v-14q0 -64 -31 -115t-87.5 -79.5t-132.5 -28.5
q-66 0 -115 21.5t-75.5 59t-26.5 86.5q0 50 29.5 89t83.5 58v217h522l18 -91h-185v-111h9q70 0 125.5 -30.5zM386 422h-122v-111h122v111zM386 219h-137q-44 0 -68.5 -19t-24.5 -51t25.5 -51.5t70.5 -19.5q64 0 99 35t35 92v14z" />
    <glyph glyph-name="tm_Na" unicode="&#xba8;" horiz-adv-x="805" 
d="M665 313.5q46 -32.5 70.5 -90t24.5 -129.5q0 -82 -31.5 -145.5t-91 -99.5t-141.5 -36h-142q-136 0 -175 -56l-94 59q23 46 81.5 67t173.5 21h156q70 0 106.5 52t36.5 138q0 68 -25 110t-69 42q-36 0 -59.5 -22t-23.5 -55v-169h-116v422h-145v-422h-116v513h540l18 -92
h-181v-100q42 25 97 25q60 0 106 -32.5z" />
    <glyph glyph-name="tm_Nnna" unicode="&#xba9;" horiz-adv-x="1368" 
d="M1358 422h-181v-422h-116v422h-89q-64 0 -122 -22q53 -46 82.5 -102.5t29.5 -117.5q0 -57 -25 -102t-69 -70.5t-101 -25.5t-101 25.5t-68.5 70.5t-24.5 102q0 61 24.5 116.5t69.5 99.5q-90 39 -197 39q-93 0 -162 -26t-105.5 -72t-36.5 -104q0 -40 17 -74q5 66 53 108.5
t118 42.5q53 0 95.5 -21.5t66.5 -59t24 -84.5t-25.5 -84t-71 -58t-102.5 -21q-85 0 -152.5 32t-105.5 89t-38 130q0 85 52 153t148.5 106.5t224.5 38.5q79 0 152.5 -18t136.5 -51q96 51 213 51h368zM821 106.5q19 28.5 19 73.5t-21 86t-60 74q-31 -32 -48 -72.5t-17 -87.5
q0 -44 19.5 -73t53.5 -29q35 0 54 28.5zM305 197.5q-20 -20.5 -20 -52.5q0 -31 20 -51t51 -20t51.5 20t20.5 51t-20.5 52t-51.5 21t-51 -20.5z" />
    <glyph glyph-name="tm_Pa" unicode="&#xbaa;" horiz-adv-x="747" 
d="M662 513v-513h-577v513l116 5v-427h345v422h116z" />
    <glyph glyph-name="tm_Ma" unicode="&#xbae;" horiz-adv-x="895" 
d="M733 493.5q56 -37.5 86.5 -104t30.5 -150.5q0 -110 -56.5 -174.5t-169.5 -64.5h-539v513l116 5v-427h186v201q0 107 56 173t160 66q74 0 130 -37.5zM707.5 128q21.5 37 21.5 111q0 87 -34 141.5t-92 54.5q-100 0 -100 -151v-193h121q62 0 83.5 37z" />
    <glyph glyph-name="tm_Ya" unicode="&#xbaf;" horiz-adv-x="970" 
d="M885 513v-513h-475v31q-54 -49 -126 -49q-104 0 -156.5 61t-52.5 163v307l116 5v-306q0 -64 22.5 -99t77.5 -35q60 0 89.5 44t29.5 119v272h116v-422h242v422h117z" />
    <glyph glyph-name="tm_Ra" unicode="&#xbb0;" horiz-adv-x="719" 
d="M528 421v-404q0 -42 -4 -69t-18.5 -48t-45.5 -33l-299 -117l-44 98l244 96q23 9 34 22.5t14 32.5t3 56v367h-211v-422h-116v513h606l18 -92h-181z" />
    <glyph glyph-name="tm_Rra" unicode="&#xbb1;" horiz-adv-x="906" 
d="M750 493.5q55 -37.5 83 -104.5t28 -154q0 -194 -86.5 -308t-265.5 -114h-165q-136 0 -175 -56l-94 59q20 40 86 64t170 24h178q117 0 174 89.5t57 241.5q0 93 -29.5 146.5t-93.5 53.5q-53 0 -81 -39.5t-28 -111.5v-284h-116v272q0 68 -29 115.5t-82 47.5q-90 0 -90 -145
v-290h-116v310q0 98 52 159.5t142 61.5q54 0 98 -23t73 -64q31 42 77 64.5t100 22.5q78 0 133 -37.5z" />
    <glyph glyph-name="tm_La" unicode="&#xbb2;" horiz-adv-x="1093" 
d="M1027 381.5q21 -76.5 21 -139.5q0 -119 -57.5 -189.5t-171.5 -70.5q-102 0 -158.5 60.5t-56.5 166.5v46q0 82 -55.5 131t-152.5 49q-71 0 -123 -26t-79.5 -71t-27.5 -101q0 -43 18 -76q5 66 52.5 107.5t117.5 41.5q53 0 95.5 -21.5t66.5 -59t24 -84.5t-25.5 -84t-71 -58
t-102.5 -21q-85 0 -152.5 33t-105.5 91t-38 131q0 85 43.5 152t123 104.5t184.5 37.5q97 0 170.5 -34.5t113.5 -97.5t40 -144v-46q0 -63 26.5 -97t74.5 -34q56 0 81 44t25 120q0 62 -21.5 138t-60.5 133l118 14q43 -69 64 -145.5zM305 197.5q-20 -20.5 -20 -52.5
q0 -31 20 -51t51 -20t51.5 20t20.5 51t-20.5 52t-51.5 21t-51 -20.5z" />
    <glyph glyph-name="tm_Lla" unicode="&#xbb3;" horiz-adv-x="1266" 
d="M1256 422h-181v-422h-116v422h-212v-422h-116v228q0 59 -30.5 106.5t-85 74t-123.5 26.5q-70 0 -121 -26t-78 -71t-27 -101q0 -43 18 -76q5 66 52.5 107.5t117.5 41.5q53 0 95.5 -21.5t66.5 -59t24 -84.5t-25.5 -84t-71 -58t-102.5 -21q-85 0 -152.5 33t-105.5 91
t-38 131q0 85 43 152t121.5 104.5t182.5 37.5q74 0 135 -24.5t104 -68.5v75h607zM305 197.5q-20 -20.5 -20 -52.5q0 -31 20 -51t51 -20t51.5 20t20.5 51t-20.5 52t-51.5 21t-51 -20.5z" />
    <glyph glyph-name="tm_Llla" unicode="&#xbb4;" horiz-adv-x="895" 
d="M503 0v-23q0 -39 17.5 -55.5t50.5 -16.5h149l18 -91h-176q-25 -52 -82.5 -84t-130.5 -32q-63 0 -112.5 23.5t-78 66.5t-28.5 99h117q0 -41 29 -66.5t73 -25.5q43 0 69.5 15t33.5 38q-30 15 -47.5 44t-17.5 68v40h-302v513l116 5v-427h186v201q0 107 56 173t160 66
q74 0 130 -37.5t86.5 -104t30.5 -150.5q0 -110 -56.5 -174.5t-169.5 -64.5h-121zM503 91h121q62 0 83.5 37t21.5 111q0 87 -34 141.5t-92 54.5q-100 0 -100 -151v-193z" />
    <glyph glyph-name="tm_Va" unicode="&#xbb5;" horiz-adv-x="1095" 
d="M1010 513v-513h-425v91q46 77 46 164q0 81 -58 130.5t-172 49.5q-71 0 -124.5 -26t-82 -71t-28.5 -101q0 -43 18 -76q5 65 53.5 107t116.5 42q53 0 95.5 -21.5t66.5 -59t24 -84.5t-25.5 -84t-71 -58t-102.5 -21q-85 0 -152.5 33t-105.5 91t-38 131q0 85 45 152t126 104.5
t185 37.5q101 0 181 -35.5t125.5 -98.5t45.5 -142q0 -84 -40 -164h181v422h116zM305 197.5q-20 -20.5 -20 -52.5q0 -31 20 -51t51 -20t51.5 20t20.5 51t-20.5 52t-51.5 21t-51 -20.5z" />
    <glyph glyph-name="tm_Sha" unicode="&#xbb6;" horiz-adv-x="1133" 
d="M1031 448.5q57 -64.5 57 -173.5q0 -85 -30.5 -151.5t-87 -104t-130.5 -37.5q-104 0 -160 66t-56 173v201h-117v-216q0 -101 -55.5 -162.5t-160.5 -61.5t-160.5 61.5t-55.5 162.5v307l116 5v-306q0 -64 22.5 -99t77.5 -35q54 0 76.5 35t22.5 99v301h471q113 0 170 -64.5z
M932.5 132.5q33.5 54.5 33.5 142.5q0 73 -21.5 110t-83.5 37h-120v-192q0 -152 99 -152q59 0 92.5 54.5z" />
    <glyph glyph-name="tm_Ssa" unicode="&#xbb7;" horiz-adv-x="1465" 
d="M1390 0h-236v-243h-116v243h-453v91q46 77 46 164q0 81 -58 130.5t-172 49.5q-71 0 -124.5 -26t-82 -71t-28.5 -101q0 -43 18 -76q5 66 52.5 107.5t117.5 41.5q53 0 95.5 -21.5t66.5 -59t24 -84.5t-25.5 -84t-71 -58t-102.5 -21q-85 0 -152.5 33t-105.5 91t-38 131
q0 85 45 152t126 104.5t185 37.5q101 0 181 -35.5t125.5 -98.5t45.5 -142q0 -87 -40 -164h325v96q-10 -1 -31 -1q-66 0 -116.5 23t-78.5 63.5t-28 89.5q0 50 24.5 88.5t67.5 59.5t98 21q83 0 131.5 -46.5t48.5 -124.5v-42q78 38 120 104h116v-422zM1038 285v70
q0 37 -16.5 58.5t-47.5 21.5t-49.5 -20t-18.5 -53q0 -34 26 -56.5t75 -22.5q11 0 31 2zM1274 91v191q-55 -45 -120 -69v-122h120zM305 197.5q-20 -20.5 -20 -52.5q0 -31 20 -51t51 -20t51.5 20t20.5 51t-20.5 52t-51.5 21t-51 -20.5z" />
    <glyph glyph-name="tm_Sa" unicode="&#xbb8;" horiz-adv-x="1411" 
d="M1345 381.5q21 -76.5 21 -139.5q0 -119 -57.5 -189.5t-172.5 -70.5q-102 0 -158 60t-56 167v93q0 133 -91 133q-55 0 -83 -49t-28 -131v-255h-116v255q0 82 -55.5 131t-152.5 49q-71 0 -123 -26t-79.5 -71t-27.5 -101q0 -43 18 -76q5 66 52.5 107.5t117.5 41.5
q53 0 95.5 -21.5t66.5 -59t24 -84.5t-25.5 -84t-71 -58t-102.5 -21q-85 0 -152.5 33t-105.5 91t-38 131q0 85 43.5 152t123 104.5t184.5 37.5q87 0 156 -28t111 -80q28 51 72.5 79.5t101.5 28.5q98 0 149.5 -61.5t51.5 -162.5v-98q0 -63 26.5 -97t74.5 -34q55 0 80 44
t25 120q0 63 -21 138.5t-61 132.5l119 14q43 -69 64 -145.5zM305 197.5q-20 -20.5 -20 -52.5q0 -31 20 -51t51 -20t51.5 20t20.5 51t-20.5 52t-51.5 21t-51 -20.5z" />
    <glyph glyph-name="tm_Ha" unicode="&#xbb9;" horiz-adv-x="1690" 
d="M1534 493.5q55 -37.5 83 -104.5t28 -154q0 -194 -86.5 -308t-265.5 -114h-979q-137 0 -174 -56l-95 59q20 40 86 64t170 24h992q117 0 173.5 89.5t56.5 241.5q0 93 -29 146.5t-93 53.5q-53 0 -81 -39.5t-28 -111.5v-284h-116v272q0 68 -29.5 115.5t-82.5 47.5
q-45 0 -67.5 -37.5t-22.5 -107.5v-290h-389v91q46 77 46 164q0 81 -58 130.5t-172 49.5q-71 0 -124.5 -26t-82 -71t-28.5 -101q0 -43 18 -76q5 66 52.5 107.5t117.5 41.5q53 0 95.5 -21.5t66.5 -59t24 -84.5t-25.5 -84t-71 -58t-102.5 -21q-85 0 -152.5 33t-105.5 91
t-38 131q0 85 45 152t126 104.5t185 37.5q101 0 181 -35.5t125.5 -98.5t45.5 -142q0 -88 -41 -164h146v219q0 64 23.5 114t67.5 78.5t104 28.5q55 0 98.5 -22.5t72.5 -64.5q31 42 77 64.5t100 22.5q78 0 133 -37.5zM305 197.5q-20 -20.5 -20 -52.5q0 -31 20 -51t51 -20
t51.5 20t20.5 51t-20.5 52t-51.5 21t-51 -20.5z" />
    <glyph glyph-name="tm_VowelAa" unicode="&#xbbe;" horiz-adv-x="699" 
d="M508 422v-422h-116v422h-191v-422h-116v513h586l18 -91h-181z" />
    <glyph glyph-name="tm_VowelI" unicode="&#xbbf;" horiz-adv-x="286" 
d="M49 759.5q73 -37.5 112.5 -104.5t39.5 -152v-503h-116v503q0 90 -55 144t-150 54q-68 0 -105.5 -25.5t-37.5 -69.5q0 -43 21 -68t64 -25v-81q-92 0 -145.5 48.5t-54.5 125.5q0 55 31.5 98.5t90 68t136.5 24.5q96 0 169 -37.5z" />
    <glyph glyph-name="tm_VowelIi" unicode="&#xbc0;" horiz-adv-x="0" 
d="M-16 852.5q57 -25.5 90.5 -70t33.5 -99.5q0 -57 -40 -94t-101 -37q-60 0 -100 36.5t-40 91.5q0 32 13 57.5t36 43.5h-17q-74 0 -116.5 -37.5t-42.5 -98.5q0 -59 37 -95.5t94 -36.5v-88q-72 0 -129.5 28t-90 78t-32.5 114q0 67 34.5 120t98 83t147.5 30q68 0 125 -25.5z
M3.5 643.5q14.5 14.5 14.5 36.5q0 21 -14.5 35.5t-36.5 14.5t-36.5 -14.5t-14.5 -35.5q0 -22 14.5 -36.5t36.5 -14.5t36.5 14.5z" />
    <glyph glyph-name="tm_VowelU" unicode="&#xbc1;" horiz-adv-x="466" 
d="M350 492q45 -21 70.5 -58t25.5 -84t-24 -84.5t-66 -59t-95 -21.5q-50 0 -90 21t-62.5 58.5t-22.5 84.5q0 41 20 73h-307v91h449q57 0 102 -21zM315.5 298q20.5 21 20.5 52t-20.5 51.5t-52.5 20.5q-31 0 -51.5 -20t-20.5 -52t20.5 -52.5t51.5 -20.5q32 0 52.5 21z" />
    <glyph glyph-name="tm_VowelUu" unicode="&#xbc2;" horiz-adv-x="691" 
d="M528 577q67 -35 105 -97t38 -140q0 -83 -44 -148.5t-124 -102.5t-185 -37h-75v91h75q70 0 122.5 25.5t80.5 70t28 101.5q0 80 -47 130t-126 50q-36 0 -71 -11q62 -11 101.5 -54.5t39.5 -104.5q0 -47 -24 -84.5t-66 -59t-95 -21.5q-79 0 -127 48.5t-48 124.5q0 32 8 64
h-295v91h342q39 47 100.5 73t136.5 26q83 0 150 -35zM313 402q-23 20 -62 20h-47q-13 -31 -13 -63q0 -37 19 -59.5t53 -22.5q32 0 52.5 21t20.5 52q0 32 -23 52z" />
    <glyph glyph-name="tm_VowelE" unicode="&#xbc6;" horiz-adv-x="832" 
d="M586.5 632.5q76.5 -42.5 118.5 -119.5t42 -177v-336h-116v336q0 110 -60 176.5t-163 66.5q-73 0 -128 -32.5t-84.5 -89.5t-29.5 -130q0 -82 27 -142q13 56 58.5 90.5t108.5 34.5q53 0 94 -21.5t63.5 -59t22.5 -84.5t-25.5 -84t-71 -58t-102.5 -21q-85 0 -152.5 44.5
t-105.5 123t-38 177.5q0 100 45 179t127.5 124t190.5 45q102 0 178.5 -42.5zM305 197.5q-20 -20.5 -20 -52.5q0 -31 20 -51t51 -20t51.5 20t20.5 51t-20.5 52t-51.5 21t-51 -20.5z" />
    <glyph glyph-name="tm_VowelEe" unicode="&#xbc7;" horiz-adv-x="693" 
d="M569 278.5q37 -18.5 58 -52t21 -74.5q0 -48 -29.5 -87t-83.5 -61t-124 -22q-105 0 -188.5 44.5t-130.5 124t-47 178.5t47 178t130.5 123.5t188.5 44.5q70 0 124 -22t83.5 -61t29.5 -87q0 -41 -21 -74.5t-58 -52t-83 -18.5q-67 0 -109.5 41t-42.5 106q0 41 23 70
q-85 -11 -137 -78.5t-54 -169.5q2 -102 54 -170t137 -79q-23 29 -23 70q0 65 42.5 106t109.5 41q46 0 83 -18.5zM529 467.5q16 15.5 16 40.5t-15.5 40.5t-38.5 15.5q-25 0 -41 -15.5t-16 -39.5q0 -25 15.5 -41t38.5 -16q25 0 41 15.5zM449.5 189q-15.5 -16 -15.5 -41
q0 -24 16 -39.5t41 -15.5q23 0 38.5 15.5t15.5 40.5t-16 40.5t-41 15.5q-23 0 -38.5 -16z" />
    <glyph glyph-name="tm_VowelAi" unicode="&#xbc8;" horiz-adv-x="1279" 
d="M1105 498q63 -33 96 -92t33 -135q0 -63 -21 -139t-63 -146l-119 14q40 57 61 132.5t21 138.5q0 75 -40 119.5t-119 44.5q-57 0 -113 -27q57 -47 89 -106t32 -122q0 -57 -25 -102t-69 -70.5t-101 -25.5t-101 25.5t-68.5 70.5t-24.5 102q0 58 23.5 114.5t66.5 103.5
q-88 37 -193 37q-93 0 -162 -26t-105.5 -72t-36.5 -104q0 -40 17 -74q5 66 53 108.5t118 42.5q53 0 95.5 -21.5t66.5 -59t24 -84.5t-25.5 -84t-71 -58t-102.5 -21q-85 0 -152.5 32t-105.5 89t-38 130q0 85 52 153t148.5 106.5t224.5 38.5q150 0 277 -62q46 29 99 45.5
t108 16.5q88 0 151 -33zM821 106.5q19 28.5 19 73.5q0 46 -22 87.5t-61 74.5q-30 -34 -46.5 -75.5t-16.5 -86.5q0 -44 19.5 -73t53.5 -29q35 0 54 28.5zM305 197.5q-20 -20.5 -20 -52.5q0 -31 20 -51t51 -20t51.5 20t20.5 51t-20.5 52t-51.5 21t-51 -20.5z" />
    <glyph glyph-name="tm_VowelO" unicode="&#xbca;" horiz-adv-x="2028" 
d="M586.5 632.5q76.5 -42.5 118.5 -119.5t42 -177v-336h-116v336q0 110 -60 176.5t-163 66.5q-73 0 -128 -32.5t-84.5 -89.5t-29.5 -130q0 -82 27 -142q13 56 58.5 90.5t108.5 34.5q53 0 94 -21.5t63.5 -59t22.5 -84.5t-25.5 -84t-71 -58t-102.5 -21q-85 0 -152.5 44.5
t-105.5 123t-38 177.5q0 100 45 179t127.5 124t190.5 45q102 0 178.5 -42.5zM305 197.5q-20 -20.5 -20 -52.5q0 -31 20 -51t51 -20t51.5 20t20.5 51t-20.5 52t-51.5 21t-51 -20.5zM1817 422v-422h-116v422h-191v-422h-116v513h586l18 -91h-181zM1090 467q8 8 8 21t-8 21.5
t-21 8.5t-21 -8.5t-8 -21.5t8 -21t21 -8t21 8zM959 494q-8 -8 -8 -21t8 -21t21 -8t21 8t8 21t-8 21t-21 8t-21 -8zM1180 452q8 8 8 21t-8 21t-21 8t-21 -8t-8 -21t8 -21t21 -8t21 8zM882.5 443.5q-8.5 -8.5 -8.5 -21.5t8.5 -21t21.5 -8t21 8t8 21t-8 21.5t-21 8.5
t-21.5 -8.5zM1256.5 401q8.5 8 8.5 21t-8.5 21.5t-21.5 8.5t-21 -8.5t-8 -21.5t8 -21t21 -8t21.5 8zM834.5 364.5q-8.5 -8.5 -8.5 -21.5t8.5 -21t21.5 -8t21 8t8 21t-8 21.5t-21 8.5t-21.5 -8.5zM1304 322q8 8 8 21t-8 21.5t-21 8.5t-21 -8.5t-8 -21.5t8 -21t21 -8t21 8z
M820.5 278.5q-8.5 -8.5 -8.5 -21.5t8.5 -20.5t21.5 -7.5t21 7.5t8 20.5t-8 21.5t-21 8.5t-21.5 -8.5zM1318.5 236.5q8.5 7.5 8.5 20.5t-8.5 21.5t-21.5 8.5t-21 -8.5t-8 -21.5t8 -20.5t21 -7.5t21.5 7.5zM834.5 195q-8.5 -8 -8.5 -21t8.5 -21t21.5 -8t21 8t8 21t-8 21t-21 8
t-21.5 -8zM1304 153q8 8 8 21t-8 21t-21 8t-21 -8t-8 -21t8 -21t21 -8t21 8zM881.5 115q-8.5 -8 -8.5 -21t8.5 -21t21.5 -8t21 8t8 21t-8 21t-21 8t-21.5 -8zM1257.5 73q8.5 8 8.5 21t-8.5 21t-21.5 8t-21 -8t-8 -21t8 -21t21 -8t21.5 8zM959 65.5q-8 -8.5 -8 -21.5t8 -21
t21 -8t21 8t8 21t-8 21.5t-21 8.5t-21 -8.5zM1180 23q8 8 8 21t-8 21.5t-21 8.5t-21 -8.5t-8 -21.5t8 -21t21 -8t21 8zM1090 8q8 8 8 21t-8 21.5t-21 8.5t-21 -8.5t-8 -21.5t8 -21t21 -8t21 8z" />
    <glyph glyph-name="tm_VowelOo" unicode="&#xbcb;" horiz-adv-x="1936" 
d="M569 278.5q37 -18.5 58 -52t21 -74.5q0 -48 -29.5 -87t-83.5 -61t-124 -22q-105 0 -188.5 44.5t-130.5 124t-47 178.5t47 178t130.5 123.5t188.5 44.5q70 0 124 -22t83.5 -61t29.5 -87q0 -41 -21 -74.5t-58 -52t-83 -18.5q-67 0 -109.5 41t-42.5 106q0 41 23 70
q-85 -11 -137 -78.5t-54 -169.5q2 -102 54 -170t137 -79q-23 29 -23 70q0 65 42.5 106t109.5 41q46 0 83 -18.5zM529 467.5q16 15.5 16 40.5t-15.5 40.5t-38.5 15.5q-25 0 -41 -15.5t-16 -39.5q0 -25 15.5 -41t38.5 -16q25 0 41 15.5zM449.5 189q-15.5 -16 -15.5 -41
q0 -24 16 -39.5t41 -15.5q23 0 38.5 15.5t15.5 40.5t-16 40.5t-41 15.5q-23 0 -38.5 -16zM1725 422v-422h-116v422h-191v-422h-116v513h586l18 -91h-181zM994 467q8 8 8 21t-8 21.5t-21 8.5t-21 -8.5t-8 -21.5t8 -21t21 -8t21 8zM863 494q-8 -8 -8 -21t8 -21t21 -8t21 8
t8 21t-8 21t-21 8t-21 -8zM1084 452q8 8 8 21t-8 21t-21 8t-21 -8t-8 -21t8 -21t21 -8t21 8zM786.5 443.5q-8.5 -8.5 -8.5 -21.5t8.5 -21t21.5 -8t21 8t8 21t-8 21.5t-21 8.5t-21.5 -8.5zM1160.5 401q8.5 8 8.5 21t-8.5 21.5t-21.5 8.5t-21 -8.5t-8 -21.5t8 -21t21 -8
t21.5 8zM738.5 364.5q-8.5 -8.5 -8.5 -21.5t8.5 -21t21.5 -8t21 8t8 21t-8 21.5t-21 8.5t-21.5 -8.5zM1208 322q8 8 8 21t-8 21.5t-21 8.5t-21 -8.5t-8 -21.5t8 -21t21 -8t21 8zM724.5 278.5q-8.5 -8.5 -8.5 -21.5t8.5 -20.5t21.5 -7.5t21 7.5t8 20.5t-8 21.5t-21 8.5
t-21.5 -8.5zM1222.5 236.5q8.5 7.5 8.5 20.5t-8.5 21.5t-21.5 8.5t-21 -8.5t-8 -21.5t8 -20.5t21 -7.5t21.5 7.5zM738.5 195q-8.5 -8 -8.5 -21t8.5 -21t21.5 -8t21 8t8 21t-8 21t-21 8t-21.5 -8zM1208 153q8 8 8 21t-8 21t-21 8t-21 -8t-8 -21t8 -21t21 -8t21 8zM785.5 115
q-8.5 -8 -8.5 -21t8.5 -21t21.5 -8t21 8t8 21t-8 21t-21 8t-21.5 -8zM1161.5 73q8.5 8 8.5 21t-8.5 21t-21.5 8t-21 -8t-8 -21t8 -21t21 -8t21.5 8zM863 65.5q-8 -8.5 -8 -21.5t8 -21t21 -8t21 8t8 21t-8 21.5t-21 8.5t-21 -8.5zM1084 23q8 8 8 21t-8 21.5t-21 8.5t-21 -8.5
t-8 -21.5t8 -21t21 -8t21 8zM994 8q8 8 8 21t-8 21.5t-21 8.5t-21 -8.5t-8 -21.5t8 -21t21 -8t21 8z" />
    <glyph glyph-name="tm_VowelAu" unicode="&#xbcc;" horiz-adv-x="2606" 
d="M590.5 632.5q76.5 -42.5 118.5 -119.5t42 -177v-336h-116v336q0 110 -60 176.5t-163 66.5q-73 0 -128 -32.5t-84.5 -89.5t-29.5 -130q0 -82 27 -142q13 56 58.5 90.5t108.5 34.5q53 0 94 -21.5t63.5 -59t22.5 -84.5t-25.5 -84t-71 -58t-102.5 -21q-85 0 -152.5 44.5
t-105.5 123t-38 177.5q0 100 45 179t127.5 124t190.5 45q102 0 178.5 -42.5zM309 197.5q-20 -20.5 -20 -52.5q0 -31 20 -51t51 -20t51.5 20t20.5 51t-20.5 52t-51.5 21t-51 -20.5zM2596 422h-181v-422h-116v422h-212v-422h-116v228q0 59 -30.5 106.5t-85 74t-123.5 26.5
q-70 0 -121 -26t-78 -71t-27 -101q0 -43 18 -76q5 66 52.5 107.5t117.5 41.5q53 0 95.5 -21.5t66.5 -59t24 -84.5t-25.5 -84t-71 -58t-102.5 -21q-85 0 -152.5 33t-105.5 91t-38 131q0 85 43 152t121.5 104.5t182.5 37.5q74 0 135 -24.5t104 -68.5v75h607zM1645 197.5
q-20 -20.5 -20 -52.5q0 -31 20 -51t51 -20t51.5 20t20.5 51t-20.5 52t-51.5 21t-51 -20.5zM1099 467q8 8 8 21t-8 21.5t-21 8.5t-21 -8.5t-8 -21.5t8 -21t21 -8t21 8zM968 494q-8 -8 -8 -21t8 -21t21 -8t21 8t8 21t-8 21t-21 8t-21 -8zM1189 452q8 8 8 21t-8 21t-21 8
t-21 -8t-8 -21t8 -21t21 -8t21 8zM891.5 443.5q-8.5 -8.5 -8.5 -21.5t8.5 -21t21.5 -8t21 8t8 21t-8 21.5t-21 8.5t-21.5 -8.5zM1265.5 401q8.5 8 8.5 21t-8.5 21.5t-21.5 8.5t-21 -8.5t-8 -21.5t8 -21t21 -8t21.5 8zM843.5 364.5q-8.5 -8.5 -8.5 -21.5t8.5 -21t21.5 -8
t21 8t8 21t-8 21.5t-21 8.5t-21.5 -8.5zM1313 322q8 8 8 21t-8 21.5t-21 8.5t-21 -8.5t-8 -21.5t8 -21t21 -8t21 8zM829.5 278.5q-8.5 -8.5 -8.5 -21.5t8.5 -20.5t21.5 -7.5t21 7.5t8 20.5t-8 21.5t-21 8.5t-21.5 -8.5zM1327.5 236.5q8.5 7.5 8.5 20.5t-8.5 21.5t-21.5 8.5
t-21 -8.5t-8 -21.5t8 -20.5t21 -7.5t21.5 7.5zM843.5 195q-8.5 -8 -8.5 -21t8.5 -21t21.5 -8t21 8t8 21t-8 21t-21 8t-21.5 -8zM1313 153q8 8 8 21t-8 21t-21 8t-21 -8t-8 -21t8 -21t21 -8t21 8zM890.5 115q-8.5 -8 -8.5 -21t8.5 -21t21.5 -8t21 8t8 21t-8 21t-21 8
t-21.5 -8zM1266.5 73q8.5 8 8.5 21t-8.5 21t-21.5 8t-21 -8t-8 -21t8 -21t21 -8t21.5 8zM968 65.5q-8 -8.5 -8 -21.5t8 -21t21 -8t21 8t8 21t-8 21.5t-21 8.5t-21 -8.5zM1189 23q8 8 8 21t-8 21.5t-21 8.5t-21 -8.5t-8 -21.5t8 -21t21 -8t21 8zM1099 8q8 8 8 21t-8 21.5
t-21 8.5t-21 -8.5t-8 -21.5t8 -21t21 -8t21 8z" />
    <glyph glyph-name="tm_Virama" unicode="&#xbcd;" horiz-adv-x="0" 
d="M51 640q20 20 20 50q0 31 -20 51t-51 20q-30 0 -49.5 -20t-19.5 -51q0 -30 19.5 -50t49.5 -20q31 0 51 20z" />
    <glyph glyph-name="tm_Om" unicode="&#xbd0;" horiz-adv-x="843" 
d="M594.5 71q28.5 -15 81.5 -15h83v-91h-83q-18 0 -27 1v-7q0 -52 -27 -92t-78 -63t-120 -23t-120 23t-78 63t-27 92v41h116v-41q0 -37 28 -59t81 -22t81 22t28 59v39q-41 24 -62.5 63t-21.5 90v118h107q1 -28 18 -45.5t43 -17.5q23 0 39 21.5t16 54.5q0 44 -34.5 79.5
t-95 55.5t-136.5 20q-96 0 -166 -33.5t-93 -88.5q36 30 87 30q62 0 102 -35.5t40 -91.5q0 -58 -42.5 -96t-107.5 -38q-85 0 -135.5 50t-50.5 132q0 77 46 138t129.5 95.5t190.5 34.5q111 0 199 -32.5t138 -90t50 -129.5q0 -49 -22.5 -88.5t-62 -61.5t-88.5 -22q-32 0 -61 13
q7 -37 35.5 -52zM189 255q-16 -15 -16 -38t15.5 -38.5t39.5 -15.5t39.5 15.5t15.5 39.5q0 22 -15.5 37t-38.5 15q-24 0 -40 -15zM444 28q-5 -5 -12 -5q-8 0 -13 5t-5 13t5 13.5t13 5.5q7 0 12 -5.5t5 -13.5t-5 -13zM405 14v-61h15v25q0 17 9.5 27.5t27.5 10.5q19 0 30 -13
t11 -34q0 -19 -11.5 -31.5t-31.5 -12.5h-80v89h30zM450 -47h7q11 0 11 16q0 20 -10 20q-8 0 -8 -12v-24z" />
    <glyph glyph-name="tm_AuLengthMark" unicode="&#xbd7;" horiz-adv-x="1266" 
d="M1256 422h-181v-422h-116v422h-212v-422h-116v228q0 59 -30.5 106.5t-85 74t-123.5 26.5q-70 0 -121 -26t-78 -71t-27 -101q0 -43 18 -76q5 66 52.5 107.5t117.5 41.5q53 0 95.5 -21.5t66.5 -59t24 -84.5t-25.5 -84t-71 -58t-102.5 -21q-85 0 -152.5 33t-105.5 91
t-38 131q0 85 43 152t121.5 104.5t182.5 37.5q74 0 135 -24.5t104 -68.5v75h607zM305 197.5q-20 -20.5 -20 -52.5q0 -31 20 -51t51 -20t51.5 20t20.5 51t-20.5 52t-51.5 21t-51 -20.5z" />
    <glyph glyph-name="tm_Zero" unicode="&#xbe6;" horiz-adv-x="711" 
d="M513.5 495.5q70.5 -35.5 111 -98t41.5 -140.5q-1 -79 -41.5 -141.5t-111 -98t-158.5 -35.5t-158.5 35.5t-111 98t-40.5 141.5q0 78 40.5 140.5t111 98t158.5 35.5t158.5 -35.5zM452 101q43 23 67.5 64t24.5 92t-24.5 91.5t-67.5 63.5t-97 23t-97 -23t-67.5 -63.5
t-24.5 -91.5t24.5 -92t67.5 -64t97 -23t97 23z" />
    <glyph glyph-name="tm_One" unicode="&#xbe7;" horiz-adv-x="771" 
d="M688 265.5q58 -45.5 58 -119.5q0 -48 -27.5 -85t-79 -58t-120.5 -21v92q54 0 80 19t26 53q0 73 -94 73h-28v-14q0 -64 -31 -115t-87.5 -79.5t-132.5 -28.5q-66 0 -115 21.5t-75.5 59t-26.5 86.5q0 50 29.5 89t83.5 58v217h522l18 -91h-185v-111h27q100 0 158 -45.5z
M386 422h-122v-111h122v111zM386 219h-137q-44 0 -68.5 -19t-24.5 -51t25.5 -51.5t70.5 -19.5q64 0 99 35t35 92v14z" />
    <glyph glyph-name="tm_Two" unicode="&#xbe8;" horiz-adv-x="782" 
d="M772 91v-91h-701v91h221q89 0 141.5 50.5t52.5 131.5q0 71 -46 116.5t-125 45.5q-60 0 -104 -23q64 -1 101.5 -39.5t37.5 -97.5q0 -40 -20.5 -72t-57 -50.5t-82.5 -18.5q-47 0 -85 19.5t-59 54.5t-21 79q0 69 39 125t105.5 87.5t145.5 31.5q87 0 153.5 -33t103 -92
t36.5 -133q0 -53 -19 -99.5t-55 -82.5h238zM234.5 322.5q-18.5 18.5 -47.5 18.5q-28 0 -46.5 -18.5t-18.5 -47.5q0 -28 18.5 -46t47.5 -18q28 0 46.5 18t18.5 46q0 29 -18.5 47.5z" />
    <glyph glyph-name="tm_Three" unicode="&#xbe9;" horiz-adv-x="866" 
d="M856 91v-91h-510v91h151q59 0 89.5 27.5t30.5 73.5q0 36 -19.5 60t-52.5 24q-36 0 -59.5 -23.5t-23.5 -56.5v-36h-116v262h-145v-422h-116v513h540l18 -92h-181v-72q45 24 97 24q81 0 130.5 -49.5t49.5 -131.5q0 -58 -31 -101h148z" />
    <glyph glyph-name="tm_Four" unicode="&#xbea;" horiz-adv-x="919" 
d="M884 219h-381v-14q0 -64 -31 -115t-87.5 -79.5t-132.5 -28.5q-66 0 -115 21.5t-75.5 59t-26.5 86.5q0 50 29.5 89t83.5 58v217h522l18 -91h-185v-111h265v202h116v-294zM386 422h-122v-111h122v111zM386 219h-137q-44 0 -68.5 -19t-24.5 -51t25.5 -51.5t70.5 -19.5
q64 0 99 35t35 92v14z" />
    <glyph glyph-name="tm_Five" unicode="&#xbeb;" horiz-adv-x="1358" 
d="M1157 0v276q0 129 -63 222t-174.5 141.5t-255.5 48.5q-146 0 -254 -59t-166 -163t-58 -238q0 -111 47.5 -203t140.5 -146.5t225 -54.5q106 0 186.5 34.5t125 96t44.5 139.5q0 68 -25 110t-68 42q-37 0 -60.5 -22t-23.5 -55v-169h-116v422h-156v-422h-116v513h551l18 -91
h-181v-101q42 25 97 25q60 0 106 -32.5t71 -90t25 -129.5q0 -107 -60 -191t-168.5 -131.5t-249.5 -47.5q-166 0 -287 67.5t-184 183t-63 255.5q0 162 73.5 288.5t209.5 198t316 71.5q177 0 315 -61t216 -176.5t78 -272.5v-278h-116z" />
    <glyph glyph-name="tm_Six" unicode="&#xbec;" horiz-adv-x="1097" 
d="M1087 91v-91h-296v91q40 0 62 20.5t22 53.5q0 31 -19 50.5t-53 19.5q-43 0 -68 -25t-25 -64v-146h-116v146q0 33 -23 52.5t-68 20.5v-14q0 -64 -31 -115t-87.5 -79.5t-132.5 -28.5q-66 0 -115 21.5t-75.5 59t-26.5 86.5q0 50 29.5 89t83.5 58v217h522l18 -91h-185v-111
q92 -3 147 -44q27 31 68 47.5t91 16.5q87 0 137.5 -43.5t50.5 -113.5q0 -44 -25 -83h115zM386 422h-122v-111h122v111zM351 113q35 35 35 92v14h-137q-44 0 -68.5 -19t-24.5 -51t25.5 -51.5t70.5 -19.5q64 0 99 35z" />
    <glyph glyph-name="tm_Seven" unicode="&#xbed;" horiz-adv-x="810" 
d="M725 0h-116v422h-204q-122 0 -180.5 -50t-58.5 -135q0 -43 18 -76q5 66 52.5 107.5t117.5 41.5q53 0 95.5 -21.5t66.5 -59t24 -84.5t-25.5 -84t-71 -58t-102.5 -21q-85 0 -152.5 33t-105.5 91t-38 131q0 81 39.5 143.5t118.5 97.5t193 35h329v-513zM305 197.5
q-20 -20.5 -20 -52.5q0 -31 20 -51t51 -20t51.5 20t20.5 51t-20.5 52t-51.5 21t-51 -20.5z" />
    <glyph glyph-name="tm_Eight" unicode="&#xbee;" horiz-adv-x="1097" 
d="M1012 513v-639h-116v177h-193q-48 -92 -147 -143.5t-235 -51.5q-85 0 -152.5 22t-105.5 60.5t-38 87.5q0 54 38.5 85t120.5 31h55q-27 30 -41 69t-14 83q0 68 34 122t94 84.5t135 30.5q89 0 156.5 -40t104 -110t36.5 -157q0 -43 -9 -82h161v371h116zM622 224
q0 95 -46 153t-129 58q-61 0 -101.5 -40t-40.5 -101q0 -66 35.5 -109t88.5 -43h183q10 37 10 82zM465 -22q62 26 101 73h-387q-33 0 -33 -25q0 -31 48.5 -52.5t126.5 -21.5q82 0 144 26z" />
    <glyph glyph-name="tm_Nine" unicode="&#xbef;" horiz-adv-x="1079" 
d="M950 313q49 -25 76.5 -69t27.5 -99q0 -42 -9 -75.5t-29 -75.5l-118 6q16 33 25.5 73t9.5 72q0 45 -25 71t-68 26q-17 0 -24 -1q50 -53 50 -119q0 -61 -43.5 -100.5t-110.5 -39.5t-110.5 39.5t-43.5 100.5q0 51 30 97h-85v-14q0 -64 -31 -115t-87.5 -79.5t-132.5 -28.5
q-66 0 -115 21.5t-75.5 59t-26.5 86.5q0 50 29.5 89t83.5 58v217h522l18 -91h-185v-111h147q16 0 44 -4q68 31 146 31q61 0 110 -25zM386 422h-122v-111h122v111zM386 219h-137q-44 0 -68.5 -19t-24.5 -51t25.5 -51.5t70.5 -19.5q64 0 99 35t35 92v14zM746 173
q-13 22 -37 34q-44 -32 -44 -85q0 -23 13.5 -38t33.5 -15t33.5 15t13.5 38q0 29 -13 51z" />
    <glyph glyph-name="tm_Ten" unicode="&#xbf0;" horiz-adv-x="861" 
d="M795 381.5q21 -76.5 21 -139.5q0 -119 -55.5 -189.5t-169.5 -70.5q-100 0 -161 64q-28 -31 -69 -47.5t-91 -16.5q-114 0 -169.5 70t-55.5 190q0 63 21 139t63 146l119 -14q-40 -57 -61 -132.5t-21 -138.5q0 -76 25 -120t80 -44q48 0 74.5 34t26.5 97v129h116v-129
q0 -63 26.5 -97t74.5 -34q55 0 80 44t25 120q0 63 -21 138.5t-61 132.5l119 14q43 -69 64 -145.5z" />
    <glyph glyph-name="tm_Hundred" unicode="&#xbf1;" horiz-adv-x="1045" 
d="M854 422v-422h-116v422h-212v-422h-116v272q0 75 -29.5 119t-89.5 44q-55 0 -77.5 -35t-22.5 -98v-302h-116v307q0 102 52.5 163t156.5 61q73 0 126 -50v32h607l18 -91h-181z" />
    <glyph glyph-name="tm_Thousand" unicode="&#xbf2;" horiz-adv-x="1144" 
d="M1021 122.5q47 -25.5 72.5 -69.5t25.5 -99q0 -59 -28 -105.5t-80.5 -72.5t-123.5 -26h-163q-106 0 -130 -35l-72 67q17 32 62 46t134 14h169q57 0 88 31t31 81q0 41 -22 68t-62 27h-10q-3 -52 -33.5 -89t-78.5 -55.5t-103 -18.5q-87 0 -133.5 38t-46.5 98q0 56 44.5 91.5
t121.5 35.5h115v70h-295v-14q0 -64 -31 -115t-87.5 -79.5t-132.5 -28.5q-66 0 -115 21.5t-75.5 59t-26.5 86.5q0 50 29.5 89t83.5 58v217h522l18 -91h-185v-111h564l18 -92h-173v-70q62 -1 109 -26.5zM386 422h-122v-111h122v111zM386 219h-137q-44 0 -68.5 -19t-24.5 -51
t25.5 -51.5t70.5 -19.5q64 0 99 35t35 92v14zM761.5 0q27.5 18 34.5 49h-115q-22 0 -32.5 -9.5t-10.5 -21.5q0 -13 15 -24.5t44 -11.5q37 0 64.5 18z" />
    <glyph glyph-name="tm_Naal" unicode="&#xbf3;" horiz-adv-x="904" 
d="M894 91v-91h-309v91q46 77 46 164q0 81 -58 130.5t-172 49.5q-71 0 -124.5 -26t-82 -71t-28.5 -101q0 -43 18 -76q5 66 52.5 107.5t117.5 41.5q53 0 95.5 -21.5t66.5 -59t24 -84.5t-25.5 -84t-71 -58t-102.5 -21q-85 0 -152.5 33t-105.5 91t-38 131q0 85 45 152
t126 104.5t185 37.5q101 0 181 -35.5t125.5 -98.5t45.5 -142q0 -87 -40 -164h181zM305 197.5q-20 -20.5 -20 -52.5q0 -31 20 -51t51 -20t51.5 20t20.5 51t-20.5 52t-51.5 21t-51 -20.5z" />
    <glyph glyph-name="tm_Maatham" unicode="&#xbf4;" horiz-adv-x="1328" 
d="M1328 630v-91h-287v91q31 0 48 19t17 48q0 37 -29 60.5t-79 23.5q-23 0 -35 -1q43 -53 43 -109q0 -61 -43.5 -101t-110.5 -40t-110.5 40t-43.5 101q0 57 51 110h-18q-68 0 -109 -37.5t-41 -98.5q0 -41 18.5 -72t50.5 -46q92 -17 146 -95.5t54 -192.5q0 -110 -56.5 -174.5
t-169.5 -64.5h-539v513l116 5v-427h186v201q0 78 30.5 135.5t88.5 84.5q-46 56 -46 133q0 67 34 120t95.5 83t141.5 30q69 0 132 -26q70 26 144 26q63 0 113.5 -23.5t79 -64.5t28.5 -93q0 -36 -17 -67h117zM857 754q-51 -28 -51 -83q0 -22 13 -36t33 -14t33.5 14t13.5 36
q0 56 -42 83zM695 380.5q-34 54.5 -92 54.5q-100 0 -100 -151v-193h121q62 0 83.5 37t21.5 111q0 87 -34 141.5z" />
    <glyph glyph-name="tm_Varudam" unicode="&#xbf5;" horiz-adv-x="1856" 
d="M1715 313.5q46 -32.5 71 -90t25 -129.5q0 -116 -64.5 -201.5t-183.5 -132t-280 -46.5h-694q-155 0 -274 56.5t-184.5 160t-65.5 239.5q0 95 41 195t104 158l119 -10q-62 -52 -102.5 -148.5t-40.5 -196.5q0 -108 50 -190t141.5 -127t211.5 -45h694q125 0 217 35.5
t140.5 100.5t48.5 152q0 68 -25 110t-69 42q-36 0 -59.5 -22t-23.5 -55v-169h-116v422h-155v-422h-393v91q47 78 47 164q0 81 -58 130.5t-172 49.5q-71 0 -124.5 -26t-82 -71t-28.5 -101q0 -43 18 -76q5 66 52.5 107.5t117.5 41.5q53 0 95 -21.5t66 -59t24 -84.5t-25.5 -84
t-70.5 -58t-102 -21q-85 0 -152.5 33t-106 91t-38.5 131q0 85 45 152t126 104.5t186 37.5q101 0 181 -35.5t125.5 -98.5t45.5 -142q0 -87 -40 -164h148v422h550l18 -91h-181v-101q42 25 97 25q60 0 106 -32.5zM569 197.5q-20 -20.5 -20 -52.5q0 -31 20 -51t51 -20t51.5 20
t20.5 51t-20.5 52t-51.5 21t-51 -20.5z" />
    <glyph glyph-name="tm_Patru" unicode="&#xbf6;" horiz-adv-x="1036" 
d="M951 -165h-298q-17 -57 -64.5 -99.5t-119 -66t-157.5 -23.5q-66 0 -117.5 18.5t-80.5 52t-29 76.5q0 60 43.5 96.5t126.5 36.5h291v74h-461v513l116 5v-427h345v422h116v-587h173v587h116v-678zM444.5 -232.5q57.5 24.5 83.5 67.5h-270q-29 0 -40.5 -11t-11.5 -31
q0 -24 28.5 -37t77.5 -13q75 0 132.5 24.5z" />
    <glyph glyph-name="tm_Varavu" unicode="&#xbf7;" horiz-adv-x="1447" 
d="M1437 91v-91h-287v91q31 0 48 19t17 48q0 39 -27 61.5t-81 22.5q-24 0 -47 -3q26 -23 40.5 -53.5t14.5 -63.5q0 -61 -43.5 -100.5t-110.5 -39.5q-68 0 -111 38t-43 102q0 53 29 97h-111v-219h-116v422h-204q-122 0 -180.5 -50t-58.5 -135q0 -43 18 -76q5 66 52.5 107.5
t117.5 41.5q53 0 95.5 -21.5t66.5 -59t24 -84.5t-25.5 -84t-71 -58t-102.5 -21q-85 0 -152.5 33t-105.5 91t-38 131q0 81 39.5 143.5t118.5 97.5t193 35h492l18 -92h-181v-110h114q47 0 95 -10q77 37 182 37q67 0 116.5 -23t76.5 -64t27 -93q0 -38 -16 -67h117zM305 197.5
q-20 -20.5 -20 -52.5q0 -31 20 -51t51 -20t51.5 20t20.5 51t-20.5 52t-51.5 21t-51 -20.5zM957 204q-43 -31 -43 -82q0 -21 13.5 -35t33.5 -14t33.5 14t13.5 35q0 61 -51 82z" />
    <glyph glyph-name="tm_Merpadi" unicode="&#xbf8;" horiz-adv-x="1968" 
d="M1883 0h-236v-243h-116v243h-453v91q17 45 26 93t9 87q0 75 -40 119.5t-119 44.5q-57 0 -113 -27q57 -47 89 -106t32 -122q0 -57 -25 -102t-69 -70.5t-101 -25.5t-101 25.5t-68.5 70.5t-24.5 102q0 58 23.5 114.5t66.5 103.5q-88 37 -193 37q-93 0 -162 -26t-105.5 -72
t-36.5 -104q0 -40 17 -74q5 66 53 108.5t118 42.5q53 0 95.5 -21.5t66.5 -59t24 -84.5t-25.5 -84t-71 -58t-102.5 -21q-85 0 -152.5 32t-105.5 89t-38 130q0 85 52 153t148.5 106.5t224.5 38.5q150 0 277 -62q46 29 99 45.5t108 16.5q88 0 151 -33t96 -92t33 -135
q0 -85 -34 -180h331v96q-10 -1 -31 -1q-66 0 -116.5 23t-78 63.5t-27.5 89.5q0 50 24.5 88.5t67.5 59.5t97 21q83 0 131.5 -46.5t48.5 -124.5v-42q78 38 120 104h116v-422zM1531 285v70q0 37 -16 58.5t-48 21.5q-31 0 -49.5 -20t-18.5 -53q0 -34 26 -56.5t75 -22.5
q11 0 31 2zM821 106.5q19 28.5 19 73.5q0 46 -22 87.5t-61 74.5q-30 -34 -46.5 -75.5t-16.5 -86.5q0 -44 19.5 -73t53.5 -29q35 0 54 28.5zM1767 91v191q-55 -45 -120 -69v-122h120zM305 197.5q-20 -20.5 -20 -52.5q0 -31 20 -51t51 -20t51.5 20t20.5 51t-20.5 52t-51.5 21
t-51 -20.5z" />
    <glyph glyph-name="tm_Rupee" unicode="&#xbf9;" horiz-adv-x="1162" 
d="M1021 313.5q46 -32.5 71 -90t25 -129.5q0 -113 -63.5 -197t-173 -128.5t-244.5 -44.5q-175 0 -303.5 68t-198 196t-69.5 304q0 165 75 301t211.5 212.5t312.5 72.5q131 -4 221 -31t135.5 -72.5t45.5 -104.5q0 -55 -38 -90t-97 -35q-58 0 -97 35t-40 90q0 57 35 92
q-68 16 -165 16q-144 0 -252.5 -64t-167 -175.5t-58.5 -248.5q0 -147 54 -251.5t155 -159.5t241 -55q100 0 181.5 32t129.5 93t48 145q0 68 -25 110t-68 42q-37 0 -60.5 -22t-23.5 -55v-169h-116v422h-176v-422h-116v513h571l18 -91h-181v-101q44 25 97 25q60 0 106 -32.5z
M965.5 639q13.5 13 13.5 33t-13.5 33.5t-34.5 13.5q-20 0 -33.5 -13.5t-13.5 -33.5t13.5 -33t33.5 -13q21 0 34.5 13z" />
    <glyph glyph-name="tm_Enn" unicode="&#xbfa;" horiz-adv-x="1101" 
d="M1101 630v-91h-287v91q31 0 47.5 19t16.5 48q0 37 -29 60.5t-79 23.5q-23 0 -34 -1q43 -53 43 -109q0 -61 -43.5 -101t-110.5 -40t-110.5 40t-43.5 101q0 57 51 110h-19q-68 0 -108.5 -37.5t-40.5 -98.5q0 -59 36.5 -95.5t93.5 -36.5h141l18 -92h-181v-100q42 25 97 25
q60 0 106 -32.5t70.5 -90t24.5 -129.5q0 -82 -31.5 -145.5t-91 -99.5t-141.5 -36h-142q-136 0 -175 -56l-94 59q23 46 81.5 67t173.5 21h156q70 0 106.5 52t36.5 138q0 68 -25 110t-69 42q-36 0 -59.5 -22t-23.5 -55v-169h-116v422h-145v-422h-116v513h192q-45 56 -45 132
q0 67 34 120t95.5 83t141.5 30q69 0 132 -26q70 26 144 26q63 0 113.5 -23.5t79 -64.5t28.5 -93q0 -38 -16 -67h117zM629 754q-51 -28 -51 -83q0 -22 13.5 -36t33.5 -14t33 14t13 36q0 56 -42 83z" />
    <glyph glyph-name="uni200C" unicode="&#x200c;" horiz-adv-x="0" 
d="M-30 -68h60v1305h-60v-1305z" />
    <glyph glyph-name="uni200D" unicode="&#x200d;" horiz-adv-x="0" 
d="M0 1246l-73 74l-40 -40l74 -74l-74 -74l39 -39l44 43v-1204h60v1205l45 -44l39 39l-74 74l74 74l-40 40z" />
    <glyph glyph-name="endash" unicode="&#x2013;" horiz-adv-x="442" 
d="M402 325h-372l11 -102h371z" />
    <glyph glyph-name="emdash" unicode="&#x2014;" horiz-adv-x="549" 
d="M510 325h-480l11 -102h478z" />
    <glyph glyph-name="quoteleft" unicode="&#x2018;" horiz-adv-x="211" 
d="M146.5 466.5q21.5 23.5 21.5 50.5t-18.5 49.5t-36.5 22.5q6 30 21 48t47 45l-29 60q-56 -30 -94 -91t-38 -118q0 -39 22 -64.5t53 -25.5q30 0 51.5 23.5z" />
    <glyph glyph-name="quoteright" unicode="&#x2019;" horiz-adv-x="210" 
d="M52.5 718.5q-21.5 -23.5 -21.5 -50.5q0 -26 19 -48.5t37 -22.5q-6 -29 -20.5 -47t-46.5 -46l28 -61q57 32 94.5 92.5t37.5 117.5q0 39 -22 64t-54 25q-30 0 -51.5 -23.5z" />
    <glyph glyph-name="quotesinglbase" unicode="&#x201a;" horiz-adv-x="210" 
d="M52.5 123q-21.5 -23 -21.5 -51q0 -26 19 -49t37 -23q-6 -29 -20.5 -46t-46.5 -46l28 -62q56 32 94 93t38 117q0 39 -22.5 64.5t-53.5 25.5q-30 0 -51.5 -23z" />
    <glyph glyph-name="quotedblleft" unicode="&#x201c;" horiz-adv-x="396" 
d="M156.5 466.5q21.5 23.5 21.5 50.5t-18.5 49.5t-36.5 22.5q6 30 21 48t47 45l-29 60q-56 -30 -94 -91t-38 -118q0 -39 22 -64.5t53 -25.5q30 0 51.5 23.5zM342 466.5q22 23.5 22 50.5q0 17 -9.5 34t-22.5 27.5t-24 10.5q6 30 21 48t47 45l-30 60q-56 -30 -93.5 -91
t-37.5 -118q0 -39 22 -64.5t53 -25.5q30 0 52 23.5z" />
    <glyph glyph-name="quotedblright" unicode="&#x201d;" horiz-adv-x="394" 
d="M52.5 718.5q-21.5 -23.5 -21.5 -50.5q0 -26 19 -48.5t37 -22.5q-6 -29 -20.5 -47t-46.5 -46l28 -61q57 32 94.5 92.5t37.5 117.5q0 39 -22 64t-54 25q-30 0 -51.5 -23.5zM238 718.5q-22 -23.5 -22 -50.5q0 -26 18.5 -48.5t37.5 -22.5q-6 -29 -20.5 -46.5t-47.5 -46.5
l29 -61q56 32 93.5 92.5t37.5 117.5q0 39 -21.5 64t-52.5 25q-30 0 -52 -23.5z" />
    <glyph glyph-name="quotedblbase" unicode="&#x201e;" horiz-adv-x="394" 
d="M52.5 123q-21.5 -23 -21.5 -51q0 -26 19 -49t37 -23q-6 -29 -20.5 -46t-46.5 -46l28 -62q56 32 94 93t38 117q0 39 -22.5 64.5t-53.5 25.5q-30 0 -51.5 -23zM238 123q-22 -23 -22 -51q0 -26 18.5 -49t37.5 -23q-6 -29 -20 -46t-48 -46l29 -62q56 32 93.5 93t37.5 117
q0 39 -21.5 64.5t-52.5 25.5q-30 0 -52 -23z" />
    <glyph glyph-name="dagger" unicode="&#x2020;" horiz-adv-x="446" 
d="M155 783v-158h-125l19 -122h106l10 -503l119 -4l11 507h121l-18 122h-103v155z" />
    <glyph glyph-name="daggerdbl" unicode="&#x2021;" horiz-adv-x="459" 
d="M305 1l-5 153h129l-18 122h-108v227h126l-18 122h-108l4 155l-152 3l5 -158h-130l19 -122h109l-3 -227h-125l19 -122h109l-5 -160z" />
    <glyph glyph-name="bullet" unicode="&#x2022;" horiz-adv-x="277" 
d="M215 254q32 31 32 76q0 44 -32 76t-77 32t-76.5 -32t-31.5 -76q0 -45 31.5 -76t76.5 -31t77 31z" />
    <glyph glyph-name="ellipsis" unicode="&#x2026;" horiz-adv-x="539" 
d="M145.5 19q19.5 19 19.5 47t-19.5 48t-47.5 20t-48 -20t-20 -48t20 -47t48 -19t47.5 19zM318.5 19q19.5 19 19.5 47t-19.5 48t-46.5 20q-29 0 -48.5 -20t-19.5 -48t19.5 -47t48.5 -19q27 0 46.5 19zM489.5 19q19.5 19 19.5 47t-19.5 48t-47.5 20q-27 0 -46.5 -20
t-19.5 -48t19.5 -47t46.5 -19q28 0 47.5 19z" />
    <glyph glyph-name="perthousand" unicode="&#x2030;" horiz-adv-x="1318" 
d="M548 710l-297 -710l131 -4l298 710zM110 681q-38 -21 -61.5 -59.5t-23.5 -88.5q0 -51 23.5 -90t61.5 -59.5t81 -20.5t81 21t61.5 60t23.5 89q0 51 -23 89.5t-61.5 59t-81.5 20.5t-81 -21zM232.5 588q16.5 -20 16.5 -56q0 -35 -17.5 -55.5t-40.5 -20.5q-26 0 -41.5 20
t-15.5 58q0 34 17 54t40 20q25 0 41.5 -20zM662 317.5q-38 -20.5 -61.5 -59t-23.5 -89.5t23.5 -89.5t61.5 -59t81 -20.5q42 0 80 21t61 60t23 89q0 52 -23 90t-60.5 58t-80.5 20t-81 -20.5zM1046.5 317.5q-38.5 -20.5 -62 -59t-23.5 -89.5t23.5 -89.5t62 -59t81.5 -20.5
q41 0 79 21.5t62 60t24 88.5q0 52 -23.5 90t-61 58t-80.5 20t-81.5 -20.5zM783.5 224.5q16.5 -20.5 16.5 -55.5t-17 -56t-40 -21q-26 0 -42 20.5t-16 58.5q0 34 17.5 54t40.5 20q24 0 40.5 -20.5zM1168 225q16 -20 16 -56q0 -35 -16.5 -56t-39.5 -21q-27 0 -43 20t-16 59
q0 34 18 54t41 20q24 0 40 -20z" />
    <glyph glyph-name="guilsinglleft" unicode="&#x2039;" horiz-adv-x="233" 
d="M30 221l160 -138l23 91l-81 71l81 71l-23 92l-160 -139v-48z" />
    <glyph glyph-name="guilsinglright" unicode="&#x203a;" horiz-adv-x="232" 
d="M202 269l-160 139l-22 -92l78 -71l-78 -71l22 -91l160 138v48z" />
    <glyph glyph-name="fraction" unicode="&#x2044;" horiz-adv-x="454" 
d="M308 710l-298 -710l135 -4l299 710z" />
    <glyph glyph-name="Euro" unicode="&#x20ac;" horiz-adv-x="622" 
d="M607 30q-38 -20 -92.5 -32t-98.5 -12q-116 0 -194 58t-109 158h-101l-12 96h95q-2 26 -2 39q0 14 2 42h-83l-12 96h114q34 102 114.5 160.5t192.5 58.5q36 0 88 -11t92 -33l-40 -93l-25 7q-39 12 -62 16.5t-57 4.5q-53 0 -95 -29t-67 -81h191l10 -96h-226q-2 -26 -2 -41
q0 -14 2 -40h216l10 -96h-201q23 -50 62.5 -78.5t91.5 -28.5q74 0 149 31z" />
    <glyph glyph-name="Turkishlira" unicode="&#x20ba;" horiz-adv-x="546" 
d="M216 0q88 0 158.5 39.5t111 111t40.5 164.5h-133q0 -55 -22.5 -99t-63 -68.5t-91.5 -24.5v221l168 60l-18 100l-150 -52v41l168 59l-18 100l-150 -52v106l-130 -11v-142l-86 -30l19 -101l67 25v-42l-86 -30l19 -100l67 23v-298h130z" />
    <glyph glyph-name="Ruble" unicode="&#x20bd;" horiz-adv-x="592" 
d="M214 237v-37h251l11 -102h-262v-98h-129v98h-49l-11 102h60v39h-49l-11 102h60v339h213q120 0 194.5 -53.5t74.5 -164.5q0 -74 -38.5 -125t-101.5 -75.5t-138 -24.5h-75zM214 344h82q60 0 95 27.5t39 82.5q0 63 -34.5 90.5t-101.5 27.5h-80v-228z" />
    <glyph glyph-name="litre" unicode="&#x2113;" horiz-adv-x="415" 
d="M63 164q11 7 16 10v-7q0 -177 164 -177q30 0 62.5 13t61.5 39l-44 83q-29 -24 -66 -24q-47 0 -47 78v93q78 68 126.5 142.5t48.5 140.5q0 67 -42 107t-105 40q-43 0 -79.5 -18.5t-58 -53.5t-21.5 -81v-232q-27 -20 -69 -46l32 -118q10 4 21 11zM210 433v109q0 22 6 34
t17 12t17.5 -11t6.5 -29q0 -58 -47 -115z" />
    <glyph glyph-name="trademark" unicode="&#x2122;" horiz-adv-x="765" 
d="M336 680h-326v-72h117v-303h91v303h131zM579 408l58 69v-172h93v375h-43l-124 -163l-137 163h-46v-375h93v184l78 -86z" />
    <glyph glyph-name="Ohm" unicode="&#x2126;" horiz-adv-x="707" 
d="M504.5 194.5q-27.5 -65.5 -77.5 -89.5v-105h239l6 105h-86q38 41 59.5 107.5t21.5 135.5q0 105 -37 183.5t-108 121.5t-169 43t-168.5 -43t-107.5 -121.5t-37 -183.5q0 -69 21.5 -135.5t59.5 -107.5h-86l5 -105h240v105q-49 24 -77 90t-28 149q0 112 48.5 177t129.5 65
q82 0 130.5 -65t48.5 -177q0 -84 -27.5 -149.5z" />
    <glyph glyph-name="estimated" unicode="&#x212e;" horiz-adv-x="515" 
d="M490 244q0 71 -24 128.5t-74 91.5t-123 34q-75 0 -130 -31.5t-84.5 -89.5t-29.5 -135q0 -119 71.5 -186.5t209.5 -67.5q59 0 102 15.5t80 44.5l-38 94q-37 -21 -69 -32t-72 -11q-69 0 -102.5 27t-43.5 78h327v40zM199 362.5q27 24.5 67 24.5t65.5 -24t35.5 -72h-203
q8 47 35 71.5z" />
    <glyph glyph-name="partialdiff" unicode="&#x2202;" 
d="M322 642.5q99 -75.5 160 -175t61 -197.5q0 -87 -32 -151t-90.5 -97.5t-136.5 -33.5t-136.5 31t-90.5 88.5t-32 134.5q0 76 31.5 134.5t88 90t129.5 31.5q9 0 27 -2q-90 97 -237 159l50 94q109 -31 208 -106.5zM373.5 140q35.5 41 35.5 104q0 64 -23 122q-45 21 -102 21
q-54 0 -89.5 -41t-35.5 -104t35 -103t90 -40q54 0 89.5 41z" />
    <glyph glyph-name="Delta" unicode="&#x2206;" horiz-adv-x="659" 
d="M275 680l-265 -680h639v18l-264 662h-110zM479 104h-301l149 398z" />
    <glyph glyph-name="product" unicode="&#x220f;" horiz-adv-x="669" 
d="M85 0h129v579h239v-579h131v680h-499v-680z" />
    <glyph glyph-name="summation" unicode="&#x2211;" horiz-adv-x="494" 
d="M407 680h-374v-102l166 -234l-169 -243v-101h444l-20 101h-284l150 223v43l-145 211h253z" />
    <glyph glyph-name="minus" unicode="&#x2212;" horiz-adv-x="479" 
d="M437 325h-407l9 -102h410z" />
    <glyph glyph-name="divisionslash" unicode="&#x2215;" horiz-adv-x="454" 
d="M308 710l-298 -710l135 -4l299 710z" />
    <glyph glyph-name="bulletmath" unicode="&#x2219;" horiz-adv-x="277" 
d="M215 254q32 31 32 76q0 44 -32 76t-77 32t-76.5 -32t-31.5 -76q0 -45 31.5 -76t76.5 -31t77 31z" />
    <glyph glyph-name="radical" unicode="&#x221a;" horiz-adv-x="630" 
d="M486 710l-241 -571l-100 182l-135 -4l170 -317l142 -4l298 710z" />
    <glyph glyph-name="infinity" unicode="&#x221e;" horiz-adv-x="825" 
d="M132.5 438.5q-50.5 -29.5 -79 -81t-28.5 -112.5t28.5 -109t79.5 -75t114 -27q48 0 88.5 22.5t70.5 58.5q34 -37 79 -58t95 -21q62 0 112.5 29.5t79 80.5t28.5 112q0 62 -28.5 110t-79.5 74.5t-114 26.5q-47 0 -88 -22t-70 -58q-34 37 -79.5 58t-95.5 21
q-62 0 -112.5 -29.5zM502.5 324.5q32.5 38.5 75.5 38.5q47 0 77.5 -30t30.5 -73q0 -48 -30.5 -82.5t-77.5 -34.5q-37 1 -69.5 21t-51.5 53q13 69 45.5 107.5zM322.5 178.5q-32.5 -38.5 -75.5 -38.5q-47 0 -77.5 30.5t-30.5 73.5q0 47 30.5 81.5t77.5 34.5q36 -1 69 -21
t52 -51q-13 -71 -45.5 -109.5z" />
    <glyph glyph-name="integral" unicode="&#x222b;" horiz-adv-x="422" 
d="M335 672q23 0 48 -12l39 93q-16 13 -42.5 21.5t-50.5 8.5q-89 0 -136.5 -47t-47.5 -132v-585q0 -41 -13.5 -63.5t-46.5 -22.5q-12 0 -27.5 5t-21.5 7l-36 -93q15 -13 41.5 -22t50.5 -9q89 0 136 48t47 133v585q0 85 60 85z" />
    <glyph glyph-name="approxequal" unicode="&#x2248;" horiz-adv-x="530" 
d="M387.5 407q-11.5 -11 -23.5 -11q-25 -1 -48.5 3.5t-56.5 16.5q-60 21 -91 21q-138 0 -138 -128l98 -21q1 22 12.5 33t25.5 11q53 0 105 -20q50 -21 90 -21q55 0 97 27t42 101l-99 21q-2 -22 -13.5 -33zM387.5 206q-11.5 -11 -23.5 -11q-25 -1 -48.5 3.5t-56.5 16.5
q-60 21 -91 21q-53 0 -95.5 -28.5t-42.5 -100.5l98 -20q1 22 12.5 32t25.5 10q53 0 105 -20q50 -21 90 -21q54 0 96.5 28t42.5 102l-99 21q-2 -22 -13.5 -33z" />
    <glyph glyph-name="notequal" unicode="&#x2260;" horiz-adv-x="516" 
d="M319 520l-50 -112h-239l11 -97h187l-52 -112h-146l11 -96h93l-50 -113l116 -5l53 118h233l-9 96h-180l49 112h140l-9 97h-89l49 109z" />
    <glyph glyph-name="lessequal" unicode="&#x2264;" horiz-adv-x="368" 
d="M348 222l-171 91l171 91l-21 110l-297 -161v-80l297 -160zM341 90h-310l6 -90h309z" />
    <glyph glyph-name="greaterequal" unicode="&#x2265;" horiz-adv-x="369" 
d="M339 353l-297 161l-22 -110l171 -91l-171 -91l22 -109l297 160v80zM330 90h-309l6 -90h309z" />
    <glyph glyph-name="lozenge" unicode="&#x25ca;" horiz-adv-x="581" 
d="M317 0l234 281v37l-234 282h-52l-235 -282v-37l235 -281h52zM290 457l131 -157l-131 -157l-130 157z" />
    <glyph glyph-name="uni25CC" unicode="&#x25cc;" horiz-adv-x="605" 
d="M323 467q8 8 8 21t-8 21.5t-21 8.5t-21 -8.5t-8 -21.5t8 -21t21 -8t21 8zM192 494q-8 -8 -8 -21t8 -21t21 -8t21 8t8 21t-8 21t-21 8t-21 -8zM413 452q8 8 8 21t-8 21t-21 8t-21 -8t-8 -21t8 -21t21 -8t21 8zM115.5 443.5q-8.5 -8.5 -8.5 -21.5t8.5 -21t21.5 -8t21 8
t8 21t-8 21.5t-21 8.5t-21.5 -8.5zM489.5 401q8.5 8 8.5 21t-8.5 21.5t-21.5 8.5t-21 -8.5t-8 -21.5t8 -21t21 -8t21.5 8zM67.5 364.5q-8.5 -8.5 -8.5 -21.5t8.5 -21t21.5 -8t21 8t8 21t-8 21.5t-21 8.5t-21.5 -8.5zM537 322q8 8 8 21t-8 21.5t-21 8.5t-21 -8.5t-8 -21.5
t8 -21t21 -8t21 8zM53.5 278.5q-8.5 -8.5 -8.5 -21.5t8.5 -20.5t21.5 -7.5t21 7.5t8 20.5t-8 21.5t-21 8.5t-21.5 -8.5zM551.5 236.5q8.5 7.5 8.5 20.5t-8.5 21.5t-21.5 8.5t-21 -8.5t-8 -21.5t8 -20.5t21 -7.5t21.5 7.5zM67.5 195q-8.5 -8 -8.5 -21t8.5 -21t21.5 -8t21 8
t8 21t-8 21t-21 8t-21.5 -8zM537 153q8 8 8 21t-8 21t-21 8t-21 -8t-8 -21t8 -21t21 -8t21 8zM114.5 115q-8.5 -8 -8.5 -21t8.5 -21t21.5 -8t21 8t8 21t-8 21t-21 8t-21.5 -8zM490.5 73q8.5 8 8.5 21t-8.5 21t-21.5 8t-21 -8t-8 -21t8 -21t21 -8t21.5 8zM192 65.5
q-8 -8.5 -8 -21.5t8 -21t21 -8t21 8t8 21t-8 21.5t-21 8.5t-21 -8.5zM413 23q8 8 8 21t-8 21.5t-21 8.5t-21 -8.5t-8 -21.5t8 -21t21 -8t21 8zM323 8q8 8 8 21t-8 21.5t-21 8.5t-21 -8.5t-8 -21.5t8 -21t21 -8t21 8z" />
    <glyph glyph-name="commaaccent" unicode="&#xf6c3;" horiz-adv-x="0" 
d="M-136 -44q-22 -23 -22 -51q0 -27 18.5 -49.5t37.5 -22.5q-6 -19 -21.5 -34.5t-30.5 -21.5l28 -61q50 24 83 71.5t33 101.5q0 39 -21.5 64.5t-52.5 25.5q-30 0 -52 -23z" />
    <glyph glyph-name="fi" unicode="&#xfb01;" horiz-adv-x="613" 
d="M87 384v-384h130v384h133l-41 100h-92v19q0 40 16 63.5t49 23.5q21 0 54 -13l37 94q-16 13 -45 22t-52 9q-89 0 -139 -48t-50 -133v-37h-75v-100h75zM544.5 575q21.5 21 21.5 52t-21.5 52t-52.5 21q-30 0 -51 -21t-21 -52t21 -52t51 -21q31 0 52.5 21zM558 0v485h-130
v-485h130z" />
    <glyph glyph-name="fl" unicode="&#xfb02;" horiz-adv-x="632" 
d="M87 384v-384h130v384h133l-41 100h-92v19q0 40 16 63.5t49 23.5q21 0 54 -13l37 94q-16 13 -45 22t-52 9q-89 0 -139 -48t-50 -133v-37h-75v-100h75zM567 0v706l-129 -11v-695h129z" />
    <glyph glyph-name="grave.case" horiz-adv-x="205" 
d="M105 739l90 25l-51 139h-134z" />
    <glyph glyph-name="dieresis.case" horiz-adv-x="341" 
d="M121 771.5q18 18.5 18 45.5t-18 46t-45 19q-28 0 -47 -19t-19 -46t19 -45.5t47 -18.5q27 0 45 18.5zM312.5 771.5q18.5 18.5 18.5 45.5t-18.5 46t-46.5 19q-26 0 -45.5 -19t-19.5 -46t19 -45.5t46 -18.5q28 0 46.5 18.5z" />
    <glyph glyph-name="macron.case" horiz-adv-x="282" 
d="M10 763h262l-10 103h-252v-103z" />
    <glyph glyph-name="acute.case" horiz-adv-x="205" 
d="M100 739l95 164h-134l-51 -139z" />
    <glyph glyph-name="circumflex.case" horiz-adv-x="395" 
d="M200 804l66 -65l119 16l-152 148h-71l-152 -148l123 -16z" />
    <glyph glyph-name="caron.case" horiz-adv-x="395" 
d="M200 838l-67 65l-123 -16l152 -148h71l152 148l-119 16z" />
    <glyph glyph-name="breve.case" horiz-adv-x="314" 
d="M202 853q-15 -21 -45 -21t-44 20.5t-14 50.5h-89q0 -68 38 -115.5t109 -48.5q71 1 109 48.5t38 115.5h-87q0 -29 -15 -50z" />
    <glyph glyph-name="dotaccent.case" horiz-adv-x="166" 
d="M135.5 765q20.5 21 20.5 52t-20.5 52.5t-51.5 21.5t-52.5 -21.5t-21.5 -52.5t21.5 -52t52.5 -21t51.5 21z" />
    <glyph glyph-name="ring.case" horiz-adv-x="234" 
d="M42 913.5q-32 -29.5 -32 -71.5t31.5 -70t75.5 -28t75.5 28t31.5 70t-32 71.5t-75 29.5t-75 -29.5zM89 814q-12 12 -12 28t12 27.5t28 11.5t27.5 -11.5t11.5 -27.5t-11.5 -28t-27.5 -12t-28 12z" />
    <glyph glyph-name="tilde.case" horiz-adv-x="347" 
d="M248 844.5q-8 -9.5 -19 -9.5q-17 0 -28 4t-26 13q-14 9 -26.5 13.5t-31.5 4.5q-45 0 -76 -29t-31 -91h86q0 10 8.5 20.5t19.5 10.5q17 0 26.5 -4t24.5 -13q12 -9 23.5 -14t31.5 -5q45 0 76 29t31 92h-81q0 -12 -8 -21.5z" />
    <glyph glyph-name="hungarumlaut.case" horiz-adv-x="405" 
d="M100 739l95 164h-134l-51 -139zM300 739l95 164h-134l-51 -139z" />
    <glyph glyph-name="tm_VowelAi.alt" horiz-adv-x="395" 
d="M545 228q0 -71 -25 -127t-72.5 -87.5t-112.5 -31.5q-52 0 -93.5 19t-65 53t-23.5 77q0 41 17.5 74t64.5 88l68 77q22 26 30.5 49.5t8.5 51.5q0 33 -24 53.5t-65 20.5q-34 0 -63 -15q38 -10 61 -40t23 -69q0 -45 -36.5 -76t-89.5 -31t-88 35.5t-35 88.5q0 59 28.5 105.5
t80.5 72.5t119 26q58 0 106.5 -22t76.5 -61t28 -88q0 -45 -19.5 -82t-58.5 -80l-68 -77q-43 -50 -43 -92q0 -27 19.5 -44.5t49.5 -17.5q46 0 72.5 42t24.5 108h104zM171.5 403q7.5 8 7.5 19q0 14 -7.5 22.5t-20.5 8.5t-21.5 -8.5t-8.5 -21.5q0 -12 8.5 -20t21.5 -8t20.5 8z
" />
    <glyph glyph-name="tm_VowelI.alt1" horiz-adv-x="286" 
d="M49 759.5q73 -37.5 112.5 -104.5t39.5 -152v-503h-116v503q0 90 -55 144t-150 54q-67 0 -105 -30t-38 -75q0 -32 11.5 -55.5t34.5 -32.5l-104 -43q-27 23 -41.5 57.5t-15.5 73.5q0 56 32 101.5t90.5 72.5t135.5 27q96 0 169 -37.5z" />
    <glyph glyph-name="tm_VowelU.alt1" horiz-adv-x="0" 
d="M-85 -188l-116 -9v243h116v-234z" />
    <glyph glyph-name="tm_VowelUu.alt1" horiz-adv-x="434" 
d="M243 422v-587h-116v587h-328v91h607l18 -91h-181z" />
    <glyph glyph-name="tm_VowelI.alt2" horiz-adv-x="286" 
d="M-17 759.5q104 -37.5 161 -104.5t57 -152v-503h-116v503q0 59 -42 103.5t-119 69.5t-179 25q-103 0 -159 -29t-56 -75q0 -30 11 -52t32 -32l-74 -63q-40 23 -61.5 61t-22.5 86q0 56 39.5 101.5t114 72t176.5 26.5q134 0 238 -37.5z" />
    <glyph glyph-name="tm_VowelU.alt2" horiz-adv-x="471" 
d="M350 492q45 -21 70.5 -58t25.5 -84t-24 -84.5t-66 -59t-95 -21.5q-50 0 -90 21t-62.5 58.5t-22.5 84.5q0 41 20 73h-366v91h508q57 0 102 -21zM315.5 298q20.5 21 20.5 52t-20.5 51.5t-52.5 20.5q-31 0 -51.5 -20t-20.5 -52t20.5 -52.5t51.5 -20.5q32 0 52.5 21z" />
    <glyph glyph-name="tm_VowelUu.alt2" horiz-adv-x="696" 
d="M528 577q67 -35 105 -97t38 -140q0 -83 -44 -148.5t-124 -102.5t-185 -37h-75v91h75q70 0 122.5 25.5t80.5 70t28 101.5q0 80 -47 130t-126 50q-36 0 -71 -11q62 -11 101.5 -54.5t39.5 -104.5q0 -47 -24 -84.5t-66 -59t-95 -21.5q-79 0 -127 48.5t-48 124.5q0 32 8 64
h-384v91h431q39 47 100.5 73t136.5 26q83 0 150 -35zM313 402q-23 20 -62 20h-47q-13 -31 -13 -63q0 -37 19 -59.5t53 -22.5q32 0 52.5 21t20.5 52q0 32 -23 52z" />
    <glyph glyph-name="tm_VowelI.alt3" horiz-adv-x="286" 
d="M30.5 759.5q82.5 -37.5 126.5 -104t44 -152.5v-503h-116v503q0 91 -65 144.5t-185 53.5q-68 0 -105.5 -25.5t-37.5 -69.5q0 -43 21 -68t64 -25v-81q-92 0 -145.5 48.5t-54.5 125.5q0 55 31.5 98.5t90 68t136.5 24.5q113 0 195.5 -37.5z" />
    <glyph glyph-name="tm_VowelU.alt3" horiz-adv-x="471" 
d="M350 492q45 -21 70.5 -58t25.5 -84t-24 -84.5t-66 -59t-95 -21.5q-50 0 -90 21t-62.5 58.5t-22.5 84.5q0 41 20 73h-319v91h461q57 0 102 -21zM315.5 298q20.5 21 20.5 52t-20.5 51.5t-52.5 20.5q-31 0 -51.5 -20t-20.5 -52t20.5 -52.5t51.5 -20.5q32 0 52.5 21z" />
    <glyph glyph-name="tm_VowelUu.alt3" horiz-adv-x="696" 
d="M528 577q67 -35 105 -97t38 -140q0 -83 -44 -148.5t-124 -102.5t-185 -37h-75v91h75q70 0 122.5 25.5t80.5 70t28 101.5q0 80 -47 130t-126 50q-36 0 -71 -11q62 -11 101.5 -54.5t39.5 -104.5q0 -47 -24 -84.5t-66 -59t-95 -21.5q-79 0 -127 48.5t-48 124.5q0 32 8 64
h-296v91h343q39 47 100.5 73t136.5 26q83 0 150 -35zM313 402q-23 20 -62 20h-47q-13 -31 -13 -63q0 -37 19 -59.5t53 -22.5q32 0 52.5 21t20.5 52q0 32 -23 52z" />
    <glyph glyph-name="tm_VowelI.alt4" horiz-adv-x="286" 
d="M26 759.5q85 -37.5 130 -104t45 -152.5v-503h-116v503q0 90 -67.5 144t-191.5 54q-95 0 -146 -29t-51 -75q0 -84 85 -84v-81q-93 0 -146 44.5t-54 120.5q0 56 37 101.5t107.5 72t167.5 26.5q115 0 200 -37.5z" />
    <glyph glyph-name="tm_KU" horiz-adv-x="1103" 
d="M935.5 275.5q57.5 -34.5 90 -93.5t32.5 -133q0 -93 -58.5 -167t-165 -116t-245.5 -42q-156 0 -274.5 54t-184 155t-65.5 237q0 95 41 195t104 158l119 -10q-62 -52 -102.5 -148.5t-40.5 -196.5q0 -107 50 -184.5t141 -118.5t212 -41q104 0 183 29t122 80t43 116
q0 73 -37 120.5t-94 49.5v-14q0 -64 -30.5 -115t-87 -79.5t-132.5 -28.5q-66 0 -115.5 21.5t-76 59.5t-26.5 86q0 51 29.5 89.5t84.5 57.5v217h522l18 -91h-186v-111q72 -1 129.5 -35.5zM690 422h-122v-111h122v111zM654.5 113q35.5 35 35.5 92v14h-138q-43 0 -67.5 -19.5
t-24.5 -50.5q0 -32 25.5 -51.5t70.5 -19.5q63 0 98.5 35z" />
    <glyph glyph-name="tm_CU" horiz-adv-x="839" 
d="M721 219v-219h-116v219h-102v-14q0 -64 -31 -115t-87.5 -79.5t-132.5 -28.5q-66 0 -115 21.5t-75.5 59t-26.5 86.5q0 50 29.5 89t83.5 58v217h522l18 -91h-185v-111h293l18 -92h-93zM386 422h-122v-111h122v111zM386 219h-137q-44 0 -68.5 -19t-24.5 -51t25.5 -51.5
t70.5 -19.5q64 0 99 35t35 92v14z" />
    <glyph glyph-name="tm_NyU" horiz-adv-x="1309" 
d="M1224 513v-678h-328q-81 -89 -214.5 -139t-301.5 -50q-140 0 -214.5 38t-74.5 111q0 60 44.5 95.5t125.5 35.5h566q48 76 48 168q0 68 -25 110t-68 42q-37 0 -60.5 -22t-23.5 -55v-169h-116v422h-177q-122 0 -180.5 -50t-58.5 -135q0 -43 18 -76q5 66 52.5 107.5
t117.5 41.5q53 0 95.5 -21.5t66.5 -59t24 -84.5t-25.5 -84t-71 -58t-102.5 -21q-85 0 -152.5 33t-105.5 91t-38 131q0 81 39.5 143.5t118.5 97.5t193 35h465l18 -92h-181v-100q44 25 97 25q60 0 106 -32.5t71 -90t25 -129.5q0 -91 -39 -168h150v587h116zM305 197.5
q-20 -20.5 -20 -52.5q0 -31 20 -51t51 -20t51.5 20t20.5 51t-20.5 52t-51.5 21t-51 -20.5zM582.5 -233q90.5 24 154.5 68h-473q-29 0 -45 -10.5t-16 -29.5q0 -27 48 -39.5t129 -12.5q112 0 202.5 24z" />
    <glyph glyph-name="tm_TtU" horiz-adv-x="883" 
d="M742 313.5q46 -32.5 71 -90t25 -129.5q0 -115 -46 -198.5t-131 -127.5t-199 -44q-117 0 -207 49.5t-140 142t-50 218.5q0 63 19 139.5t52 144t74 105.5l119 -10q-40 -33 -72.5 -97.5t-51.5 -140.5t-19 -143q0 -96 34.5 -165.5t96.5 -106t145 -36.5q120 0 187 70.5
t67 199.5q0 68 -25 110t-68 42q-37 0 -60.5 -22t-23.5 -55v-169h-116v513h116v-192q42 25 97 25q60 0 106 -32.5z" />
    <glyph glyph-name="tm_NnU" horiz-adv-x="2027" 
d="M1942 -165h-504q-289 -189 -932 -189q-214 0 -314.5 42t-100.5 116q0 55 44.5 88.5t125.5 33.5h1123q156 116 156 305q0 102 -38.5 153t-120.5 51q-47 0 -93 -19q48 -47 74 -107t26 -129q0 -57 -24.5 -102t-68.5 -70.5t-101 -25.5t-101 25.5t-68.5 70.5t-24.5 102
q0 63 27.5 123t76.5 109q-57 23 -123 23q-73 0 -136 -30q56 -47 86.5 -104.5t30.5 -120.5q0 -57 -25 -102t-69 -70.5t-101 -25.5t-101 25.5t-68.5 70.5t-24.5 102q0 59 24 115t68 102q-92 38 -195 38q-93 0 -162 -26t-105.5 -72t-36.5 -104q0 -40 17 -74q5 66 53 108.5
t118 42.5q53 0 95.5 -21.5t66.5 -59t24 -84.5t-25.5 -84t-71 -58t-102.5 -21q-85 0 -152.5 32t-105.5 89t-38 130q0 85 52 153t148.5 106.5t224.5 38.5q76 0 147.5 -16.5t132.5 -47.5q106 64 231 64q117 0 215 -49q89 49 185 49q135 0 207.5 -78t72.5 -222q0 -178 -115 -305
h280v587h116v-678zM1248 106.5q19 28.5 19 73.5q0 51 -19 95.5t-54 78.5q-34 -36 -53.5 -80.5t-19.5 -93.5q0 -44 19.5 -73t53.5 -29q35 0 54 28.5zM821 106.5q19 28.5 19 73.5q0 46 -21.5 87t-60.5 74q-31 -34 -47.5 -75t-16.5 -86q0 -44 19.5 -73t53.5 -29q35 0 54 28.5z
M305 197.5q-20 -20.5 -20 -52.5q0 -31 20 -51t51 -20t51.5 20t20.5 51t-20.5 52t-51.5 21t-51 -20.5zM1208 -165h-944q-29 0 -45 -8.5t-16 -22.5q0 -29 75 -45t228 -16q448 0 702 92z" />
    <glyph glyph-name="tm_TU" horiz-adv-x="1089" 
d="M1004 -165h-284q-51 -90 -156.5 -139.5t-257.5 -49.5q-82 0 -143.5 18.5t-94.5 52.5t-33 78q0 60 44.5 95.5t125.5 35.5h426q15 46 15 101q0 54 -17.5 97.5t-48 68.5t-69.5 26v-14q0 -64 -31 -115t-87.5 -79.5t-132.5 -28.5q-66 0 -115 21.5t-75.5 59t-26.5 86.5
q0 50 29.5 89t83.5 58v217h522l18 -91h-185v-111q74 -1 132.5 -38t91.5 -101.5t33 -144.5q0 -53 -12 -101h132v587h116v-678zM394 422h-122v-111h122v111zM359 113q35 35 35 92v14h-137q-44 0 -68.5 -19t-24.5 -51t25.5 -51.5t70.5 -19.5q64 0 99 35zM578 -165h-370
q-29 0 -45 -10.5t-16 -29.5q0 -25 41.5 -38.5t117.5 -13.5q185 0 272 92z" />
    <glyph glyph-name="tm_NU" horiz-adv-x="1082" 
d="M997 -165h-298q-51 -91 -142.5 -140t-217.5 -49q-124 0 -188.5 40.5t-64.5 108.5q0 60 44.5 95.5t125.5 35.5h360q23 70 23 168q0 68 -25 110t-69 42q-36 0 -59.5 -22t-23.5 -55v-169h-116v422h-145v-422h-116v513h540l18 -92h-181v-99q45 24 97 24q60 0 106 -32.5
t70.5 -90t24.5 -129.5q0 -90 -23 -168h144v587h116v-678zM568 -165h-309q-29 0 -45 -10.5t-16 -29.5q0 -24 36 -38t105 -14q154 0 229 92z" />
    <glyph glyph-name="tm_NnnU" horiz-adv-x="1600" 
d="M1515 -165h-463q-105 -90 -263.5 -139.5t-363.5 -49.5q-107 0 -182.5 19.5t-113.5 54t-38 79.5q0 59 44.5 93t125.5 34h727q62 62 93.5 139.5t31.5 165.5q0 102 -38.5 153t-120.5 51q-57 0 -113 -27q57 -47 89 -106t32 -122q0 -57 -25 -102t-69 -70.5t-101 -25.5
t-101 25.5t-68.5 70.5t-24.5 102q0 58 23.5 114.5t66.5 103.5q-88 37 -193 37q-93 0 -162 -26t-105.5 -72t-36.5 -104q0 -40 17 -74q5 66 53 108.5t118 42.5q53 0 95.5 -21.5t66.5 -59t24 -84.5t-25.5 -84t-71 -58t-102.5 -21q-85 0 -152.5 32t-105.5 89t-38 130
q0 85 52 153t148.5 106.5t224.5 38.5q150 0 277 -62q46 29 99 45.5t108 16.5q135 0 207.5 -78t72.5 -222q0 -172 -98 -305h263v587h116v-678zM821 106.5q19 28.5 19 73.5q0 46 -22 87.5t-61 74.5q-30 -34 -46.5 -75.5t-16.5 -86.5q0 -44 19.5 -73t53.5 -29q35 0 54 28.5z
M305 197.5q-20 -20.5 -20 -52.5q0 -31 20 -51t51 -20t51.5 20t20.5 51t-20.5 52t-51.5 21t-51 -20.5zM863 -165h-599q-61 0 -61 -36q0 -26 55 -41t167 -15q264 0 438 92z" />
    <glyph glyph-name="tm_MU" horiz-adv-x="1221" 
d="M1059 493.5q56 -37.5 86.5 -104t30.5 -150.5q0 -110 -56.5 -174.5t-170.5 -64.5h-122q-10 -85 -60.5 -147.5t-130.5 -95.5t-178 -33q-105 0 -195 46.5t-144 139.5t-54 224q0 65 17.5 139.5t50 141t77.5 108.5l119 -10q-65 -56 -104 -165.5t-39 -215.5q0 -102 38 -172.5
t100 -105t134 -34.5q108 0 179.5 47.5t75.5 132.5h-303v513l116 5v-427h187v201q0 108 55.5 173.5t160.5 65.5q74 0 130 -37.5zM1033 128.5q22 37.5 22 110.5q0 87 -34 141.5t-92 54.5q-100 0 -100 -151v-193h120q62 0 84 37.5z" />
    <glyph glyph-name="tm_RU" horiz-adv-x="1162" 
d="M1021 313.5q46 -32.5 71 -90t25 -129.5q0 -116 -62 -199t-178.5 -127t-277.5 -44q-156 0 -277.5 54t-189 155t-67.5 237q0 95 41 195t104 158l119 -10q-62 -52 -102.5 -148.5t-40.5 -196.5q0 -107 52 -184.5t145.5 -118.5t215.5 -41q191 0 293.5 70t102.5 200
q0 68 -25 110t-68 42q-37 0 -60.5 -22t-23.5 -55v-169h-116v422h-176v-422h-116v513h571l18 -91h-181v-101q42 25 97 25q60 0 106 -32.5z" />
    <glyph glyph-name="tm_RrU" horiz-adv-x="1191" 
d="M1106 -165h-332q-125 -189 -428 -189q-82 0 -143.5 18.5t-94.5 52.5t-33 78q0 60 44.5 95.5t125.5 35.5h451q29 61 41.5 137t12.5 172q0 93 -29.5 146.5t-93.5 53.5q-53 0 -81 -39.5t-28 -111.5v-284h-116v272q0 68 -29 115.5t-82 47.5q-90 0 -90 -145v-290h-117v310
q0 64 23.5 114t67.5 78.5t104 28.5q54 0 98 -23t73 -64q31 42 77 64.5t100 22.5q78 0 133 -37.5t83 -104.5t28 -154q0 -182 -50 -309h169v587h116v-678zM515.5 -234.5q70.5 22.5 117.5 69.5h-385q-29 0 -45 -10.5t-16 -29.5q0 -25 41.5 -38.5t117.5 -13.5q99 0 169.5 22.5z
" />
    <glyph glyph-name="tm_LU" horiz-adv-x="1350" 
d="M1265 -165h-443q-68 -89 -189.5 -139t-274.5 -50q-82 0 -143.5 18.5t-94.5 52.5t-33 78q0 60 44.5 95.5t125.5 35.5h491q13 25 22 60q-80 14 -123 72t-43 151v46q0 82 -55.5 131t-152.5 49q-71 0 -123 -26t-79.5 -71t-27.5 -101q0 -43 18 -76q5 66 52.5 107.5t117.5 41.5
q53 0 95.5 -21.5t66.5 -59t24 -84.5t-25.5 -84t-71 -58t-102.5 -21q-85 0 -152.5 33t-105.5 91t-38 131q0 85 43.5 152t123 104.5t184.5 37.5q97 0 170.5 -34.5t113.5 -97.5t40 -144v-46q0 -63 26.5 -97t74.5 -34q56 0 81 44t25 120q0 62 -21.5 138t-60.5 133l118 14
q43 -69 64 -145.5t21 -139.5q0 -99 -40 -165.5t-120 -86.5q-7 -39 -17 -64h278v587h116v-678zM305 197.5q-20 -20.5 -20 -52.5q0 -31 20 -51t51 -20t51.5 20t20.5 51t-20.5 52t-51.5 21t-51 -20.5zM675 -165h-415q-29 0 -45 -10.5t-16 -29.5q0 -25 41.5 -38.5t117.5 -13.5
q203 0 317 92z" />
    <glyph glyph-name="tm_LlU" horiz-adv-x="1683" 
d="M1542 313.5q46 -32.5 71 -90t25 -129.5q0 -116 -64.5 -201.5t-183.5 -132t-280 -46.5h-521q-155 0 -274 56.5t-184.5 160t-65.5 239.5q0 95 41 195t104 158l119 -10q-62 -52 -102.5 -148.5t-40.5 -196.5q0 -107 50 -188t141 -126.5t212 -47.5h521q125 0 217 35.5
t140.5 100.5t48.5 152q0 68 -25 110t-68 42q-29 0 -50.5 -14.5t-29.5 -37.5v-194h-116v422h-212v-422h-116v228q0 59 -30.5 106.5t-85 74t-123.5 26.5q-70 0 -121 -26t-78 -71t-27 -101q0 -43 18 -76q5 66 52.5 107.5t117.5 41.5q53 0 95.5 -21.5t66.5 -59t24 -84.5
t-25.5 -84t-71 -58t-102.5 -21q-85 0 -152.5 33t-105.5 91t-38 131q0 85 43 152t121.5 104.5t182.5 37.5q74 0 135 -24.5t104 -68.5v75h607l18 -91h-181v-98q42 22 93 22q60 0 106 -32.5zM573 197.5q-20 -20.5 -20 -52.5q0 -31 20 -51t51 -20t51.5 20t20.5 51t-20.5 52
t-51.5 21t-51 -20.5z" />
    <glyph glyph-name="tm_LllU" horiz-adv-x="1221" 
d="M829 0v-13q0 -39 17 -55.5t50 -16.5h150l18 -91h-157q-51 -50 -143.5 -75t-201.5 -25q-153 0 -265 49t-172 141.5t-60 219.5q0 65 17.5 139.5t50 141t77.5 108.5l119 -10q-65 -56 -104 -165.5t-39 -215.5q0 -98 44.5 -168.5t129 -107t202.5 -36.5q82 0 132 7.5t83 30.5
q-29 15 -46.5 44t-17.5 68v30h-303v513l116 5v-427h187v201q0 108 55.5 173.5t160.5 65.5q74 0 130 -37.5t86.5 -104t30.5 -150.5q0 -110 -56.5 -174.5t-170.5 -64.5h-120zM829 91h120q62 0 84 37.5t22 110.5q0 87 -34 141.5t-92 54.5q-100 0 -100 -151v-193z" />
    <glyph glyph-name="tm_KUu" horiz-adv-x="1210" 
d="M1200 91v-91h-302q16 33 25.5 73t9.5 72q0 45 -25 71t-68 26q-17 0 -24 -1q50 -53 50 -119q0 -61 -43.5 -100.5t-110.5 -39.5t-110.5 39.5t-43.5 100.5q0 51 30 97h-85v-14q0 -64 -31 -115t-87.5 -79.5t-132.5 -28.5q-66 0 -115 21.5t-75.5 59t-26.5 86.5q0 50 29.5 89
t83.5 58v217h522l18 -91h-185v-111h147q16 0 44 -4q68 31 146 31q61 0 110 -25t76.5 -69t27.5 -99q0 -33 -4 -54h150zM386 422h-122v-111h122v111zM386 219h-137q-44 0 -68.5 -19t-24.5 -51t25.5 -51.5t70.5 -19.5q64 0 99 35t35 92v14zM746 173q-13 22 -37 34
q-44 -32 -44 -85q0 -23 13.5 -38t33.5 -15t33.5 15t13.5 38q0 29 -13 51z" />
    <glyph glyph-name="tm_NgUu" horiz-adv-x="1241" 
d="M1181.5 43.5q49.5 -49.5 49.5 -131.5q0 -88 -51.5 -155.5t-143.5 -104.5t-208 -37h-514q-117 0 -185.5 40t-68.5 110q0 60 43 97.5t119 37.5h535v-91h-535q-22 0 -36.5 -12.5t-14.5 -31.5q0 -26 40 -42.5t103 -16.5h515q81 0 145 26t100 72.5t36 107.5q0 36 -19.5 60
t-52.5 24q-36 0 -60 -23.5t-24 -56.5v-107h-116v191h-492v91h151q59 0 89.5 27.5t30.5 73.5q0 36 -19.5 60t-52.5 24q-36 0 -59.5 -23.5t-23.5 -56.5v-36h-116v262h-145v-422h-116v513h540l18 -92h-181v-72q45 24 97 24q81 0 130.5 -49.5t49.5 -131.5q0 -57 -30 -101h129
v422h116v-445q44 25 97 25q81 0 130.5 -49.5z" />
    <glyph glyph-name="tm_CUu" horiz-adv-x="1304" 
d="M1214.5 137q44.5 -45 44.5 -116q0 -94 -69.5 -160.5t-198.5 -101.5t-306 -35q-192 0 -331.5 54t-214 154.5t-74.5 237.5q0 95 41 194.5t104 158.5l119 -10q-62 -53 -102.5 -149.5t-40.5 -195.5q0 -108 58 -185t169.5 -118t271.5 -41q218 0 335 50t117 147q0 29 -15 47
t-39 18q-28 0 -47.5 -21t-19.5 -47v-18h-116v219h-103v-14q0 -64 -30.5 -115t-87 -79.5t-132.5 -28.5q-66 0 -115.5 21.5t-76 59.5t-26.5 86q0 51 29.5 89.5t84.5 57.5v217h522l18 -91h-186v-111h294l18 -92h-93v-55q38 18 76 18q78 0 122.5 -45zM681 422h-122v-111h122v111
zM681 219h-138q-43 0 -67.5 -19.5t-24.5 -50.5q0 -32 25.5 -51.5t70.5 -19.5q63 0 98.5 35t35.5 92v14z" />
    <glyph glyph-name="tm_TtUu" horiz-adv-x="958" 
d="M675 587.5q34 35.5 87 39.5q-37 29 -91 45t-120 16q-112 0 -194.5 -60.5t-126.5 -168.5t-44 -246q0 -120 34 -208t96 -134.5t146 -46.5q120 0 187 70.5t67 199.5q0 68 -25 110t-68 42q-37 0 -60.5 -22t-23.5 -55v-169h-116v513h116v-192q44 25 97 25q60 0 106 -32.5
t71 -90t25 -129.5q0 -115 -46 -198.5t-131 -127.5t-199 -44q-118 0 -208 60t-139.5 171t-49.5 260q0 166 57.5 296t164.5 203.5t251 73.5q100 0 186 -35t137.5 -98t51.5 -143q0 -62 -35.5 -101t-99.5 -39q-59 0 -98 36t-39 91q0 53 34 88.5zM742 535.5q-14 -14.5 -14 -35.5
q0 -22 14 -36.5t36 -14.5t37 14.5t15 36.5q0 21 -15 35.5t-37 14.5t-36 -14.5z" />
    <glyph glyph-name="tm_PUu" horiz-adv-x="950" 
d="M890.5 43.5q49.5 -49.5 49.5 -131.5q0 -88 -52 -155.5t-144 -104.5t-208 -37h-222q-117 0 -185.5 40t-68.5 110q0 60 43 97.5t119 37.5h243v-91h-243q-22 0 -36.5 -12.5t-14.5 -31.5q0 -26 40 -42.5t103 -16.5h223q81 0 145 26t100 72.5t36 107.5q0 36 -19.5 60t-52.5 24
q-36 0 -60 -23.5t-24 -56.5v-107h-116v191h-461v513l116 5v-427h345v422h116v-445q44 25 98 25q81 0 130.5 -49.5z" />
    <glyph glyph-name="tm_MUu" horiz-adv-x="1358" 
d="M1195.5 493.5q56.5 -37.5 87 -104t30.5 -150.5q0 -110 -56.5 -174.5t-170.5 -64.5h-125q-19 -131 -129.5 -203.5t-289.5 -72.5q-134 0 -243 59t-171.5 163t-62.5 233q0 94 38.5 175t105.5 129t147 48q63 0 101.5 -36t38.5 -94q0 -54 -37 -90t-94 -36q-48 0 -81.5 26
t-43.5 68q-26 -38 -40 -88.5t-14 -103.5q0 -101 46 -181.5t127 -126t183 -45.5q128 0 206 44.5t96 131.5h-297v513l116 5v-427h186v201q0 107 56 173t160 66q74 0 130.5 -37.5zM397 434.5q-13 13.5 -32 13.5q-21 0 -34.5 -13.5t-13.5 -33.5t13.5 -33t34.5 -13q20 0 32.5 13
t12.5 33t-13 33.5zM1169.5 128q21.5 37 21.5 111q0 87 -33.5 141.5t-92.5 54.5q-100 0 -100 -151v-193h121q62 0 83.5 37z" />
    <glyph glyph-name="tm_YUu" horiz-adv-x="1172" 
d="M1112.5 43.5q49.5 -49.5 49.5 -131.5q0 -88 -51.5 -155.5t-143.5 -104.5t-208 -37h-445q-117 0 -185.5 40t-68.5 110q0 60 43 97.5t119 37.5h465v-91h-465q-22 0 -36.5 -12.5t-14.5 -31.5q0 -26 40 -42.5t103 -16.5h445q81 0 145 26t100 72.5t36 107.5q0 36 -19.5 60
t-52.5 24q-36 0 -59.5 -23.5t-23.5 -56.5v-107h-117v191h-358v31q-54 -49 -126 -49q-104 0 -156.5 61t-52.5 163v307l116 5v-306q0 -64 22.5 -99t77.5 -35q60 0 89.5 44t29.5 119v272h116v-422h242v422h117v-445q42 25 97 25q81 0 130.5 -49.5z" />
    <glyph glyph-name="tm_RUu" horiz-adv-x="1298" 
d="M1158 313.5q46 -32.5 70.5 -90t24.5 -129.5q0 -114 -73.5 -197.5t-204 -128t-298.5 -44.5q-187 0 -325 53t-212.5 155t-74.5 247q0 94 38.5 175t105.5 129t147 48q63 0 101.5 -36t38.5 -94q0 -54 -37 -90t-94 -36q-48 0 -81.5 26t-43.5 68q-26 -38 -40 -88.5t-14 -103.5
q0 -173 129.5 -263t361.5 -90q133 0 236 31.5t161 92.5t58 146q0 68 -25 110t-69 42q-36 0 -59.5 -22t-23.5 -55v-169h-116v422h-176v-422h-116v513h571l18 -91h-181v-100q45 24 97 24q60 0 106 -32.5zM397 434.5q-13 13.5 -32 13.5q-21 0 -34.5 -13.5t-13.5 -33.5t13.5 -33
t34.5 -13q20 0 32.5 13t12.5 33t-13 33.5z" />
    <glyph glyph-name="tm_LlUu" horiz-adv-x="1863" 
d="M1722 313.5q46 -32.5 71 -90t25 -129.5q0 -116 -64.5 -201.5t-183.5 -132t-280 -46.5h-694q-153 0 -274 54t-189 152.5t-68 228.5q0 109 36 196t100 136.5t145 49.5q63 0 101.5 -36t38.5 -94q0 -54 -37 -90t-94 -36q-47 0 -80.5 25t-44.5 67q-44 -74 -44 -220
q0 -103 52.5 -180.5t145.5 -119t212 -41.5h694q125 0 217 35.5t140.5 100.5t48.5 152q0 68 -25 110t-68 42q-29 0 -50.5 -14.5t-29.5 -37.5v-194h-116v422h-212v-422h-116v228q0 59 -30.5 106.5t-85 74t-123.5 26.5q-70 0 -121 -26t-78 -71t-27 -101q0 -43 18 -76
q5 66 52.5 107.5t117.5 41.5q53 0 95.5 -21.5t66.5 -59t24 -84.5t-25.5 -84t-71 -58t-102.5 -21q-85 0 -152.5 33t-105.5 91t-38 131q0 85 43 152t121.5 104.5t182.5 37.5q74 0 135 -24.5t104 -68.5v75h607l18 -91h-181v-98q42 22 93 22q60 0 106 -32.5zM380.5 428
q-9.5 10 -25.5 10t-27 -10.5t-11 -26.5t11 -26t27 -10t25.5 10t9.5 26q0 17 -9.5 27zM753 197.5q-20 -20.5 -20 -52.5q0 -31 20 -51t51 -20t51.5 20t20.5 51t-20.5 52t-51.5 21t-51 -20.5z" />
    <glyph glyph-name="tm_LllUu" horiz-adv-x="1358" 
d="M965 0v-3q0 -39 17.5 -55.5t50.5 -16.5h149l18 -91h-157q-59 -50 -165 -80t-262 -30q-154 0 -280 59t-198.5 162.5t-72.5 233.5q0 94 38.5 175t105.5 129t147 48q63 0 101.5 -36t38.5 -94q0 -54 -37 -90t-94 -36q-48 0 -81.5 26t-43.5 68q-26 -38 -40 -88.5t-14 -103.5
q0 -101 57 -182t155 -126t218 -45q124 0 189.5 11.5t108.5 32.5q-30 15 -47.5 44t-17.5 68v20h-302v513l116 5v-427h186v201q0 107 56 173t160 66q74 0 130.5 -37.5t87 -104t30.5 -150.5q0 -110 -56.5 -174.5t-170.5 -64.5h-121zM397 434.5q-13 13.5 -32 13.5
q-21 0 -34.5 -13.5t-13.5 -33.5t13.5 -33t34.5 -13q20 0 32.5 13t12.5 33t-13 33.5zM965 91h121q62 0 83.5 37t21.5 111q0 87 -33.5 141.5t-92.5 54.5q-100 0 -100 -151v-193z" />
    <glyph glyph-name="tm_VUu" horiz-adv-x="1297" 
d="M1237.5 43.5q49.5 -49.5 49.5 -131.5q0 -88 -51.5 -155.5t-143.5 -104.5t-208 -37h-590q-117 0 -185.5 40t-68.5 110q0 60 43 97.5t119 37.5h611v-91h-611q-22 0 -36.5 -12.5t-14.5 -31.5q0 -26 40 -42.5t103 -16.5h591q81 0 145 26t100 72.5t36 107.5q0 36 -19.5 60
t-52.5 24q-36 0 -60 -23.5t-24 -56.5v-107h-116v191h-309v91q46 77 46 164q0 81 -58 130.5t-172 49.5q-71 0 -124.5 -26t-82 -71t-28.5 -101q0 -43 18 -76q5 65 53.5 107t116.5 42q53 0 95.5 -21.5t66.5 -59t24 -84.5t-25.5 -84t-71 -58t-102.5 -21q-85 0 -152.5 33
t-105.5 91t-38 131q0 85 45 152t126 104.5t185 37.5q101 0 181 -35.5t125.5 -98.5t45.5 -142q0 -84 -40 -164h181v422h116v-445q44 25 97 25q81 0 130.5 -49.5zM305 197.5q-20 -20.5 -20 -52.5q0 -31 20 -51t51 -20t51.5 20t20.5 51t-20.5 52t-51.5 21t-51 -20.5z" />
    <glyph glyph-name="tm_KSsa" horiz-adv-x="1733" 
d="M1658 0h-236v-243h-116v243h-408q16 33 25.5 73t9.5 72q0 45 -25 71t-68 26q-17 0 -24 -1q50 -53 50 -119q0 -61 -43.5 -100.5t-110.5 -39.5t-110.5 39.5t-43.5 100.5q0 51 30 97h-85v-14q0 -64 -31 -115t-87.5 -79.5t-132.5 -28.5q-66 0 -115 21.5t-75.5 59t-26.5 86.5
q0 50 29.5 89t83.5 58v217h522l18 -91h-185v-111h147q16 0 44 -4q68 31 146 31q61 0 110 -25t76.5 -69t27.5 -99q0 -33 -4 -54h256v96q-10 -1 -31 -1q-66 0 -116.5 23t-78.5 63.5t-28 89.5q0 50 24.5 88.5t68 59.5t97.5 21q83 0 131.5 -46.5t48.5 -124.5v-42q78 38 120 104
h116v-422zM1306 285v70q0 37 -16 58.5t-48 21.5q-31 0 -49.5 -20t-18.5 -53q0 -34 26 -56.5t75 -22.5q11 0 31 2zM386 422h-122v-111h122v111zM1542 91v191q-55 -45 -120 -69v-122h120zM386 219h-137q-44 0 -68.5 -19t-24.5 -51t25.5 -51.5t70.5 -19.5q64 0 99 35t35 92v14z
M746 173q-13 22 -37 34q-44 -32 -44 -85q0 -23 13.5 -38t33.5 -15t33.5 15t13.5 38q0 29 -13 51z" />
    <glyph glyph-name="tm_TtI" horiz-adv-x="892" 
d="M729 0v-243h-116v243h-528v513l116 5v-427h179q-35 36 -54.5 84.5t-20.5 105.5q0 72 27.5 129t78.5 89t120 32q61 0 105.5 -26t68.5 -71.5t24 -104.5v-238h135l18 -91h-153zM613 91v237q0 49 -20.5 78t-61.5 29q-50 0 -77 -42.5t-27 -111.5q0 -54 20.5 -97.5t55.5 -68
t78 -24.5h32z" />
    <glyph glyph-name="tm_TtIi" horiz-adv-x="874" 
d="M864 0h-779v513l116 5v-427h135q-45 56 -45 132q0 67 34.5 120t98 82.5t147.5 29.5q67 0 124 -25t91 -69.5t34 -99.5q0 -57 -40 -94t-101 -37t-100.5 36t-39.5 92q0 32 13 57.5t36 43.5h-17q-74 0 -116.5 -37.5t-42.5 -98.5q0 -59 37 -95.5t94 -36.5h303zM715.5 221.5
q14.5 14.5 14.5 35.5q0 22 -14.5 36.5t-36.5 14.5t-36.5 -14.5t-14.5 -36.5q0 -21 14.5 -35.5t36.5 -14.5t36.5 14.5z" />
    <glyph glyph-name="tm_Shree" horiz-adv-x="1919" 
d="M1778 313.5q46 -32.5 71 -90t25 -129.5q0 -116 -64.5 -201.5t-183.5 -132t-280 -46.5h-757q-155 0 -274 56.5t-184.5 160t-65.5 239.5q0 95 41 195t104 158l119 -10q-62 -52 -102.5 -148.5t-40.5 -196.5q0 -107 50 -188.5t141 -127t212 -46.5h757q125 0 217 35.5
t140.5 100.5t48.5 152q0 68 -25 110t-69 42q-36 0 -59.5 -22t-23.5 -55v-169h-116v422h-212v-422h-116v272q0 75 -29.5 119t-90.5 44q-54 0 -77 -35t-23 -98v-302h-523v513l116 5v-427h291v216q0 102 53 163t157 61q73 0 126 -50v32h254q-45 56 -45 132q0 67 34.5 120t98 83
t147.5 30q68 0 125 -25.5t90.5 -70t33.5 -99.5q0 -57 -40 -94t-101 -37q-60 0 -100 36.5t-40 91.5q0 32 13 57.5t36 43.5h-17q-74 0 -116.5 -37.5t-42.5 -98.5q0 -59 37 -95.5t94 -36.5h146l18 -91h-181v-100q45 24 97 24q60 0 106 -32.5zM1764.5 643.5q14.5 14.5 14.5 36.5
q0 21 -14.5 35.5t-36.5 14.5t-36.5 -14.5t-14.5 -35.5q0 -22 14.5 -36.5t36.5 -14.5t36.5 14.5z" />
    </font>
</defs>
</svg>
