<?xml version="1.0" standalone="no"?>
<!DOCTYPE svg PUBLIC "-//W3C//DTD SVG 1.1//EN" "http://www.w3.org/Graphics/SVG/1.1/DTD/svg11.dtd" >
<svg xmlns="http://www.w3.org/2000/svg" xmlns:xlink="http://www.w3.org/1999/xlink" version="1.1">
<metadata>
Created by FontForge 20170731 at Wed Mar 22 18:01:19 2017
 By Aleksey,,,
Copyright 2014 Pria Ravichandran (pria.ravichandran@gmail.com)
</metadata>
<defs>
<font id="Catamaran-ExtraBold" horiz-adv-x="588" >
  <font-face 
    font-family="Catamaran ExtraBold"
    font-weight="800"
    font-stretch="normal"
    units-per-em="1000"
    panose-1="0 0 9 0 0 0 0 0 0 0"
    ascent="770"
    descent="-230"
    x-height="484"
    cap-height="680"
    bbox="-624 -390 2648 1320"
    underline-thickness="50"
    underline-position="-175"
    unicode-range="U+000D-FB02"
  />
<missing-glyph horiz-adv-x="697" 
d="M94 696v-696h508v696h-508zM455 583v-471h-215v471h215z" />
    <glyph glyph-name=".notdef" horiz-adv-x="697" 
d="M94 696v-696h508v696h-508zM455 583v-471h-215v471h215z" />
    <glyph glyph-name="uni0000" horiz-adv-x="0" 
 />
    <glyph glyph-name="uni0000" horiz-adv-x="0" 
 />
    <glyph glyph-name="nonmarkingreturn" unicode="&#xd;" horiz-adv-x="0" 
 />
    <glyph glyph-name="space" unicode=" " horiz-adv-x="222" 
 />
    <glyph glyph-name="exclam" unicode="!" horiz-adv-x="225" 
d="M51 246l124 -44l17 506h-159zM54 141q-24 -24 -24 -59q0 -34 24 -58t59 -24t58.5 24t23.5 58q0 35 -23.5 59t-58.5 24t-59 -24z" />
    <glyph glyph-name="quotedbl" unicode="&#x22;" horiz-adv-x="424" 
d="M54.5 716q-24.5 -26 -24.5 -57q0 -25 15.5 -47t33.5 -28q-8 -34 -59 -71l32 -71q62 29 103.5 86.5t41.5 115.5q0 43 -24.5 70.5t-59.5 27.5q-34 0 -58.5 -26zM252.5 716q-24.5 -26 -24.5 -57q0 -25 15 -47t34 -28q-5 -20 -20.5 -37t-39.5 -34l33 -71q61 28 102.5 86
t41.5 116q0 43 -24 70.5t-59 27.5q-34 0 -58.5 -26z" />
    <glyph glyph-name="numbersign" unicode="#" horiz-adv-x="616" 
d="M423 518l-24 -101h-107l24 100l-130 1l-24 -101h-132l11 -115h93l-21 -95h-83l11 -115h44l-22 -102l128 -5l25 107h108l-23 -102l129 -5l24 107h132l-10 115h-94l21 95h83l-10 115h-45l23 100zM372 302l-22 -95h-106l21 95h107z" />
    <glyph glyph-name="dollar" unicode="$" horiz-adv-x="537" 
d="M411 669q31 -11 61 -28l-48 -114q-48 20 -79 28t-67 8q-37 0 -60.5 -15.5t-23.5 -42.5q0 -22 19.5 -38.5t62.5 -39.5q16 -7 33 -18q72 -42 110 -68.5t67 -67t29 -92.5q0 -56 -31 -99.5t-89 -68.5v-138h-104v114q-26 -2 -39 -2h-14v-110h-103v128q-64 19 -95 38l45 122
q32 -17 79.5 -31.5t84.5 -14.5q50 0 77 17.5t27 46.5q0 19 -20.5 35t-66.5 43q-10 5 -30 17q-68 41 -106.5 68t-68 68t-29.5 92q1 56 32.5 100t88.5 67v118l103 12v-109h20q21 0 31 -1v98l104 12v-134z" />
    <glyph glyph-name="percent" unicode="%" horiz-adv-x="953" 
d="M544 708l-298 -708l160 -2l298 708zM70 397.5q48 -47.5 123 -47.5q50 0 90 21.5t63.5 61t23.5 92.5q0 80 -49 128.5t-125 48.5q-49 0 -88.5 -21.5t-62.5 -61.5t-23 -93q0 -81 48 -128.5zM160.5 575.5q14.5 17.5 36.5 17.5q24 0 36.5 -18t12.5 -51q0 -32 -14 -49.5
t-37 -17.5q-24 0 -36.5 17.5t-12.5 51.5q0 32 14.5 49.5zM632.5 48.5q47.5 -47.5 122.5 -47.5q50 0 90 21.5t63 61t23 92.5q0 81 -48.5 128.5t-124.5 47.5q-75 0 -124 -47.5t-49 -128.5q0 -80 47.5 -127.5zM722.5 226q14.5 17 36.5 17q23 0 36 -18t13 -50t-14 -50t-37 -18
t-36 18t-13 52q0 32 14.5 49z" />
    <glyph glyph-name="ampersand" unicode="&#x26;" horiz-adv-x="686" 
d="M415 681.5q-50 14.5 -104 14.5q-63 0 -113 -27t-77.5 -72t-27.5 -98q0 -54 30 -100q-41 -36 -66 -85t-25 -98q0 -75 36 -127.5t97.5 -79t137.5 -27.5q55 0 104 18t89 50l75 -67l93 115l-78 66q44 91 51 184l-139 56q-7 -75 -31 -137l-144 128q-40 36 -57 59t-17 46
q0 27 20 46t55 19q65 0 135 -39l47 114q-41 27 -91 41.5zM305 116q-49 0 -79.5 27t-30.5 76q2 43 27 76l167 -150q-39 -29 -84 -29z" />
    <glyph glyph-name="quotesingle" unicode="'" horiz-adv-x="227" 
d="M54.5 716q-24.5 -26 -24.5 -57q0 -25 15.5 -47t33.5 -28q-8 -34 -59 -71l32 -71q62 29 103.5 86.5t41.5 115.5q0 43 -24.5 70.5t-59.5 27.5q-34 0 -58.5 -26z" />
    <glyph glyph-name="parenleft" unicode="(" horiz-adv-x="340" 
d="M234 148q-32 97 -32 174q0 74 32 168t76 155l-133 37q-63 -90 -95 -178.5t-32 -182.5q0 -97 33 -188.5t94 -171.5l132 38q-43 52 -75 149z" />
    <glyph glyph-name="parenright" unicode=")" horiz-adv-x="340" 
d="M105.5 495.5q31.5 -97.5 31.5 -174.5q0 -74 -32 -168.5t-75 -154.5l132 -37q63 90 95.5 178.5t32.5 182.5q0 96 -33.5 187.5t-93.5 172.5l-132 -38q43 -51 74.5 -148.5z" />
    <glyph glyph-name="asterisk" unicode="*" horiz-adv-x="406" 
d="M265 775h-123l-1 -98l-99 25l-32 -110l97 -19l-70 -94l98 -68l68 96l69 -96l97 68l-70 94l97 19l-32 110l-98 -25z" />
    <glyph glyph-name="plus" unicode="+" horiz-adv-x="561" 
d="M521 335h-165v195l-146 2v-197h-180l10 -122h170v-205l146 -6v211h175z" />
    <glyph glyph-name="comma" unicode="," horiz-adv-x="227" 
d="M55 121q-24 -26 -24 -58q0 -25 15 -47t34 -28q-5 -20 -20 -36.5t-40 -34.5l33 -71q61 28 102.5 86.5t41.5 115.5q0 43 -24.5 71t-59.5 28q-34 0 -58 -26z" />
    <glyph glyph-name="hyphen" unicode="-" horiz-adv-x="342" 
d="M302 335h-272l11 -123h271z" />
    <glyph glyph-name="period" unicode="." horiz-adv-x="225" 
d="M171.5 24q23.5 24 23.5 58q0 35 -23.5 59t-58.5 24t-59 -24t-24 -59q0 -34 24 -58t59 -24t58.5 24z" />
    <glyph glyph-name="slash" unicode="/" horiz-adv-x="480" 
d="M308 708l-298 -708l161 -2l299 708z" />
    <glyph glyph-name="zero" unicode="0" horiz-adv-x="643" 
d="M60.5 131q38.5 -68 107 -106.5t153.5 -38.5q86 0 154 38.5t106.5 107t38.5 154.5q0 84 -38.5 151t-106.5 104.5t-153 37.5q-86 0 -154.5 -38t-107 -105.5t-38.5 -151.5q0 -85 38.5 -153zM217.5 404q40.5 46 103.5 46q42 0 75.5 -21.5t52 -59.5t18.5 -86
q0 -47 -18.5 -85.5t-52 -60t-74.5 -21.5q-42 0 -75 22t-51.5 61t-18.5 88q0 71 40.5 117z" />
    <glyph glyph-name="one" unicode="1" horiz-adv-x="404" 
d="M342 0v566h-105l-227 -99l60 -122l115 47v-392h157z" />
    <glyph glyph-name="two" unicode="2" horiz-adv-x="492" 
d="M38 527l23 -126q35 20 78 35.5t83 15.5q44 0 69.5 -16t25.5 -46q0 -27 -24 -55.5t-73 -69.5l-195 -168v-97h447l-12 121h-217l68 57q76 64 109 113t33 112q0 84 -59.5 130t-162.5 46q-106 0 -193 -52z" />
    <glyph glyph-name="three" unicode="3" horiz-adv-x="510" 
d="M20 507l74 -105q75 50 139 50q40 0 62 -16.5t22 -41.5q0 -31 -30.5 -49.5t-81.5 -18.5h-74l16 -123h73q53 0 81 -21t28 -59q0 -33 -28 -53.5t-69 -20.5q-39 0 -73.5 11t-76.5 37l-82 -104q53 -32 115 -51t116 -19q75 0 132 25.5t88.5 70.5t31.5 102q0 50 -27.5 93
t-61.5 58q29 15 53.5 53.5t24.5 77.5q0 50 -27.5 90t-79 63t-121.5 23q-126 0 -224 -72z" />
    <glyph glyph-name="four" unicode="4" horiz-adv-x="586" 
d="M566 182h-102v389h-117l-337 -394l19 -121h278v-122h157v122h91zM307 329v-147h-119z" />
    <glyph glyph-name="five" unicode="5" horiz-adv-x="523" 
d="M230.5 224q19.5 14 46.5 14q36 0 59 -24t23 -63q0 -44 -30 -70t-76 -26q-39 0 -73 11t-80 36l-78 -110q49 -31 111.5 -50.5t116.5 -19.5q76 0 132.5 29t87 81t30.5 119q0 58 -24.5 107t-73.5 78.5t-117 29.5q-39 0 -68 -16l3 92h232l16 124h-380l-18 -373h134
q7 17 26.5 31z" />
    <glyph glyph-name="six" unicode="6" horiz-adv-x="556" 
d="M420 373.5q53 -26.5 83 -73.5t30 -105q0 -61 -29 -108t-82.5 -73.5t-123.5 -26.5q-80 0 -143 32t-98 92t-35 141q0 125 68.5 208t165.5 124t192 50l18 -138q-88 -18 -149 -41.5t-99 -71.5q40 17 82 17q67 0 120 -26.5zM354.5 139q25.5 25 25.5 61q0 38 -26.5 64t-66.5 26
q-56 0 -108 -38q2 -66 33 -102t82 -36q35 0 60.5 25z" />
    <glyph glyph-name="seven" unicode="7" horiz-adv-x="496" 
d="M274 -73l202 577l-36 62h-430l17 -124h278l-183 -474z" />
    <glyph glyph-name="eight" unicode="8" horiz-adv-x="544" 
d="M156 619.5q-52 -23.5 -81 -64.5t-29 -93q0 -36 20.5 -69t53.5 -52q-40 -20 -69 -62.5t-29 -87.5q0 -60 30.5 -106t87.5 -72t133 -26t132 26.5t86 73t30 104.5q0 45 -28.5 87t-68.5 62q33 20 53.5 53t20.5 69q0 52 -29.5 93t-80.5 64.5t-115 23.5q-65 0 -117 -23.5z
M324 497.5q20 -17.5 20 -40.5q0 -27 -18.5 -46t-52.5 -24q-35 5 -54 23.5t-19 44.5q0 23 20 41.5t51 18.5q33 0 53 -17.5zM343 251.5q26 -26.5 26 -57.5q0 -33 -30 -56.5t-67 -23.5q-38 0 -67 23t-29 57q0 32 25.5 58t71.5 33q44 -7 70 -33.5z" />
    <glyph glyph-name="nine" unicode="9" horiz-adv-x="556" 
d="M400.5 547q62.5 -32 97.5 -92t35 -141q0 -125 -68.5 -208t-165.5 -124t-192 -50l-18 138q88 18 149 41.5t99 71.5q-40 -17 -82 -17q-66 0 -119.5 27t-83.5 73.5t-30 104.5q0 61 29.5 108t82.5 73.5t123 26.5q81 0 143.5 -32zM202 302q27 -26 67 -26q54 0 107 37
q-2 67 -32.5 103t-81.5 36q-36 0 -61.5 -25t-25.5 -61q0 -38 27 -64z" />
    <glyph glyph-name="colon" unicode=":" horiz-adv-x="225" 
d="M171.5 334q23.5 24 23.5 58q0 35 -24 59t-58 24t-58.5 -24t-24.5 -59q0 -34 24 -58t59 -24t58.5 24zM171.5 24q23.5 24 23.5 58q0 35 -23.5 59t-58.5 24t-59 -24t-24 -59q0 -34 24 -58t59 -24t58.5 24z" />
    <glyph glyph-name="semicolon" unicode=";" horiz-adv-x="228" 
d="M56.5 450.5q-24.5 -24.5 -24.5 -58.5t24.5 -58t59.5 -24t58.5 24t23.5 58q0 35 -24 59t-58 24q-35 0 -59.5 -24.5zM55.5 139q-24.5 -26 -24.5 -57q0 -25 15 -47.5t34 -27.5q-5 -20 -20.5 -37t-39.5 -34l33 -72q61 28 102.5 86.5t41.5 115.5q0 43 -24.5 71t-59.5 28
q-33 0 -57.5 -26z" />
    <glyph glyph-name="less" unicode="&#x3c;" horiz-adv-x="365" 
d="M345 142l-151 107l151 106l-28 133l-287 -204v-70l287 -206z" />
    <glyph glyph-name="equal" unicode="=" horiz-adv-x="530" 
d="M490 417h-460l11 -115h459zM490 207h-460l11 -115h459z" />
    <glyph glyph-name="greater" unicode="&#x3e;" horiz-adv-x="365" 
d="M335 283l-287 205l-28 -134l151 -106l-151 -107l28 -133l287 205v70z" />
    <glyph glyph-name="question" unicode="?" horiz-adv-x="451" 
d="M10 647l20 -133q51 31 94.5 45t74.5 14q30 0 49 -15.5t19 -41.5q0 -33 -43.5 -67t-113.5 -56l8 -162l118 -39l14 126q82 34 126.5 86.5t44.5 110.5q0 84 -58.5 135t-160.5 51t-192 -54zM109 141q-24 -24 -24 -59q0 -34 24 -58t59 -24t59 23.5t24 58.5t-24 59t-59 24
t-59 -24z" />
    <glyph glyph-name="at" unicode="@" horiz-adv-x="789" 
d="M535 439h-85q-59 0 -113 -23t-88 -71t-34 -119q0 -77 46 -122.5t137 -45.5q42 0 81 22q30 -24 75 -24q55 0 104 29.5t78.5 86.5t29.5 136q0 85 -44.5 156t-122 112t-172.5 41q-122 0 -214 -53t-141.5 -141t-49.5 -191q0 -102 51 -178.5t134.5 -117t178.5 -40.5
q60 0 111 9t104 36l-38 100q-34 -15 -82 -22t-85 -7q-64 0 -118 25.5t-86 74.5t-32 116q0 79 36.5 140t98 94.5t134.5 33.5q65 0 112.5 -25.5t72 -69.5t24.5 -98q0 -37 -12.5 -65.5t-30 -44.5t-31.5 -16q-6 0 -10 5.5t-4 14.5l23 189zM427 217q-2 -15 -10.5 -25.5
t-20.5 -10.5q-26 0 -38.5 14.5t-12.5 34.5q0 45 27 73t70 28z" />
    <glyph glyph-name="A" unicode="A" horiz-adv-x="685" 
d="M270 680l-260 -680h156l53 147h247l55 -157l154 18l-258 672h-147zM420 271h-157l77 211z" />
    <glyph glyph-name="B" unicode="B" horiz-adv-x="637" 
d="M541 50.5q74 50.5 74 151.5q0 53 -26.5 94t-71.5 69q68 60 68 122q0 98 -69.5 145.5t-182.5 47.5h-251v-680h268q117 0 191 50.5zM422 481q0 -34 -32.5 -51t-83.5 -17h-68v141h82q102 0 102 -73zM425.5 265.5q27.5 -22.5 27.5 -62.5q0 -37 -29 -57.5t-77 -20.5h-109v163
h113q47 0 74.5 -22.5z" />
    <glyph glyph-name="C" unicode="C" horiz-adv-x="580" 
d="M468 680q-53 13 -97 13q-99 0 -176 -45.5t-120 -126.5t-43 -184q0 -101 40 -180.5t116.5 -124.5t182.5 -45q48 0 103.5 12.5t93.5 34.5l-59 116q-68 -34 -139 -34q-50 0 -90 28.5t-63 79t-23 114.5q0 67 24 118.5t64.5 79.5t87.5 28q37 0 63.5 -6t80.5 -23l47 108
q-40 24 -93 37z" />
    <glyph glyph-name="D" unicode="D" horiz-adv-x="715" 
d="M533 42q72 42 111 119.5t39 182.5q0 99 -36 174.5t-107.5 118.5t-173.5 43h-284v-680h282q97 0 169 42zM481 497q40 -56 40 -153q0 -110 -44 -164t-120 -54h-119v427h126q77 0 117 -56z" />
    <glyph glyph-name="E" unicode="E" horiz-adv-x="590" 
d="M570 0l-19 122h-313v159h235l-19 123h-216v153h292l-19 123h-429v-680h488z" />
    <glyph glyph-name="F" unicode="F" horiz-adv-x="534" 
d="M449 395h-211v162h276l-18 122h-414v-679h156v272h229z" />
    <glyph glyph-name="G" unicode="G" horiz-adv-x="648" 
d="M465 265v-141q-46 -8 -81 -8q-52 0 -95 25.5t-69 75.5t-26 121q0 72 28.5 123.5t75 77t98.5 25.5q38 0 70 -6.5t84 -22.5l47 108q-39 24 -98 37t-105 13q-101 0 -184 -44.5t-130.5 -125.5t-47.5 -186q0 -104 43 -183t122.5 -123t185.5 -44q59 0 121.5 13.5t101.5 36.5
v345h-257l-13 -117h129z" />
    <glyph glyph-name="H" unicode="H" horiz-adv-x="730" 
d="M647 0v680h-156v-279h-253v285l-156 -6v-680h156v277h253v-277h156z" />
    <glyph glyph-name="I" unicode="I" horiz-adv-x="321" 
d="M238 0v680h-156v-680h156z" />
    <glyph glyph-name="J" unicode="J" horiz-adv-x="320" 
d="M85.5 71.5q-5.5 -15.5 -23 -29t-52.5 -26.5l63 -120q67 22 104.5 45t54 54.5t16.5 80.5v604h-157v-568q0 -25 -5.5 -40.5z" />
    <glyph glyph-name="K" unicode="K" horiz-adv-x="695" 
d="M488 0l-189 268l-60 -60v-208h-157v680h157v-260l284 275l119 -88l-233 -230l276 -377h-197z" />
    <glyph glyph-name="L" unicode="L" horiz-adv-x="561" 
d="M533 122h-295v558h-156v-680h469z" />
    <glyph glyph-name="M" unicode="M" horiz-adv-x="785" 
d="M436 209l109 151v-360h157v680h-100l-198 -286l-218 286h-104v-680h156v371l136 -171z" />
    <glyph glyph-name="N" unicode="N" horiz-adv-x="759" 
d="M238 0v406l288 -406h150v680h-156v-411l-288 411h-150v-680h156z" />
    <glyph glyph-name="O" unicode="O" horiz-adv-x="750" 
d="M197 648q-78 -46 -121.5 -127t-43.5 -184q0 -98 41.5 -178t119 -126.5t182.5 -46.5q100 1 178 46.5t121.5 126.5t43.5 185q0 98 -41 178t-118.5 126.5t-183.5 46.5q-100 -1 -178 -47zM219 456.5q25 51.5 66.5 79.5t91.5 28q54 0 94.5 -28.5t62.5 -78.5t22 -113
q0 -74 -24 -125t-65.5 -76.5t-92.5 -25.5q-83 0 -131.5 61.5t-48.5 159.5q0 67 25 118.5z" />
    <glyph glyph-name="P" unicode="P" horiz-adv-x="630" 
d="M238 217h86q76 0 140.5 25.5t103.5 77.5t39 128q0 77 -36.5 129t-98.5 77.5t-139 25.5h-251v-680h156v217zM413.5 526q30.5 -28 30.5 -82q-1 -47 -32.5 -74.5t-81.5 -27.5h-92v212h90q55 0 85.5 -28z" />
    <glyph glyph-name="Q" unicode="Q" horiz-adv-x="750" 
d="M697.5 211.5q-20.5 -61.5 -59.5 -107.5l63 -66l-95 -82l-68 68q-73 -37 -163 -38q-105 0 -182.5 46.5t-119 126.5t-41.5 178q0 103 43.5 184t121.5 127t178 47q106 0 183.5 -46.5t118.5 -126.5t41 -178q0 -71 -20.5 -132.5zM434 127l-83 82l105 85l75 -78q25 53 25 128
q0 63 -22 113t-62.5 78.5t-94.5 28.5q-50 0 -91.5 -28t-66.5 -79.5t-25 -118.5q0 -98 48.5 -159.5t131.5 -61.5q33 0 60 10z" />
    <glyph glyph-name="R" unicode="R" horiz-adv-x="672" 
d="M82 0h156v236h122l127 -236h175l-159 280q48 27 76 73t28 106q0 110 -77 165.5t-197 55.5h-251v-680zM414 530q30 -24 30 -74q0 -45 -31.5 -70.5t-82.5 -25.5h-92v194h90q56 0 86 -24z" />
    <glyph glyph-name="S" unicode="S" horiz-adv-x="537" 
d="M140.5 4q64.5 -17 111.5 -17q81 0 140.5 25t91 69t31.5 100q0 52 -29 92.5t-67 67t-110 68.5q-17 11 -33 18q-43 23 -62.5 39.5t-19.5 38.5q0 27 23.5 42.5t60.5 15.5q36 0 67 -8t79 -28l48 114q-40 24 -93 38.5t-103 14.5q-74 0 -129 -24.5t-84.5 -67t-30.5 -96.5
q0 -51 29.5 -92t68 -68t106.5 -68q20 -12 30 -17q46 -27 66.5 -43t20.5 -35q0 -29 -27 -46.5t-77 -17.5q-37 0 -84.5 14.5t-79.5 31.5l-45 -122q36 -22 100.5 -39z" />
    <glyph glyph-name="T" unicode="T" horiz-adv-x="605" 
d="M576 680h-566v-123h203v-557h157v557h225z" />
    <glyph glyph-name="U" unicode="U" horiz-adv-x="730" 
d="M72 680l1 -426q0 -81 36 -141t102.5 -93t153.5 -33t153.5 33t103 93t36.5 141v426h-157v-417q0 -71 -37 -108.5t-99 -37.5t-99 37t-37 109v417h-157z" />
    <glyph glyph-name="V" unicode="V" horiz-adv-x="685" 
d="M165 690l-155 -18l259 -672h147l259 680h-155l-175 -482z" />
    <glyph glyph-name="W" unicode="W" horiz-adv-x="963" 
d="M953 680l-200 -680h-146l-125 461l-121 -461h-147l-204 672l155 18l125 -492l115 482h156l122 -482l114 482h156z" />
    <glyph glyph-name="X" unicode="X" horiz-adv-x="677" 
d="M185 0l153 220l137 -220h185l-226 342l232 338h-181l-141 -216l-163 239l-155 -51l221 -311l-237 -341h175z" />
    <glyph glyph-name="Y" unicode="Y" horiz-adv-x="631" 
d="M385 0v263l236 417h-162l-153 -264l-145 278l-151 -43l219 -384v-267h156z" />
    <glyph glyph-name="Z" unicode="Z" horiz-adv-x="581" 
d="M551 122h-363l376 442l-17 116h-506l16 -123h323l-368 -442l18 -115h537z" />
    <glyph glyph-name="bracketleft" unicode="[" horiz-adv-x="421" 
d="M100 -87h311l-18 122h-137v538h137l18 123h-311v-783z" />
    <glyph glyph-name="backslash" unicode="\" horiz-adv-x="480" 
d="M470 0l-298 710l-162 -2l299 -710z" />
    <glyph glyph-name="bracketright" unicode="]" horiz-adv-x="421" 
d="M321 696h-311l17 -123h137v-538h-137l-17 -122h311v783z" />
    <glyph glyph-name="asciicircum" unicode="^" horiz-adv-x="465" 
d="M234 255l67 -113h154l-166 265h-112l-167 -265h156z" />
    <glyph glyph-name="underscore" unicode="_" horiz-adv-x="449" 
d="M409 122h-379l11 -122h378z" />
    <glyph glyph-name="grave" unicode="`" horiz-adv-x="236" 
d="M115 588l111 24l-59 158h-157z" />
    <glyph glyph-name="a" unicode="a" horiz-adv-x="506" 
d="M164 357q37 9 66 9q31 0 49.5 -17.5t20.5 -49.5h-76q-87 0 -137 -37t-50 -111q0 -75 45 -118.5t133 -43.5q65 0 119 62l37 -51h87v309q0 56 -25.5 99.5t-72.5 67.5t-108 24q-46 0 -104 -13.5t-91 -31.5l42 -120q28 13 65 22zM184.5 190q15.5 15 40.5 15h76v-59
q-41 -38 -85 -38q-21 0 -34 13t-13 31q0 23 15.5 38z" />
    <glyph glyph-name="b" unicode="b" horiz-adv-x="569" 
d="M479.5 434q66.5 -66 66.5 -187t-67.5 -189.5t-184.5 -68.5q-63 0 -124 43l-28 -32h-80v695l156 11v-223q39 17 82 17q113 0 179.5 -66zM358 150.5q27 36.5 27 95.5q0 60 -27 94t-75 34q-31 0 -65 -23v-216q35 -21 69 -21q44 0 71 36.5z" />
    <glyph glyph-name="c" unicode="c" horiz-adv-x="464" 
d="M369 488q-47 12 -85 12q-78 0 -137.5 -31.5t-92 -90t-32.5 -136.5t32.5 -135.5t92 -87.5t137.5 -30q40 0 86.5 11t80.5 38l-44 110q-33 -16 -59 -23t-54 -7q-47 0 -78.5 34t-31.5 90t31.5 92t78.5 36q29 0 54 -6.5t59 -22.5l44 109q-35 26 -82 38z" />
    <glyph glyph-name="d" unicode="d" horiz-adv-x="578" 
d="M515 706v-706h-80l-29 39q-30 -23 -65 -36.5t-72 -13.5q-113 0 -180 66t-67 187t68 189.5t185 68.5q41 0 83 -20v215zM211 148.5q27 -34.5 75 -34.5q33 0 72 28v207q-36 25 -76 25q-44 0 -71 -36t-27 -95q0 -60 27 -94.5z" />
    <glyph glyph-name="e" unicode="e" horiz-adv-x="524" 
d="M502 247q0 71 -25.5 128t-76.5 91t-125 34t-131.5 -31.5t-89.5 -90t-32 -136.5q0 -119 76.5 -186t209.5 -67q59 0 108.5 15t83.5 40l-44 109q-68 -38 -137 -38q-106 0 -128 85h311v47zM215.5 348.5q22.5 22.5 55.5 22.5q35 0 55.5 -22.5t26.5 -59.5h-164q4 37 26.5 59.5z
" />
    <glyph glyph-name="f" unicode="f" horiz-adv-x="413" 
d="M89 352v-352h156v352h142l-29 122h-113v22q0 35 16 55.5t45 20.5q31 0 62 -16l45 109q-18 15 -52.5 26.5t-63.5 11.5q-91 0 -149.5 -50t-58.5 -138v-41h-78v-122h78z" />
    <glyph glyph-name="g" unicode="g" horiz-adv-x="574" 
d="M515 484v-503q0 -64 -32.5 -112t-92 -73.5t-137.5 -25.5q-40 0 -106 15t-105 41l47 110q81 -40 155 -40q51 0 82.5 23.5t31.5 62.5v27q-45 -20 -89 -20q-113 0 -180 66t-67 187t68 189.5t185 68.5q34 0 69 -13.5t65 -38.5l26 36h80zM358 142v207q-36 25 -76 25
q-44 0 -71 -36t-27 -95q0 -60 27 -94.5t75 -34.5q33 0 72 28z" />
    <glyph glyph-name="h" unicode="h" horiz-adv-x="598" 
d="M549 309v-309h-156v297q0 35 -15.5 55.5t-45.5 20.5q-42 0 -114 -42v-331h-156v695l156 11v-252q39 21 80.5 34t79.5 13q171 0 171 -192z" />
    <glyph glyph-name="i" unicode="i" horiz-adv-x="261" 
d="M191.5 577.5q25.5 25.5 25.5 60.5q0 36 -25.5 61.5t-61.5 25.5q-35 0 -60.5 -25.5t-25.5 -61.5q0 -35 25.5 -60.5t60.5 -25.5q36 0 61.5 25.5zM209 0v485h-157v-485h157z" />
    <glyph glyph-name="j" unicode="j" horiz-adv-x="282" 
d="M86 577.5q-26 25.5 -26 60.5q0 36 25.5 61.5t60.5 25.5q36 0 61.5 -25.5t25.5 -61.5q0 -35 -25.5 -60.5t-61.5 -25.5q-34 0 -60 25.5zM225 -4q0 -51 -15 -84.5t-52 -58.5t-104 -47l-62 115q34 12 50.5 26.5t21 32t4.5 45.5v460h157v-489z" />
    <glyph glyph-name="k" unicode="k" horiz-adv-x="542" 
d="M218 0v157l43 36l109 -193h172l-170 282l132 108l-91 109l-195 -172v379l-156 -11v-695h156z" />
    <glyph glyph-name="l" unicode="l" horiz-adv-x="281" 
d="M218 0v706l-156 -11v-695h156z" />
    <glyph glyph-name="m" unicode="m" horiz-adv-x="889" 
d="M802 453.5q38 -47.5 38 -135.5v-318h-156v297q0 37 -11.5 56.5t-42.5 19.5q-21 0 -47 -11.5t-58 -30.5v-13v-318h-156v297q0 37 -11.5 56.5t-42.5 19.5q-21 0 -47.5 -11.5t-58.5 -30.5v-331h-157v485h97l27 -51q44 30 93 48.5t92 18.5q98 0 137 -63q43 28 90 45.5
t89 17.5q87 0 125 -47.5z" />
    <glyph glyph-name="n" unicode="n" 
d="M209 331q72 42 114 42q30 0 45 -20.5t15 -55.5v-297h157v309q0 89 -40.5 140.5t-130.5 51.5q-46 0 -97.5 -18.5t-95.5 -48.5l-27 51h-97v-485h157v331z" />
    <glyph glyph-name="o" unicode="o" horiz-adv-x="579" 
d="M522.5 107q-34.5 -57 -95.5 -87.5t-139 -30.5q-79 0 -139 29.5t-93.5 87t-33.5 138.5q0 78 34.5 136t95 89t138.5 31q79 0 139.5 -30.5t94 -88.5t33.5 -139q0 -78 -34.5 -135zM366 152q29 34 29 90t-28.5 92t-75.5 36q-49 0 -78 -34.5t-29 -91.5t28.5 -91.5t76.5 -34.5
t77 34z" />
    <glyph glyph-name="p" unicode="p" horiz-adv-x="565" 
d="M475.5 434q66.5 -66 66.5 -187t-67.5 -189.5t-184.5 -68.5q-36 0 -76 16v-214l-156 -10v703h79l27 -30q63 46 132 46q113 0 179.5 -66zM354 150.5q27 36.5 27 95.5q0 60 -27 94t-75 34q-31 0 -65 -23v-216q34 -21 69 -21q44 0 71 36.5z" />
    <glyph glyph-name="q" unicode="q" horiz-adv-x="574" 
d="M515 484v-692l-157 -11v228q-45 -20 -89 -20q-113 0 -180 66t-67 187t68 189.5t185 68.5q34 0 68.5 -13.5t63.5 -37.5l28 35h80zM358 142v207q-36 25 -76 25q-44 0 -71 -36t-27 -95q0 -60 27 -94.5t75 -34.5q33 0 72 28z" />
    <glyph glyph-name="r" unicode="r" horiz-adv-x="381" 
d="M209 290q36 31 81.5 50.5t80.5 19.5l-31 125q-37 0 -83 -21.5t-81 -48.5l-44 69h-80v-484h157v290z" />
    <glyph glyph-name="s" unicode="s" horiz-adv-x="437" 
d="M115 2q57 -13 97 -13q99 0 150.5 41t51.5 116q0 104 -167 162q-63 22 -63 38q0 14 15 23t38 9q54 0 124 -31l45 102q-35 26 -85.5 38.5t-88.5 12.5q-94 0 -148 -41.5t-54 -113.5q0 -57 47 -94t120 -62q31 -10 48.5 -22t17.5 -25q0 -15 -18.5 -23.5t-42.5 -8.5
q-26 0 -63.5 9.5t-68.5 24.5l-46 -102q34 -27 91 -40z" />
    <glyph glyph-name="t" unicode="t" horiz-adv-x="419" 
d="M236 474v147l-156 -24v-123h-70v-122h70v-183q0 -88 59 -136t151 -48q30 0 65 11t52 25l-45 109q-31 -16 -62 -16q-30 0 -47 21t-17 55v162h136l-28 122h-108z" />
    <glyph glyph-name="u" unicode="u" 
d="M379 154q-68 -43 -113 -43q-31 0 -46 20.5t-15 56.5v296h-157v-308q0 -89 40.5 -141t131.5 -52q46 0 96.5 19t95.5 48l37 -51h87v485h-157v-330z" />
    <glyph glyph-name="v" unicode="v" horiz-adv-x="536" 
d="M335 0l191 485h-159l-100 -284l-104 302l-148 -43l178 -460h142z" />
    <glyph glyph-name="w" unicode="w" horiz-adv-x="765" 
d="M597 0l158 485h-159l-66 -278l-73 278h-158l-68 -278l-73 296l-148 -43l147 -460h138l81 274l83 -274h138z" />
    <glyph glyph-name="x" unicode="x" horiz-adv-x="534" 
d="M185 0l80 125l77 -125h174l-157 230l165 255h-172l-87 -136l-97 151l-149 -39l152 -217l-161 -244h175z" />
    <glyph glyph-name="y" unicode="y" horiz-adv-x="533" 
d="M126 -55q-32 -19 -84 -41l53 -124q71 16 130.5 59.5t82.5 100.5l215 545h-160l-99 -284l-106 302l-148 -43l171 -439l-14 -33q-9 -24 -41 -43z" />
    <glyph glyph-name="z" unicode="z" horiz-adv-x="448" 
d="M415 485h-387l20 -125h182l-220 -278l20 -82h407l-13 124h-220l219 273z" />
    <glyph glyph-name="braceleft" unicode="{" horiz-adv-x="322" 
d="M257 390q0 20 -4.5 33.5t-13.5 29.5q-9 14 -13 25.5t-4 28.5q0 13 9.5 22t28.5 9h39l13 121h-86q-72 0 -107 -33.5t-35 -92.5q0 -30 20 -80q13 -37 13 -50q0 -18 -12.5 -29.5t-29.5 -11.5h-45v-106h45q17 0 29.5 -11.5t12.5 -29.5t-15 -57q-18 -48 -18 -72
q0 -59 35 -92.5t107 -33.5h86l-13 121h-39q-19 0 -28.5 9t-9.5 22q0 17 4 28t13 29q9 16 13.5 29t4.5 31q0 48 -35 81q35 28 35 80z" />
    <glyph glyph-name="bar" unicode="|" horiz-adv-x="321" 
d="M82 713v-713l156 -13v713z" />
    <glyph glyph-name="braceright" unicode="}" horiz-adv-x="321" 
d="M64 229q0 -18 4.5 -31t13.5 -29q9 -18 13 -29t4 -28q0 -13 -9.5 -22t-28.5 -9h-39l-13 -121h86q72 0 107 33.5t35 92.5q0 19 -8 43.5t-10 30.5q-15 39 -15 55q0 18 12.5 29.5t29.5 11.5h45v106h-45q-17 0 -29.5 11.5t-12.5 29.5q0 11 6.5 29t7.5 22q10 28 14.5 45t4.5 34
q0 59 -35 92.5t-107 33.5h-86l13 -121h39q19 0 28.5 -9t9.5 -22q0 -18 -4.5 -30t-12.5 -26q-9 -16 -13.5 -29t-4.5 -32q0 -52 35 -80q-35 -33 -35 -81z" />
    <glyph glyph-name="asciitilde" unicode="~" horiz-adv-x="523" 
d="M160 174q0 17 11 30t24 13q22 0 38.5 -4t41.5 -12t44 -12.5t43 -4.5q62 0 96.5 49.5t34.5 140.5h-121q-1 -18 -11 -31t-24 -13q-20 0 -37 4t-39 11q-29 9 -46.5 13t-41.5 4q-65 0 -104 -49.5t-39 -138.5h130z" />
    <glyph glyph-name="uni00A0" unicode="&#xa0;" horiz-adv-x="228" 
 />
    <glyph glyph-name="exclamdown" unicode="&#xa1;" horiz-adv-x="225" 
d="M171 567q24 24 24 59t-24 58.5t-59 23.5q-34 0 -58 -24t-24 -58q0 -35 24 -59t58 -24q35 0 59 24zM174 462l-124 44l-18 -506h159z" />
    <glyph glyph-name="cent" unicode="&#xa2;" horiz-adv-x="464" 
d="M451 38q-34 -27 -90 -40v-118h-141v115q-92 17 -145 81.5t-53 165.5t53 167.5t144 84.5v114l141 13v-131q53 -12 91 -40l-44 -109q-34 16 -59 22.5t-54 6.5q-47 0 -78.5 -36t-31.5 -92t31.5 -90t78.5 -34q28 0 54 7t59 23z" />
    <glyph glyph-name="sterling" unicode="&#xa3;" horiz-adv-x="514" 
d="M504 0l-18 122h-221q12 27 12 72v85h156l-30 122h-126v77q0 35 17 55.5t50 20.5q13 0 30 -4t32 -12l45 108q-17 15 -52 26.5t-65 11.5q-94 0 -153.5 -49.5t-59.5 -137.5v-96h-79v-122h79v-81q0 -36 -17.5 -55.5t-60.5 -20.5l10 -122h451z" />
    <glyph glyph-name="currency" unicode="&#xa4;" horiz-adv-x="758" 
d="M615 122q30 53 32 126q-2 69 -31 123l106 106l-103 110l-109 -112q-60 30 -130 30t-132 -31l-106 110l-112 -107l114 -109q-30 -57 -30 -123t29 -122l-107 -107l103 -110l109 113q59 -29 133 -31q72 2 129 30l106 -110l112 108zM457.5 167.5q-31.5 -32.5 -77.5 -32.5
q-45 1 -76.5 33t-32.5 78q1 46 32 78t76 33q45 0 77.5 -32t33.5 -78q-1 -47 -32.5 -79.5z" />
    <glyph glyph-name="yen" unicode="&#xa5;" horiz-adv-x="631" 
d="M544 209h-159v-47h149l10 -106h-159v-56h-156v56h-132l-10 106h142v47h-132l-10 106h115l-192 336l151 43l145 -278l153 264h162l-207 -365h120z" />
    <glyph glyph-name="brokenbar" unicode="&#xa6;" horiz-adv-x="321" 
d="M82 713v-300l156 -13v300zM82 300v-300l156 -13v300z" />
    <glyph glyph-name="section" unicode="&#xa7;" horiz-adv-x="657" 
d="M602.5 166.5q-31.5 -43.5 -89.5 -67.5q2 -14 2 -24q0 -56 -31.5 -100t-91 -69t-140.5 -25q-47 0 -111.5 17t-100.5 39l45 122q32 -17 79.5 -31.5t84.5 -14.5q50 0 77 17.5t27 46.5q0 19 -20.5 35t-66.5 43q-10 5 -30 17q-68 41 -106.5 68t-68 68t-29.5 92q1 56 33 99.5
t89 65.5q-2 18 -2 26q0 54 29.5 97t84.5 67.5t129 24.5q50 0 103 -15t94 -39l-49 -113q-51 20 -81 28t-65 8q-37 0 -60.5 -16t-23.5 -43q0 -21 19 -36.5t62 -39.5l35 -20q71 -41 109 -67.5t67 -67t29 -93.5q0 -56 -31.5 -99.5zM384.5 258q29.5 -18 54.5 -39q16 8 25 21t9 28
q0 19 -21 35.5t-66 41.5l-31 18q-48 29 -75 46t-51 39q-35 -16 -35 -49q0 -22 19.5 -38.5t62.5 -39.5q17 -7 33 -18q46 -27 75.5 -45z" />
    <glyph glyph-name="dieresis" unicode="&#xa8;" horiz-adv-x="370" 
d="M137 624q21 21 21 53q0 30 -21 52t-52 22t-53 -22t-22 -52q0 -31 22 -52.5t53 -21.5t52 21zM338.5 624q21.5 21 21.5 53q0 30 -21.5 52t-53.5 22q-29 0 -51.5 -22t-22.5 -52q0 -31 22 -52.5t52 -21.5q32 0 53.5 21z" />
    <glyph glyph-name="copyright" unicode="&#xa9;" horiz-adv-x="824" 
d="M753.5 529q-48.5 87 -137.5 137.5t-204 50.5t-203.5 -50.5t-137.5 -137.5t-49 -193q0 -105 49 -192t137.5 -137.5t203.5 -50.5t204 50.5t137.5 137.5t48.5 192q0 106 -48.5 193zM166.5 481q34.5 64 98 101t147.5 37q87 0 150 -36.5t96 -100.5t33 -145q0 -80 -34.5 -144
t-97.5 -100.5t-147 -36.5t-147.5 36.5t-98 101t-34.5 143.5q0 80 34.5 144zM503 119q41 10 71 34l-40 103q-29 -15 -51 -21t-47 -6q-40 0 -65.5 28.5t-25.5 78.5q0 51 25.5 80.5t65.5 29.5q26 0 47 -6t51 -21l40 104q-32 23 -73 33.5t-74 10.5q-67 0 -119.5 -28.5t-82 -80.5
t-29.5 -122q0 -106 62.5 -166.5t168.5 -60.5q35 0 76 10z" />
    <glyph glyph-name="ordfeminine" unicode="&#xaa;" horiz-adv-x="337" 
d="M111.5 589.5q25.5 6.5 43.5 6.5q31 0 41 -26h-44q-59 0 -94.5 -28.5t-35.5 -79.5t31.5 -81.5t92.5 -30.5q25 0 50 9.5t42 24.5l23 -27h54v213q0 61 -37.5 96.5t-106.5 35.5q-35 0 -72 -9t-63 -22l30 -96q20 8 45.5 14.5zM137.5 481q7.5 5 19.5 5h44v-16q-19 -18 -49 -18
q-11 0 -16.5 4.5t-5.5 11.5q0 8 7.5 13z" />
    <glyph glyph-name="guillemotleft" unicode="&#xab;" horiz-adv-x="411" 
d="M30 223l158 -145l29 96l-76 72l76 71l-29 98l-158 -146v-46zM205 223l159 -145l27 96l-75 72l75 71l-27 98l-159 -146v-46z" />
    <glyph glyph-name="logicalnot" unicode="&#xac;" horiz-adv-x="534" 
d="M491 415h-481l11 -123h344v-175l139 -6v246z" />
    <glyph glyph-name="softhyphen" unicode="&#xad;" horiz-adv-x="120" 
 />
    <glyph glyph-name="registered" unicode="&#xae;" horiz-adv-x="728" 
d="M663 654.5q-42 77.5 -119.5 122t-180.5 44.5q-102 0 -179.5 -44.5t-119.5 -122t-42 -173.5q0 -94 42 -171t119.5 -121.5t179.5 -44.5q103 0 180.5 44.5t119.5 121.5t42 171q0 96 -42 173.5zM146.5 611.5q29.5 56.5 85.5 88.5t131 32q76 0 132 -32t86 -88.5t30 -129.5
q0 -71 -30 -127.5t-86.5 -89.5t-131.5 -33t-131 32.5t-85.5 89.5t-29.5 128q0 73 29.5 129.5zM459 450q28 16 45 41.5t17 58.5q0 58 -43.5 88t-107.5 30h-149v-366h98v127h45l53 -127h111zM399.5 580.5q15.5 -8.5 15.5 -32.5q0 -42 -63 -42h-33v83h33q32 0 47.5 -8.5z" />
    <glyph glyph-name="macron" unicode="&#xaf;" horiz-adv-x="296" 
d="M10 613h276l-10 123h-266v-123z" />
    <glyph glyph-name="degree" unicode="&#xb0;" horiz-adv-x="277" 
d="M75 705.5q-30 -16.5 -47.5 -45t-17.5 -61.5q0 -52 38 -87t91 -35q34 0 63.5 16t47 44t17.5 62q0 33 -17.5 61.5t-47 45t-63.5 16.5t-64 -16.5zM162.5 574q-9.5 -10 -22.5 -10t-23 11t-10 24q0 12 10 22t23 10t22.5 -10.5t9.5 -24.5q0 -12 -9.5 -22z" />
    <glyph glyph-name="plusminus" unicode="&#xb1;" horiz-adv-x="508" 
d="M468 401h-147v150l-130 1v-151h-160l11 -106h149v-144l130 -6v150h157zM470 107h-439l10 -107h436z" />
    <glyph glyph-name="twosuperior" unicode="&#xb2;" horiz-adv-x="378" 
d="M90.5 757.5q-39.5 -13.5 -76.5 -35.5l51 -87q31 16 56 24t50 8q24 0 38 -10t14 -24q-1 -25 -15 -48t-45 -49l-133 -113v-86h328l-13 99h-139l38 31q54 46 77 86t23 87q0 33 -18 63t-55.5 49t-92.5 19q-48 0 -87.5 -13.5z" />
    <glyph glyph-name="threesuperior" unicode="&#xb3;" horiz-adv-x="390" 
d="M16 716l56 -87q25 19 47.5 28.5t47.5 9.5q27 0 41.5 -9t14.5 -26q0 -20 -16.5 -34t-53.5 -14h-55l12 -99h54q31 0 49 -14.5t18 -41.5q0 -20 -18 -33.5t-46 -13.5q-26 0 -49.5 8.5t-55.5 27.5l-62 -87q37 -25 83.5 -38.5t89.5 -13.5q56 0 99 19t66.5 53t23.5 77
q0 37 -20.5 69t-46.5 44q22 9 40.5 39t18.5 58q0 59 -45.5 96t-125.5 37q-91 0 -167 -55z" />
    <glyph glyph-name="acute" unicode="&#xb4;" horiz-adv-x="236" 
d="M121 588l105 182h-157l-59 -158z" />
    <glyph glyph-name="mu" unicode="&#xb5;" horiz-adv-x="598" 
d="M546 484v-485h-97l-27 51q-45 -29 -95.5 -48t-96.5 -19h-15v-192l-157 -10v703h157v-296q0 -36 15 -56.5t46 -20.5q45 0 113 43v330h157z" />
    <glyph glyph-name="paragraph" unicode="&#xb6;" horiz-adv-x="983" 
d="M497 557h190v-557h157v557h116v123h-656q-125 0 -203.5 -56.5t-78.5 -173.5q0 -78 40 -131t106.5 -79t147.5 -26h24v-214h157v557z" />
    <glyph glyph-name="periodcentered" unicode="&#xb7;" horiz-adv-x="225" 
d="M171.5 204q23.5 24 23.5 59t-23.5 58.5t-58.5 23.5t-59 -24t-24 -58q0 -35 24 -59t59 -24t58.5 24z" />
    <glyph glyph-name="cedilla" unicode="&#xb8;" horiz-adv-x="259" 
d="M111.5 -98.5q25.5 -10.5 25.5 -27.5q0 -9 -9.5 -13.5t-23.5 -4.5q-21 0 -60 18l-34 -81q20 -15 50.5 -25t55.5 -10q55 0 94 29.5t39 82.5q0 28 -18.5 56.5t-50.5 39.5l19 47h-109l-40 -98q36 -3 61.5 -13.5z" />
    <glyph glyph-name="onesuperior" unicode="&#xb9;" horiz-adv-x="323" 
d="M260 337v427h-84l-166 -76l40 -100l83 37v-288h127z" />
    <glyph glyph-name="ordmasculine" unicode="&#xba;" horiz-adv-x="394" 
d="M69 654.5q-47 -47.5 -47 -128.5q0 -82 44.5 -129t124.5 -47q82 0 131 47t49 127q0 82 -46 130t-129 48q-80 0 -127 -47.5zM235.5 576.5q11.5 -18.5 11.5 -53.5q0 -68 -53 -68q-25 0 -36 17.5t-11 53.5q0 35 13.5 52t37.5 17q26 0 37.5 -18.5z" />
    <glyph glyph-name="guillemotright" unicode="&#xbb;" horiz-adv-x="412" 
d="M206 270l-158 145l-28 -97l75 -72l-75 -71l28 -97l158 145v47zM382 270l-159 145l-27 -97l75 -72l-75 -71l27 -97l159 145v47z" />
    <glyph glyph-name="onequarter" unicode="&#xbc;" horiz-adv-x="953" 
d="M260 764h-84l-166 -76l40 -100l83 37v-288h127v427zM52 -134h154l592 834h-155zM924 -78l9 104h-85v298h-93l-258 -302l14 -100h207v-88h130v88h76zM718 26h-77l77 91v-91z" />
    <glyph glyph-name="onehalf" unicode="&#xbd;" horiz-adv-x="954" 
d="M260 337v427h-84l-166 -76l40 -100l83 37v-288h127zM643 700l-591 -834h154l592 834h-155zM665.5 311.5q-39.5 -13.5 -75.5 -36.5l51 -87q30 16 55.5 24.5t50.5 8.5q23 0 37 -11.5t14 -26.5q0 -25 -14 -46t-46 -48l-132 -112v-86h328l-13 98h-139l38 32q53 46 76 86
t23 86q0 33 -17.5 63t-55 49.5t-93.5 19.5q-48 0 -87.5 -13.5z" />
    <glyph glyph-name="threequarters" unicode="&#xbe;" horiz-adv-x="948" 
d="M16 716l56 -87q25 19 47.5 28.5t47.5 9.5q27 0 41.5 -9t14.5 -26q0 -20 -16.5 -34t-53.5 -14h-55l12 -99h54q31 0 49 -14.5t18 -41.5q0 -20 -18 -33.5t-46 -13.5q-26 0 -49.5 8.5t-55.5 27.5l-62 -87q37 -25 83.5 -38.5t89.5 -13.5q56 0 99 19t66.5 53t23.5 77
q0 37 -20.5 69t-46.5 44q22 9 40.5 39t18.5 58q0 59 -45.5 96t-125.5 37q-91 0 -167 -55zM669 700l-591 -834h153l592 834h-154zM844 324h-94l-258 -302l15 -100h207v-88h130v88h75l9 104h-84v298zM636 26l78 91v-91h-78z" />
    <glyph glyph-name="questiondown" unicode="&#xbf;" horiz-adv-x="451" 
d="M341.5 523q24.5 24 24.5 59q0 34 -24.5 58t-59.5 24q-34 0 -58 -23.5t-24 -58.5t23.5 -59t58.5 -24t59.5 24zM441 17l-20 133q-95 -59 -170 -59q-29 0 -48 15.5t-19 41.5q0 33 43.5 67t113.5 57l-8 162l-118 38l-14 -125q-82 -36 -126.5 -88t-44.5 -110q0 -84 58.5 -135
t159.5 -51q103 0 193 54z" />
    <glyph glyph-name="Agrave" unicode="&#xc0;" horiz-adv-x="685" 
d="M270 680l-260 -680h156l53 147h247l55 -157l154 18l-258 672h-147zM420 271h-157l77 211zM304 736l111 23l-59 159h-157z" />
    <glyph glyph-name="Aacute" unicode="&#xc1;" horiz-adv-x="685" 
d="M270 680l-260 -680h156l53 147h247l55 -157l154 18l-258 672h-147zM420 271h-157l77 211zM391 736l105 182h-157l-59 -159z" />
    <glyph glyph-name="Acircumflex" unicode="&#xc2;" horiz-adv-x="685" 
d="M270 680l-260 -680h156l53 147h247l55 -157l154 18l-258 672h-147zM420 271h-157l77 211zM343 802l59 -63l147 18l-163 164h-90l-163 -164l151 -18z" />
    <glyph glyph-name="Atilde" unicode="&#xc3;" horiz-adv-x="685" 
d="M270 680l-260 -680h156l53 147h247l55 -157l154 18l-258 672h-147zM420 271h-157l77 211zM402.5 865.5q-7.5 -9.5 -17.5 -9.5q-15 0 -25.5 4t-24.5 12q-15 9 -27 13.5t-29 4.5q-49 0 -83 -33.5t-34 -106.5h106q0 10 8 20t17 10q16 0 26.5 -4t22.5 -13q14 -9 25 -13.5
t29 -4.5q49 0 82 34t33 107h-101q0 -11 -7.5 -20.5z" />
    <glyph glyph-name="Adieresis" unicode="&#xc4;" horiz-adv-x="685" 
d="M270 680l-260 -680h156l53 147h247l55 -157l154 18l-258 672h-147zM420 271h-157l77 211zM296 774q21 21 21 53q0 30 -21 52t-52 22t-53 -22t-22 -52q0 -31 22 -52.5t53 -21.5t52 21zM497.5 774q21.5 21 21.5 53q0 30 -21.5 52t-53.5 22q-29 0 -51.5 -22t-22.5 -52
q0 -31 22 -52.5t52 -21.5q32 0 53.5 21z" />
    <glyph glyph-name="Aring" unicode="&#xc5;" horiz-adv-x="685" 
d="M270 680l-260 -680h156l53 147h247l55 -157l154 18l-258 672h-147zM420 271h-157l77 211zM261 928q-34 -32 -34 -77q0 -46 33.5 -76.5t81.5 -30.5q47 0 81 30.5t34 76.5q0 45 -34.5 77t-80.5 32q-47 0 -81 -32zM318.5 826.5q-10.5 10.5 -10.5 24.5q0 13 10.5 23t24.5 10
t24 -9.5t10 -23.5t-10 -24.5t-24 -10.5t-24.5 10.5z" />
    <glyph glyph-name="AE" unicode="&#xc6;" horiz-adv-x="975" 
d="M155 -12l101 156h212v-144h487l-19 122h-311v159h234l-19 123h-215v153h290l-18 123h-436l-456 -669zM468 450v-182h-126z" />
    <glyph glyph-name="Ccedilla" unicode="&#xc7;" horiz-adv-x="580" 
d="M462.5 -73.5q18.5 -28.5 18.5 -56.5q0 -53 -39 -82.5t-94 -29.5q-25 0 -55.5 10t-50.5 25l34 81q39 -18 60 -18q14 0 23.5 4.5t9.5 13.5q0 17 -25.5 27.5t-61.5 13.5l31 76q-89 12 -152 59t-96 121t-33 166q0 103 43 184t120 126.5t176 45.5q44 0 97 -13t93 -37l-47 -108
q-54 17 -80.5 23t-63.5 6q-47 0 -87.5 -28t-64.5 -79.5t-24 -118.5q0 -64 23 -114.5t63 -79t90 -28.5q71 0 139 34l59 -116q-28 -16 -67 -27t-79 -17l-10 -24q32 -11 50.5 -39.5z" />
    <glyph glyph-name="Egrave" unicode="&#xc8;" horiz-adv-x="590" 
d="M570 0l-19 122h-313v159h235l-19 123h-216v153h292l-19 123h-429v-680h488zM279 736l111 23l-59 159h-157z" />
    <glyph glyph-name="Eacute" unicode="&#xc9;" horiz-adv-x="590" 
d="M570 0l-19 122h-313v159h235l-19 123h-216v153h292l-19 123h-429v-680h488zM366 736l105 182h-157l-59 -159z" />
    <glyph glyph-name="Ecircumflex" unicode="&#xca;" horiz-adv-x="590" 
d="M570 0l-19 122h-313v159h235l-19 123h-216v153h292l-19 123h-429v-680h488zM318 802l59 -63l147 18l-163 164h-90l-163 -164l151 -18z" />
    <glyph glyph-name="Edieresis" unicode="&#xcb;" horiz-adv-x="590" 
d="M570 0l-19 122h-313v159h235l-19 123h-216v153h292l-19 123h-429v-680h488zM271 774q21 21 21 53q0 30 -21 52t-52 22t-53 -22t-22 -52q0 -31 22 -52.5t53 -21.5t52 21zM472.5 774q21.5 21 21.5 53q0 30 -21.5 52t-53.5 22q-29 0 -51.5 -22t-22.5 -52q0 -31 22 -52.5
t52 -21.5q32 0 53.5 21z" />
    <glyph glyph-name="Igrave" unicode="&#xcc;" horiz-adv-x="321" 
d="M238 0v680h-156v-680h156zM124 736l111 23l-59 159h-157z" />
    <glyph glyph-name="Iacute" unicode="&#xcd;" horiz-adv-x="321" 
d="M238 0v680h-156v-680h156zM211 736l105 182h-157l-59 -159z" />
    <glyph glyph-name="Icircumflex" unicode="&#xce;" horiz-adv-x="321" 
d="M238 0v680h-156v-680h156zM163 802l59 -63l147 18l-163 164h-90l-163 -164l151 -18z" />
    <glyph glyph-name="Idieresis" unicode="&#xcf;" horiz-adv-x="321" 
d="M238 0v680h-156v-680h156zM116 774q21 21 21 53q0 30 -21 52t-52 22t-53 -22t-22 -52q0 -31 22 -52.5t53 -21.5t52 21zM317.5 774q21.5 21 21.5 53q0 30 -21.5 52t-53.5 22q-29 0 -51.5 -22t-22.5 -52q0 -31 22 -52.5t52 -21.5q32 0 53.5 21z" />
    <glyph glyph-name="Eth" unicode="&#xd0;" horiz-adv-x="715" 
d="M539.5 637q71.5 -43 107.5 -118.5t36 -174.5q0 -105 -39 -182.5t-111 -119.5t-169 -42h-282v280h-59l-14 123h73v277h284q102 0 173.5 -43zM477 180q44 54 44 164q0 97 -40 153t-117 56h-126v-150h90l13 -123h-103v-154h119q76 0 120 54z" />
    <glyph glyph-name="Ntilde" unicode="&#xd1;" horiz-adv-x="759" 
d="M238 0v406l288 -406h150v680h-156v-411l-288 411h-150v-680h156zM438.5 865.5q-7.5 -9.5 -17.5 -9.5q-15 0 -25.5 4t-24.5 12q-15 9 -27 13.5t-29 4.5q-49 0 -83 -33.5t-34 -106.5h106q0 10 8 20t17 10q16 0 26.5 -4t22.5 -13q14 -9 25 -13.5t29 -4.5q49 0 82 34t33 107
h-101q0 -11 -7.5 -20.5z" />
    <glyph glyph-name="Ograve" unicode="&#xd2;" horiz-adv-x="750" 
d="M197 648q-78 -46 -121.5 -127t-43.5 -184q0 -98 41.5 -178t119 -126.5t182.5 -46.5q100 1 178 46.5t121.5 126.5t43.5 185q0 98 -41 178t-118.5 126.5t-183.5 46.5q-100 -1 -178 -47zM219 456.5q25 51.5 66.5 79.5t91.5 28q54 0 94.5 -28.5t62.5 -78.5t22 -113
q0 -74 -24 -125t-65.5 -76.5t-92.5 -25.5q-83 0 -131.5 61.5t-48.5 159.5q0 67 25 118.5zM335 736l111 23l-59 159h-157z" />
    <glyph glyph-name="Oacute" unicode="&#xd3;" horiz-adv-x="750" 
d="M197 648q-78 -46 -121.5 -127t-43.5 -184q0 -98 41.5 -178t119 -126.5t182.5 -46.5q100 1 178 46.5t121.5 126.5t43.5 185q0 98 -41 178t-118.5 126.5t-183.5 46.5q-100 -1 -178 -47zM219 456.5q25 51.5 66.5 79.5t91.5 28q54 0 94.5 -28.5t62.5 -78.5t22 -113
q0 -74 -24 -125t-65.5 -76.5t-92.5 -25.5q-83 0 -131.5 61.5t-48.5 159.5q0 67 25 118.5zM422 736l105 182h-157l-59 -159z" />
    <glyph glyph-name="Ocircumflex" unicode="&#xd4;" horiz-adv-x="750" 
d="M197 648q-78 -46 -121.5 -127t-43.5 -184q0 -98 41.5 -178t119 -126.5t182.5 -46.5q100 1 178 46.5t121.5 126.5t43.5 185q0 98 -41 178t-118.5 126.5t-183.5 46.5q-100 -1 -178 -47zM219 456.5q25 51.5 66.5 79.5t91.5 28q54 0 94.5 -28.5t62.5 -78.5t22 -113
q0 -74 -24 -125t-65.5 -76.5t-92.5 -25.5q-83 0 -131.5 61.5t-48.5 159.5q0 67 25 118.5zM374 802l59 -63l147 18l-163 164h-90l-163 -164l151 -18z" />
    <glyph glyph-name="Otilde" unicode="&#xd5;" horiz-adv-x="750" 
d="M197 648q-78 -46 -121.5 -127t-43.5 -184q0 -98 41.5 -178t119 -126.5t182.5 -46.5q100 1 178 46.5t121.5 126.5t43.5 185q0 98 -41 178t-118.5 126.5t-183.5 46.5q-100 -1 -178 -47zM219 456.5q25 51.5 66.5 79.5t91.5 28q54 0 94.5 -28.5t62.5 -78.5t22 -113
q0 -74 -24 -125t-65.5 -76.5t-92.5 -25.5q-83 0 -131.5 61.5t-48.5 159.5q0 67 25 118.5zM433.5 865.5q-7.5 -9.5 -17.5 -9.5q-15 0 -25.5 4t-24.5 12q-15 9 -27 13.5t-29 4.5q-49 0 -83 -33.5t-34 -106.5h106q0 10 8 20t17 10q16 0 26.5 -4t22.5 -13q14 -9 25 -13.5
t29 -4.5q49 0 82 34t33 107h-101q0 -11 -7.5 -20.5z" />
    <glyph glyph-name="Odieresis" unicode="&#xd6;" horiz-adv-x="750" 
d="M197 648q-78 -46 -121.5 -127t-43.5 -184q0 -98 41.5 -178t119 -126.5t182.5 -46.5q100 1 178 46.5t121.5 126.5t43.5 185q0 98 -41 178t-118.5 126.5t-183.5 46.5q-100 -1 -178 -47zM219 456.5q25 51.5 66.5 79.5t91.5 28q54 0 94.5 -28.5t62.5 -78.5t22 -113
q0 -74 -24 -125t-65.5 -76.5t-92.5 -25.5q-83 0 -131.5 61.5t-48.5 159.5q0 67 25 118.5zM327 774q21 21 21 53q0 30 -21 52t-52 22t-53 -22t-22 -52q0 -31 22 -52.5t53 -21.5t52 21zM528.5 774q21.5 21 21.5 53q0 30 -21.5 52t-53.5 22q-29 0 -51.5 -22t-22.5 -52
q0 -31 22 -52.5t52 -21.5q32 0 53.5 21z" />
    <glyph glyph-name="multiply" unicode="&#xd7;" 
d="M366 253l176 -224h-158l-91 121l-103 -121h-160l192 231l-175 224h157l91 -121l103 121h160z" />
    <glyph glyph-name="Oslash" unicode="&#xd8;" horiz-adv-x="750" 
d="M558.5 648.5q77.5 -46.5 118.5 -126.5t41 -178q0 -104 -43.5 -185t-121.5 -126.5t-178 -46.5q-105 0 -182.5 46.5t-119 126.5t-41.5 178q0 103 43.5 184t121.5 127t178 47q106 0 183.5 -46.5zM285.5 536q-41.5 -28 -66.5 -79.5t-25 -118.5q0 -100 49 -160l160 384
q-18 2 -26 2q-50 0 -91.5 -28zM466.5 142.5q41.5 25.5 65.5 76.5t24 125q0 90 -42 149l-159 -375q6 -1 19 -1q51 0 92.5 25.5z" />
    <glyph glyph-name="Ugrave" unicode="&#xd9;" horiz-adv-x="730" 
d="M72 680l1 -426q0 -81 36 -141t102.5 -93t153.5 -33t153.5 33t103 93t36.5 141v426h-157v-417q0 -71 -37 -108.5t-99 -37.5t-99 37t-37 109v417h-157zM325 736l111 23l-59 159h-157z" />
    <glyph glyph-name="Uacute" unicode="&#xda;" horiz-adv-x="730" 
d="M72 680l1 -426q0 -81 36 -141t102.5 -93t153.5 -33t153.5 33t103 93t36.5 141v426h-157v-417q0 -71 -37 -108.5t-99 -37.5t-99 37t-37 109v417h-157zM412 736l105 182h-157l-59 -159z" />
    <glyph glyph-name="Ucircumflex" unicode="&#xdb;" horiz-adv-x="730" 
d="M72 680l1 -426q0 -81 36 -141t102.5 -93t153.5 -33t153.5 33t103 93t36.5 141v426h-157v-417q0 -71 -37 -108.5t-99 -37.5t-99 37t-37 109v417h-157zM364 802l59 -63l147 18l-163 164h-90l-163 -164l151 -18z" />
    <glyph glyph-name="Udieresis" unicode="&#xdc;" horiz-adv-x="730" 
d="M72 680l1 -426q0 -81 36 -141t102.5 -93t153.5 -33t153.5 33t103 93t36.5 141v426h-157v-417q0 -71 -37 -108.5t-99 -37.5t-99 37t-37 109v417h-157zM317 774q21 21 21 53q0 30 -21 52t-52 22t-53 -22t-22 -52q0 -31 22 -52.5t53 -21.5t52 21zM518.5 774q21.5 21 21.5 53
q0 30 -21.5 52t-53.5 22q-29 0 -51.5 -22t-22.5 -52q0 -31 22 -52.5t52 -21.5q32 0 53.5 21z" />
    <glyph glyph-name="Yacute" unicode="&#xdd;" horiz-adv-x="631" 
d="M385 0v263l236 417h-162l-153 -264l-145 278l-151 -43l219 -384v-267h156zM353 736l105 182h-157l-59 -159z" />
    <glyph glyph-name="Thorn" unicode="&#xde;" horiz-adv-x="637" 
d="M472 574.5q62 -25.5 98.5 -77.5t36.5 -129q0 -76 -39 -128t-103.5 -77.5t-140.5 -25.5h-86v-137h-156v680h156v-80h95q77 0 139 -25.5zM411.5 289.5q31.5 27.5 32.5 74.5q0 54 -30.5 82t-85.5 28h-90v-212h92q50 0 81.5 27.5z" />
    <glyph glyph-name="germandbls" unicode="&#xdf;" horiz-adv-x="643" 
d="M218 0v464q0 48 29.5 76.5t70.5 28.5t68 -21.5t27 -55.5q0 -33 -29 -57.5t-73 -24.5h-31v-118h87q35 0 60 -23.5t25 -61.5q0 -35 -27.5 -57t-66.5 -22h-83v-128h96q72 0 127 24t85 69t30 105q0 57 -34.5 106t-80.5 64q34 19 54 58.5t20 78.5q0 61 -33.5 105.5t-92.5 68
t-134 23.5q-76 0 -132.5 -30.5t-87 -85t-30.5 -124.5v-462h156z" />
    <glyph glyph-name="agrave" unicode="&#xe0;" horiz-adv-x="506" 
d="M164 357q37 9 66 9q31 0 49.5 -17.5t20.5 -49.5h-76q-87 0 -137 -37t-50 -111q0 -75 45 -118.5t133 -43.5q65 0 119 62l37 -51h87v309q0 56 -25.5 99.5t-72.5 67.5t-108 24q-46 0 -104 -13.5t-91 -31.5l42 -120q28 13 65 22zM184.5 190q15.5 15 40.5 15h76v-59
q-41 -38 -85 -38q-21 0 -34 13t-13 31q0 23 15.5 38zM227 588l111 24l-59 158h-157z" />
    <glyph glyph-name="aacute" unicode="&#xe1;" horiz-adv-x="506" 
d="M164 357q37 9 66 9q31 0 49.5 -17.5t20.5 -49.5h-76q-87 0 -137 -37t-50 -111q0 -75 45 -118.5t133 -43.5q65 0 119 62l37 -51h87v309q0 56 -25.5 99.5t-72.5 67.5t-108 24q-46 0 -104 -13.5t-91 -31.5l42 -120q28 13 65 22zM184.5 190q15.5 15 40.5 15h76v-59
q-41 -38 -85 -38q-21 0 -34 13t-13 31q0 23 15.5 38zM282 588l105 182h-157l-59 -158z" />
    <glyph glyph-name="acircumflex" unicode="&#xe2;" horiz-adv-x="506" 
d="M164 357q37 9 66 9q31 0 49.5 -17.5t20.5 -49.5h-76q-87 0 -137 -37t-50 -111q0 -75 45 -118.5t133 -43.5q65 0 119 62l37 -51h87v309q0 56 -25.5 99.5t-72.5 67.5t-108 24q-46 0 -104 -13.5t-91 -31.5l42 -120q28 13 65 22zM184.5 190q15.5 15 40.5 15h76v-59
q-41 -38 -85 -38q-21 0 -34 13t-13 31q0 23 15.5 38zM255 652l59 -64l147 19l-163 163h-90l-163 -163l151 -19z" />
    <glyph glyph-name="atilde" unicode="&#xe3;" horiz-adv-x="506" 
d="M164 357q37 9 66 9q31 0 49.5 -17.5t20.5 -49.5h-76q-87 0 -137 -37t-50 -111q0 -75 45 -118.5t133 -43.5q65 0 119 62l37 -51h87v309q0 56 -25.5 99.5t-72.5 67.5t-108 24q-46 0 -104 -13.5t-91 -31.5l42 -120q28 13 65 22zM184.5 190q15.5 15 40.5 15h76v-59
q-41 -38 -85 -38q-21 0 -34 13t-13 31q0 23 15.5 38zM315.5 715.5q-7.5 -9.5 -17.5 -9.5q-15 0 -25.5 4t-24.5 12q-15 9 -27 13.5t-29 4.5q-49 0 -83 -33.5t-34 -106.5h106q0 10 8 20t17 10q16 0 26.5 -4t22.5 -13q14 -9 25 -13.5t29 -4.5q49 0 82 34t33 107h-101
q0 -11 -7.5 -20.5z" />
    <glyph glyph-name="adieresis" unicode="&#xe4;" horiz-adv-x="506" 
d="M164 357q37 9 66 9q31 0 49.5 -17.5t20.5 -49.5h-76q-87 0 -137 -37t-50 -111q0 -75 45 -118.5t133 -43.5q65 0 119 62l37 -51h87v309q0 56 -25.5 99.5t-72.5 67.5t-108 24q-46 0 -104 -13.5t-91 -31.5l42 -120q28 13 65 22zM184.5 190q15.5 15 40.5 15h76v-59
q-41 -38 -85 -38q-21 0 -34 13t-13 31q0 23 15.5 38zM202 624q21 21 21 53q0 30 -21 52t-52 22t-53 -22t-22 -52q0 -31 22 -52.5t53 -21.5t52 21zM403.5 624q21.5 21 21.5 53q0 30 -21.5 52t-53.5 22q-29 0 -51.5 -22t-22.5 -52q0 -31 22 -52.5t52 -21.5q32 0 53.5 21z" />
    <glyph glyph-name="aring" unicode="&#xe5;" horiz-adv-x="506" 
d="M164 357q37 9 66 9q31 0 49.5 -17.5t20.5 -49.5h-76q-87 0 -137 -37t-50 -111q0 -75 45 -118.5t133 -43.5q65 0 119 62l37 -51h87v309q0 56 -25.5 99.5t-72.5 67.5t-108 24q-46 0 -104 -13.5t-91 -31.5l42 -120q28 13 65 22zM184.5 190q15.5 15 40.5 15h76v-59
q-41 -38 -85 -38q-21 0 -34 13t-13 31q0 23 15.5 38zM172 778q-34 -32 -34 -77q0 -46 33.5 -76.5t81.5 -30.5q47 0 81 30.5t34 76.5q0 45 -34.5 77t-80.5 32q-47 0 -81 -32zM229.5 676.5q-10.5 10.5 -10.5 24.5q0 13 10.5 23t24.5 10t24 -9.5t10 -23.5t-10 -24.5t-24 -10.5
t-24.5 10.5z" />
    <glyph glyph-name="ae" unicode="&#xe6;" horiz-adv-x="803" 
d="M780 200h-310q20 -85 127 -85q40 0 72.5 10t64.5 28l45 -109q-33 -25 -83 -40t-109 -15q-134 0 -209 66q-32 -30 -69 -48t-94 -18q-88 0 -133 43.5t-45 118.5q0 74 50 111t137 37h76q-2 32 -20.5 49.5t-49.5 17.5q-29 0 -66 -9t-65 -22l-42 120q33 18 91 31.5t104 13.5
q90 0 144 -48q65 48 158 48q74 0 125 -34t76 -91t25 -128v-47zM631 289q-5 36 -25.5 59t-55.5 23q-33 0 -56 -22.5t-26 -59.5h163zM182 121q13 -13 34 -13q34 0 56.5 10.5t43.5 30.5q-10 29 -13 56h-78q-25 0 -40.5 -15t-15.5 -38q0 -18 13 -31z" />
    <glyph glyph-name="ccedilla" unicode="&#xe7;" horiz-adv-x="464" 
d="M330 -8l-11 -26q32 -11 50.5 -39.5t18.5 -56.5q0 -53 -39 -82.5t-94 -29.5q-25 0 -55.5 10t-50.5 25l34 81q39 -18 60 -18q14 0 23.5 4.5t9.5 13.5q0 17 -25.5 27.5t-61.5 13.5l32 79q-92 18 -145.5 82.5t-53.5 165.5q0 78 32.5 136.5t92 90t137.5 31.5q38 0 85 -12
t82 -38l-44 -109q-34 16 -59 22.5t-54 6.5q-47 0 -78.5 -36t-31.5 -92t31.5 -90t78.5 -34q28 0 54 7t59 23l44 -110q-45 -36 -121 -46z" />
    <glyph glyph-name="egrave" unicode="&#xe8;" horiz-adv-x="524" 
d="M502 247q0 71 -25.5 128t-76.5 91t-125 34t-131.5 -31.5t-89.5 -90t-32 -136.5q0 -119 76.5 -186t209.5 -67q59 0 108.5 15t83.5 40l-44 109q-68 -38 -137 -38q-106 0 -128 85h311v47zM215.5 348.5q22.5 22.5 55.5 22.5q35 0 55.5 -22.5t26.5 -59.5h-164q4 37 26.5 59.5z
M244 588l111 24l-59 158h-157z" />
    <glyph glyph-name="eacute" unicode="&#xe9;" horiz-adv-x="524" 
d="M502 247q0 71 -25.5 128t-76.5 91t-125 34t-131.5 -31.5t-89.5 -90t-32 -136.5q0 -119 76.5 -186t209.5 -67q59 0 108.5 15t83.5 40l-44 109q-68 -38 -137 -38q-106 0 -128 85h311v47zM215.5 348.5q22.5 22.5 55.5 22.5q35 0 55.5 -22.5t26.5 -59.5h-164q4 37 26.5 59.5z
M299 588l105 182h-157l-59 -158z" />
    <glyph glyph-name="ecircumflex" unicode="&#xea;" horiz-adv-x="524" 
d="M502 247q0 71 -25.5 128t-76.5 91t-125 34t-131.5 -31.5t-89.5 -90t-32 -136.5q0 -119 76.5 -186t209.5 -67q59 0 108.5 15t83.5 40l-44 109q-68 -38 -137 -38q-106 0 -128 85h311v47zM215.5 348.5q22.5 22.5 55.5 22.5q35 0 55.5 -22.5t26.5 -59.5h-164q4 37 26.5 59.5z
M272 652l59 -64l147 19l-163 163h-90l-163 -163l151 -19z" />
    <glyph glyph-name="edieresis" unicode="&#xeb;" horiz-adv-x="524" 
d="M502 247q0 71 -25.5 128t-76.5 91t-125 34t-131.5 -31.5t-89.5 -90t-32 -136.5q0 -119 76.5 -186t209.5 -67q59 0 108.5 15t83.5 40l-44 109q-68 -38 -137 -38q-106 0 -128 85h311v47zM215.5 348.5q22.5 22.5 55.5 22.5q35 0 55.5 -22.5t26.5 -59.5h-164q4 37 26.5 59.5z
M219 624q21 21 21 53q0 30 -21 52t-52 22t-53 -22t-22 -52q0 -31 22 -52.5t53 -21.5t52 21zM420.5 624q21.5 21 21.5 53q0 30 -21.5 52t-53.5 22q-29 0 -51.5 -22t-22.5 -52q0 -31 22 -52.5t52 -21.5q32 0 53.5 21z" />
    <glyph glyph-name="igrave" unicode="&#xec;" horiz-adv-x="261" 
d="M209 0v485h-157v-485h157zM101 588l111 24l-59 158h-157z" />
    <glyph glyph-name="iacute" unicode="&#xed;" horiz-adv-x="261" 
d="M209 0v485h-157v-485h157zM156 588l105 182h-157l-59 -158z" />
    <glyph glyph-name="icircumflex" unicode="&#xee;" horiz-adv-x="261" 
d="M209 0v485h-157v-485h157zM129 652l59 -64l147 19l-163 163h-90l-163 -163l151 -19z" />
    <glyph glyph-name="idieresis" unicode="&#xef;" horiz-adv-x="261" 
d="M209 0v485h-157v-485h157zM76 624q21 21 21 53q0 30 -21 52t-52 22t-53 -22t-22 -52q0 -31 22 -52.5t53 -21.5t52 21zM277.5 624q21.5 21 21.5 53q0 30 -21.5 52t-53.5 22q-29 0 -51.5 -22t-22.5 -52q0 -31 22 -52.5t52 -21.5q32 0 53.5 21z" />
    <glyph glyph-name="eth" unicode="&#xf0;" horiz-adv-x="579" 
d="M509 448q48 -92 48 -186q0 -84 -33 -145.5t-93 -94.5t-138 -33q-79 0 -140.5 29.5t-96 87t-34.5 138.5q0 77 33.5 135.5t91.5 89.5t128 31q14 0 21 -1q-23 26 -52 49l-138 -69l-51 100l76 38q-28 14 -73 29l56 104q81 -20 157 -63l119 60l52 -100l-66 -33
q85 -74 133 -166zM366 152q29 34 29 90q0 57 -15 108q-41 20 -89 20q-49 0 -78 -34.5t-29 -91.5t28.5 -91.5t76.5 -34.5t77 34z" />
    <glyph glyph-name="ntilde" unicode="&#xf1;" 
d="M209 331q72 42 114 42q30 0 45 -20.5t15 -55.5v-297h157v309q0 89 -40.5 140.5t-130.5 51.5q-46 0 -97.5 -18.5t-95.5 -48.5l-27 51h-97v-485h157v331zM384.5 715.5q-7.5 -9.5 -17.5 -9.5q-15 0 -25.5 4t-24.5 12q-15 9 -27 13.5t-29 4.5q-49 0 -83 -33.5t-34 -106.5h106
q0 10 8 20t17 10q16 0 26.5 -4t22.5 -13q14 -9 25 -13.5t29 -4.5q49 0 82 34t33 107h-101q0 -11 -7.5 -20.5z" />
    <glyph glyph-name="ograve" unicode="&#xf2;" horiz-adv-x="579" 
d="M522.5 107q-34.5 -57 -95.5 -87.5t-139 -30.5q-79 0 -139 29.5t-93.5 87t-33.5 138.5q0 78 34.5 136t95 89t138.5 31q79 0 139.5 -30.5t94 -88.5t33.5 -139q0 -78 -34.5 -135zM366 152q29 34 29 90t-28.5 92t-75.5 36q-49 0 -78 -34.5t-29 -91.5t28.5 -91.5t76.5 -34.5
t77 34zM258 588l111 24l-59 158h-157z" />
    <glyph glyph-name="oacute" unicode="&#xf3;" horiz-adv-x="579" 
d="M522.5 107q-34.5 -57 -95.5 -87.5t-139 -30.5q-79 0 -139 29.5t-93.5 87t-33.5 138.5q0 78 34.5 136t95 89t138.5 31q79 0 139.5 -30.5t94 -88.5t33.5 -139q0 -78 -34.5 -135zM366 152q29 34 29 90t-28.5 92t-75.5 36q-49 0 -78 -34.5t-29 -91.5t28.5 -91.5t76.5 -34.5
t77 34zM313 588l105 182h-157l-59 -158z" />
    <glyph glyph-name="ocircumflex" unicode="&#xf4;" horiz-adv-x="579" 
d="M522.5 107q-34.5 -57 -95.5 -87.5t-139 -30.5q-79 0 -139 29.5t-93.5 87t-33.5 138.5q0 78 34.5 136t95 89t138.5 31q79 0 139.5 -30.5t94 -88.5t33.5 -139q0 -78 -34.5 -135zM366 152q29 34 29 90t-28.5 92t-75.5 36q-49 0 -78 -34.5t-29 -91.5t28.5 -91.5t76.5 -34.5
t77 34zM286 652l59 -64l147 19l-163 163h-90l-163 -163l151 -19z" />
    <glyph glyph-name="otilde" unicode="&#xf5;" horiz-adv-x="579" 
d="M522.5 107q-34.5 -57 -95.5 -87.5t-139 -30.5q-79 0 -139 29.5t-93.5 87t-33.5 138.5q0 78 34.5 136t95 89t138.5 31q79 0 139.5 -30.5t94 -88.5t33.5 -139q0 -78 -34.5 -135zM366 152q29 34 29 90t-28.5 92t-75.5 36q-49 0 -78 -34.5t-29 -91.5t28.5 -91.5t76.5 -34.5
t77 34zM346.5 715.5q-7.5 -9.5 -17.5 -9.5q-15 0 -25.5 4t-24.5 12q-15 9 -27 13.5t-29 4.5q-49 0 -83 -33.5t-34 -106.5h106q0 10 8 20t17 10q16 0 26.5 -4t22.5 -13q14 -9 25 -13.5t29 -4.5q49 0 82 34t33 107h-101q0 -11 -7.5 -20.5z" />
    <glyph glyph-name="odieresis" unicode="&#xf6;" horiz-adv-x="579" 
d="M522.5 107q-34.5 -57 -95.5 -87.5t-139 -30.5q-79 0 -139 29.5t-93.5 87t-33.5 138.5q0 78 34.5 136t95 89t138.5 31q79 0 139.5 -30.5t94 -88.5t33.5 -139q0 -78 -34.5 -135zM366 152q29 34 29 90t-28.5 92t-75.5 36q-49 0 -78 -34.5t-29 -91.5t28.5 -91.5t76.5 -34.5
t77 34zM233 624q21 21 21 53q0 30 -21 52t-52 22t-53 -22t-22 -52q0 -31 22 -52.5t53 -21.5t52 21zM434.5 624q21.5 21 21.5 53q0 30 -21.5 52t-53.5 22q-29 0 -51.5 -22t-22.5 -52q0 -31 22 -52.5t52 -21.5q32 0 53.5 21z" />
    <glyph glyph-name="divide" unicode="&#xf7;" horiz-adv-x="511" 
d="M314.5 388.5q24.5 24.5 24.5 59.5q0 36 -24.5 60.5t-59.5 24.5q-36 0 -60.5 -24.5t-24.5 -60.5q0 -35 24.5 -59.5t60.5 -24.5q35 0 59.5 24.5zM470 333h-440l10 -118h441zM314.5 36.5q24.5 24.5 24.5 59.5q0 36 -24.5 60.5t-59.5 24.5q-36 0 -60.5 -24.5t-24.5 -60.5
q0 -35 24.5 -59.5t60.5 -24.5q35 0 59.5 24.5z" />
    <glyph glyph-name="oslash" unicode="&#xf8;" horiz-adv-x="579" 
d="M429.5 469.5q60.5 -30.5 94 -88.5t33.5 -139q0 -78 -34.5 -135t-95.5 -87.5t-139 -30.5q-79 0 -139 29.5t-93.5 87t-33.5 138.5q0 78 34.5 136t95 89t138.5 31q79 0 139.5 -30.5zM213 335.5q-29 -34.5 -29 -91.5q0 -37 13 -66l108 191q-5 1 -14 1q-49 0 -78 -34.5z
M366 152q29 34 29 90q0 34 -11 62l-108 -185q4 -1 13 -1q48 0 77 34z" />
    <glyph glyph-name="ugrave" unicode="&#xf9;" 
d="M379 154q-68 -43 -113 -43q-31 0 -46 20.5t-15 56.5v296h-157v-308q0 -89 40.5 -141t131.5 -52q46 0 96.5 19t95.5 48l37 -51h87v485h-157v-330zM265 588l111 24l-59 158h-157z" />
    <glyph glyph-name="uacute" unicode="&#xfa;" 
d="M379 154q-68 -43 -113 -43q-31 0 -46 20.5t-15 56.5v296h-157v-308q0 -89 40.5 -141t131.5 -52q46 0 96.5 19t95.5 48l37 -51h87v485h-157v-330zM320 588l105 182h-157l-59 -158z" />
    <glyph glyph-name="ucircumflex" unicode="&#xfb;" 
d="M379 154q-68 -43 -113 -43q-31 0 -46 20.5t-15 56.5v296h-157v-308q0 -89 40.5 -141t131.5 -52q46 0 96.5 19t95.5 48l37 -51h87v485h-157v-330zM293 652l59 -64l147 19l-163 163h-90l-163 -163l151 -19z" />
    <glyph glyph-name="udieresis" unicode="&#xfc;" 
d="M379 154q-68 -43 -113 -43q-31 0 -46 20.5t-15 56.5v296h-157v-308q0 -89 40.5 -141t131.5 -52q46 0 96.5 19t95.5 48l37 -51h87v485h-157v-330zM240 624q21 21 21 53q0 30 -21 52t-52 22t-53 -22t-22 -52q0 -31 22 -52.5t53 -21.5t52 21zM441.5 624q21.5 21 21.5 53
q0 30 -21.5 52t-53.5 22q-29 0 -51.5 -22t-22.5 -52q0 -31 22 -52.5t52 -21.5q32 0 53.5 21z" />
    <glyph glyph-name="yacute" unicode="&#xfd;" horiz-adv-x="533" 
d="M126 -55q-32 -19 -84 -41l53 -124q71 16 130.5 59.5t82.5 100.5l215 545h-160l-99 -284l-106 302l-148 -43l171 -439l-14 -33q-9 -24 -41 -43zM286 588l105 182h-157l-59 -158z" />
    <glyph glyph-name="thorn" unicode="&#xfe;" horiz-adv-x="565" 
d="M475.5 434q66.5 -66 66.5 -187t-67.5 -189.5t-184.5 -68.5q-32 0 -76 19v-217l-156 -10v914l156 11v-226q43 20 82 20q113 0 179.5 -66zM354 150.5q27 36.5 27 95.5q0 60 -27 94t-75 34q-32 0 -65 -21v-218q34 -21 69 -21q44 0 71 36.5z" />
    <glyph glyph-name="ydieresis" unicode="&#xff;" horiz-adv-x="533" 
d="M126 -55q-32 -19 -84 -41l53 -124q71 16 130.5 59.5t82.5 100.5l215 545h-160l-99 -284l-106 302l-148 -43l171 -439l-14 -33q-9 -24 -41 -43zM206 624q21 21 21 53q0 30 -21 52t-52 22t-53 -22t-22 -52q0 -31 22 -52.5t53 -21.5t52 21zM407.5 624q21.5 21 21.5 53
q0 30 -21.5 52t-53.5 22q-29 0 -51.5 -22t-22.5 -52q0 -31 22 -52.5t52 -21.5q32 0 53.5 21z" />
    <glyph glyph-name="Amacron" unicode="&#x100;" horiz-adv-x="685" 
d="M270 680l-260 -680h156l53 147h247l55 -157l154 18l-258 672h-147zM420 271h-157l77 211zM202 763h276l-10 123h-266v-123z" />
    <glyph glyph-name="amacron" unicode="&#x101;" horiz-adv-x="506" 
d="M164 357q37 9 66 9q31 0 49.5 -17.5t20.5 -49.5h-76q-87 0 -137 -37t-50 -111q0 -75 45 -118.5t133 -43.5q65 0 119 62l37 -51h87v309q0 56 -25.5 99.5t-72.5 67.5t-108 24q-46 0 -104 -13.5t-91 -31.5l42 -120q28 13 65 22zM184.5 190q15.5 15 40.5 15h76v-59
q-41 -38 -85 -38q-21 0 -34 13t-13 31q0 23 15.5 38zM113 613h276l-10 123h-266v-123z" />
    <glyph glyph-name="Abreve" unicode="&#x102;" horiz-adv-x="685" 
d="M270 680l-260 -680h156l53 147h247l55 -157l154 18l-258 672h-147zM420 271h-157l77 211zM384.5 870.5q-14.5 -18.5 -40.5 -18.5q-27 0 -41 18.5t-14 45.5h-109q0 -77 43.5 -126.5t120.5 -50.5q76 1 120 50.5t44 126.5h-109q0 -27 -14.5 -45.5z" />
    <glyph glyph-name="abreve" unicode="&#x103;" horiz-adv-x="506" 
d="M164 357q37 9 66 9q31 0 49.5 -17.5t20.5 -49.5h-76q-87 0 -137 -37t-50 -111q0 -75 45 -118.5t133 -43.5q65 0 119 62l37 -51h87v309q0 56 -25.5 99.5t-72.5 67.5t-108 24q-46 0 -104 -13.5t-91 -31.5l42 -120q28 13 65 22zM184.5 190q15.5 15 40.5 15h76v-59
q-41 -38 -85 -38q-21 0 -34 13t-13 31q0 23 15.5 38zM297.5 720q-14.5 -18 -40.5 -18q-27 0 -41 18t-14 45h-109q0 -77 43.5 -126.5t120.5 -50.5q76 1 120 50.5t44 126.5h-109q0 -27 -14.5 -45z" />
    <glyph glyph-name="Aogonek" unicode="&#x104;" horiz-adv-x="685" 
d="M760 -180q-20 -18 -55.5 -29t-70.5 -11q-40 0 -70.5 18t-47 48t-16.5 65q0 14 6 36.5t15 42.5l-55 157h-247l-53 -147h-156l260 680h147l258 -671h1q-13 -14 -25.5 -40.5t-12.5 -45.5q0 -12 8 -21t22 -9q21 0 43 19zM263 271h157l-80 211z" />
    <glyph glyph-name="aogonek" unicode="&#x105;" horiz-adv-x="506" 
d="M541 -189q-20 -19 -49.5 -29.5t-62.5 -10.5q-40 0 -70.5 17.5t-46.5 46.5t-16 61q0 36 11.5 67t38.5 72l-12 16q-54 -62 -119 -62q-88 0 -133 43.5t-45 118.5q0 74 50 111t137 37h76q-2 32 -20.5 49.5t-49.5 17.5q-29 0 -66 -9t-65 -22l-42 120q33 18 91 31.5t104 13.5
q61 0 108 -24t72.5 -67.5t25.5 -99.5v-309q-13 -14 -25.5 -40.5t-12.5 -45.5q0 -12 8 -21t22 -9q20 0 42 19zM301 205h-76q-25 0 -40.5 -15t-15.5 -38q0 -18 13 -31t34 -13q44 0 85 38v59z" />
    <glyph glyph-name="Cacute" unicode="&#x106;" horiz-adv-x="580" 
d="M468 680q-53 13 -97 13q-99 0 -176 -45.5t-120 -126.5t-43 -184q0 -101 40 -180.5t116.5 -124.5t182.5 -45q48 0 103.5 12.5t93.5 34.5l-59 116q-68 -34 -139 -34q-50 0 -90 28.5t-63 79t-23 114.5q0 67 24 118.5t64.5 79.5t87.5 28q37 0 63.5 -6t80.5 -23l47 108
q-40 24 -93 37zM419 736l105 182h-157l-59 -159z" />
    <glyph glyph-name="cacute" unicode="&#x107;" horiz-adv-x="464" 
d="M369 488q-47 12 -85 12q-78 0 -137.5 -31.5t-92 -90t-32.5 -136.5t32.5 -135.5t92 -87.5t137.5 -30q40 0 86.5 11t80.5 38l-44 110q-33 -16 -59 -23t-54 -7q-47 0 -78.5 34t-31.5 90t31.5 92t78.5 36q29 0 54 -6.5t59 -22.5l44 109q-35 26 -82 38zM285 588l105 182h-157
l-59 -158z" />
    <glyph glyph-name="Ccaron" unicode="&#x10c;" horiz-adv-x="580" 
d="M468 680q-53 13 -97 13q-99 0 -176 -45.5t-120 -126.5t-43 -184q0 -101 40 -180.5t116.5 -124.5t182.5 -45q48 0 103.5 12.5t93.5 34.5l-59 116q-68 -34 -139 -34q-50 0 -90 28.5t-63 79t-23 114.5q0 67 24 118.5t64.5 79.5t87.5 28q37 0 63.5 -6t80.5 -23l47 108
q-40 24 -93 37zM373 857l-59 64l-151 -18l163 -164h90l163 164l-147 18z" />
    <glyph glyph-name="ccaron" unicode="&#x10d;" horiz-adv-x="464" 
d="M369 488q-47 12 -85 12q-78 0 -137.5 -31.5t-92 -90t-32.5 -136.5t32.5 -135.5t92 -87.5t137.5 -30q40 0 86.5 11t80.5 38l-44 110q-33 -16 -59 -23t-54 -7q-47 0 -78.5 34t-31.5 90t31.5 92t78.5 36q29 0 54 -6.5t59 -22.5l44 109q-35 26 -82 38zM263 707l-59 63
l-151 -18l163 -164h90l163 164l-147 18z" />
    <glyph glyph-name="Dcaron" unicode="&#x10e;" horiz-adv-x="715" 
d="M533 42q72 42 111 119.5t39 182.5q0 99 -36 174.5t-107.5 118.5t-173.5 43h-284v-680h282q97 0 169 42zM481 497q40 -56 40 -153q0 -110 -44 -164t-120 -54h-119v427h126q77 0 117 -56zM345 857l-59 64l-151 -18l163 -164h90l163 164l-147 18z" />
    <glyph glyph-name="dcaron" unicode="&#x10f;" horiz-adv-x="782" 
d="M727.5 714.5q24.5 -27.5 24.5 -70.5q0 -58 -41.5 -115.5t-103.5 -86.5l-32 71q51 37 59 71q-18 6 -33.5 28t-15.5 47q0 31 24.5 57t58.5 26q35 0 59.5 -27.5zM358 695l157 11v-706h-80l-29 39q-30 -23 -65 -36.5t-72 -13.5q-113 0 -180 66t-67 187t68 189.5t185 68.5
q41 0 83 -20v215zM211 148.5q27 -34.5 75 -34.5q33 0 72 28v207q-36 25 -76 25q-44 0 -71 -36t-27 -95q0 -60 27 -94.5z" />
    <glyph glyph-name="Dcroat" unicode="&#x110;" horiz-adv-x="715" 
d="M539.5 637q71.5 -43 107.5 -118.5t36 -174.5q0 -105 -39 -182.5t-111 -119.5t-169 -42h-282v280h-59l-14 123h73v277h284q102 0 173.5 -43zM477 180q44 54 44 164q0 97 -40 153t-117 56h-126v-150h90l13 -123h-103v-154h119q76 0 120 54z" />
    <glyph glyph-name="dcroat" unicode="&#x111;" horiz-adv-x="578" 
d="M580 548h-65v-548h-80l-30 40q-31 -23 -68.5 -37t-67.5 -14q-113 0 -180 66t-67 187t68 189.5t185 68.5q37 0 83 -23v71h-74l-14 104h88v43l157 11v-54h51zM211 148.5q27 -34.5 75 -34.5q33 0 72 28v207q-36 25 -76 25q-44 0 -71 -36t-27 -95q0 -60 27 -94.5z" />
    <glyph glyph-name="Emacron" unicode="&#x112;" horiz-adv-x="590" 
d="M570 0l-19 122h-313v159h235l-19 123h-216v153h292l-19 123h-429v-680h488zM177 763h276l-10 123h-266v-123z" />
    <glyph glyph-name="emacron" unicode="&#x113;" horiz-adv-x="524" 
d="M502 247q0 71 -25.5 128t-76.5 91t-125 34t-131.5 -31.5t-89.5 -90t-32 -136.5q0 -119 76.5 -186t209.5 -67q59 0 108.5 15t83.5 40l-44 109q-68 -38 -137 -38q-106 0 -128 85h311v47zM215.5 348.5q22.5 22.5 55.5 22.5q35 0 55.5 -22.5t26.5 -59.5h-164q4 37 26.5 59.5z
M130 613h276l-10 123h-266v-123z" />
    <glyph glyph-name="Edotaccent" unicode="&#x116;" horiz-adv-x="590" 
d="M570 0l-19 122h-313v159h235l-19 123h-216v153h292l-19 123h-429v-680h488zM377 768q23 24 23 59t-23 59t-58 24q-34 0 -58.5 -24t-24.5 -59t24 -59t59 -24t58 24z" />
    <glyph glyph-name="edotaccent" unicode="&#x117;" horiz-adv-x="524" 
d="M502 247q0 71 -25.5 128t-76.5 91t-125 34t-131.5 -31.5t-89.5 -90t-32 -136.5q0 -119 76.5 -186t209.5 -67q59 0 108.5 15t83.5 40l-44 109q-68 -38 -137 -38q-106 0 -128 85h311v47zM215.5 348.5q22.5 22.5 55.5 22.5q35 0 55.5 -22.5t26.5 -59.5h-164q4 37 26.5 59.5z
M333 618q23 24 23 59t-23 59t-58 24q-34 0 -58.5 -24t-24.5 -59t24 -59t59 -24t58 24z" />
    <glyph glyph-name="Eogonek" unicode="&#x118;" horiz-adv-x="590" 
d="M581 -184q-20 -19 -49.5 -29.5t-63.5 -10.5q-60 0 -96 38.5t-36 92.5q0 18 8.5 46t19.5 47h-282v680h429l19 -123h-292v-153h216l19 -123h-235v-159h313l19 -122h-77q-13 -15 -23.5 -39t-10.5 -42q0 -12 8 -21t22 -9q21 0 43 19z" />
    <glyph glyph-name="eogonek" unicode="&#x119;" horiz-adv-x="524" 
d="M502 200h-311q22 -85 128 -85q69 0 137 38l44 -109q-33 -25 -83 -40q-13 -14 -25 -40t-12 -45q0 -12 8 -21t22 -9q21 0 43 19l49 -92q-20 -19 -50 -29.5t-63 -10.5q-60 0 -96 38.5t-36 92.5q0 15 7 39.5t16 43.5q-121 7 -189.5 73t-68.5 179q0 78 32 136.5t89.5 90
t131.5 31.5t125 -34t76.5 -91t25.5 -128v-47zM353 289q-6 37 -26.5 59.5t-55.5 22.5q-33 0 -55.5 -22.5t-26.5 -59.5h164z" />
    <glyph glyph-name="Ecaron" unicode="&#x11a;" horiz-adv-x="590" 
d="M570 0l-19 122h-313v159h235l-19 123h-216v153h292l-19 123h-429v-680h488zM320 857l-59 64l-151 -18l163 -164h90l163 164l-147 18z" />
    <glyph glyph-name="ecaron" unicode="&#x11b;" horiz-adv-x="524" 
d="M502 247q0 71 -25.5 128t-76.5 91t-125 34t-131.5 -31.5t-89.5 -90t-32 -136.5q0 -119 76.5 -186t209.5 -67q59 0 108.5 15t83.5 40l-44 109q-68 -38 -137 -38q-106 0 -128 85h311v47zM215.5 348.5q22.5 22.5 55.5 22.5q35 0 55.5 -22.5t26.5 -59.5h-164q4 37 26.5 59.5z
M277 707l-59 63l-151 -18l163 -164h90l163 164l-147 18z" />
    <glyph glyph-name="Gbreve" unicode="&#x11e;" horiz-adv-x="648" 
d="M465 265v-141q-46 -8 -81 -8q-52 0 -95 25.5t-69 75.5t-26 121q0 72 28.5 123.5t75 77t98.5 25.5q38 0 70 -6.5t84 -22.5l47 108q-39 24 -98 37t-105 13q-101 0 -184 -44.5t-130.5 -125.5t-47.5 -186q0 -104 43 -183t122.5 -123t185.5 -44q59 0 121.5 13.5t101.5 36.5
v345h-257l-13 -117h129zM434.5 870.5q-14.5 -18.5 -40.5 -18.5q-27 0 -41 18.5t-14 45.5h-109q0 -77 43.5 -126.5t120.5 -50.5q76 1 120 50.5t44 126.5h-109q0 -27 -14.5 -45.5z" />
    <glyph glyph-name="gbreve" unicode="&#x11f;" horiz-adv-x="574" 
d="M515 484v-503q0 -64 -32.5 -112t-92 -73.5t-137.5 -25.5q-40 0 -106 15t-105 41l47 110q81 -40 155 -40q51 0 82.5 23.5t31.5 62.5v27q-45 -20 -89 -20q-113 0 -180 66t-67 187t68 189.5t185 68.5q34 0 69 -13.5t65 -38.5l26 36h80zM358 142v207q-36 25 -76 25
q-44 0 -71 -36t-27 -95q0 -60 27 -94.5t75 -34.5q33 0 72 28zM309.5 720q-14.5 -18 -40.5 -18q-27 0 -41 18t-14 45h-109q0 -77 43.5 -126.5t120.5 -50.5q76 1 120 50.5t44 126.5h-109q0 -27 -14.5 -45z" />
    <glyph glyph-name="Gcommaaccent" unicode="&#x122;" horiz-adv-x="648" 
d="M465 265v-141q-46 -8 -81 -8q-52 0 -95 25.5t-69 75.5t-26 121q0 72 28.5 123.5t75 77t98.5 25.5q38 0 70 -6.5t84 -22.5l47 108q-39 24 -98 37t-105 13q-101 0 -184 -44.5t-130.5 -125.5t-47.5 -186q0 -104 43 -183t122.5 -123t185.5 -44q59 0 121.5 13.5t101.5 36.5
v345h-257l-13 -117h129zM327.5 -47q-24.5 -26 -24.5 -57q0 -25 15 -47.5t34 -27.5q-5 -16 -20.5 -31t-31.5 -23l32 -70q58 25 97.5 76t39.5 107q0 44 -24 71.5t-59 27.5q-34 0 -58.5 -26z" />
    <glyph glyph-name="gcommaaccent" unicode="&#x123;" horiz-adv-x="574" 
d="M212 568.5q-24 27.5 -24 71.5q0 55 39.5 106.5t97.5 76.5l32 -71q-15 -7 -31 -22t-21 -31q18 -6 34 -28t16 -47q0 -31 -24.5 -57t-58.5 -26q-36 0 -60 27.5zM515 484v-503q0 -64 -32.5 -112t-92 -73.5t-137.5 -25.5q-40 0 -106 15t-105 41l47 110q81 -40 155 -40
q51 0 82.5 23.5t31.5 62.5v30q-49 -23 -89 -23q-113 0 -180 66t-67 187t68 189.5t185 68.5q27 0 64 -14.5t69 -38.5l27 37h80zM358 142v207q-36 25 -76 25q-44 0 -71 -36t-27 -95q0 -60 27 -94.5t75 -34.5q33 0 72 28z" />
    <glyph glyph-name="Imacron" unicode="&#x12a;" horiz-adv-x="321" 
d="M238 0v680h-156v-680h156zM22 763h276l-10 123h-266v-123z" />
    <glyph glyph-name="imacron" unicode="&#x12b;" horiz-adv-x="261" 
d="M209 0v485h-157v-485h157zM-13 613h276l-10 123h-266v-123z" />
    <glyph glyph-name="Iogonek" unicode="&#x12e;" horiz-adv-x="321" 
d="M308 -189q-20 -19 -49.5 -29.5t-63.5 -10.5q-60 0 -96 38.5t-36 92.5q0 22 5.5 51.5t13.5 46.5v680h156v-680q-52 -42 -52 -86q0 -12 8 -21t22 -9q21 0 43 19z" />
    <glyph glyph-name="iogonek" unicode="&#x12f;" horiz-adv-x="261" 
d="M73 618q-24 24 -24 59t24.5 59t58.5 24q35 0 58 -24t23 -59t-23 -59t-58 -24t-59 24zM279 -189q-21 -19 -50.5 -29.5t-62.5 -10.5q-60 0 -96 38.5t-36 92.5q0 22 5 51.5t13 46.5v485h157v-485q-19 -14 -35.5 -36.5t-16.5 -49.5q0 -12 8 -21t22 -9q20 0 42 19z" />
    <glyph glyph-name="Idotaccent" unicode="&#x130;" horiz-adv-x="321" 
d="M238 0v680h-156v-680h156zM222 768q23 24 23 59t-23 59t-58 24q-34 0 -58.5 -24t-24.5 -59t24 -59t59 -24t58 24z" />
    <glyph glyph-name="dotlessi" unicode="&#x131;" horiz-adv-x="261" 
d="M209 0v485h-157v-485h157z" />
    <glyph glyph-name="Kcommaaccent" unicode="&#x136;" horiz-adv-x="695" 
d="M488 0l-189 268l-60 -60v-208h-157v680h157v-260l284 275l119 -88l-233 -230l276 -377h-197zM309.5 -47q-24.5 -26 -24.5 -57q0 -25 15 -47.5t34 -27.5q-5 -16 -20.5 -31t-31.5 -23l32 -70q58 25 97.5 76t39.5 107q0 44 -24 71.5t-59 27.5q-34 0 -58.5 -26z" />
    <glyph glyph-name="kcommaaccent" unicode="&#x137;" horiz-adv-x="542" 
d="M218 0v157l43 36l109 -193h172l-170 282l132 108l-91 109l-195 -172v379l-156 -11v-695h156zM234.5 -47q-24.5 -26 -24.5 -57q0 -25 15 -47.5t34 -27.5q-5 -16 -20.5 -31t-31.5 -23l32 -70q58 25 97.5 76t39.5 107q0 44 -24 71.5t-59 27.5q-34 0 -58.5 -26z" />
    <glyph glyph-name="Lacute" unicode="&#x139;" horiz-adv-x="561" 
d="M533 122h-295v558h-156v-680h469zM285 736l105 182h-157l-59 -159z" />
    <glyph glyph-name="lacute" unicode="&#x13a;" horiz-adv-x="281" 
d="M197 736l105 182h-158l-59 -159zM218 0v696l-156 -12v-684h156z" />
    <glyph glyph-name="Lcommaaccent" unicode="&#x13b;" horiz-adv-x="561" 
d="M533 122h-295v558h-156v-680h469zM294.5 -47q-24.5 -26 -24.5 -57q0 -25 15 -47.5t34 -27.5q-5 -16 -20.5 -31t-31.5 -23l32 -70q58 25 97.5 76t39.5 107q0 44 -24 71.5t-59 27.5q-34 0 -58.5 -26z" />
    <glyph glyph-name="lcommaaccent" unicode="&#x13c;" horiz-adv-x="281" 
d="M218 0v706l-156 -11v-695h156zM90.5 -47q-24.5 -26 -24.5 -57q0 -25 15 -47.5t34 -27.5q-5 -16 -20.5 -31t-31.5 -23l32 -70q58 25 97.5 76t39.5 107q0 44 -24 71.5t-59 27.5q-34 0 -58.5 -26z" />
    <glyph glyph-name="Lcaron" unicode="&#x13d;" horiz-adv-x="561" 
d="M533 122h-295v558h-156v-680h469zM390.5 716q-24.5 -26 -24.5 -57q0 -25 15.5 -47t33.5 -28q-8 -34 -59 -71l32 -71q62 29 103.5 86.5t41.5 115.5q0 43 -24.5 70.5t-59.5 27.5q-34 0 -58.5 -26z" />
    <glyph glyph-name="lcaron" unicode="&#x13e;" horiz-adv-x="484" 
d="M311.5 716q-24.5 -26 -24.5 -57q0 -25 15.5 -47t33.5 -28q-8 -34 -59 -71l32 -71q62 29 103.5 86.5t41.5 115.5q0 43 -24.5 70.5t-60.5 27.5q-33 0 -57.5 -26zM218 0v706l-156 -11v-695h156z" />
    <glyph glyph-name="Lslash" unicode="&#x141;" horiz-adv-x="567" 
d="M82 0v195l-27 -19l-53 115l80 55v334h156v-230l120 81l61 -113l-181 -120v-176h295l18 -122h-469z" />
    <glyph glyph-name="lslash" unicode="&#x142;" horiz-adv-x="376" 
d="M330 545l-66 -48v209l-156 -11v-310l-108 -79l45 -125l63 45v-226h156v339l112 81z" />
    <glyph glyph-name="Nacute" unicode="&#x143;" horiz-adv-x="759" 
d="M238 0v406l288 -406h150v680h-156v-411l-288 411h-150v-680h156zM427 736l105 182h-157l-59 -159z" />
    <glyph glyph-name="nacute" unicode="&#x144;" 
d="M209 331q72 42 114 42q30 0 45 -20.5t15 -55.5v-297h157v309q0 89 -40.5 140.5t-130.5 51.5q-46 0 -97.5 -18.5t-95.5 -48.5l-27 51h-97v-485h157v331zM351 588l105 182h-157l-59 -158z" />
    <glyph glyph-name="Ncommaaccent" unicode="&#x145;" horiz-adv-x="759" 
d="M238 0v406l288 -406h150v680h-156v-411l-288 411h-150v-680h156zM331.5 -47q-24.5 -26 -24.5 -57q0 -25 15 -47.5t34 -27.5q-5 -16 -20.5 -31t-31.5 -23l32 -70q58 25 97.5 76t39.5 107q0 44 -24 71.5t-59 27.5q-34 0 -58.5 -26z" />
    <glyph glyph-name="ncommaaccent" unicode="&#x146;" 
d="M209 331q72 42 114 42q30 0 45 -20.5t15 -55.5v-297h157v309q0 89 -40.5 140.5t-130.5 51.5q-46 0 -97.5 -18.5t-95.5 -48.5l-27 51h-97v-485h157v331zM241.5 -47q-24.5 -26 -24.5 -57q0 -25 15 -47.5t34 -27.5q-5 -16 -20.5 -31t-31.5 -23l32 -70q58 25 97.5 76
t39.5 107q0 44 -24 71.5t-59 27.5q-34 0 -58.5 -26z" />
    <glyph glyph-name="Ncaron" unicode="&#x147;" horiz-adv-x="759" 
d="M238 0v406l288 -406h150v680h-156v-411l-288 411h-150v-680h156zM381 857l-59 64l-151 -18l163 -164h90l163 164l-147 18z" />
    <glyph glyph-name="ncaron" unicode="&#x148;" 
d="M209 331q72 42 114 42q30 0 45 -20.5t15 -55.5v-297h157v309q0 89 -40.5 140.5t-130.5 51.5q-46 0 -97.5 -18.5t-95.5 -48.5l-27 51h-97v-485h157v331zM329 707l-59 63l-151 -18l163 -164h90l163 164l-147 18z" />
    <glyph glyph-name="Omacron" unicode="&#x14c;" horiz-adv-x="750" 
d="M197 648q-78 -46 -121.5 -127t-43.5 -184q0 -98 41.5 -178t119 -126.5t182.5 -46.5q100 1 178 46.5t121.5 126.5t43.5 185q0 98 -41 178t-118.5 126.5t-183.5 46.5q-100 -1 -178 -47zM219 456.5q25 51.5 66.5 79.5t91.5 28q54 0 94.5 -28.5t62.5 -78.5t22 -113
q0 -74 -24 -125t-65.5 -76.5t-92.5 -25.5q-83 0 -131.5 61.5t-48.5 159.5q0 67 25 118.5zM233 763h276l-10 123h-266v-123z" />
    <glyph glyph-name="omacron" unicode="&#x14d;" horiz-adv-x="579" 
d="M522.5 107q-34.5 -57 -95.5 -87.5t-139 -30.5q-79 0 -139 29.5t-93.5 87t-33.5 138.5q0 78 34.5 136t95 89t138.5 31q79 0 139.5 -30.5t94 -88.5t33.5 -139q0 -78 -34.5 -135zM366 152q29 34 29 90t-28.5 92t-75.5 36q-49 0 -78 -34.5t-29 -91.5t28.5 -91.5t76.5 -34.5
t77 34zM144 613h276l-10 123h-266v-123z" />
    <glyph glyph-name="Ohungarumlaut" unicode="&#x150;" horiz-adv-x="750" 
d="M197 648q-78 -46 -121.5 -127t-43.5 -184q0 -98 41.5 -178t119 -126.5t182.5 -46.5q100 1 178 46.5t121.5 126.5t43.5 185q0 98 -41 178t-118.5 126.5t-183.5 46.5q-100 -1 -178 -47zM219 456.5q25 51.5 66.5 79.5t91.5 28q54 0 94.5 -28.5t62.5 -78.5t22 -113
q0 -74 -24 -125t-65.5 -76.5t-92.5 -25.5q-83 0 -131.5 61.5t-48.5 159.5q0 67 25 118.5zM308 736l105 182h-157l-59 -159zM532 736l105 182h-157l-59 -159z" />
    <glyph glyph-name="ohungarumlaut" unicode="&#x151;" horiz-adv-x="579" 
d="M522.5 107q-34.5 -57 -95.5 -87.5t-139 -30.5q-79 0 -139 29.5t-93.5 87t-33.5 138.5q0 78 34.5 136t95 89t138.5 31q79 0 139.5 -30.5t94 -88.5t33.5 -139q0 -78 -34.5 -135zM366 152q29 34 29 90t-28.5 92t-75.5 36q-49 0 -78 -34.5t-29 -91.5t28.5 -91.5t76.5 -34.5
t77 34zM452 770l-105 -182l-24 5l-3 -5l-112 24l59 158h185z" />
    <glyph glyph-name="OE" unicode="&#x152;" horiz-adv-x="1009" 
d="M502 0v7q-66 -20 -131 -20q-106 0 -182.5 45t-116.5 124.5t-40 180.5q0 103 43 184t120 126.5t176 45.5q66 0 131 -23v10h429l19 -123h-292v-153h216l19 -123h-235v-159h312l19 -122h-487zM502 147v392q-47 15 -72 20t-60 5q-47 0 -87.5 -28t-64.5 -79.5t-24 -118.5
q0 -64 23 -114.5t63 -79t90 -28.5q68 0 132 31z" />
    <glyph glyph-name="oe" unicode="&#x153;" horiz-adv-x="849" 
d="M827 200h-311q20 -85 128 -85q69 0 137 38l44 -109q-33 -25 -83 -40t-109 -15q-113 0 -184 47q-34 -25 -80 -36t-85 -11q-78 0 -137.5 30t-92 87.5t-32.5 135.5t32.5 136.5t92 90t137.5 31.5q37 0 82 -11t79 -35q64 46 155 46q74 0 125 -34t76.5 -91t25.5 -128v-47z
M678 289q-6 37 -27 59.5t-55 22.5q-33 0 -55.5 -22.5t-26.5 -59.5h164zM215.5 152q31.5 -34 78.5 -34q38 0 74 13q-21 48 -21 111t22 115q-36 13 -75 13q-47 0 -78.5 -36t-31.5 -92t31.5 -90z" />
    <glyph glyph-name="Racute" unicode="&#x154;" horiz-adv-x="672" 
d="M82 0h156v236h122l127 -236h175l-159 280q48 27 76 73t28 106q0 110 -77 165.5t-197 55.5h-251v-680zM414 530q30 -24 30 -74q0 -45 -31.5 -70.5t-82.5 -25.5h-92v194h90q56 0 86 -24zM377 736l105 182h-157l-59 -159z" />
    <glyph glyph-name="racute" unicode="&#x155;" horiz-adv-x="381" 
d="M209 290q36 31 81.5 50.5t80.5 19.5l-31 125q-37 0 -83 -21.5t-81 -48.5l-44 69h-80v-484h157v290zM226 588l105 182h-157l-59 -158z" />
    <glyph glyph-name="Rcommaaccent" unicode="&#x156;" horiz-adv-x="672" 
d="M82 0h156v236h122l127 -236h175l-159 280q48 27 76 73t28 106q0 110 -77 165.5t-197 55.5h-251v-680zM414 530q30 -24 30 -74q0 -45 -31.5 -70.5t-82.5 -25.5h-92v194h90q56 0 86 -24zM308.5 -47q-24.5 -26 -24.5 -57q0 -25 15 -47.5t34 -27.5q-5 -16 -20.5 -31
t-31.5 -23l32 -70q58 25 97.5 76t39.5 107q0 44 -24 71.5t-59 27.5q-34 0 -58.5 -26z" />
    <glyph glyph-name="rcommaaccent" unicode="&#x157;" horiz-adv-x="381" 
d="M209 290q36 31 81.5 50.5t80.5 19.5l-31 125q-37 0 -83 -21.5t-81 -48.5l-44 69h-80v-484h157v290zM73.5 -47q-24.5 -26 -24.5 -57q0 -25 15 -47.5t34 -27.5q-5 -16 -20.5 -31t-31.5 -23l32 -70q58 25 97.5 76t39.5 107q0 44 -24 71.5t-59 27.5q-34 0 -58.5 -26z" />
    <glyph glyph-name="Rcaron" unicode="&#x158;" horiz-adv-x="672" 
d="M82 0h156v236h122l127 -236h175l-159 280q48 27 76 73t28 106q0 110 -77 165.5t-197 55.5h-251v-680zM414 530q30 -24 30 -74q0 -45 -31.5 -70.5t-82.5 -25.5h-92v194h90q56 0 86 -24zM331 857l-59 64l-151 -18l163 -164h90l163 164l-147 18z" />
    <glyph glyph-name="rcaron" unicode="&#x159;" horiz-adv-x="381" 
d="M209 290q36 31 81.5 50.5t80.5 19.5l-31 125q-37 0 -83 -21.5t-81 -48.5l-44 69h-80v-484h157v290zM204 707l-59 63l-151 -18l163 -164h90l163 164l-147 18z" />
    <glyph glyph-name="Sacute" unicode="&#x15a;" horiz-adv-x="537" 
d="M140.5 4q64.5 -17 111.5 -17q81 0 140.5 25t91 69t31.5 100q0 52 -29 92.5t-67 67t-110 68.5q-17 11 -33 18q-43 23 -62.5 39.5t-19.5 38.5q0 27 23.5 42.5t60.5 15.5q36 0 67 -8t79 -28l48 114q-40 24 -93 38.5t-103 14.5q-74 0 -129 -24.5t-84.5 -67t-30.5 -96.5
q0 -51 29.5 -92t68 -68t106.5 -68q20 -12 30 -17q46 -27 66.5 -43t20.5 -35q0 -29 -27 -46.5t-77 -17.5q-37 0 -84.5 14.5t-79.5 31.5l-45 -122q36 -22 100.5 -39zM324 736l105 182h-157l-59 -159z" />
    <glyph glyph-name="sacute" unicode="&#x15b;" horiz-adv-x="437" 
d="M115 2q57 -13 97 -13q99 0 150.5 41t51.5 116q0 104 -167 162q-63 22 -63 38q0 14 15 23t38 9q54 0 124 -31l45 102q-35 26 -85.5 38.5t-88.5 12.5q-94 0 -148 -41.5t-54 -113.5q0 -57 47 -94t120 -62q31 -10 48.5 -22t17.5 -25q0 -15 -18.5 -23.5t-42.5 -8.5
q-26 0 -63.5 9.5t-68.5 24.5l-46 -102q34 -27 91 -40zM257 588l105 182h-157l-59 -158z" />
    <glyph glyph-name="Scedilla" unicode="&#x15e;" horiz-adv-x="537" 
d="M459 53q-56 -52 -155 -63l-10 -24q32 -11 50.5 -39.5t18.5 -56.5q0 -53 -39 -82.5t-94 -29.5q-25 0 -55.5 10t-50.5 25l34 81q39 -18 60 -18q14 0 23.5 4.5t9.5 13.5q0 17 -25.5 27.5t-61.5 13.5l32 77q-43 7 -86.5 21t-69.5 30l45 122q32 -17 79.5 -31.5t84.5 -14.5
q50 0 77 17.5t27 46.5q0 19 -20.5 35t-66.5 43q-10 5 -30 17q-68 41 -106.5 68t-68 68t-29.5 92q1 54 30.5 96.5t84.5 67t129 24.5q50 0 103 -14.5t93 -38.5l-48 -114q-48 20 -79 28t-67 8q-37 0 -60.5 -15.5t-23.5 -42.5q0 -22 19.5 -38.5t62.5 -39.5q16 -7 33 -18
q72 -42 110 -68.5t67 -67t29 -92.5q0 -76 -56 -128z" />
    <glyph glyph-name="scedilla" unicode="&#x15f;" horiz-adv-x="437" 
d="M376.5 42q-37.5 -40 -111.5 -50l-11 -26q32 -11 50.5 -39.5t18.5 -56.5q0 -53 -39 -82.5t-94 -29.5q-25 0 -55.5 10t-50.5 25l34 81q39 -18 60 -18q14 0 23.5 4.5t9.5 13.5q0 17 -25.5 27.5t-61.5 13.5l32 79q-89 14 -132 48l46 102q31 -15 68.5 -24.5t63.5 -9.5
q24 0 42.5 8.5t18.5 23.5q0 13 -17.5 25t-48.5 22q-73 25 -120 62t-47 94q0 72 54 113.5t148 41.5q38 0 88.5 -12.5t85.5 -38.5l-45 -102q-70 31 -124 31q-23 0 -38 -9t-15 -23q0 -16 63 -38q167 -58 167 -162q0 -64 -37.5 -104z" />
    <glyph glyph-name="Scaron" unicode="&#x160;" horiz-adv-x="537" 
d="M140.5 4q64.5 -17 111.5 -17q81 0 140.5 25t91 69t31.5 100q0 52 -29 92.5t-67 67t-110 68.5q-17 11 -33 18q-43 23 -62.5 39.5t-19.5 38.5q0 27 23.5 42.5t60.5 15.5q36 0 67 -8t79 -28l48 114q-40 24 -93 38.5t-103 14.5q-74 0 -129 -24.5t-84.5 -67t-30.5 -96.5
q0 -51 29.5 -92t68 -68t106.5 -68q20 -12 30 -17q46 -27 66.5 -43t20.5 -35q0 -29 -27 -46.5t-77 -17.5q-37 0 -84.5 14.5t-79.5 31.5l-45 -122q36 -22 100.5 -39zM278 857l-59 64l-151 -18l163 -164h90l163 164l-147 18z" />
    <glyph glyph-name="scaron" unicode="&#x161;" horiz-adv-x="437" 
d="M115 2q57 -13 97 -13q99 0 150.5 41t51.5 116q0 104 -167 162q-63 22 -63 38q0 14 15 23t38 9q54 0 124 -31l45 102q-35 26 -85.5 38.5t-88.5 12.5q-94 0 -148 -41.5t-54 -113.5q0 -57 47 -94t120 -62q31 -10 48.5 -22t17.5 -25q0 -15 -18.5 -23.5t-42.5 -8.5
q-26 0 -63.5 9.5t-68.5 24.5l-46 -102q34 -27 91 -40zM235 707l-59 63l-151 -18l163 -164h90l163 164l-147 18z" />
    <glyph glyph-name="Tcedilla" unicode="&#x162;" horiz-adv-x="605" 
d="M387.5 -73.5q18.5 -28.5 18.5 -56.5q0 -53 -39 -82.5t-94 -29.5q-25 0 -55.5 10t-50.5 25l34 81q39 -18 60 -18q14 0 23.5 4.5t9.5 13.5q0 17 -25.5 27.5t-61.5 13.5l35 85h-29v557h-203v123h566l19 -123h-225v-557h-19l-14 -34q32 -11 50.5 -39.5z" />
    <glyph glyph-name="tcedilla" unicode="&#x163;" horiz-adv-x="419" 
d="M340.5 -73.5q18.5 -28.5 18.5 -56.5q0 -53 -39 -82.5t-94 -29.5q-25 0 -55.5 10t-50.5 25l34 81q39 -18 60 -18q14 0 23.5 4.5t9.5 13.5q0 17 -25.5 27.5t-61.5 13.5l35 86q-54 20 -84.5 62.5t-30.5 105.5v183h-70v122h70v123l156 24v-147h108l28 -122h-136v-162
q0 -34 17 -55t47 -21q31 0 62 16l45 -109q-17 -14 -48.5 -24.5t-60.5 -11.5l-8 -19q32 -11 50.5 -39.5z" />
    <glyph glyph-name="Tcaron" unicode="&#x164;" horiz-adv-x="605" 
d="M576 680h-566v-123h203v-557h157v557h225zM297 857l-59 64l-151 -18l163 -164h90l163 164l-147 18z" />
    <glyph glyph-name="tcaron" unicode="&#x165;" horiz-adv-x="596" 
d="M424.5 716q-24.5 -26 -24.5 -57q0 -25 15 -47t34 -28q-5 -20 -20 -36.5t-39 -34.5l32 -71q61 28 102.5 86t41.5 116q0 43 -24.5 70.5t-59.5 27.5q-33 0 -57.5 -26zM236 474v147l-156 -24v-123h-70v-122h70v-183q0 -88 59 -136t151 -48q30 0 65 11t52 25l-45 109
q-31 -16 -62 -16q-30 0 -47 21t-17 55v162h136l-28 122h-108z" />
    <glyph glyph-name="Umacron" unicode="&#x16a;" horiz-adv-x="730" 
d="M72 680l1 -426q0 -81 36 -141t102.5 -93t153.5 -33t153.5 33t103 93t36.5 141v426h-157v-417q0 -71 -37 -108.5t-99 -37.5t-99 37t-37 109v417h-157zM223 763h276l-10 123h-266v-123z" />
    <glyph glyph-name="umacron" unicode="&#x16b;" 
d="M379 154q-68 -43 -113 -43q-31 0 -46 20.5t-15 56.5v296h-157v-308q0 -89 40.5 -141t131.5 -52q46 0 96.5 19t95.5 48l37 -51h87v485h-157v-330zM151 613h276l-10 123h-266v-123z" />
    <glyph glyph-name="Uring" unicode="&#x16e;" horiz-adv-x="730" 
d="M72 680l1 -426q0 -81 36 -141t102.5 -93t153.5 -33t153.5 33t103 93t36.5 141v426h-157v-417q0 -71 -37 -108.5t-99 -37.5t-99 37t-37 109v417h-157zM282 928q-34 -32 -34 -77q0 -46 33.5 -76.5t81.5 -30.5q47 0 81 30.5t34 76.5q0 45 -34.5 77t-80.5 32q-47 0 -81 -32z
M339.5 826.5q-10.5 10.5 -10.5 24.5q0 13 10.5 23t24.5 10t24 -9.5t10 -23.5t-10 -24.5t-24 -10.5t-24.5 10.5z" />
    <glyph glyph-name="uring" unicode="&#x16f;" 
d="M379 154q-68 -43 -113 -43q-31 0 -46 20.5t-15 56.5v296h-157v-308q0 -89 40.5 -141t131.5 -52q46 0 96.5 19t95.5 48l37 -51h87v485h-157v-330zM210 778q-34 -32 -34 -77q0 -46 33.5 -76.5t81.5 -30.5q47 0 81 30.5t34 76.5q0 45 -34.5 77t-80.5 32q-47 0 -81 -32z
M267.5 676.5q-10.5 10.5 -10.5 24.5q0 13 10.5 23t24.5 10t24 -9.5t10 -23.5t-10 -24.5t-24 -10.5t-24.5 10.5z" />
    <glyph glyph-name="Uhungarumlaut" unicode="&#x170;" horiz-adv-x="730" 
d="M72 680l1 -426q0 -81 36 -141t102.5 -93t153.5 -33t153.5 33t103 93t36.5 141v426h-157v-417q0 -71 -37 -108.5t-99 -37.5t-99 37t-37 109v417h-157zM298 736l105 182h-157l-59 -159zM522 736l105 182h-157l-59 -159z" />
    <glyph glyph-name="uhungarumlaut" unicode="&#x171;" 
d="M379 154q-68 -43 -113 -43q-31 0 -46 20.5t-15 56.5v296h-157v-308q0 -89 40.5 -141t131.5 -52q46 0 96.5 19t95.5 48l37 -51h87v485h-157v-330zM459 770l-105 -182l-24 5l-3 -5l-112 24l59 158h185z" />
    <glyph glyph-name="Uogonek" unicode="&#x172;" horiz-adv-x="730" 
d="M658 680v-426q0 -107 -63.5 -176.5t-171.5 -86.5q-11 -17 -19 -37t-8 -35q0 -12 8 -21t22 -9q21 0 43 19l49 -92q-20 -19 -49.5 -29.5t-63.5 -10.5q-60 0 -96 38.5t-36 92.5q0 16 7 41t17 45q-104 17 -164 86.5t-60 174.5l-1 426h157v-417q0 -72 37 -109t99 -37t99 37.5
t37 108.5v417h157z" />
    <glyph glyph-name="uogonek" unicode="&#x173;" 
d="M620 -189q-43 -40 -113 -40q-40 0 -70 17.5t-46 46.5t-16 61q0 36 11 66.5t38 71.5l-12 16q-45 -29 -95.5 -48t-96.5 -19q-91 0 -131.5 52t-40.5 141v308h157v-296q0 -36 15 -56.5t46 -20.5q45 0 113 43v330h157v-485q-13 -14 -25.5 -40.5t-12.5 -44.5q0 -13 8 -22t22 -9
q20 0 43 19z" />
    <glyph glyph-name="Ydieresis" unicode="&#x178;" horiz-adv-x="631" 
d="M385 0v263l236 417h-162l-153 -264l-145 278l-151 -43l219 -384v-267h156zM258 774q21 21 21 53q0 30 -21 52t-52 22t-53 -22t-22 -52q0 -31 22 -52.5t53 -21.5t52 21zM459.5 774q21.5 21 21.5 53q0 30 -21.5 52t-53.5 22q-29 0 -51.5 -22t-22.5 -52q0 -31 22 -52.5
t52 -21.5q32 0 53.5 21z" />
    <glyph glyph-name="Zacute" unicode="&#x179;" horiz-adv-x="581" 
d="M551 122h-363l376 442l-17 116h-506l16 -123h323l-368 -442l18 -115h537zM333 736l105 182h-157l-59 -159z" />
    <glyph glyph-name="zacute" unicode="&#x17a;" horiz-adv-x="448" 
d="M415 485h-387l20 -125h182l-220 -278l20 -82h407l-13 124h-220l219 273zM244 588l105 182h-157l-59 -158z" />
    <glyph glyph-name="Zdotaccent" unicode="&#x17b;" horiz-adv-x="581" 
d="M551 122h-363l376 442l-17 116h-506l16 -123h323l-368 -442l18 -115h537zM344 768q23 24 23 59t-23 59t-58 24q-34 0 -58.5 -24t-24.5 -59t24 -59t59 -24t58 24z" />
    <glyph glyph-name="zdotaccent" unicode="&#x17c;" horiz-adv-x="448" 
d="M415 485h-387l20 -125h182l-220 -278l20 -82h407l-13 124h-220l219 273zM278 618q23 24 23 59t-23 59t-58 24q-34 0 -58.5 -24t-24.5 -59t24 -59t59 -24t58 24z" />
    <glyph glyph-name="Zcaron" unicode="&#x17d;" horiz-adv-x="581" 
d="M551 122h-363l376 442l-17 116h-506l16 -123h323l-368 -442l18 -115h537zM287 857l-59 64l-151 -18l163 -164h90l163 164l-147 18z" />
    <glyph glyph-name="zcaron" unicode="&#x17e;" horiz-adv-x="448" 
d="M415 485h-387l20 -125h182l-220 -278l20 -82h407l-13 124h-220l219 273zM222 707l-59 63l-151 -18l163 -164h90l163 164l-147 18z" />
    <glyph glyph-name="florin" unicode="&#x192;" horiz-adv-x="502" 
d="M95 345h78v-262q0 -35 -17 -55.5t-49 -20.5q-28 0 -62 16l-45 -109q18 -14 52.5 -25.5t63.5 -11.5q94 0 153.5 49.5t59.5 137.5v281h142l-28 122h-114v29q0 35 17 55.5t49 20.5q31 0 62 -16l45 109q-17 15 -52 26.5t-64 11.5q-94 0 -153.5 -50t-59.5 -138v-48h-78v-122z
" />
    <glyph glyph-name="Scommaaccent" unicode="&#x218;" horiz-adv-x="537" 
d="M140.5 4q64.5 -17 111.5 -17q81 0 140.5 25t91 69t31.5 100q0 52 -29 92.5t-67 67t-110 68.5q-17 11 -33 18q-43 23 -62.5 39.5t-19.5 38.5q0 27 23.5 42.5t60.5 15.5q36 0 67 -8t79 -28l48 114q-40 24 -93 38.5t-103 14.5q-74 0 -129 -24.5t-84.5 -67t-30.5 -96.5
q0 -51 29.5 -92t68 -68t106.5 -68q20 -12 30 -17q46 -27 66.5 -43t20.5 -35q0 -29 -27 -46.5t-77 -17.5q-37 0 -84.5 14.5t-79.5 31.5l-45 -122q36 -22 100.5 -39zM195.5 -47q-24.5 -26 -24.5 -57q0 -25 15 -47.5t34 -27.5q-5 -16 -20.5 -31t-31.5 -23l32 -70q58 25 97.5 76
t39.5 107q0 44 -24 71.5t-59 27.5q-34 0 -58.5 -26z" />
    <glyph glyph-name="scommaaccent" unicode="&#x219;" horiz-adv-x="437" 
d="M115 2q57 -13 97 -13q99 0 150.5 41t51.5 116q0 104 -167 162q-63 22 -63 38q0 14 15 23t38 9q54 0 124 -31l45 102q-35 26 -85.5 38.5t-88.5 12.5q-94 0 -148 -41.5t-54 -113.5q0 -57 47 -94t120 -62q31 -10 48.5 -22t17.5 -25q0 -15 -18.5 -23.5t-42.5 -8.5
q-26 0 -63.5 9.5t-68.5 24.5l-46 -102q34 -27 91 -40zM155.5 -47q-24.5 -26 -24.5 -57q0 -25 15 -47.5t34 -27.5q-5 -16 -20.5 -31t-31.5 -23l32 -70q58 25 97.5 76t39.5 107q0 44 -24 71.5t-59 27.5q-34 0 -58.5 -26z" />
    <glyph glyph-name="Tcommaaccent" unicode="&#x21a;" horiz-adv-x="605" 
d="M576 680h-566v-123h203v-557h157v557h225zM238.5 -47q-24.5 -26 -24.5 -57q0 -25 15 -47.5t34 -27.5q-5 -16 -20.5 -31t-31.5 -23l32 -70q58 25 97.5 76t39.5 107q0 44 -24 71.5t-59 27.5q-34 0 -58.5 -26z" />
    <glyph glyph-name="tcommaaccent" unicode="&#x21b;" horiz-adv-x="419" 
d="M236 474v147l-156 -24v-123h-70v-122h70v-183q0 -88 59 -136t151 -48q30 0 65 11t52 25l-45 109q-31 -16 -62 -16q-30 0 -47 21t-17 55v162h136l-28 122h-108zM191.5 -47q-24.5 -26 -24.5 -57q0 -25 15 -47.5t34 -27.5q-5 -16 -20.5 -31t-31.5 -23l32 -70q58 25 97.5 76
t39.5 107q0 44 -24 71.5t-59 27.5q-34 0 -58.5 -26z" />
    <glyph glyph-name="circumflex" unicode="&#x2c6;" horiz-adv-x="436" 
d="M220 652l59 -64l147 19l-163 163h-90l-163 -163l151 -19z" />
    <glyph glyph-name="caron" unicode="&#x2c7;" horiz-adv-x="436" 
d="M220 707l-59 63l-151 -18l163 -164h90l163 164l-147 18z" />
    <glyph glyph-name="uni02C9" unicode="&#x2c9;" horiz-adv-x="296" 
d="M10 613h276l-10 123h-266v-123z" />
    <glyph glyph-name="breve" unicode="&#x2d8;" horiz-adv-x="348" 
d="M214.5 720q-14.5 -18 -40.5 -18q-27 0 -41 18t-14 45h-109q0 -77 43.5 -126.5t120.5 -50.5q76 1 120 50.5t44 126.5h-109q0 -27 -14.5 -45z" />
    <glyph glyph-name="dotaccent" unicode="&#x2d9;" horiz-adv-x="184" 
d="M151 618q23 24 23 59t-23 59t-58 24q-34 0 -58.5 -24t-24.5 -59t24 -59t59 -24t58 24z" />
    <glyph glyph-name="ring" unicode="&#x2da;" horiz-adv-x="250" 
d="M44 778q-34 -32 -34 -77q0 -46 33.5 -76.5t81.5 -30.5q47 0 81 30.5t34 76.5q0 45 -34.5 77t-80.5 32q-47 0 -81 -32zM101.5 676.5q-10.5 10.5 -10.5 24.5q0 13 10.5 23t24.5 10t24 -9.5t10 -23.5t-10 -24.5t-24 -10.5t-24.5 10.5z" />
    <glyph glyph-name="ogonek" unicode="&#x2db;" horiz-adv-x="265" 
d="M20 -43.5q-10 -30.5 -10 -49.5q0 -54 36 -92.5t96 -38.5q34 0 63.5 10.5t49.5 29.5l-49 92q-22 -19 -43 -19q-14 0 -22 9t-8 21q0 19 12.5 45.5t25.5 40.5h-130q-11 -18 -21 -48.5z" />
    <glyph glyph-name="tilde" unicode="&#x2dc;" horiz-adv-x="369" 
d="M250.5 715.5q-7.5 -9.5 -17.5 -9.5q-15 0 -25.5 4t-24.5 12q-15 9 -27 13.5t-29 4.5q-49 0 -83 -33.5t-34 -106.5h106q0 10 8 20t17 10q16 0 26.5 -4t22.5 -13q14 -9 25 -13.5t29 -4.5q49 0 82 34t33 107h-101q0 -11 -7.5 -20.5z" />
    <glyph glyph-name="hungarumlaut" unicode="&#x2dd;" horiz-adv-x="460" 
d="M352 770l-105 -182l-24 5l-3 -5l-112 24l59 158h185z" />
    <glyph glyph-name="pi" unicode="&#x3c0;" horiz-adv-x="691" 
d="M268 0v363h154v-363h156v363h103v122h-671v-122h102v-363h156z" />
    <glyph glyph-name="tm_Anusvara" unicode="&#xb82;" horiz-adv-x="0" 
d="M70.5 635q32.5 18 51 48.5t18.5 66.5q0 38 -18.5 69t-51 49t-70.5 18t-70 -18t-50.5 -49t-18.5 -69q0 -36 18.5 -66.5t50.5 -48.5t70 -18t70.5 18zM-28 723q-11 11 -11 28q0 18 11 29t28 11q18 0 29.5 -11t11.5 -29q0 -17 -12 -28t-29 -11t-28 11z" />
    <glyph glyph-name="tm_Visarga" unicode="&#xb83;" horiz-adv-x="718" 
d="M428.5 289.5q32.5 17.5 51.5 48t19 67.5t-19 68.5t-51.5 49.5t-70.5 18t-69.5 -18t-50 -49.5t-18.5 -68.5t18.5 -67.5t50 -48t69.5 -17.5t70.5 17.5zM330.5 377.5q-11.5 11.5 -11.5 28.5t11.5 28.5t28.5 11.5t28.5 -11.5t11.5 -28.5t-11.5 -28.5t-28.5 -11.5t-28.5 11.5z
M251.5 4q32.5 18 51 48.5t18.5 67.5t-18.5 68t-51 49t-70.5 18t-70 -18t-50.5 -49t-18.5 -68t18.5 -67.5t50.5 -48.5t70 -18t70.5 18zM606.5 4q32.5 18 51 48.5t18.5 67.5t-18.5 68t-51 49t-70.5 18t-70 -18t-50.5 -49t-18.5 -68t18.5 -67.5t50.5 -48.5t70 -18t70.5 18z
M153 92q-11 11 -11 29q0 17 11 28t28 11q18 0 29.5 -11t11.5 -28q0 -18 -11.5 -29t-29.5 -11q-17 0 -28 11zM508 92q-11 11 -11 29q0 17 11 28t28 11q18 0 29.5 -11t11.5 -28q0 -18 -11.5 -29t-29.5 -11q-17 0 -28 11z" />
    <glyph glyph-name="tm_A" unicode="&#xb85;" horiz-adv-x="1117" 
d="M1032 513v-639h-141v172h-190q-52 -88 -152.5 -139t-236.5 -51q-85 0 -150.5 22t-101 61.5t-35.5 88.5q0 59 41 93.5t122 34.5h406q7 29 7 68q0 85 -43.5 137.5t-114.5 54.5q34 -34 34 -86q-1 -60 -41.5 -99.5t-101.5 -39.5q-66 0 -109 40t-43 101q0 57 33 102.5t91.5 71
t131.5 25.5q88 0 159 -40t111 -110t40 -157q0 -35 -6 -68h149v357h141zM359.5 302q10.5 11 10.5 27t-10.5 26t-26.5 10q-17 0 -28.5 -10t-11.5 -26q0 -17 11 -27.5t28 -10.5t27.5 11zM536 46h-340q-32 0 -32 -22q0 -21 39.5 -36t108.5 -15q149 0 224 73z" />
    <glyph glyph-name="tm_Aa" unicode="&#xb86;" horiz-adv-x="1320" 
d="M1224 91.5q42 -24.5 64 -67t22 -95.5q0 -88 -54.5 -157.5t-151.5 -109t-222 -39.5q-82 0 -142 22.5t-91 61.5t-31 88q0 62 48 102t129 40h21v-110h-21q-18 0 -30 -9.5t-12 -25.5q0 -22 33 -37t91 -15q134 0 210 49.5t76 136.5q0 31 -16.5 51.5t-43.5 20.5
q-32 0 -51.5 -20t-19.5 -51v-53h-141v172h-190q-52 -88 -152.5 -139t-236.5 -51q-85 0 -150.5 22t-101 61.5t-35.5 88.5q0 59 41 93.5t122 34.5h406q7 29 7 68q0 85 -43.5 137.5t-114.5 54.5q34 -34 34 -86q-1 -60 -41.5 -99.5t-101.5 -39.5q-66 0 -109 40t-43 101
q0 57 33 102.5t91.5 71t131.5 25.5q88 0 159 -40t111 -110t40 -157q0 -35 -6 -68h149v357h141v-420q44 23 93 23q57 0 99 -24.5zM359.5 302q10.5 11 10.5 27t-10.5 26t-26.5 10q-17 0 -28.5 -10t-11.5 -26q0 -17 11 -27.5t28 -10.5t27.5 11zM536 46h-340q-32 0 -32 -22
q0 -21 39.5 -36t108.5 -15q149 0 224 73z" />
    <glyph glyph-name="tm_I" unicode="&#xb87;" horiz-adv-x="1114" 
d="M811 664q105 -47 163 -130.5t58 -188.5v-492l-141 -1v490q0 74 -39.5 131t-112 89t-169.5 32q-110 0 -186.5 -33t-115 -92.5t-38.5 -137.5q0 -99 48 -189q87 19 182 19q80 0 147 -15q37 74 37 160q0 48 -26.5 77.5t-74.5 32.5q34 -34 34 -86q-1 -60 -42 -99.5t-102 -39.5
q-66 0 -109 40t-43 101q0 57 32 102.5t89.5 71t130.5 25.5q76 0 132.5 -29t87 -80t30.5 -116q0 -108 -52 -204q60 -31 93 -75t33 -96q0 -58 -46.5 -93.5t-121.5 -35.5q-128 0 -250 47q-117 -47 -248 -47q-76 0 -122.5 35.5t-46.5 93.5q0 49 32.5 91t92.5 73q-61 109 -61 236
q0 110 58.5 196.5t168 135t257.5 48.5q136 0 241 -47zM465.5 294.5q13.5 13.5 13.5 34.5q0 20 -13.5 33t-33.5 13q-22 0 -36 -13t-14 -33q0 -21 14 -34.5t35 -13.5t34.5 13.5zM350 45q41 -42 93 -73q57 34 96 76q-42 5 -78 5q-57 0 -111 -8zM665 7q-40 -47 -94 -86
q49 -11 95 -11q20 0 33.5 8.5t13.5 20.5q0 38 -48 68zM307 -80q-50 35 -92 82q-49 -28 -49 -63q0 -12 13 -20.5t34 -8.5q51 0 94 10z" />
    <glyph glyph-name="tm_Ii" unicode="&#xb88;" horiz-adv-x="874" 
d="M478 0v403h-255v-403h-141v513h766l16 -111h-245v-402h-141zM409.5 144.5q23.5 22.5 23.5 58.5t-23.5 59.5t-59.5 23.5t-59 -23.5t-23 -59.5t23 -58.5t59 -22.5t59.5 22.5zM805 144.5q23 22.5 23 58.5t-23 59.5t-60 23.5q-35 0 -58 -23.5t-23 -59.5t23 -58.5t58 -22.5
q37 0 60 22.5z" />
    <glyph glyph-name="tm_U" unicode="&#xb89;" horiz-adv-x="1035" 
d="M1025 110v-110h-956v110h220q81 0 127.5 44t46.5 114q0 64 -40 105t-109 41q-32 0 -64 -8q45 -11 71.5 -44.5t26.5 -81.5q0 -39 -21 -70.5t-57.5 -49t-81.5 -17.5q-73 0 -119.5 42t-46.5 107q0 69 38.5 123.5t105 85t147.5 30.5q87 0 155 -34t105.5 -94t37.5 -135
q0 -92 -57 -158h471zM225.5 246.5q14.5 14.5 14.5 36.5q0 23 -14.5 37.5t-37.5 14.5q-22 0 -37 -14.5t-15 -37.5q0 -22 15 -36.5t38 -14.5q22 0 36.5 14.5z" />
    <glyph glyph-name="tm_Uu" unicode="&#xb8a;" horiz-adv-x="1611" 
d="M1601 110v-110h-1532v110h220q81 0 127.5 44t46.5 114q0 64 -40 105t-109 41q-32 0 -64 -8q45 -11 71.5 -44.5t26.5 -81.5q0 -39 -21 -70.5t-57.5 -49t-81.5 -17.5q-73 0 -119.5 42t-46.5 107q0 69 38.5 123.5t105 85t147.5 30.5q87 0 155 -34t105.5 -94t37.5 -135
q0 -91 -59 -158h1049zM769 164.5q-52 23.5 -80.5 64.5t-28.5 91q0 62 30.5 109.5t89 74.5t138.5 27q90 0 152 -45v27h482l17 -106h-113v-250h-136v251h-114v-251h-136v156q0 29 -19.5 54.5t-53 40.5t-74.5 15q-60 0 -95 -29t-35 -74q0 -9 2 -25q9 36 39 57.5t73 21.5
q57 0 93 -31t36 -78q0 -54 -41 -89t-107 -35q-67 0 -119 23.5zM225.5 246.5q14.5 14.5 14.5 36.5q0 23 -14.5 37.5t-37.5 14.5q-22 0 -37 -14.5t-15 -37.5q0 -22 15 -36.5t38 -14.5q22 0 36.5 14.5zM875 288q-11 -10 -11 -26t11 -27t28 -11q16 0 26.5 10.5t10.5 27.5
q0 16 -10.5 26t-26.5 10q-17 0 -28 -10z" />
    <glyph glyph-name="tm_E" unicode="&#xb8e;" horiz-adv-x="935" 
d="M925 402h-169v-402h-140v403h-214q-107 0 -159.5 -45t-52.5 -121q0 -33 10 -59q8 61 55 99.5t115 38.5q53 0 96 -21t67 -58t24 -83q0 -50 -26 -89t-73 -61t-109 -22q-88 0 -158 33t-109.5 91t-39.5 131q0 81 41.5 143.5t121.5 97.5t192 35h511zM325.5 194.5
q-16.5 -16.5 -16.5 -42.5t16.5 -42.5t42.5 -16.5q25 0 41.5 17t16.5 42t-16.5 42t-41.5 17q-26 0 -42.5 -16.5z" />
    <glyph glyph-name="tm_Ee" unicode="&#xb8f;" horiz-adv-x="935" 
d="M925 402h-169v-390q0 -65 -12 -101.5t-56 -48.5l-413 -112l-44 105l334 98q24 7 34.5 18.5t13.5 29t3 54.5v348h-214q-107 0 -159.5 -45t-52.5 -121q0 -33 10 -59q8 61 55 99.5t115 38.5q53 0 96 -21t67 -58t24 -83q0 -50 -26 -89t-73 -61t-109 -22q-88 0 -158 33
t-109.5 91t-39.5 131q0 81 41.5 143.5t121.5 97.5t192 35h511zM325.5 194.5q-16.5 -16.5 -16.5 -42.5t16.5 -42.5t42.5 -16.5q25 0 41.5 17t16.5 42t-16.5 42t-41.5 17q-26 0 -42.5 -16.5z" />
    <glyph glyph-name="tm_Ai" unicode="&#xb90;" horiz-adv-x="815" 
d="M720 101q21 -39 29.5 -68t8.5 -60q0 -52 -24.5 -92t-70.5 -63t-108 -23q-41 0 -79 15t-66 42q-30 -27 -72 -42t-89 -15q-60 0 -107 24t-73.5 66.5t-26.5 96.5q0 89 65 149.5t205 79.5l181 24q66 9 98.5 38.5t33.5 72.5q0 29 -16.5 48.5t-43.5 19.5q-33 0 -52 -20t-19 -51
v-69h-134v56q0 39 -23.5 62t-65.5 23q-8 0 -26 -2q26 -14 39.5 -37.5t13.5 -54.5q0 -48 -37 -80.5t-92 -32.5q-55 1 -91 37.5t-36 92.5q0 57 28.5 101t78.5 68t113 24q105 0 164 -61q59 61 148 61q59 0 103.5 -24t69.5 -66t25 -95q0 -92 -68 -151.5t-211 -78.5l-181 -24
q-121 -16 -123 -107q0 -31 19.5 -52t51.5 -21q37 0 59.5 20t22.5 51v69h135v-69q0 -31 19.5 -51t51.5 -20q30 0 46.5 19t16.5 51q0 20 -9 51t-26 62zM201 294.5q11 10.5 11 26.5q0 18 -10.5 29.5t-27.5 11.5t-28 -11.5t-11 -28.5t11 -27.5t28 -10.5q16 0 27 10.5z" />
    <glyph glyph-name="tm_O" unicode="&#xb92;" horiz-adv-x="866" 
d="M613.5 73q25.5 -13 75.5 -13h92v-106h-92h-8q-4 -50 -35.5 -89.5t-85.5 -61.5t-123 -22q-72 0 -127.5 24.5t-86.5 68t-31 99.5v36h136v-31q0 -36 29 -57.5t79 -21.5q51 0 80.5 20.5t29.5 53.5v14q-85 49 -85 164v118h117q1 -23 15.5 -37t38.5 -14q22 0 36 18t14 46
q0 38 -34.5 69t-93.5 48t-131 17q-81 0 -147.5 -23.5t-99.5 -62.5q24 12 55 12q62 0 101.5 -35.5t39.5 -90.5q0 -59 -43 -98t-109 -39q-54 0 -95.5 23t-64.5 63.5t-23 92.5q0 79 50 142t138 98.5t198 35.5q113 0 206 -32.5t146.5 -90t53.5 -129.5q0 -51 -24 -91.5t-66.5 -63
t-96.5 -22.5q-31 0 -61 11q7 -30 32.5 -43zM186 248q-14 -13 -14 -33t14 -34t35 -14q20 0 34 14t14 34t-13.5 33t-33.5 13q-22 0 -36 -13z" />
    <glyph glyph-name="tm_Oo" unicode="&#xb93;" horiz-adv-x="866" 
d="M613.5 73q25.5 -13 75.5 -13h92v-106h-92h-5q-4 -50 -39 -89.5t-93.5 -61.5t-131.5 -22q-70 0 -124.5 19.5t-84.5 54t-30 78.5q0 61 44.5 98.5t125.5 37.5h16v-106h-16q-14 0 -22.5 -8.5t-8.5 -21.5q0 -17 27 -28t73 -11q56 0 92.5 21t36.5 53v17q-43 24 -65.5 66
t-22.5 100v118h117q1 -23 15.5 -37t38.5 -14q22 0 36 18t14 46q0 38 -34.5 69t-93.5 48t-131 17q-81 0 -147.5 -23.5t-99.5 -62.5q24 12 55 12q62 0 101.5 -35.5t39.5 -90.5q0 -59 -43 -98t-109 -39q-54 0 -95.5 23t-64.5 63.5t-23 92.5q0 79 50 142t138 98.5t198 35.5
q113 0 206 -32.5t146.5 -90t53.5 -129.5q0 -51 -24 -91.5t-66.5 -63t-96.5 -22.5q-31 0 -61 11q7 -30 32.5 -43zM186 248q-14 -13 -14 -33t14 -34t35 -14q20 0 34 14t14 34t-13.5 33t-33.5 13q-22 0 -36 -13z" />
    <glyph glyph-name="tm_Au" unicode="&#xb94;" horiz-adv-x="2139" 
d="M613.5 73q25.5 -13 75.5 -13h92v-106h-92h-8q-4 -50 -35.5 -89.5t-85.5 -61.5t-123 -22q-72 0 -127.5 24.5t-86.5 68t-31 99.5v36h136v-31q0 -36 29 -57.5t79 -21.5q51 0 80.5 20.5t29.5 53.5v14q-85 49 -85 164v118h117q1 -23 15.5 -37t38.5 -14q22 0 36 18t14 46
q0 38 -34.5 69t-93.5 48t-131 17q-81 0 -147.5 -23.5t-99.5 -62.5q24 12 55 12q62 0 101.5 -35.5t39.5 -90.5q0 -59 -43 -98t-109 -39q-54 0 -95.5 23t-64.5 63.5t-23 92.5q0 79 50 142t138 98.5t198 35.5q113 0 206 -32.5t146.5 -90t53.5 -129.5q0 -51 -24 -91.5t-66.5 -63
t-96.5 -22.5q-31 0 -61 11q7 -30 32.5 -43zM186 248q-14 -13 -14 -33t14 -34t35 -14q20 0 34 14t14 34t-13.5 33t-33.5 13q-22 0 -36 -13zM2129 403h-169v-403h-140v403h-190v-403h-140v223q0 55 -29.5 98.5t-81 68t-114.5 24.5q-64 0 -111.5 -23t-72.5 -63t-25 -91
q0 -33 10 -59q8 61 55 99.5t115 38.5q53 0 96 -21t67 -58t24 -83q0 -50 -26 -89t-73 -61t-109 -22q-88 0 -158 33t-109.5 91t-39.5 131q0 85 43.5 152t123.5 104.5t186 37.5q69 0 127 -21t102 -60v63h623zM1191.5 194.5q-16.5 -16.5 -16.5 -42.5t16.5 -42.5t42.5 -16.5
q25 0 41.5 17t16.5 42t-16.5 42t-41.5 17q-26 0 -42.5 -16.5z" />
    <glyph glyph-name="tm_Ka" unicode="&#xb95;" horiz-adv-x="768" 
d="M647.5 294.5q47.5 -21.5 73 -59.5t25.5 -87q0 -48 -26.5 -85.5t-75.5 -59t-116 -21.5v111q36 0 54 14.5t18 40.5q0 27 -15.5 42t-48.5 15h-20q0 -67 -34.5 -118t-94.5 -78t-135 -27q-105 0 -162.5 47.5t-57.5 123.5q0 50 27.5 88.5t80.5 57.5v214h544l16 -110h-184v-87
h19q65 0 112.5 -21.5zM379 403h-101v-87h101v87zM343 127q36 28 36 78h-125q-35 0 -54.5 -14.5t-19.5 -37.5q0 -24 20 -39t56 -15q51 0 87 28z" />
    <glyph glyph-name="tm_Nga" unicode="&#xb99;" horiz-adv-x="1061" 
d="M978 513v-513h-635v110h160q51 0 76.5 20.5t25.5 54.5q0 27 -15.5 44.5t-41.5 17.5q-28 0 -46.5 -17.5t-18.5 -42.5v-23h-140v239h-120v-403h-141v513h554l16 -111h-169v-54q39 17 87 17q53 0 94.5 -23t65 -63.5t23.5 -92.5q0 -43 -18 -76h103v403h140z" />
    <glyph glyph-name="tm_Ca" unicode="&#xb9a;" horiz-adv-x="723" 
d="M684 316l16 -111h-184q0 -67 -34.5 -118t-94.5 -78t-135 -27q-105 0 -162.5 47.5t-57.5 123.5q0 50 27.5 88.5t80.5 57.5v214h544l16 -110h-184v-87h168zM379 403h-101v-87h101v87zM343 127q36 28 36 78h-125q-35 0 -54.5 -14.5t-19.5 -37.5q0 -24 20 -39t56 -15
q51 0 87 28z" />
    <glyph glyph-name="tm_Ja" unicode="&#xb9c;" horiz-adv-x="815" 
d="M725 60q47 -44 47 -115q0 -66 -50 -107.5t-135 -41.5h-74v106h62q25 0 40 12.5t15 32.5t-11 32.5t-30 12.5q-24 0 -45 -17t-51 -52q-35 -40 -64 -65t-73 -44t-102 -19q-63 0 -111 24t-74.5 66.5t-26.5 96.5q0 89 65 149.5t205 79.5l181 24q66 9 98.5 38.5t33.5 72.5
q0 29 -16.5 48.5t-43.5 19.5q-33 0 -52 -20t-19 -51v-69h-134v56q0 39 -23.5 62t-65.5 23q-8 0 -26 -2q26 -14 39.5 -37.5t13.5 -54.5q0 -48 -37 -80.5t-92 -32.5q-55 1 -91 37.5t-36 92.5q0 57 28.5 101t78.5 68t113 24q105 0 164 -61q59 61 148 61q59 0 103.5 -24
t69.5 -66t25 -95q0 -92 -68 -151.5t-211 -78.5l-181 -24q-123 -17 -123 -107q0 -31 20.5 -52t54.5 -21q32 0 58.5 19t68.5 61q37 36 64 58t63.5 38t80.5 16q79 0 126 -44zM201 294.5q11 10.5 11 26.5q0 18 -10.5 29.5t-27.5 11.5t-28 -11.5t-11 -28.5t11 -27.5t28 -10.5
q16 0 27 10.5z" />
    <glyph glyph-name="tm_Nya" unicode="&#xb9e;" horiz-adv-x="1346" 
d="M1250.5 277q53.5 -64 53.5 -170q0 -117 -74 -207.5t-211 -140.5t-320 -50q-190 0 -334 58t-223.5 163.5t-79.5 244.5q0 93 40.5 189t105.5 159l144 -10q-63 -57 -103 -150t-40 -190q0 -105 60.5 -183.5t171.5 -121t257 -42.5q140 0 244 34t159.5 97t55.5 147
q0 55 -20.5 87.5t-56.5 32.5q-32 0 -53.5 -22.5t-21.5 -53.5v-148h-140v403h-192q-106 0 -158.5 -45t-52.5 -121q0 -33 10 -57q8 60 54.5 98t114.5 38q53 0 95.5 -21t66.5 -58t24 -83q0 -50 -26 -89t-73 -61t-108 -22q-87 0 -157.5 33t-110 91t-39.5 131q0 81 41.5 143.5
t121.5 97.5t192 35h490l16 -111h-169v-86q42 25 94 25q98 0 151.5 -64zM596.5 194.5q-16.5 -16.5 -16.5 -42.5t16.5 -42.5t42.5 -16.5t42.5 17t16.5 42q0 26 -16.5 42.5t-42.5 16.5t-42.5 -16.5z" />
    <glyph glyph-name="tm_Tta" unicode="&#xb9f;" horiz-adv-x="735" 
d="M708 110h-485v408l-141 -5v-513h643z" />
    <glyph glyph-name="tm_Nna" unicode="&#xba3;" horiz-adv-x="1827" 
d="M1817 403h-169v-403h-140v403h-84q-40 0 -82 -10q80 -93 80 -214q0 -58 -25.5 -102.5t-71 -69.5t-105.5 -25t-106.5 25t-72 69.5t-25.5 102.5q0 61 25.5 117t71.5 100q-49 18 -109 18q-63 0 -120 -22q50 -45 77.5 -99.5t27.5 -113.5q0 -58 -25.5 -102.5t-71.5 -69.5
t-105 -25q-60 0 -106.5 25t-72 69.5t-25.5 102.5q0 56 20 108t57 96q-85 31 -182 31q-89 0 -154.5 -23.5t-99.5 -65.5t-34 -95q0 -32 10 -56q6 63 53.5 102.5t116.5 39.5q53 0 96 -21t67 -58t24 -83q0 -50 -26 -89t-73 -61t-109 -22q-88 0 -158 32.5t-109.5 89t-39.5 126.5
q0 87 53 155t152 107t231 39q159 0 287 -61q108 61 238 61q129 0 233 -55q86 37 188 37h377zM1263 117.5q16 22.5 16 57.5q0 88 -57 151q-30 -30 -46 -68.5t-16 -82.5q0 -35 16 -57.5t43 -22.5q28 0 44 22.5zM829 117.5q16 22.5 16 57.5q0 79 -69 140q-50 -61 -50 -140
q0 -35 16.5 -57.5t43.5 -22.5t43 22.5zM325.5 194.5q-16.5 -16.5 -16.5 -42.5t16.5 -42.5t42.5 -16.5q25 0 41.5 17t16.5 42t-16.5 42t-41.5 17q-26 0 -42.5 -16.5z" />
    <glyph glyph-name="tm_Ta" unicode="&#xba4;" horiz-adv-x="806" 
d="M651 284.5q57 -31.5 89.5 -86.5t32.5 -125q0 -76 -38 -136.5t-105.5 -95t-151.5 -34.5h-180q-137 0 -170 -50l-96 73q21 41 84 64.5t169 23.5h193q64 0 106 43.5t42 111.5q0 57 -29 94.5t-75 37.5h-6q0 -67 -34.5 -118t-94.5 -78t-135 -27q-105 0 -162.5 47.5
t-57.5 123.5q0 50 27.5 88.5t80.5 57.5v214h544l16 -110h-184v-87h5q73 0 130 -31.5zM379 403h-101v-87h101v87zM343 127q36 28 36 78h-125q-35 0 -54.5 -14.5t-19.5 -37.5q0 -24 20 -39t56 -15q51 0 87 28z" />
    <glyph glyph-name="tm_Na" unicode="&#xba8;" horiz-adv-x="826" 
d="M689 309q46 -32 70 -88t24 -128q0 -83 -32 -147.5t-92.5 -101.5t-144.5 -37h-166q-137 0 -170 -50l-96 73q23 45 81.5 66.5t170.5 21.5h180q62 0 92 47t30 125q0 59 -21 95.5t-57 36.5q-31 0 -50.5 -19.5t-19.5 -49.5v-153h-140v403h-125v-403h-141v513h558l17 -111h-169
v-84q40 23 93 23q62 0 108 -32z" />
    <glyph glyph-name="tm_Nnna" unicode="&#xba9;" horiz-adv-x="1394" 
d="M1384 403h-169v-403h-140v403h-85q-55 0 -100 -16q47 -44 73 -96.5t26 -110.5t-25.5 -103t-71.5 -70t-105 -25q-60 0 -106.5 25t-72 70t-25.5 103q0 56 21 107t61 94q-88 33 -187 33q-89 0 -154.5 -23.5t-99.5 -65.5t-34 -95q0 -32 10 -56q6 63 53.5 102.5t116.5 39.5
q53 0 96 -21t67 -58t24 -83q0 -50 -26 -89t-73 -61t-109 -22q-88 0 -158 32.5t-109.5 89t-39.5 126.5q0 87 53 155t152 107t231 39q163 0 299 -67q98 49 213 49h378zM829 117.5q16 22.5 16 57.5q0 39 -17.5 74.5t-50.5 64.5q-51 -59 -51 -139q0 -35 16.5 -57.5t43.5 -22.5
t43 22.5zM325.5 194.5q-16.5 -16.5 -16.5 -42.5t16.5 -42.5t42.5 -16.5q25 0 41.5 17t16.5 42t-16.5 42t-41.5 17q-26 0 -42.5 -16.5z" />
    <glyph glyph-name="tm_Pa" unicode="&#xbaa;" horiz-adv-x="767" 
d="M684 513v-513h-602v513l141 5v-408h321v403h140z" />
    <glyph glyph-name="tm_Ma" unicode="&#xbae;" horiz-adv-x="928" 
d="M763 494q59 -37 91 -103t32 -149q0 -109 -65 -175.5t-187 -66.5h-552v513l141 5v-408h173v182q0 107 60 173t170 66q78 0 137 -37zM715 144q23 34 23 98q0 77 -29 124.5t-82 47.5q-49 0 -70 -34.5t-21 -95.5v-174h98q58 0 81 34z" />
    <glyph glyph-name="tm_Ya" unicode="&#xbaf;" horiz-adv-x="1015" 
d="M932 513v-513h-509v28q-56 -46 -126 -46q-108 0 -166.5 64t-58.5 172v295l141 5v-292q0 -127 93 -127q58 0 87.5 42t29.5 113v259h140v-403h228v403h141z" />
    <glyph glyph-name="tm_Ra" unicode="&#xbb0;" horiz-adv-x="731" 
d="M552 402v-390q0 -43 -3.5 -70t-18.5 -48t-46 -32l-323 -112l-44 116l244 87q24 9 34.5 20t13.5 28.5t3 53.5v348h-189v-403h-141v513h623l16 -111h-169z" />
    <glyph glyph-name="tm_Rra" unicode="&#xbb1;" horiz-adv-x="945" 
d="M784 491.5q58 -39.5 88 -109.5t30 -161q0 -123 -39 -216t-119 -145.5t-199 -52.5h-207q-136 0 -170 -50l-96 73q21 41 84 64.5t169 23.5h220q107 0 158 81.5t51 221.5q0 90 -26 141.5t-83 51.5q-49 0 -74.5 -35t-25.5 -95v-284h-140v260q0 67 -26.5 110.5t-77.5 43.5
q-44 0 -66 -34t-22 -98v-282h-141v296q0 107 58 171t161 64q52 0 96 -22t75 -63q32 40 79.5 62.5t102.5 22.5q82 0 140 -39.5z" />
    <glyph glyph-name="tm_La" unicode="&#xbb2;" horiz-adv-x="1133" 
d="M1068.5 382q21.5 -76 21.5 -135q0 -120 -63.5 -192.5t-182.5 -72.5q-109 0 -171 64.5t-62 171.5v32q0 48 -25.5 85.5t-71.5 58t-106 20.5q-65 0 -114.5 -23t-76.5 -63.5t-27 -90.5q0 -33 10 -59q8 61 55 99.5t115 38.5q53 0 96 -21t67 -58t24 -83q0 -50 -26 -89t-73 -61
t-109 -22q-88 0 -158 33t-109.5 91t-39.5 131q0 85 46 152t129.5 104.5t189.5 37.5q101 0 179 -36t121.5 -99.5t43.5 -145.5v-32q0 -56 24 -87.5t70 -31.5q49 0 73 40t24 108q0 57 -22 132.5t-60 133.5l145 14q42 -69 63.5 -145zM325.5 194.5q-16.5 -16.5 -16.5 -42.5
t16.5 -42.5t42.5 -16.5q25 0 41.5 17t16.5 42t-16.5 42t-41.5 17q-26 0 -42.5 -16.5z" />
    <glyph glyph-name="tm_Lla" unicode="&#xbb3;" horiz-adv-x="1273" 
d="M1263 403h-169v-403h-140v403h-190v-403h-140v223q0 55 -29.5 98.5t-81 68t-114.5 24.5q-64 0 -111.5 -23t-72.5 -63t-25 -91q0 -33 10 -59q8 61 55 99.5t115 38.5q53 0 96 -21t67 -58t24 -83q0 -50 -26 -89t-73 -61t-109 -22q-88 0 -158 33t-109.5 91t-39.5 131
q0 85 43.5 152t123.5 104.5t186 37.5q69 0 127 -21t102 -60v63h623zM325.5 194.5q-16.5 -16.5 -16.5 -42.5t16.5 -42.5t42.5 -16.5q25 0 41.5 17t16.5 42t-16.5 42t-41.5 17q-26 0 -42.5 -16.5z" />
    <glyph glyph-name="tm_Llla" unicode="&#xbb4;" horiz-adv-x="928" 
d="M536 0v-25q0 -39 17 -54.5t51 -15.5h145l16 -110h-200q-32 -46 -87.5 -71.5t-125.5 -25.5q-69 0 -123.5 27t-85 74t-30.5 106h141q0 -38 27 -63.5t70 -25.5q41 0 66.5 12t31.5 32q-25 13 -39 39.5t-14 60.5v40h-314v513l141 5v-408h173v182q0 107 60 173t170 66
q78 0 137 -37t91 -103t32 -149q0 -109 -65 -175.5t-187 -66.5h-98zM536 110h98q58 0 81 34t23 98q0 77 -29 124.5t-82 47.5q-49 0 -70 -34.5t-21 -95.5v-174z" />
    <glyph glyph-name="tm_Va" unicode="&#xbb5;" horiz-adv-x="1131" 
d="M1049 513v-513h-453v110q37 70 37 140q0 73 -57.5 118.5t-160.5 45.5q-66 0 -117.5 -23t-79.5 -63.5t-28 -90.5q0 -33 10 -59q8 61 55.5 99.5t114.5 38.5q53 0 96 -21t67 -58t24 -83q0 -50 -26 -89t-73 -61t-109 -22q-88 0 -158 33t-109.5 91t-39.5 131q0 85 47.5 152
t132 104.5t192.5 37.5q106 0 189.5 -36t130.5 -100t47 -145q0 -72 -35 -140h162v403h141zM325.5 194.5q-16.5 -16.5 -16.5 -42.5t16.5 -42.5t42.5 -16.5q25 0 41.5 17t16.5 42t-16.5 42t-41.5 17q-26 0 -42.5 -16.5z" />
    <glyph glyph-name="tm_Sha" unicode="&#xbb6;" horiz-adv-x="1180" 
d="M1073 447q65 -66 65 -175q0 -84 -32 -150t-91 -103t-137 -37q-110 0 -170.5 66t-60.5 173v182h-109v-189q0 -104 -60.5 -168t-172.5 -64t-172.5 64t-60.5 168v299l141 5v-297q0 -122 92 -122t92 122v292h489q122 0 187 -66zM960.5 147q28.5 48 28.5 125q0 63 -22.5 97
t-80.5 34h-98v-173q0 -62 21 -96.5t70 -34.5q53 0 81.5 48z" />
    <glyph glyph-name="tm_Ssa" unicode="&#xbb7;" horiz-adv-x="1529" 
d="M1461 0h-254v-243h-140v243h-471v110q37 70 37 140q0 73 -57.5 118.5t-160.5 45.5q-66 0 -117.5 -23t-79.5 -63.5t-28 -90.5q0 -33 10 -59q8 61 55 99.5t115 38.5q53 0 96 -21t67 -58t24 -83q0 -50 -26 -89t-73 -61t-109 -22q-88 0 -158 33t-109.5 91t-39.5 131
q0 85 47.5 152t132 104.5t192.5 37.5q106 0 189.5 -36t130.5 -100t47 -145q0 -75 -35 -140h321v64h-18q-71 0 -125 23.5t-83.5 65.5t-29.5 95q0 50 26 89.5t72.5 61.5t104.5 22q57 0 100.5 -21.5t68 -60.5t24.5 -89v-38q71 30 114 81h140v-403zM1067 292v63q0 26 -14 42.5
t-39 16.5t-40 -16t-15 -42q0 -31 23.5 -47.5t65.5 -16.5h19zM1321 110v147q-53 -39 -114 -58v-89h114zM325.5 194.5q-16.5 -16.5 -16.5 -42.5t16.5 -42.5t42.5 -16.5q25 0 41.5 17t16.5 42t-16.5 42t-41.5 17q-26 0 -42.5 -16.5z" />
    <glyph glyph-name="tm_Sa" unicode="&#xbb8;" horiz-adv-x="1456" 
d="M1392 381.5q22 -75.5 22 -134.5q0 -120 -64 -192.5t-183 -72.5q-109 0 -171 64.5t-62 171.5v70q0 61 -19.5 93t-64.5 32q-50 0 -74.5 -44t-24.5 -119v-250h-140v250q0 48 -25.5 85.5t-71.5 58t-106 20.5q-65 0 -114.5 -23t-76.5 -63.5t-27 -90.5q0 -33 10 -59
q8 61 55 99.5t115 38.5q53 0 96 -21t67 -58t24 -83q0 -50 -26 -89t-73 -61t-109 -22q-88 0 -158 33t-109.5 91t-39.5 131q0 85 46 152t129.5 104.5t189.5 37.5q85 0 154 -25.5t115 -72.5q30 47 75 72t103 25q108 0 164.5 -63.5t56.5 -172.5v-76q0 -56 24 -87.5t70 -31.5
q48 0 72.5 40t24.5 108q0 57 -22 132.5t-60 133.5l145 14q41 -70 63 -145.5zM325.5 194.5q-16.5 -16.5 -16.5 -42.5t16.5 -42.5t42.5 -16.5q25 0 41.5 17t16.5 42t-16.5 42t-41.5 17q-26 0 -42.5 -16.5z" />
    <glyph glyph-name="tm_Ha" unicode="&#xbb9;" horiz-adv-x="1754" 
d="M1593 491.5q58 -39.5 88.5 -109.5t30.5 -161q0 -123 -39.5 -216t-119.5 -145.5t-198 -52.5h-1047q-137 0 -170 -50l-96 73q21 41 84 64.5t169 23.5h1060q107 0 157.5 81.5t50.5 221.5q0 90 -26 141.5t-83 51.5q-49 0 -74 -35t-25 -95v-284h-141v260q0 67 -26.5 110.5
t-77.5 43.5q-43 0 -65.5 -34t-22.5 -98v-282h-426v110q37 70 37 140q0 73 -57.5 118.5t-160.5 45.5q-67 0 -118 -23t-79 -63t-28 -91q0 -33 10 -59q8 61 55 99.5t115 38.5q53 0 96 -21t67 -58t24 -83q0 -50 -26 -89t-73 -61t-109 -22q-88 0 -158 33t-109.5 91t-39.5 131
q0 85 47.5 152t132 104.5t192.5 37.5q106 0 189.5 -36t130.5 -100t47 -145q0 -75 -35 -140h135v186q0 107 58 171t161 64q53 0 97 -22t74 -63q32 40 79.5 62.5t102.5 22.5q82 0 140 -39.5zM325.5 194.5q-16.5 -16.5 -16.5 -42.5t16.5 -42.5t42.5 -16.5q25 0 41.5 17t16.5 42
t-16.5 42t-41.5 17q-26 0 -42.5 -16.5z" />
    <glyph glyph-name="tm_VowelAa" unicode="&#xbbe;" horiz-adv-x="711" 
d="M532 403v-403h-140v403h-169v-403h-141v513h603l16 -110h-169z" />
    <glyph glyph-name="tm_VowelI" unicode="&#xbbf;" horiz-adv-x="305" 
d="M63.5 759.5q76.5 -37.5 118 -104.5t41.5 -152v-503h-141v503q0 81 -51.5 129t-142.5 48q-59 0 -94 -24t-35 -63q0 -37 18 -58.5t52 -21.5v-95q-64 0 -111 23t-72.5 63.5t-26.5 92.5q0 58 33 103.5t93.5 71t141.5 25.5q100 0 176.5 -37.5z" />
    <glyph glyph-name="tm_VowelIi" unicode="&#xbc0;" horiz-adv-x="0" 
d="M-9.5 853q57.5 -25 90.5 -70t33 -100q0 -59 -40.5 -97.5t-102.5 -38.5t-102.5 38t-40.5 96q0 49 29 84q-67 -1 -105.5 -35.5t-38.5 -89.5q0 -57 33 -92t89 -35v-105q-78 0 -138 29.5t-93 82.5t-33 120q0 69 36 123t102 84.5t154 30.5q70 0 127.5 -25zM1 650q12 12 12 30
q0 17 -12 29t-30 12t-30 -12t-12 -29q0 -18 12 -30t30 -12t30 12z" />
    <glyph glyph-name="tm_VowelU" unicode="&#xbc1;" horiz-adv-x="472" 
d="M351.5 491q47.5 -22 74.5 -61.5t27 -89.5q0 -48 -24 -86t-67 -59.5t-97 -21.5q-53 0 -95 21t-65.5 59t-23.5 85q0 35 15 65h-315v110h463q60 0 107.5 -22zM306 299q17 17 17 43q0 27 -17 44t-43 17t-43.5 -17t-17.5 -44q0 -26 17.5 -43t43.5 -17t43 17z" />
    <glyph glyph-name="tm_VowelUu" unicode="&#xbc2;" horiz-adv-x="723" 
d="M551 576q72 -36 112.5 -100.5t40.5 -144.5q0 -86 -45 -154t-128.5 -106t-193.5 -38h-69v110h69q68 0 117.5 24t75.5 66.5t26 97.5q0 75 -46 122.5t-121 47.5q-18 0 -48 -4q51 -21 81.5 -62.5t30.5 -94.5q0 -48 -24 -86t-67 -59.5t-97 -21.5q-53 0 -95 22t-65.5 60.5
t-23.5 86.5q0 34 7 61h-307v110h364q42 47 105.5 73t139.5 26q89 0 161 -36zM306 299q17 17 17 43q0 27 -18 44t-48 17h-44q-11 -27 -11 -56t16.5 -47t44.5 -18q26 0 43 17z" />
    <glyph glyph-name="tm_VowelE" unicode="&#xbc6;" horiz-adv-x="856" 
d="M604.5 633q80.5 -42 124.5 -119t44 -178v-336h-140v336q0 103 -57.5 162.5t-158.5 59.5q-68 0 -119.5 -30t-79.5 -84t-28 -122q0 -60 17 -109q17 48 61.5 77t104.5 29q53 0 95 -21.5t65.5 -59t23.5 -84.5q0 -50 -26 -89t-73 -61t-109 -22q-88 0 -158 44t-109.5 121.5
t-39.5 174.5q0 101 47 181.5t132 126t195 45.5q108 0 188.5 -42zM325.5 194.5q-16.5 -16.5 -16.5 -42.5t16.5 -42.5t42.5 -16.5q25 0 41.5 17t16.5 42t-16.5 42t-41.5 17q-26 0 -42.5 -16.5z" />
    <glyph glyph-name="tm_VowelEe" unicode="&#xbc7;" horiz-adv-x="697" 
d="M575.5 287q37.5 -19 58.5 -53t21 -76q0 -50 -30.5 -90t-86 -63t-125.5 -23q-111 0 -195.5 45.5t-130 124.5t-45.5 177t45.5 176.5t130 124t195.5 45.5q70 0 125.5 -23t86 -63t30.5 -90q0 -42 -21 -76t-58.5 -53t-84.5 -19q-67 0 -110.5 42t-43.5 107q0 33 15 58
q-75 -13 -117.5 -74t-44.5 -155q2 -95 44.5 -156t117.5 -74q-15 26 -15 58q0 65 43.5 107t110.5 42q47 0 84.5 -19zM524 469.5q12 12.5 12 31.5t-12 32t-29 13q-20 0 -33 -12.5t-13 -31.5q0 -20 12 -32.5t31 -12.5q20 0 32 12.5zM461 187.5q-12 -12.5 -12 -32.5
q0 -19 13 -31.5t33 -12.5q17 0 29 13t12 32q0 20 -12 32t-32 12q-19 0 -31 -12.5z" />
    <glyph glyph-name="tm_VowelAi" unicode="&#xbc8;" horiz-adv-x="1303" 
d="M1132 497.5q64 -33.5 96.5 -93.5t32.5 -138q0 -59 -22 -134.5t-63 -145.5l-145 14q38 58 60 133.5t22 132.5q0 68 -33 108t-103 40q-48 0 -97 -18q52 -46 80.5 -101.5t28.5 -115.5q0 -58 -25.5 -102.5t-71.5 -69.5t-105 -25q-60 0 -106.5 25t-72 69.5t-25.5 102.5
q0 56 19.5 108t54.5 97q-85 30 -179 30q-89 0 -154.5 -23.5t-99.5 -65.5t-34 -95q0 -32 10 -56q6 63 53.5 102.5t116.5 39.5q53 0 96 -21t67 -58t24 -83q0 -50 -26 -89t-73 -61t-109 -22q-88 0 -158 32.5t-109.5 89t-39.5 126.5q0 87 53 155t152 107t231 39q76 0 148 -15.5
t134 -43.5q99 59 216 59q92 0 156 -33.5zM829 117.5q16 22.5 16 57.5q0 39 -18.5 75.5t-51.5 66.5q-49 -63 -49 -142q0 -35 16.5 -57.5t43.5 -22.5t43 22.5zM325.5 194.5q-16.5 -16.5 -16.5 -42.5t16.5 -42.5t42.5 -16.5q25 0 41.5 17t16.5 42t-16.5 42t-41.5 17
q-26 0 -42.5 -16.5z" />
    <glyph glyph-name="tm_VowelO" unicode="&#xbca;" horiz-adv-x="2064" 
d="M604.5 633q80.5 -42 124.5 -119t44 -178v-336h-140v336q0 103 -57.5 162.5t-158.5 59.5q-68 0 -119.5 -30t-79.5 -84t-28 -122q0 -60 17 -109q17 48 61.5 77t104.5 29q53 0 95 -21.5t65.5 -59t23.5 -84.5q0 -50 -26 -89t-73 -61t-109 -22q-88 0 -158 44t-109.5 121.5
t-39.5 174.5q0 101 47 181.5t132 126t195 45.5q108 0 188.5 -42zM325.5 194.5q-16.5 -16.5 -16.5 -42.5t16.5 -42.5t42.5 -16.5q25 0 41.5 17t16.5 42t-16.5 42t-41.5 17q-26 0 -42.5 -16.5zM1869 403v-403h-140v403h-169v-403h-141v513h603l16 -110h-169zM1109 467
q8 8 8 21t-8 21.5t-21 8.5t-21 -8.5t-8 -21.5t8 -21t21 -8t21 8zM978 494q-8 -8 -8 -21t8 -21t21 -8t21 8t8 21t-8 21t-21 8t-21 -8zM1199 452q8 8 8 21t-8 21t-21 8t-21 -8t-8 -21t8 -21t21 -8t21 8zM901.5 443.5q-8.5 -8.5 -8.5 -21.5t8.5 -21t21.5 -8t21 8t8 21t-8 21.5
t-21 8.5t-21.5 -8.5zM1275.5 401q8.5 8 8.5 21t-8.5 21.5t-21.5 8.5t-21 -8.5t-8 -21.5t8 -21t21 -8t21.5 8zM853.5 364.5q-8.5 -8.5 -8.5 -21.5t8.5 -21t21.5 -8t21 8t8 21t-8 21.5t-21 8.5t-21.5 -8.5zM1323 322q8 8 8 21t-8 21.5t-21 8.5t-21 -8.5t-8 -21.5t8 -21t21 -8
t21 8zM839.5 278.5q-8.5 -8.5 -8.5 -21.5t8.5 -20.5t21.5 -7.5t21 7.5t8 20.5t-8 21.5t-21 8.5t-21.5 -8.5zM1337.5 236.5q8.5 7.5 8.5 20.5t-8.5 21.5t-21.5 8.5t-21 -8.5t-8 -21.5t8 -20.5t21 -7.5t21.5 7.5zM853.5 195q-8.5 -8 -8.5 -21t8.5 -21t21.5 -8t21 8t8 21t-8 21
t-21 8t-21.5 -8zM1323 153q8 8 8 21t-8 21t-21 8t-21 -8t-8 -21t8 -21t21 -8t21 8zM900.5 115q-8.5 -8 -8.5 -21t8.5 -21t21.5 -8t21 8t8 21t-8 21t-21 8t-21.5 -8zM1276.5 73q8.5 8 8.5 21t-8.5 21t-21.5 8t-21 -8t-8 -21t8 -21t21 -8t21.5 8zM978 65.5q-8 -8.5 -8 -21.5
t8 -21t21 -8t21 8t8 21t-8 21.5t-21 8.5t-21 -8.5zM1199 23q8 8 8 21t-8 21.5t-21 8.5t-21 -8.5t-8 -21.5t8 -21t21 -8t21 8zM1109 8q8 8 8 21t-8 21.5t-21 8.5t-21 -8.5t-8 -21.5t8 -21t21 -8t21 8z" />
    <glyph glyph-name="tm_VowelOo" unicode="&#xbcb;" horiz-adv-x="1950" 
d="M575.5 287q37.5 -19 58.5 -53t21 -76q0 -50 -30.5 -90t-86 -63t-125.5 -23q-111 0 -195.5 45.5t-130 124.5t-45.5 177t45.5 176.5t130 124t195.5 45.5q70 0 125.5 -23t86 -63t30.5 -90q0 -42 -21 -76t-58.5 -53t-84.5 -19q-67 0 -110.5 42t-43.5 107q0 33 15 58
q-75 -13 -117.5 -74t-44.5 -155q2 -95 44.5 -156t117.5 -74q-15 26 -15 58q0 65 43.5 107t110.5 42q47 0 84.5 -19zM524 469.5q12 12.5 12 31.5t-12 32t-29 13q-20 0 -33 -12.5t-13 -31.5q0 -20 12 -32.5t31 -12.5q20 0 32 12.5zM461 187.5q-12 -12.5 -12 -32.5
q0 -19 13 -31.5t33 -12.5q17 0 29 13t12 32q0 20 -12 32t-32 12q-19 0 -31 -12.5zM1751 403v-403h-140v403h-169v-403h-141v513h603l16 -110h-169zM997 467q8 8 8 21t-8 21.5t-21 8.5t-21 -8.5t-8 -21.5t8 -21t21 -8t21 8zM866 494q-8 -8 -8 -21t8 -21t21 -8t21 8t8 21
t-8 21t-21 8t-21 -8zM1087 452q8 8 8 21t-8 21t-21 8t-21 -8t-8 -21t8 -21t21 -8t21 8zM789.5 443.5q-8.5 -8.5 -8.5 -21.5t8.5 -21t21.5 -8t21 8t8 21t-8 21.5t-21 8.5t-21.5 -8.5zM1163.5 401q8.5 8 8.5 21t-8.5 21.5t-21.5 8.5t-21 -8.5t-8 -21.5t8 -21t21 -8t21.5 8z
M741.5 364.5q-8.5 -8.5 -8.5 -21.5t8.5 -21t21.5 -8t21 8t8 21t-8 21.5t-21 8.5t-21.5 -8.5zM1211 322q8 8 8 21t-8 21.5t-21 8.5t-21 -8.5t-8 -21.5t8 -21t21 -8t21 8zM727.5 278.5q-8.5 -8.5 -8.5 -21.5t8.5 -20.5t21.5 -7.5t21 7.5t8 20.5t-8 21.5t-21 8.5t-21.5 -8.5z
M1225.5 236.5q8.5 7.5 8.5 20.5t-8.5 21.5t-21.5 8.5t-21 -8.5t-8 -21.5t8 -20.5t21 -7.5t21.5 7.5zM741.5 195q-8.5 -8 -8.5 -21t8.5 -21t21.5 -8t21 8t8 21t-8 21t-21 8t-21.5 -8zM1211 153q8 8 8 21t-8 21t-21 8t-21 -8t-8 -21t8 -21t21 -8t21 8zM788.5 115
q-8.5 -8 -8.5 -21t8.5 -21t21.5 -8t21 8t8 21t-8 21t-21 8t-21.5 -8zM1164.5 73q8.5 8 8.5 21t-8.5 21t-21.5 8t-21 -8t-8 -21t8 -21t21 -8t21.5 8zM866 65.5q-8 -8.5 -8 -21.5t8 -21t21 -8t21 8t8 21t-8 21.5t-21 8.5t-21 -8.5zM1087 23q8 8 8 21t-8 21.5t-21 8.5t-21 -8.5
t-8 -21.5t8 -21t21 -8t21 8zM997 8q8 8 8 21t-8 21.5t-21 8.5t-21 -8.5t-8 -21.5t8 -21t21 -8t21 8z" />
    <glyph glyph-name="tm_VowelAu" unicode="&#xbcc;" horiz-adv-x="2658" 
d="M608.5 633q80.5 -42 124.5 -119t44 -178v-336h-140v336q0 103 -57.5 162.5t-158.5 59.5q-68 0 -119.5 -30t-79.5 -84t-28 -122q0 -60 17 -109q17 48 61.5 77t104.5 29q53 0 95 -21.5t65.5 -59t23.5 -84.5q0 -50 -26 -89t-73 -61t-109 -22q-88 0 -158 44t-109.5 121.5
t-39.5 174.5q0 101 47 181.5t132 126t195 45.5q108 0 188.5 -42zM329.5 194.5q-16.5 -16.5 -16.5 -42.5t16.5 -42.5t42.5 -16.5q25 0 41.5 17t16.5 42t-16.5 42t-41.5 17q-26 0 -42.5 -16.5zM2648 403h-169v-403h-140v403h-190v-403h-140v223q0 55 -29.5 98.5t-81 68
t-114.5 24.5q-64 0 -111.5 -23t-72.5 -63t-25 -91q0 -33 10 -59q8 61 55 99.5t115 38.5q53 0 96 -21t67 -58t24 -83q0 -50 -26 -89t-73 -61t-109 -22q-88 0 -158 33t-109.5 91t-39.5 131q0 85 43.5 152t123.5 104.5t186 37.5q69 0 127 -21t102 -60v63h623zM1710.5 194.5
q-16.5 -16.5 -16.5 -42.5t16.5 -42.5t42.5 -16.5q25 0 41.5 17t16.5 42t-16.5 42t-41.5 17q-26 0 -42.5 -16.5zM1131 467q8 8 8 21t-8 21.5t-21 8.5t-21 -8.5t-8 -21.5t8 -21t21 -8t21 8zM1000 494q-8 -8 -8 -21t8 -21t21 -8t21 8t8 21t-8 21t-21 8t-21 -8zM1221 452
q8 8 8 21t-8 21t-21 8t-21 -8t-8 -21t8 -21t21 -8t21 8zM923.5 443.5q-8.5 -8.5 -8.5 -21.5t8.5 -21t21.5 -8t21 8t8 21t-8 21.5t-21 8.5t-21.5 -8.5zM1297.5 401q8.5 8 8.5 21t-8.5 21.5t-21.5 8.5t-21 -8.5t-8 -21.5t8 -21t21 -8t21.5 8zM875.5 364.5
q-8.5 -8.5 -8.5 -21.5t8.5 -21t21.5 -8t21 8t8 21t-8 21.5t-21 8.5t-21.5 -8.5zM1345 322q8 8 8 21t-8 21.5t-21 8.5t-21 -8.5t-8 -21.5t8 -21t21 -8t21 8zM861.5 278.5q-8.5 -8.5 -8.5 -21.5t8.5 -20.5t21.5 -7.5t21 7.5t8 20.5t-8 21.5t-21 8.5t-21.5 -8.5zM1359.5 236.5
q8.5 7.5 8.5 20.5t-8.5 21.5t-21.5 8.5t-21 -8.5t-8 -21.5t8 -20.5t21 -7.5t21.5 7.5zM875.5 195q-8.5 -8 -8.5 -21t8.5 -21t21.5 -8t21 8t8 21t-8 21t-21 8t-21.5 -8zM1345 153q8 8 8 21t-8 21t-21 8t-21 -8t-8 -21t8 -21t21 -8t21 8zM922.5 115q-8.5 -8 -8.5 -21t8.5 -21
t21.5 -8t21 8t8 21t-8 21t-21 8t-21.5 -8zM1298.5 73q8.5 8 8.5 21t-8.5 21t-21.5 8t-21 -8t-8 -21t8 -21t21 -8t21.5 8zM1000 65.5q-8 -8.5 -8 -21.5t8 -21t21 -8t21 8t8 21t-8 21.5t-21 8.5t-21 -8.5zM1221 23q8 8 8 21t-8 21.5t-21 8.5t-21 -8.5t-8 -21.5t8 -21t21 -8
t21 8zM1131 8q8 8 8 21t-8 21.5t-21 8.5t-21 -8.5t-8 -21.5t8 -21t21 -8t21 8z" />
    <glyph glyph-name="tm_Virama" unicode="&#xbcd;" horiz-adv-x="0" 
d="M60 640.5q23 23.5 23 58.5q0 36 -23 59t-60 23q-35 0 -58 -23t-23 -59q0 -35 23 -58.5t58 -23.5q37 0 60 23.5z" />
    <glyph glyph-name="tm_Om" unicode="&#xbd0;" horiz-adv-x="861" 
d="M613.5 73q25.5 -13 75.5 -13h92v-106h-92h-8q-4 -50 -35.5 -89.5t-85.5 -61.5t-123 -22q-72 0 -127.5 24.5t-86.5 68t-31 99.5v36h136v-31q0 -36 29 -57.5t79 -21.5q51 0 80.5 20.5t29.5 53.5v14q-85 49 -85 164v118h117q1 -23 15.5 -37t38.5 -14q22 0 36 18t14 46
q0 38 -34.5 69t-93.5 48t-131 17q-81 0 -147.5 -23.5t-99.5 -62.5q24 12 55 12q62 0 101.5 -35.5t39.5 -90.5q0 -59 -43 -98t-109 -39q-54 0 -95.5 23t-64.5 63.5t-23 92.5q0 79 50 142t138 98.5t198 35.5q113 0 206 -32.5t146.5 -90t53.5 -129.5q0 -51 -24 -91.5t-66.5 -63
t-96.5 -22.5q-31 0 -61 11q7 -30 32.5 -43zM186 248q-14 -13 -14 -33t14 -34t35 -14q20 0 34 14t14 34t-13.5 33t-33.5 13q-22 0 -36 -13zM448.5 36.5q-4.5 -4.5 -10.5 -4.5q-8 0 -12.5 4.5t-4.5 11.5q0 18 17 18q6 0 10.5 -5t4.5 -13q0 -7 -4.5 -11.5zM413 24v-56h13v23
q0 15 9 24.5t25 9.5q18 0 27.5 -11.5t9.5 -30.5q0 -18 -10.5 -29t-28.5 -11h-73v81h28zM454 -32h6q6 0 8.5 4.5t2.5 10.5q0 18 -9 18q-8 0 -8 -11v-22z" />
    <glyph glyph-name="tm_AuLengthMark" unicode="&#xbd7;" horiz-adv-x="1273" 
d="M1263 403h-169v-403h-140v403h-190v-403h-140v223q0 55 -29.5 98.5t-81 68t-114.5 24.5q-64 0 -111.5 -23t-72.5 -63t-25 -91q0 -33 10 -59q8 61 55 99.5t115 38.5q53 0 96 -21t67 -58t24 -83q0 -50 -26 -89t-73 -61t-109 -22q-88 0 -158 33t-109.5 91t-39.5 131
q0 85 43.5 152t123.5 104.5t186 37.5q69 0 127 -21t102 -60v63h623zM325.5 194.5q-16.5 -16.5 -16.5 -42.5t16.5 -42.5t42.5 -16.5q25 0 41.5 17t16.5 42t-16.5 42t-41.5 17q-26 0 -42.5 -16.5z" />
    <glyph glyph-name="tm_Zero" unicode="&#xbe6;" horiz-adv-x="717" 
d="M520 495.5q72 -35.5 113 -98t42 -140.5q0 -79 -41 -141.5t-113.5 -98t-162.5 -35.5t-162 35.5t-113 98t-41 141.5q0 78 41 140.5t113 98t162 35.5t162 -35.5zM444.5 119.5q38.5 20.5 60.5 56.5t22 81t-22 81t-60.5 56t-86.5 20t-86.5 -20t-60.5 -56t-22 -81t22 -81
t60.5 -56.5t86.5 -20.5t86.5 20.5z" />
    <glyph glyph-name="tm_One" unicode="&#xbe7;" horiz-adv-x="768" 
d="M647.5 294.5q47.5 -21.5 73 -59.5t25.5 -87q0 -48 -26.5 -85.5t-75.5 -59t-116 -21.5v111q36 0 54 14.5t18 40.5q0 27 -15.5 42t-48.5 15h-20q0 -67 -34.5 -118t-94.5 -78t-135 -27q-105 0 -162.5 47.5t-57.5 123.5q0 50 27.5 88.5t80.5 57.5v214h544l16 -110h-184v-87
h19q65 0 112.5 -21.5zM379 403h-101v-87h101v87zM343 127q36 28 36 78h-125q-35 0 -54.5 -14.5t-19.5 -37.5q0 -24 20 -39t56 -15q51 0 87 28z" />
    <glyph glyph-name="tm_Two" unicode="&#xbe8;" horiz-adv-x="782" 
d="M772 110v-110h-703v110h220q81 0 127.5 44t46.5 114q0 64 -40 105t-109 41q-32 0 -64 -8q45 -11 71.5 -44.5t26.5 -81.5q0 -39 -21 -70.5t-57.5 -49t-81.5 -17.5q-73 0 -119.5 42t-46.5 107q0 69 38.5 123.5t105 85t147.5 30.5q87 0 155 -34t105.5 -94t37.5 -135
q0 -92 -57 -158h218zM225.5 246.5q14.5 14.5 14.5 36.5q0 23 -14.5 37.5t-37.5 14.5q-22 0 -37 -14.5t-15 -37.5q0 -22 15 -36.5t38 -14.5q22 0 36.5 14.5z" />
    <glyph glyph-name="tm_Three" unicode="&#xbe9;" horiz-adv-x="857" 
d="M847 110v-110h-504v110h160q51 0 76.5 20.5t25.5 54.5q0 27 -15.5 44.5t-41.5 17.5q-28 0 -46.5 -17.5t-18.5 -42.5v-23h-140v239h-120v-403h-141v513h554l16 -111h-169v-54q39 17 87 17q53 0 94.5 -23t65 -63.5t23.5 -92.5q0 -42 -20 -76h114z" />
    <glyph glyph-name="tm_Four" unicode="&#xbea;" horiz-adv-x="936" 
d="M904 513v-308h-388q0 -67 -34.5 -118t-94.5 -78t-135 -27q-105 0 -162.5 47.5t-57.5 123.5q0 50 27.5 88.5t80.5 57.5v214h544l16 -110h-184v-87h254v197h134zM379 403h-101v-87h101v87zM343 127q36 28 36 78h-125q-35 0 -54.5 -14.5t-19.5 -37.5q0 -24 20 -39t56 -15
q51 0 87 28z" />
    <glyph glyph-name="tm_Five" unicode="&#xbeb;" horiz-adv-x="1413" 
d="M1190 0v276q0 121 -57.5 214.5t-168.5 146t-266 52.5q-157 0 -267 -58.5t-166 -160.5t-56 -232q0 -111 43.5 -204t136 -149.5t231.5 -56.5q114 0 193.5 34t120 94t40.5 139q0 57 -21.5 92t-57.5 35q-32 0 -53 -19.5t-21 -49.5v-153h-140v403h-144v-403h-140v513h577
l16 -110h-169v-86q43 24 96 24q63 0 109.5 -30.5t71 -86t24.5 -126.5q0 -113 -60.5 -201.5t-174 -138t-266.5 -49.5q-177 0 -303.5 72.5t-191 193.5t-64.5 265q0 164 74.5 292.5t218 202t342.5 73.5q195 0 338 -67.5t219 -188t76 -274.5v-278h-140z" />
    <glyph glyph-name="tm_Six" unicode="&#xbec;" horiz-adv-x="1127" 
d="M1117 110v-110h-307v110q34 0 51.5 16t17.5 42q0 25 -17 41.5t-46 16.5q-40 0 -63.5 -24.5t-23.5 -62.5v-139h-137v148q0 26 -17 41.5t-50 15.5h-9q0 -67 -34.5 -118t-94.5 -78t-135 -27q-105 0 -162.5 47.5t-57.5 123.5q0 50 27.5 88.5t80.5 57.5v214h544l16 -110h-184
v-87h1q87 0 145 -40q28 32 70.5 49.5t94.5 17.5q60 0 105.5 -21t70.5 -59t25 -86q0 -38 -16 -67h105zM379 403h-101v-87h101v87zM343 127q36 28 36 78h-125q-35 0 -54.5 -14.5t-19.5 -37.5q0 -24 20 -39t56 -15q51 0 87 28z" />
    <glyph glyph-name="tm_Seven" unicode="&#xbed;" horiz-adv-x="839" 
d="M756 0h-140v403h-214q-107 0 -159.5 -45t-52.5 -121q0 -33 10 -59q8 61 55 99.5t115 38.5q53 0 96 -21t67 -58t24 -83q0 -50 -26 -89t-73 -61t-109 -22q-88 0 -158 33t-109.5 91t-39.5 131q0 81 41.5 143.5t121.5 97.5t192 35h359v-513zM325.5 194.5
q-16.5 -16.5 -16.5 -42.5t16.5 -42.5t42.5 -16.5q25 0 41.5 17t16.5 42t-16.5 42t-41.5 17q-26 0 -42.5 -16.5z" />
    <glyph glyph-name="tm_Eight" unicode="&#xbee;" horiz-adv-x="1112" 
d="M1029 513v-639h-140v172h-191q-51 -89 -151.5 -139.5t-237.5 -50.5q-85 0 -150.5 22t-101 61.5t-35.5 88.5q0 58 41.5 93t122.5 35h34q-47 58 -47 135q0 69 35 123.5t96.5 85.5t139.5 31q86 0 155 -39.5t108 -110t39 -157.5q0 -37 -7 -68h150v357h140zM598 224
q0 87 -42 138.5t-112 51.5q-54 0 -89 -35.5t-35 -89.5q0 -59 33 -96t84 -37h154q7 29 7 68zM530 46h-337q-31 0 -31 -22q0 -21 39 -36t108 -15q146 0 221 73z" />
    <glyph glyph-name="tm_Nine" unicode="&#xbef;" horiz-adv-x="1098" 
d="M966.5 312.5q51.5 -25.5 80 -70.5t28.5 -102q0 -39 -9 -71.5t-29 -74.5l-136 6q16 32 25.5 71.5t9.5 68.5q0 43 -23 69t-66 26h-15q41 -52 41 -113t-43.5 -100.5t-110.5 -39.5t-111 39.5t-44 100.5q0 43 21 83h-69q0 -67 -34.5 -118t-94.5 -78t-135 -27
q-105 0 -162.5 47.5t-57.5 123.5q0 50 27.5 88.5t80.5 57.5v214h544l16 -110h-184v-87h146q22 0 47 -5q67 27 139 27q67 0 118.5 -25.5zM379 403h-101v-87h101v87zM343 127q36 28 36 78h-125q-35 0 -54.5 -14.5t-19.5 -37.5q0 -24 20 -39t56 -15q51 0 87 28zM715 193
q-32 -29 -32 -71q0 -18 10 -29.5t26 -11.5q15 0 25 11.5t10 29.5q0 48 -39 71z" />
    <glyph glyph-name="tm_Ten" unicode="&#xbf0;" horiz-adv-x="903" 
d="M839 381.5q22 -75.5 22 -134.5q0 -120 -63 -192.5t-182 -72.5q-101 0 -165 59q-30 -28 -72 -43.5t-92 -15.5q-119 0 -182 72.5t-63 192.5q0 59 22 134.5t63 145.5l145 -14q-38 -58 -60 -133.5t-22 -132.5q0 -68 24 -108t73 -40q46 0 70 31.5t24 87.5v141h141v-141
q0 -56 23.5 -87.5t69.5 -31.5q49 0 73 40t24 108q0 58 -22 133.5t-60 132.5l146 14q41 -70 63 -145.5z" />
    <glyph glyph-name="tm_Hundred" unicode="&#xbf1;" horiz-adv-x="1073" 
d="M893 403v-403h-140v403h-190v-403h-140v260q0 70 -29.5 112t-87.5 42q-93 0 -93 -126v-288h-141v295q0 108 58.5 172t166.5 64q70 0 126 -46v28h623l17 -110h-170z" />
    <glyph glyph-name="tm_Thousand" unicode="&#xbf2;" horiz-adv-x="1146" 
d="M1022.5 127q47.5 -25 74.5 -69.5t27 -99.5q0 -60 -29 -107.5t-82.5 -74t-125.5 -26.5h-156q-106 0 -130 -35l-79 67q18 34 64 51.5t132 17.5h169q50 0 78 29.5t28 77.5q0 39 -21.5 64t-59.5 25h-1q-4 -51 -34.5 -87.5t-77.5 -55.5t-102 -19q-87 0 -134.5 39.5t-47.5 99.5
q0 57 45.5 92.5t127.5 35.5h94v53h-266q0 -67 -34.5 -118t-94.5 -78t-135 -27q-105 0 -162.5 47.5t-57.5 123.5q0 50 27.5 88.5t80.5 57.5v214h544l16 -110h-184v-87h560l16 -111h-180v-53h3q60 0 107.5 -25zM379 403h-101v-87h101v87zM343 127q36 28 36 78h-125
q-39 0 -60.5 -14.5t-21.5 -37.5t22 -38.5t62 -15.5q51 0 87 28zM752 5q22 14 28 42h-89q-22 0 -33.5 -7t-11.5 -19t14.5 -21t39.5 -9q30 0 52 14z" />
    <glyph glyph-name="tm_Naal" unicode="&#xbf3;" horiz-adv-x="909" 
d="M899 110v-110h-303v110q37 70 37 140q0 73 -57.5 118.5t-160.5 45.5q-66 0 -117.5 -23t-79.5 -63.5t-28 -90.5q0 -33 10 -59q8 61 55 99.5t115 38.5q53 0 96 -21t67 -58t24 -83q0 -50 -26 -89t-73 -61t-109 -22q-88 0 -158 33t-109.5 91t-39.5 131q0 85 47.5 152
t132 104.5t192.5 37.5q106 0 189.5 -36t130.5 -100t47 -145q0 -75 -35 -140h153zM325.5 194.5q-16.5 -16.5 -16.5 -42.5t16.5 -42.5t42.5 -16.5q25 0 41.5 17t16.5 42t-16.5 42t-41.5 17q-26 0 -42.5 -16.5z" />
    <glyph glyph-name="tm_Maatham" unicode="&#xbf4;" horiz-adv-x="1345" 
d="M1345 659v-110h-296v110q23 0 35.5 14.5t12.5 36.5q0 32 -26 53t-74 21q-13 0 -19 -1q36 -49 36 -107q0 -61 -43.5 -101t-110.5 -40t-111 40t-44 101q0 51 35 97q-59 -4 -92 -40.5t-33 -92.5q0 -38 15.5 -67.5t43.5 -45.5q97 -16 154.5 -94t57.5 -191q0 -109 -65 -175.5
t-187 -66.5h-552v513l141 5v-408h173v182q0 75 30 131.5t88 83.5q-42 58 -42 133q0 72 35 128t99.5 87.5t148.5 31.5q61 0 116 -22q63 22 131 22q69 0 121.5 -23t81 -63.5t28.5 -90.5q0 -30 -10 -51h122zM859 746q-35 -27 -35 -70q0 -18 10 -29t26 -11q15 0 25 11t10 29
q0 44 -36 70zM715 144q23 34 23 98q0 77 -29 124.5t-82 47.5q-49 0 -70 -34.5t-21 -95.5v-174h98q58 0 81 34z" />
    <glyph glyph-name="tm_Varudam" unicode="&#xbf5;" horiz-adv-x="1908" 
d="M1770.5 310.5q46.5 -30.5 71 -86t24.5 -126.5q0 -117 -71 -206t-201.5 -138.5t-302.5 -49.5h-631q-178 0 -313.5 59t-210 166t-74.5 246q0 93 40.5 189t105.5 159l144 -10q-63 -57 -103 -150t-40 -190q0 -105 54 -186.5t156 -126.5t240 -45h631q132 0 229 35.5t148 99
t51 145.5q0 57 -21.5 92t-58.5 35q-32 0 -53 -19.5t-21 -49.5v-153h-140v403h-134v-403h-424v110q38 69 38 140q0 73 -57.5 118.5t-160.5 45.5q-66 0 -117 -23t-79 -63.5t-28 -90.5q0 -33 10 -57q8 60 54.5 98t114.5 38q53 0 95.5 -21t66.5 -58t24 -83q0 -50 -26 -89
t-73 -61t-108 -22q-87 0 -157.5 33t-110 91t-39.5 131q0 85 47.5 152t132 104.5t192.5 37.5q106 0 189.5 -36t130.5 -100t47 -145q0 -75 -35 -140h132v403h568l17 -110h-170v-86q45 24 97 24q63 0 109.5 -30.5zM596.5 194.5q-16.5 -16.5 -16.5 -42.5t16.5 -42.5t42.5 -16.5
t42.5 17t16.5 42q0 26 -16.5 42.5t-42.5 16.5t-42.5 -16.5z" />
    <glyph glyph-name="tm_Patru" unicode="&#xbf6;" horiz-adv-x="1079" 
d="M997 -168h-328q-32 -89 -124.5 -140t-225.5 -51q-70 0 -124 20t-83.5 56t-29.5 83q0 65 46 104t134 39h282v57h-462v513l141 5v-408h321v403h140v-570h172v570h141v-681zM440.5 -222q50.5 19 76.5 54h-243q-44 0 -44 -32q0 -20 23.5 -30.5t64.5 -10.5q72 0 122.5 19z" />
    <glyph glyph-name="tm_Varavu" unicode="&#xbf7;" horiz-adv-x="1479" 
d="M1469 110v-110h-296v110q23 0 36 14.5t13 36.5q0 32 -25.5 53t-75.5 21q-17 0 -26 -1q43 -49 43 -112q0 -61 -43.5 -100.5t-110.5 -39.5q-68 0 -111.5 39t-43.5 101q0 46 21 83h-94v-205h-140v403h-214q-107 0 -159.5 -45t-52.5 -121q0 -33 10 -59q8 61 55 99.5t115 38.5
q53 0 96 -21t67 -58t24 -83q0 -50 -26 -89t-73 -61t-109 -22q-88 0 -158 33t-109.5 91t-39.5 131q0 81 41.5 143.5t121.5 97.5t192 35h511l17 -111h-169v-86h142q36 0 71 -8q73 30 157 30q71 0 123 -23t80 -63.5t28 -90.5q0 -27 -9 -51h121zM325.5 194.5
q-16.5 -16.5 -16.5 -42.5t16.5 -42.5t42.5 -16.5q25 0 41.5 17t16.5 42t-16.5 42t-41.5 17q-26 0 -42.5 -16.5zM979 191q-31 -28 -31 -69q0 -17 10 -28t26 -11q15 0 25.5 11t10.5 28q0 48 -41 69z" />
    <glyph glyph-name="tm_Merpadi" unicode="&#xbf8;" horiz-adv-x="2030" 
d="M1948 0h-254v-243h-141v243h-470v108q15 41 22.5 83t7.5 75q0 68 -33 108t-103 40q-48 0 -97 -18q52 -46 80.5 -101.5t28.5 -115.5q0 -58 -25.5 -102.5t-71.5 -69.5t-105 -25q-60 0 -106.5 25t-72 69.5t-25.5 102.5q0 56 19.5 108t54.5 97q-85 30 -179 30
q-89 0 -154.5 -23.5t-99.5 -65.5t-34 -95q0 -32 10 -56q6 63 53.5 102.5t116.5 39.5q53 0 96 -21t67 -58t24 -83q0 -50 -26 -89t-73 -61t-109 -22q-88 0 -158 32.5t-109.5 89t-39.5 126.5q0 87 53 155t152 107t231 39q76 0 148 -15.5t134 -43.5q99 59 216 59q92 0 156 -33.5
t96.5 -93.5t32.5 -138q0 -71 -29 -158h321v66h-17q-72 0 -126 23.5t-83 65.5t-29 95q0 50 26 89.5t72.5 61.5t103.5 22t101 -21.5t68.5 -60.5t24.5 -89v-37q69 28 113 80h141v-403zM1553 292v63q0 26 -13.5 42.5t-38.5 16.5t-40 -16t-15 -42q0 -31 23 -47.5t66 -16.5h18z
M829 117.5q16 22.5 16 57.5q0 39 -18.5 75.5t-51.5 66.5q-49 -63 -49 -142q0 -35 16.5 -57.5t43.5 -22.5t43 22.5zM1807 108v148q-51 -36 -113 -57v-91h113zM325.5 194.5q-16.5 -16.5 -16.5 -42.5t16.5 -42.5t42.5 -16.5q25 0 41.5 17t16.5 42t-16.5 42t-41.5 17
q-26 0 -42.5 -16.5z" />
    <glyph glyph-name="tm_Rupee" unicode="&#xbf9;" horiz-adv-x="1204" 
d="M1066.5 310.5q46.5 -30.5 71 -86t24.5 -126.5q0 -116 -64 -204t-179.5 -136.5t-265.5 -48.5q-183 0 -316 71t-204 201.5t-71 304.5q0 166 79 301.5t220 213t320 77.5q127 0 219.5 -27.5t140 -74.5t47.5 -105q0 -59 -37.5 -95.5t-102.5 -36.5q-62 0 -101.5 38t-39.5 97
q0 43 22 74q-55 11 -134 11q-150 0 -260 -62t-168 -170t-58 -243q0 -140 52 -242.5t151.5 -158t239.5 -55.5q111 0 193 32.5t125.5 92.5t43.5 142q0 57 -21.5 92t-57.5 35q-32 0 -53 -19.5t-21 -49.5v-153h-140v403h-154v-403h-140v513h587l16 -110h-169v-86q42 24 96 24
q63 0 109.5 -30.5zM981 639.5q13 12.5 13 31.5q0 20 -13 32.5t-33 12.5q-19 0 -32 -12.5t-13 -32.5q0 -19 13 -31.5t32 -12.5q20 0 33 12.5z" />
    <glyph glyph-name="tm_Enn" unicode="&#xbfa;" horiz-adv-x="1114" 
d="M1114 659v-110h-296v110q23 0 35.5 14.5t12.5 36.5q0 32 -26.5 53t-74.5 21h-18q36 -50 36 -108q0 -61 -43.5 -101t-110.5 -40t-111 40t-44 101q0 50 34 97q-58 -4 -91 -40.5t-33 -92.5q0 -57 32.5 -92t88.5 -35h135l17 -111h-169v-84q40 23 93 23q62 0 108 -32t70 -88
t24 -128q0 -83 -32 -147.5t-92.5 -101.5t-144.5 -37h-166q-137 0 -170 -50l-96 73q23 45 81.5 66.5t170.5 21.5h180q62 0 92 47t30 125q0 59 -21 95.5t-57 36.5q-31 0 -50.5 -19.5t-19.5 -49.5v-153h-140v403h-125v-403h-141v513h196q-38 55 -38 127t35.5 128t100 87.5
t148.5 31.5q61 0 116 -22q61 22 130 22t121.5 -23t81.5 -63.5t29 -90.5q0 -30 -10 -51h122zM628 746q-35 -27 -35 -70q0 -18 10 -29t26 -11q15 0 25 11t10 29q0 44 -36 70z" />
    <glyph glyph-name="uni200C" unicode="&#x200c;" horiz-adv-x="0" 
d="M-30 -68h60v1305h-60v-1305z" />
    <glyph glyph-name="uni200D" unicode="&#x200d;" horiz-adv-x="0" 
d="M0 1246l-73 74l-40 -40l74 -74l-74 -74l39 -39l44 43v-1204h60v1205l45 -44l39 39l-74 74l74 74l-40 40z" />
    <glyph glyph-name="endash" unicode="&#x2013;" horiz-adv-x="449" 
d="M409 335h-379l11 -123h378z" />
    <glyph glyph-name="emdash" unicode="&#x2014;" horiz-adv-x="561" 
d="M522 335h-492l11 -123h490z" />
    <glyph glyph-name="quoteleft" unicode="&#x2018;" horiz-adv-x="227" 
d="M166.5 468q24.5 26 24.5 57q0 25 -15 47t-33 28q5 20 19.5 36.5t39.5 35.5l-32 70q-62 -28 -103.5 -85.5t-41.5 -115.5q0 -43 24.5 -71t59.5 -28q33 0 57.5 26z" />
    <glyph glyph-name="quoteright" unicode="&#x2019;" horiz-adv-x="227" 
d="M54.5 716q-24.5 -26 -24.5 -57q0 -25 15.5 -47t33.5 -28q-8 -34 -59 -71l32 -71q62 29 103.5 86.5t41.5 115.5q0 43 -24.5 70.5t-59.5 27.5q-34 0 -58.5 -26z" />
    <glyph glyph-name="quotesinglbase" unicode="&#x201a;" horiz-adv-x="227" 
d="M54.5 121q-24.5 -26 -24.5 -58q0 -24 15.5 -46.5t33.5 -28.5q-5 -20 -20 -36t-39 -35l32 -71q61 28 103 86.5t42 115.5q0 43 -24.5 71t-59.5 28q-34 0 -58.5 -26z" />
    <glyph glyph-name="quotedblleft" unicode="&#x201c;" horiz-adv-x="425" 
d="M171.5 468q24.5 26 24.5 57q0 25 -15 47.5t-34 27.5q5 20 20 37t40 35l-32 70q-62 -28 -103.5 -85.5t-41.5 -115.5q0 -43 24.5 -71t59.5 -28q33 0 57.5 26zM370 468q25 26 25 57q0 25 -16 47t-34 28q5 20 20 37t40 35l-33 70q-61 -28 -102.5 -85.5t-41.5 -115.5
q0 -43 24 -71t59 -28q34 0 59 26z" />
    <glyph glyph-name="quotedblright" unicode="&#x201d;" horiz-adv-x="424" 
d="M54.5 716q-24.5 -26 -24.5 -57q0 -25 15.5 -47t33.5 -28q-8 -34 -59 -71l32 -71q62 29 103.5 86.5t41.5 115.5q0 43 -24.5 70.5t-59.5 27.5q-34 0 -58.5 -26zM252.5 716q-24.5 -26 -24.5 -57q0 -25 15 -47t34 -28q-5 -20 -20.5 -37t-39.5 -34l33 -71q61 28 102.5 86
t41.5 116q0 43 -24 70.5t-59 27.5q-34 0 -58.5 -26z" />
    <glyph glyph-name="quotedblbase" unicode="&#x201e;" horiz-adv-x="424" 
d="M54.5 121q-24.5 -26 -24.5 -58q0 -24 15.5 -46.5t33.5 -28.5q-5 -20 -20 -36t-39 -35l32 -71q61 28 103 86.5t42 115.5q0 43 -24.5 71t-59.5 28q-34 0 -58.5 -26zM252.5 121q-24.5 -26 -24.5 -58q0 -25 15 -47t34 -28q-5 -19 -20 -35.5t-40 -35.5l33 -71
q61 28 102.5 86.5t41.5 115.5q0 43 -24 71t-59 28q-34 0 -58.5 -26z" />
    <glyph glyph-name="dagger" unicode="&#x2020;" horiz-adv-x="477" 
d="M160 781v-156h-130l19 -132h111l5 -493l144 -2l6 495h132l-18 132h-109v155z" />
    <glyph glyph-name="daggerdbl" unicode="&#x2021;" horiz-adv-x="490" 
d="M330 1l-5 153h135l-18 133h-114v206h132l-18 132h-114l2 155l-170 1l3 -156h-133l19 -132h114l-1 -206h-132l19 -133h114l-5 -160z" />
    <glyph glyph-name="bullet" unicode="&#x2022;" horiz-adv-x="293" 
d="M228.5 249q34.5 34 34.5 82q0 47 -34.5 81.5t-82.5 34.5t-82 -34.5t-34 -81.5q0 -49 34 -82.5t82 -33.5t82.5 34z" />
    <glyph glyph-name="ellipsis" unicode="&#x2026;" horiz-adv-x="580" 
d="M159.5 21.5q21.5 21.5 21.5 53.5t-21.5 53.5t-53.5 21.5t-54 -22t-22 -53q0 -32 22 -53.5t54 -21.5t53.5 21.5zM344.5 21.5q21.5 21.5 21.5 53.5t-21.5 53.5t-53.5 21.5t-53.5 -21.5t-21.5 -53.5t21.5 -53.5t53.5 -21.5t53.5 21.5zM528.5 21.5q21.5 21.5 21.5 53.5
t-21.5 53.5t-53.5 21.5q-31 0 -53 -22t-22 -53q0 -32 22 -53.5t53 -21.5q32 0 53.5 21.5z" />
    <glyph glyph-name="perthousand" unicode="&#x2030;" horiz-adv-x="1342" 
d="M545 708l-298 -708l160 -2l298 708zM107.5 680.5q-39.5 -21.5 -62.5 -61.5t-23 -93q0 -81 48 -128.5t123 -47.5q50 0 90 21.5t63.5 61t23.5 92.5q0 80 -49 128.5t-125 48.5q-49 0 -88.5 -21.5zM233.5 575q12.5 -18 12.5 -51q0 -32 -14 -49.5t-37 -17.5q-24 0 -36.5 17.5
t-12.5 51.5q0 32 14.5 49.5t36.5 17.5q24 0 36.5 -18zM634 304.5q-49 -47.5 -49 -128.5q0 -80 47.5 -127.5t122.5 -47.5q50 0 90 21.5t63 61t23 92.5q0 81 -48.5 128.5t-124.5 47.5q-75 0 -124 -47.5zM1057.5 330.5q-39.5 -21.5 -62.5 -61t-23 -93.5q0 -80 48 -127.5
t123 -47.5q49 0 89 21.5t63.5 61t23.5 92.5q0 81 -48.5 128.5t-124.5 47.5q-49 0 -88.5 -21.5zM795 225q13 -18 13 -50t-14 -50t-37 -18t-36 18t-13 52q0 32 14.5 49t36.5 17q23 0 36 -18zM1183 225q13 -18 13 -50t-14 -50t-37 -18q-24 0 -37 18t-13 52q0 32 15 49t37 17
q23 0 36 -18z" />
    <glyph glyph-name="guilsinglleft" unicode="&#x2039;" horiz-adv-x="252" 
d="M30 220l174 -150l28 114l-74 65l74 63l-28 115l-174 -150v-57z" />
    <glyph glyph-name="guilsinglright" unicode="&#x203a;" horiz-adv-x="251" 
d="M221 277l-173 150l-28 -114l72 -64l-72 -64l28 -115l173 150v57z" />
    <glyph glyph-name="fraction" unicode="&#x2044;" horiz-adv-x="480" 
d="M308 708l-298 -708l161 -2l299 708z" />
    <glyph glyph-name="Euro" unicode="&#x20ac;" horiz-adv-x="639" 
d="M627 34q-38 -22 -93.5 -34.5t-103.5 -12.5q-121 0 -203 57.5t-115 157.5h-100l-12 106h92q-1 10 -1 29q0 23 1 34h-80l-12 107h115q36 99 119.5 157t195.5 58q44 0 97 -13t93 -37l-47 -108q-54 17 -80.5 23t-63.5 6q-42 0 -79 -22.5t-62 -63.5h189l10 -107h-232
q-2 -22 -2 -33q0 -20 1 -30h223l10 -106h-200q24 -41 61 -63.5t81 -22.5q71 0 139 34z" />
    <glyph glyph-name="Turkishlira" unicode="&#x20ba;" horiz-adv-x="586" 
d="M239 0q99 0 173 41.5t114 118t40 178.5h-161q0 -62 -21.5 -107.5t-59.5 -69.5t-85 -25v207l155 55l-28 106l-127 -44v37l155 54l-28 106l-127 -44v94l-157 -14v-136l-82 -29l14 -111l68 24v-37l-82 -29l14 -110l68 23v-288h157z" />
    <glyph glyph-name="Ruble" unicode="&#x20bd;" horiz-adv-x="630" 
d="M238 222v-39h243l10 -113h-253v-70h-156v70h-59l-11 113h70v45h-59l-11 112h70v340h251q120 0 197 -58t77 -172q0 -76 -39 -127.5t-103.5 -76t-140.5 -24.5h-86zM238 348h92q51 0 82 25.5t32 72.5q0 54 -30.5 81t-85.5 27h-90v-206z" />
    <glyph glyph-name="litre" unicode="&#x2113;" horiz-adv-x="465" 
d="M93 178v-17q0 -85 53.5 -128.5t147.5 -43.5q33 0 69.5 13.5t60.5 34.5l-49 104q-29 -22 -68 -22q-57 0 -57 63v92q83 63 134 134.5t51 140.5q0 70 -46.5 111.5t-118.5 41.5q-47 0 -87.5 -20t-65 -57t-24.5 -85v-206q-23 -14 -83 -42l37 -134q10 4 46 20zM247 437v97
q0 18 5.5 29t16.5 11q10 0 16 -8.5t6 -22.5q0 -52 -44 -106z" />
    <glyph glyph-name="trademark" unicode="&#x2122;" horiz-adv-x="785" 
d="M342 680h-332v-88h112v-295h108v295h124zM595 414l48 54v-171h109v383h-66l-112 -145l-122 145h-69v-383h109v180l63 -69z" />
    <glyph glyph-name="Ohm" unicode="&#x2126;" horiz-adv-x="717" 
d="M495.5 206.5q-24.5 -61.5 -70.5 -82.5v-124h248l11 124h-74q34 43 53 101.5t19 116.5q0 104 -39 184t-112.5 124.5t-172.5 44.5t-172 -44.5t-112 -124.5t-39 -184q0 -59 19 -117.5t53 -100.5h-75l11 -124h248v124q-46 21 -70.5 82.5t-24.5 134.5q0 103 44 163t118 60
t118 -60t44 -163q0 -73 -24.5 -134.5z" />
    <glyph glyph-name="estimated" unicode="&#x212e;" horiz-adv-x="524" 
d="M502 247q0 71 -25.5 128t-76.5 91t-125 34t-131.5 -31.5t-89.5 -90t-32 -136.5q0 -119 76.5 -186t209.5 -67q59 0 108.5 15t83.5 40l-44 109q-68 -38 -137 -38q-106 0 -128 85h311v47zM215.5 348.5q22.5 22.5 55.5 22.5q35 0 55.5 -22.5t26.5 -59.5h-164q4 37 26.5 59.5z
" />
    <glyph glyph-name="partialdiff" unicode="&#x2202;" horiz-adv-x="579" 
d="M341.5 642q101.5 -76 158.5 -177t57 -203q0 -84 -33 -145.5t-93 -94.5t-138 -33q-79 0 -140.5 29.5t-96 87t-34.5 138.5q0 77 33.5 135.5t91.5 89.5t128 31q14 0 21 -1q-89 98 -238 147l56 104q126 -32 227.5 -108zM366 152q29 34 29 90q0 57 -15 108q-41 20 -89 20
q-49 0 -78 -34.5t-29 -91.5t28.5 -91.5t76.5 -34.5t77 34z" />
    <glyph glyph-name="Delta" unicode="&#x2206;" horiz-adv-x="679" 
d="M285 680l-275 -680h659v18l-274 662h-110zM470 124h-263l130 330z" />
    <glyph glyph-name="product" unicode="&#x220f;" horiz-adv-x="716" 
d="M82 0h156v558h239v-558h157v680h-552v-680z" />
    <glyph glyph-name="summation" unicode="&#x2211;" horiz-adv-x="498" 
d="M421 680h-389v-116l157 -220l-159 -228v-116h448l-19 122h-255l132 198v51l-129 186h233z" />
    <glyph glyph-name="minus" unicode="&#x2212;" horiz-adv-x="488" 
d="M447 335h-417l10 -123h418z" />
    <glyph glyph-name="divisionslash" unicode="&#x2215;" horiz-adv-x="480" 
d="M308 708l-298 -708l161 -2l299 708z" />
    <glyph glyph-name="bulletmath" unicode="&#x2219;" horiz-adv-x="293" 
d="M228.5 249q34.5 34 34.5 82q0 47 -34.5 81.5t-82.5 34.5t-82 -34.5t-34 -81.5q0 -49 34 -82.5t82 -33.5t82.5 34z" />
    <glyph glyph-name="radical" unicode="&#x221a;" horiz-adv-x="696" 
d="M527 708l-239 -569l-107 197l-171 -2l180 -334l198 -2l298 708z" />
    <glyph glyph-name="infinity" unicode="&#x221e;" horiz-adv-x="850" 
d="M136.5 450.5q-53.5 -30.5 -84 -84.5t-30.5 -123q0 -66 30.5 -117.5t84.5 -80t122 -28.5q47 0 91 23t69 57q32 -36 77.5 -57.5t96.5 -21.5q67 0 120.5 31t84 85t30.5 121t-29.5 118.5t-83 80t-124.5 28.5q-46 0 -90.5 -23t-69.5 -57q-33 36 -77.5 57.5t-96.5 21.5
q-67 0 -120.5 -30.5zM524.5 308.5q28.5 36.5 63.5 36.5q40 0 66.5 -26t26.5 -62q0 -42 -26.5 -72t-66.5 -30q-31 1 -59 17.5t-46 43.5q13 56 41.5 92.5zM325.5 190q-28.5 -36 -63.5 -36q-40 0 -66.5 26t-26.5 61q0 42 26.5 72t66.5 30q30 0 58 -16.5t47 -43.5
q-13 -57 -41.5 -93z" />
    <glyph glyph-name="integral" unicode="&#x222b;" horiz-adv-x="492" 
d="M339.5 633q15.5 20 47.5 20q30 0 60 -15l45 108q-17 15 -51 26t-63 11q-94 0 -152.5 -49t-58.5 -137v-570q0 -36 -15.5 -56t-47.5 -20q-24 0 -60 16l-44 -109q17 -15 50.5 -26t62.5 -11q94 0 152.5 49.5t58.5 137.5v570q0 35 15.5 55z" />
    <glyph glyph-name="approxequal" unicode="&#x2248;" horiz-adv-x="548" 
d="M392.5 423q-11.5 -13 -26.5 -13q-36 -1 -94 18q-56 19 -93 19q-66 0 -107.5 -33.5t-41.5 -110.5l112 -21q1 19 17.5 33t32.5 14q46 0 98 -19q48 -18 90 -18q63 0 100.5 34t37.5 110l-113 20q-1 -20 -12.5 -33zM392.5 219.5q-11.5 -13.5 -26.5 -13.5q-37 0 -94 19
q-60 19 -93 19q-66 0 -107.5 -34.5t-41.5 -110.5l112 -20q1 19 17 32t33 13q48 0 98 -18q47 -19 90 -19q63 0 100.5 35t37.5 110l-113 21q-1 -20 -12.5 -33.5z" />
    <glyph glyph-name="notequal" unicode="&#x2260;" horiz-adv-x="545" 
d="M319 518l-45 -99h-244l11 -121h180l-41 -91h-150l11 -120h86l-43 -97l142 -2l46 99h243l-9 120h-180l40 91h149l-9 121h-87l44 98z" />
    <glyph glyph-name="lessequal" unicode="&#x2264;" horiz-adv-x="382" 
d="M359 260l-153 78l153 78l-27 124l-298 -162v-80l298 -162zM354 107h-324l9 -107h322z" />
    <glyph glyph-name="greaterequal" unicode="&#x2265;" horiz-adv-x="383" 
d="M349 377l-298 163l-27 -125l152 -78l-152 -78l27 -123l298 161v80zM343 107h-323l9 -107h322z" />
    <glyph glyph-name="lozenge" unicode="&#x25ca;" horiz-adv-x="597" 
d="M329 0l238 277v45l-237 278h-62l-238 -278v-45l239 -277h60zM298 444l123 -146l-123 -145l-122 145z" />
    <glyph glyph-name="uni25CC" unicode="&#x25cc;" horiz-adv-x="605" 
d="M323 467q8 8 8 21t-8 21.5t-21 8.5t-21 -8.5t-8 -21.5t8 -21t21 -8t21 8zM192 494q-8 -8 -8 -21t8 -21t21 -8t21 8t8 21t-8 21t-21 8t-21 -8zM413 452q8 8 8 21t-8 21t-21 8t-21 -8t-8 -21t8 -21t21 -8t21 8zM115.5 443.5q-8.5 -8.5 -8.5 -21.5t8.5 -21t21.5 -8t21 8
t8 21t-8 21.5t-21 8.5t-21.5 -8.5zM489.5 401q8.5 8 8.5 21t-8.5 21.5t-21.5 8.5t-21 -8.5t-8 -21.5t8 -21t21 -8t21.5 8zM67.5 364.5q-8.5 -8.5 -8.5 -21.5t8.5 -21t21.5 -8t21 8t8 21t-8 21.5t-21 8.5t-21.5 -8.5zM537 322q8 8 8 21t-8 21.5t-21 8.5t-21 -8.5t-8 -21.5
t8 -21t21 -8t21 8zM53.5 278.5q-8.5 -8.5 -8.5 -21.5t8.5 -20.5t21.5 -7.5t21 7.5t8 20.5t-8 21.5t-21 8.5t-21.5 -8.5zM551.5 236.5q8.5 7.5 8.5 20.5t-8.5 21.5t-21.5 8.5t-21 -8.5t-8 -21.5t8 -20.5t21 -7.5t21.5 7.5zM67.5 195q-8.5 -8 -8.5 -21t8.5 -21t21.5 -8t21 8
t8 21t-8 21t-21 8t-21.5 -8zM537 153q8 8 8 21t-8 21t-21 8t-21 -8t-8 -21t8 -21t21 -8t21 8zM114.5 115q-8.5 -8 -8.5 -21t8.5 -21t21.5 -8t21 8t8 21t-8 21t-21 8t-21.5 -8zM490.5 73q8.5 8 8.5 21t-8.5 21t-21.5 8t-21 -8t-8 -21t8 -21t21 -8t21.5 8zM192 65.5
q-8 -8.5 -8 -21.5t8 -21t21 -8t21 8t8 21t-8 21.5t-21 8.5t-21 -8.5zM413 23q8 8 8 21t-8 21.5t-21 8.5t-21 -8.5t-8 -21.5t8 -21t21 -8t21 8zM323 8q8 8 8 21t-8 21.5t-21 8.5t-21 -8.5t-8 -21.5t8 -21t21 -8t21 8z" />
    <glyph glyph-name="commaaccent" unicode="&#xf6c3;" horiz-adv-x="0" 
d="M-151.5 -47q-24.5 -26 -24.5 -57q0 -25 15 -47.5t34 -27.5q-5 -16 -20.5 -31t-31.5 -23l32 -70q58 25 97.5 76t39.5 107q0 44 -24 71.5t-59 27.5q-34 0 -58.5 -26z" />
    <glyph glyph-name="fi" unicode="&#xfb01;" horiz-adv-x="674" 
d="M89 352v-352h156v352h142l-29 122h-113v22q0 35 16 55.5t45 20.5q31 0 62 -16l45 109q-18 15 -52.5 26.5t-63.5 11.5q-91 0 -149.5 -50t-58.5 -138v-41h-78v-122h78zM604.5 577.5q25.5 25.5 25.5 60.5q0 36 -25.5 61.5t-61.5 25.5q-35 0 -60.5 -25.5t-25.5 -61.5
q0 -35 25.5 -60.5t60.5 -25.5q36 0 61.5 25.5zM622 0v485h-157v-485h157z" />
    <glyph glyph-name="fl" unicode="&#xfb02;" horiz-adv-x="694" 
d="M89 352v-352h156v352h142l-29 122h-113v22q0 35 16 55.5t45 20.5q31 0 62 -16l45 109q-18 15 -52.5 26.5t-63.5 11.5q-91 0 -149.5 -50t-58.5 -138v-41h-78v-122h78zM631 0v706l-156 -11v-695h156z" />
    <glyph glyph-name="grave.case" horiz-adv-x="236" 
d="M115 736l111 23l-59 159h-157z" />
    <glyph glyph-name="dieresis.case" horiz-adv-x="370" 
d="M137 774q21 21 21 53q0 30 -21 52t-52 22t-53 -22t-22 -52q0 -31 22 -52.5t53 -21.5t52 21zM338.5 774q21.5 21 21.5 53q0 30 -21.5 52t-53.5 22q-29 0 -51.5 -22t-22.5 -52q0 -31 22 -52.5t52 -21.5q32 0 53.5 21z" />
    <glyph glyph-name="macron.case" horiz-adv-x="296" 
d="M10 763h276l-10 123h-266v-123z" />
    <glyph glyph-name="acute.case" horiz-adv-x="236" 
d="M121 736l105 182h-157l-59 -159z" />
    <glyph glyph-name="circumflex.case" horiz-adv-x="436" 
d="M220 802l59 -63l147 18l-163 164h-90l-163 -164l151 -18z" />
    <glyph glyph-name="caron.case" horiz-adv-x="436" 
d="M220 857l-59 64l-151 -18l163 -164h90l163 164l-147 18z" />
    <glyph glyph-name="breve.case" horiz-adv-x="348" 
d="M214.5 870.5q-14.5 -18.5 -40.5 -18.5q-27 0 -41 18.5t-14 45.5h-109q0 -77 43.5 -126.5t120.5 -50.5q76 1 120 50.5t44 126.5h-109q0 -27 -14.5 -45.5z" />
    <glyph glyph-name="dotaccent.case" horiz-adv-x="184" 
d="M151 768q23 24 23 59t-23 59t-58 24q-34 0 -58.5 -24t-24.5 -59t24 -59t59 -24t58 24z" />
    <glyph glyph-name="ring.case" horiz-adv-x="250" 
d="M44 928q-34 -32 -34 -77q0 -46 33.5 -76.5t81.5 -30.5q47 0 81 30.5t34 76.5q0 45 -34.5 77t-80.5 32q-47 0 -81 -32zM101.5 826.5q-10.5 10.5 -10.5 24.5q0 13 10.5 23t24.5 10t24 -9.5t10 -23.5t-10 -24.5t-24 -10.5t-24.5 10.5z" />
    <glyph glyph-name="tilde.case" horiz-adv-x="369" 
d="M250.5 865.5q-7.5 -9.5 -17.5 -9.5q-15 0 -25.5 4t-24.5 12q-15 9 -27 13.5t-29 4.5q-49 0 -83 -33.5t-34 -106.5h106q0 10 8 20t17 10q16 0 26.5 -4t22.5 -13q14 -9 25 -13.5t29 -4.5q49 0 82 34t33 107h-101q0 -11 -7.5 -20.5z" />
    <glyph glyph-name="hungarumlaut.case" horiz-adv-x="460" 
d="M121 736l105 182h-157l-59 -159zM345 736l105 182h-157l-59 -159z" />
    <glyph glyph-name="tm_VowelAi.alt" horiz-adv-x="429" 
d="M591 239q0 -74 -28 -132.5t-79.5 -91.5t-118.5 -33q-61 0 -106.5 20.5t-69.5 56.5t-24 81q0 41 17 73t65 86l66 73q36 42 36 90q0 30 -23.5 49.5t-61.5 19.5q-23 0 -44 -6q30 -14 47.5 -41.5t17.5 -62.5q0 -50 -37.5 -83t-94.5 -33q-56 0 -93.5 37.5t-37.5 95.5
t30.5 104.5t85 73t123.5 26.5q67 0 119 -23t80.5 -64t28.5 -93q0 -71 -78 -159l-66 -74q-35 -41 -35 -74q0 -24 18 -39.5t46 -15.5q46 0 73.5 39t25.5 100h118zM173.5 404.5q6.5 6.5 6.5 15.5q0 11 -6.5 18.5t-17.5 7.5q-10 0 -17.5 -7t-7.5 -18q0 -10 7 -16.5t18 -6.5
t17.5 6.5z" />
    <glyph glyph-name="tm_VowelI.alt1" horiz-adv-x="305" 
d="M72.5 759.5q73.5 -37.5 112 -104t38.5 -152.5v-503h-141v503q0 83 -46 130t-139 47q-67 0 -105 -29t-38 -70q0 -59 38 -76l-104 -63q-35 24 -53.5 59.5t-19.5 79.5q0 58 34.5 107.5t99 79t148.5 29.5q102 0 175.5 -37.5z" />
    <glyph glyph-name="tm_VowelU.alt1" horiz-adv-x="0" 
d="M-82 -188l-141 -9v246l141 -1v-236z" />
    <glyph glyph-name="tm_VowelUu.alt1" horiz-adv-x="427" 
d="M248 403v-571h-141v571h-330v110h623l17 -110h-169z" />
    <glyph glyph-name="tm_VowelI.alt2" horiz-adv-x="305" 
d="M-6 759.5q108 -37.5 168.5 -104.5t60.5 -152v-503h-141v503q0 53 -42 93t-117.5 62t-174.5 22q-115 0 -174 -24.5t-59 -67.5q0 -27 8.5 -48t25.5 -30l-86 -72q-41 23 -63.5 62t-23.5 88q0 60 43.5 107.5t128 74.5t200.5 27q138 0 246 -37.5z" />
    <glyph glyph-name="tm_VowelU.alt2" horiz-adv-x="475" 
d="M351.5 491q47.5 -22 74.5 -61.5t27 -89.5q0 -48 -24 -86t-67 -59.5t-97 -21.5q-53 0 -95 21t-65.5 59t-23.5 85q0 35 15 65h-373v110h521q60 0 107.5 -22zM306 299q17 17 17 43q0 27 -17 44t-43 17t-43.5 -17t-17.5 -44q0 -26 17.5 -43t43.5 -17t43 17z" />
    <glyph glyph-name="tm_VowelUu.alt2" horiz-adv-x="726" 
d="M551 576q72 -36 112.5 -100.5t40.5 -144.5q0 -86 -45 -154t-128.5 -106t-193.5 -38h-69v110h69q68 0 117.5 24t75.5 66.5t26 97.5q0 75 -46 122.5t-121 47.5q-18 0 -48 -4q51 -21 81.5 -62.5t30.5 -94.5q0 -48 -24 -86t-67 -59.5t-97 -21.5q-53 0 -95 22t-65.5 60.5
t-23.5 86.5q0 34 7 61h-383v110h440q42 47 105.5 73t139.5 26q89 0 161 -36zM306 299q17 17 17 43q0 27 -18 44t-48 17h-44q-11 -27 -11 -56t16.5 -47t44.5 -18q26 0 43 17z" />
    <glyph glyph-name="tm_VowelI.alt3" horiz-adv-x="297" 
d="M47 759.5q85 -37.5 130.5 -104t45.5 -152.5v-503h-141v503q0 82 -61 129.5t-174 47.5q-65 0 -99 -22t-34 -61t17 -61.5t53 -22.5v-95q-64 0 -111 23t-72.5 63.5t-26.5 92.5q0 58 33 103.5t95 71t145 25.5q115 0 200 -37.5z" />
    <glyph glyph-name="tm_VowelU.alt3" horiz-adv-x="475" 
d="M351.5 491q47.5 -22 74.5 -61.5t27 -89.5q0 -48 -24 -86t-67 -59.5t-97 -21.5q-53 0 -95 21t-65.5 59t-23.5 85q0 35 15 65h-319v110h467q60 0 107.5 -22zM306 299q17 17 17 43q0 27 -17 44t-43 17t-43.5 -17t-17.5 -44q0 -26 17.5 -43t43.5 -17t43 17z" />
    <glyph glyph-name="tm_VowelUu.alt3" horiz-adv-x="726" 
d="M551 576q72 -36 112.5 -100.5t40.5 -144.5q0 -86 -45 -154t-128.5 -106t-193.5 -38h-69v110h69q68 0 117.5 24t75.5 66.5t26 97.5q0 75 -46 122.5t-121 47.5q-18 0 -48 -4q51 -21 81.5 -62.5t30.5 -94.5q0 -48 -24 -86t-67 -59.5t-97 -21.5q-53 0 -95 22t-65.5 60.5
t-23.5 86.5q0 34 7 61h-302v110h359q42 47 105.5 73t139.5 26q89 0 161 -36zM306 299q17 17 17 43q0 27 -18 44t-48 17h-44q-11 -27 -11 -56t16.5 -47t44.5 -18q26 0 43 17z" />
    <glyph glyph-name="tm_VowelI.alt4" horiz-adv-x="305" 
d="M39 759.5q89 -37.5 136.5 -104t47.5 -152.5v-503h-141v503q0 82 -65.5 129.5t-187.5 47.5q-94 0 -143 -25t-49 -67q0 -37 17 -56t53 -19v-95q-97 0 -152.5 46t-56.5 124q0 60 39.5 107.5t114.5 74.5t177 27q121 0 210 -37.5z" />
    <glyph glyph-name="tm_KU" horiz-adv-x="1148" 
d="M976.5 282q60.5 -34 94.5 -94t34 -135q0 -100 -62 -178t-175.5 -122t-262.5 -44q-167 0 -289.5 57.5t-188 163t-65.5 245.5q0 93 40.5 189t105.5 159l144 -10q-63 -57 -103 -150t-40 -190q0 -106 45 -183.5t133.5 -119.5t216.5 -42q107 0 187 29t123.5 80t43.5 116
q0 66 -32.5 109t-83.5 43h-4q0 -67 -34.5 -118t-94 -78t-134.5 -27q-104 0 -162 47.5t-58 123.5q0 50 27.5 88.5t80.5 57.5v214h544l17 -110h-186v-87h3q75 0 135.5 -34zM702 403h-101v-87h101v87zM666 127q36 28 36 78h-126q-34 0 -53.5 -14.5t-19.5 -37.5q0 -24 20 -39
t56 -15q51 0 87 28z" />
    <glyph glyph-name="tm_CU" horiz-adv-x="849" 
d="M734 205v-205h-137v205h-81q0 -67 -34.5 -118t-94.5 -78t-135 -27q-105 0 -162.5 47.5t-57.5 123.5q0 50 27.5 88.5t80.5 57.5v214h544l16 -110h-184v-87h294l16 -111h-92zM379 403h-101v-87h101v87zM343 127q36 28 36 78h-125q-35 0 -54.5 -14.5t-19.5 -37.5
q0 -24 20 -39t56 -15q51 0 87 28z" />
    <glyph glyph-name="tm_NyU" horiz-adv-x="1352" 
d="M1269 513v-681h-343q-84 -90 -225.5 -140.5t-322.5 -50.5q-139 0 -217 41.5t-78 118.5q0 65 46.5 103.5t133.5 38.5h581q39 67 39 147q0 59 -21 95.5t-58 36.5q-31 0 -50.5 -19.5t-19.5 -49.5v-153h-141v403h-191q-107 0 -159.5 -45t-52.5 -121q0 -33 10 -59
q8 61 55 99.5t115 38.5q53 0 96 -21t67 -58t24 -83q0 -50 -26 -89t-73 -61t-109 -22q-88 0 -158 33t-109.5 91t-39.5 131q0 81 41.5 143.5t121.5 97.5t192 35h489l17 -111h-169v-84q41 23 93 23q63 0 108.5 -32t70 -88t24.5 -128q0 -80 -32 -150h131v570h140zM325.5 194.5
q-16.5 -16.5 -16.5 -42.5t16.5 -42.5t42.5 -16.5q25 0 41.5 17t16.5 42t-16.5 42t-41.5 17q-26 0 -42.5 -16.5zM724 -168h-450q-23 0 -35 -8t-12 -23q0 -42 150 -42q217 0 347 73z" />
    <glyph glyph-name="tm_TtU" horiz-adv-x="916" 
d="M779 309q46 -32 70.5 -88t24.5 -128q0 -115 -46 -201.5t-134.5 -134.5t-210.5 -48q-130 0 -225 53.5t-145.5 152.5t-50.5 233q0 96 41.5 205t104.5 170l144 -10q-61 -55 -102 -161t-41 -206q0 -150 71 -234t202 -84q120 0 182 69.5t62 192.5q0 59 -21 95.5t-57 36.5
q-31 0 -51 -19.5t-20 -49.5v-153h-140v513h140v-195q41 23 94 23q62 0 108 -32z" />
    <glyph glyph-name="tm_NnU" horiz-adv-x="2064" 
d="M1981 -168h-525q-145 -92 -375 -141.5t-547 -49.5q-451 0 -451 170q0 61 48.5 96.5t131.5 35.5h1137q147 113 147 294q0 177 -142 177q-35 0 -73 -11q43 -46 66.5 -103t23.5 -121q0 -58 -25.5 -102.5t-71 -69.5t-105.5 -25t-106.5 25t-72 69.5t-25.5 102.5q0 61 23 117.5
t65 102.5q-46 15 -100 15q-63 0 -120 -22q50 -45 77.5 -99.5t27.5 -113.5q0 -58 -25.5 -102.5t-71.5 -69.5t-105 -25q-60 0 -106.5 25t-72 69.5t-25.5 102.5q0 56 20 108t57 96q-85 31 -182 31q-89 0 -154.5 -23.5t-99.5 -65.5t-34 -95q0 -32 10 -56q6 63 53.5 102.5
t116.5 39.5q53 0 96 -21t67 -58t24 -83q0 -50 -26 -89t-73 -61t-109 -22q-88 0 -158 32.5t-109.5 89t-39.5 126.5q0 87 53 155t152 107t231 39q159 0 287 -61q108 61 238 61q118 0 213 -45q90 45 188 45q140 0 215.5 -77.5t75.5 -216.5q0 -168 -108 -294h254v570h140v-681z
M1263 117.5q16 22.5 16 57.5q0 91 -61 155q-59 -69 -59 -155q0 -35 16.5 -57.5t43.5 -22.5q28 0 44 22.5zM829 117.5q16 22.5 16 57.5q0 79 -69 140q-50 -61 -50 -140q0 -35 16.5 -57.5t43.5 -22.5t43 22.5zM325.5 194.5q-16.5 -16.5 -16.5 -42.5t16.5 -42.5t42.5 -16.5
q25 0 41.5 17t16.5 42t-16.5 42t-41.5 17q-26 0 -42.5 -16.5zM1170 -168h-895q-48 0 -48 -25q0 -48 305 -48q397 0 638 73z" />
    <glyph glyph-name="tm_TU" horiz-adv-x="1111" 
d="M1028 -168h-297q-53 -91 -158 -141t-255 -50q-86 0 -151 20t-100 57t-35 86q0 64 47.5 101.5t132.5 37.5h411q9 39 9 85q0 72 -31.5 121t-80.5 55q0 -67 -34.5 -117.5t-94.5 -77.5t-135 -27q-105 0 -162.5 47.5t-57.5 123.5q0 50 27.5 88.5t80.5 57.5v214h544l16 -110
h-184v-87q75 -3 134.5 -41t92.5 -102.5t33 -144.5q0 -42 -8 -85h116v570h140v-681zM383 403h-101v-87h101v87zM347 127q36 28 36 78h-125q-35 0 -54.5 -14.5t-19.5 -37.5q0 -24 20 -39t56 -15q51 0 87 28zM563 -168h-339q-23 0 -35.5 -8t-12.5 -23q0 -21 36.5 -31.5
t104.5 -10.5q168 0 246 73z" />
    <glyph glyph-name="tm_NU" horiz-adv-x="1115" 
d="M1032 -168h-312q-53 -91 -146.5 -141t-222.5 -50q-127 0 -197.5 44t-70.5 119q0 64 47.5 101.5t131.5 37.5h356q18 60 18 147q0 59 -21 95.5t-57 36.5q-31 0 -50.5 -19.5t-19.5 -49.5v-153h-140v403h-125v-403h-141v513h558l17 -111h-169v-84q41 23 93 23q62 0 108 -32
t70 -88t24 -128q0 -81 -18 -150h127v570h140v-681zM557 -168h-283q-23 0 -35 -8t-12 -23q0 -42 123 -42q136 0 207 73z" />
    <glyph glyph-name="tm_NnnU" horiz-adv-x="1630" 
d="M1548 -168h-474q-108 -91 -271 -141t-375 -50q-110 0 -187.5 20.5t-117.5 58t-40 87.5q0 62 49 99t131 37h741q109 118 109 294q0 177 -141 177q-50 0 -92 -18q52 -45 80.5 -101t28.5 -116q0 -58 -25.5 -102.5t-71.5 -69.5t-105 -25q-60 0 -106.5 25t-72 69.5
t-25.5 102.5q0 56 19.5 108t54.5 97q-85 30 -179 30q-89 0 -154.5 -23.5t-99.5 -65.5t-34 -95q0 -32 10 -56q6 63 53.5 102.5t116.5 39.5q53 0 96 -21t67 -58t24 -83q0 -50 -26 -89t-73 -61t-109 -22q-88 0 -158 32.5t-109.5 89t-39.5 126.5q0 87 53 155t152 107t231 39
q154 0 281 -58q98 58 212 58q139 0 214.5 -78t75.5 -216q0 -165 -87 -294h233v570h141v-681zM829 117.5q16 22.5 16 57.5q0 40 -18.5 76t-52.5 66q-48 -62 -48 -142q0 -35 16.5 -57.5t43.5 -22.5t43 22.5zM325.5 194.5q-16.5 -16.5 -16.5 -42.5t16.5 -42.5t42.5 -16.5
q25 0 41.5 17t16.5 42t-16.5 42t-41.5 17q-26 0 -42.5 -16.5zM844 -168h-569q-48 0 -48 -28q0 -45 200 -45q252 0 417 73z" />
    <glyph glyph-name="tm_MU" horiz-adv-x="1272" 
d="M1107.5 494q58.5 -37 90.5 -103t32 -149q0 -110 -65 -176t-187 -66h-102q-14 -87 -66 -153t-135 -102t-186 -36q-123 0 -220 52.5t-152 151.5t-55 235q0 97 40.5 204t105.5 171l144 -10q-63 -58 -103 -162t-40 -205t35.5 -173t99 -109.5t144.5 -37.5q99 0 166 47t83 127
h-310v513l140 5v-408h174v182q0 107 59.5 173t170.5 66q78 0 136.5 -37zM1059.5 144.5q23.5 34.5 23.5 97.5q0 76 -29.5 124t-81.5 48q-50 0 -71 -34.5t-21 -95.5v-174h98q58 0 81.5 34.5z" />
    <glyph glyph-name="tm_RU" horiz-adv-x="1204" 
d="M1066.5 310.5q46.5 -30.5 71 -86t24.5 -126.5q0 -117 -66.5 -205t-188.5 -136t-286 -48q-167 0 -293.5 58t-196 163.5t-69.5 244.5q0 93 40.5 189t105.5 159l144 -10q-63 -57 -103 -150t-40 -190q0 -105 48.5 -183t141 -120t221.5 -42q125 0 213.5 32.5t134.5 92.5
t46 142q0 57 -21.5 92t-57.5 35q-32 0 -53 -19.5t-21 -49.5v-153h-140v403h-154v-403h-140v513h587l16 -110h-169v-86q43 24 96 24q63 0 109.5 -30.5z" />
    <glyph glyph-name="tm_RrU" horiz-adv-x="1233" 
d="M1150 -168h-345q-134 -191 -442 -191q-86 0 -151 20t-100 57t-35 86q0 64 47.5 101.5t131.5 37.5h459q44 102 44 278q0 90 -26 141.5t-83 51.5q-49 0 -74.5 -35t-25.5 -95v-284h-140v260q0 67 -26.5 110.5t-77.5 43.5q-44 0 -66 -34t-22 -98v-282h-141v296
q0 108 57.5 171.5t161.5 63.5q52 0 96 -22t75 -63q32 40 79.5 62.5t102.5 22.5q82 0 140 -39.5t88 -109.5t30 -161q0 -159 -44 -278h147v570h140v-681zM519 -223q66 18 112 55h-363q-22 0 -34.5 -8t-12.5 -23q0 -42 141 -42q91 0 157 18z" />
    <glyph glyph-name="tm_LU" horiz-adv-x="1407" 
d="M1324 -168h-481q-74 -89 -200 -140t-278 -51q-86 0 -151 20t-100 57t-35 86q0 64 47.5 101.5t132.5 37.5h501q12 25 17 46q-79 19 -122.5 79.5t-43.5 149.5v32q0 48 -25.5 85.5t-71.5 58t-106 20.5q-65 0 -114.5 -23t-76.5 -63.5t-27 -90.5q0 -33 10 -59q8 61 55 99.5
t115 38.5q53 0 96 -21t67 -58t24 -83q0 -50 -26 -89t-73 -61t-109 -22q-88 0 -158 33t-109.5 91t-39.5 131q0 85 46 152t129.5 104.5t189.5 37.5q101 0 179 -36t121.5 -99.5t43.5 -145.5v-32q0 -56 24 -87.5t70 -31.5q49 0 73 40t24 108q0 57 -22 132.5t-60 133.5l145 14
q42 -69 63.5 -145t21.5 -135q0 -98 -43.5 -166t-126.5 -90q-5 -27 -13 -48h277v570h140v-681zM325.5 194.5q-16.5 -16.5 -16.5 -42.5t16.5 -42.5t42.5 -16.5q25 0 41.5 17t16.5 42t-16.5 42t-41.5 17q-26 0 -42.5 -16.5zM660 -168h-389q-23 0 -35.5 -8t-12.5 -23
q0 -21 36.5 -31.5t104.5 -10.5q184 0 296 73z" />
    <glyph glyph-name="tm_LlU" horiz-adv-x="1709" 
d="M1571.5 310.5q46.5 -30.5 71 -86t24.5 -126.5q0 -117 -71.5 -206t-202 -138.5t-302.5 -49.5h-431q-178 0 -313.5 59t-210 166t-74.5 246q0 93 40.5 189t105.5 159l144 -10q-63 -57 -103 -150t-40 -190q0 -105 54 -186t156 -126t240 -46h432q132 0 229 35.5t148 99
t51 145.5q0 57 -21.5 92t-58.5 35q-25 0 -43.5 -12.5t-26.5 -33.5v-176h-140v403h-190v-403h-140v223q0 55 -29.5 98.5t-81 68t-114.5 24.5q-64 0 -111.5 -23t-72.5 -63t-25 -91q0 -33 10 -59q8 61 55 99.5t115 38.5q53 0 96 -21t67 -58t24 -83q0 -50 -26 -89t-73 -61
t-109 -22q-88 0 -158 33t-109.5 91t-39.5 131q0 85 43.5 152t123.5 104.5t186 37.5q69 0 127 -21t102 -60v63h623l16 -110h-169v-84q42 22 93 22q63 0 109.5 -30.5zM600.5 194.5q-16.5 -16.5 -16.5 -42.5t16.5 -42.5t42.5 -16.5q25 0 41.5 17t16.5 42t-16.5 42t-41.5 17
q-26 0 -42.5 -16.5z" />
    <glyph glyph-name="tm_LllU" horiz-adv-x="1272" 
d="M880 0v-20q0 -39 17 -54.5t51 -15.5h145l17 -110h-192q-49 -44 -136.5 -67.5t-193.5 -23.5q-156 0 -275 54.5t-185 154t-66 230.5q0 97 40.5 204t105.5 171l144 -10q-63 -58 -103 -162t-40 -205q0 -96 47 -168.5t133 -112t199 -39.5q78 0 128.5 9t76.5 30
q-25 13 -38.5 39t-13.5 61v35h-314v513l140 5v-408h174v182q0 107 59.5 173t170.5 66q78 0 136.5 -37t90.5 -103t32 -149q0 -110 -65 -176t-187 -66h-98zM880 110h98q58 0 81.5 34.5t23.5 97.5q0 76 -29.5 124t-81.5 48q-50 0 -71 -34.5t-21 -95.5v-174z" />
    <glyph glyph-name="tm_KUu" horiz-adv-x="1223" 
d="M1213 110v-110h-312q16 32 25.5 71.5t9.5 68.5q0 43 -23 69t-66 26h-15q41 -52 41 -113t-43.5 -100.5t-110.5 -39.5t-111 39.5t-44 100.5q0 43 21 83h-69q0 -67 -34.5 -118t-94.5 -78t-135 -27q-105 0 -162.5 47.5t-57.5 123.5q0 50 27.5 88.5t80.5 57.5v214h544l16 -110
h-184v-87h146q22 0 47 -5q67 27 139 27q67 0 118.5 -25.5t80 -70.5t28.5 -102q0 -21 -1 -30h139zM379 403h-101v-87h101v87zM343 127q36 28 36 78h-125q-35 0 -54.5 -14.5t-19.5 -37.5q0 -24 20 -39t56 -15q51 0 87 28zM715 193q-32 -29 -32 -71q0 -18 10 -29.5t26 -11.5
q15 0 25 11.5t10 29.5q0 48 -39 71z" />
    <glyph glyph-name="tm_NgUu" horiz-adv-x="1267" 
d="M1170.5 73.5q42.5 -24.5 64.5 -67t22 -95.5q0 -87 -54.5 -155.5t-151.5 -107t-222 -38.5h-505q-83 0 -142.5 21t-90.5 59t-31 87q0 62 47.5 102t128.5 40h526v-110h-526q-18 0 -30 -9.5t-12 -25.5q0 -22 33.5 -38t91.5 -16h505q134 0 210 50.5t76 137.5q0 31 -17 51.5
t-44 20.5q-32 0 -51.5 -20t-19.5 -51v-100h-140v191h-495v110h160q51 0 76.5 20.5t25.5 54.5q0 27 -15.5 44.5t-41.5 17.5q-28 0 -46.5 -17.5t-18.5 -42.5v-23h-140v239h-120v-403h-141v513h554l16 -111h-169v-54q39 17 87 17q53 0 94.5 -23t65 -63.5t23.5 -92.5
q0 -43 -18 -76h103v403h140v-438q44 23 93 23q57 0 99.5 -24.5z" />
    <glyph glyph-name="tm_CUu" horiz-adv-x="1324" 
d="M1234 127q47 -46 47 -119q0 -90 -71.5 -158t-204.5 -104.5t-311 -36.5q-198 0 -340.5 58t-217 163t-74.5 245q0 93 40.5 189t105.5 159l144 -10q-63 -58 -103 -150.5t-40 -189.5q0 -105 55 -182.5t163.5 -120t265.5 -42.5q134 0 233.5 21t153 60.5t53.5 93.5
q0 23 -12 37.5t-31 14.5q-21 0 -35 -13t-14 -31v-11h-137v205h-82q0 -67 -34.5 -118t-94 -78t-134.5 -27q-105 0 -162.5 47.5t-57.5 123.5q0 50 27.5 88.5t80.5 57.5v214h543l17 -110h-185v-87h294l17 -111h-92v-45q33 13 65 13q81 0 128 -46zM686 403h-102v-87h102v87z
M650 127q36 28 36 78h-126q-34 0 -53.5 -14.5t-19.5 -37.5q0 -24 20 -39t56 -15q51 0 87 28z" />
    <glyph glyph-name="tm_TtUu" horiz-adv-x="964" 
d="M665.5 585q25.5 33 67.5 46q-78 38 -182 38q-110 0 -187 -59.5t-116 -164t-39 -237.5q0 -112 32 -198t94.5 -134t151.5 -48q114 0 176.5 70t62.5 192q0 59 -21 95.5t-57 36.5q-31 0 -51 -19.5t-20 -49.5v-153h-140v513h140v-195q43 23 94 23q62 0 108 -32t70.5 -88
t24.5 -128q0 -114 -47 -201t-134 -135t-205 -48q-131 0 -227.5 64t-147.5 177.5t-51 259.5q0 166 57 297t164 206t252 75q107 0 195 -35t139.5 -97.5t51.5 -143.5q0 -62 -38 -101t-101 -39q-62 0 -102 38t-40 97q0 45 25.5 78zM815.5 471.5q13.5 13.5 13.5 33.5t-13.5 33
t-33.5 13t-33.5 -13t-13.5 -33t13.5 -33.5t33.5 -13.5t33.5 13.5z" />
    <glyph glyph-name="tm_PUu" horiz-adv-x="973" 
d="M877 73.5q42 -24.5 64 -67t22 -95.5q0 -88 -54.5 -156t-152 -106.5t-222.5 -38.5h-210q-83 0 -142.5 21t-90.5 59t-31 87q0 62 47.5 102t128.5 40h232v-110h-232q-18 0 -30 -9.5t-12 -25.5q0 -22 33.5 -38t91.5 -16h211q134 0 210 50.5t76 137.5q0 31 -17 51.5t-44 20.5
q-32 0 -51.5 -20t-19.5 -51v-100h-140v191h-462v513l141 5v-408h321v403h140v-438q44 23 94 23q57 0 99 -24.5z" />
    <glyph glyph-name="tm_MUu" horiz-adv-x="1409" 
d="M1243.5 494q58.5 -37 90.5 -103t32 -149q0 -109 -64.5 -175.5t-186.5 -66.5h-105q-17 -88 -77.5 -154t-155.5 -101.5t-214 -35.5q-146 0 -260 60.5t-177.5 166.5t-63.5 238q0 100 40.5 182t109 128.5t147.5 46.5q69 0 111 -39t42 -100q0 -59 -39 -97t-100 -38
q-46 0 -80.5 22t-48.5 60q-39 -70 -39 -161q0 -99 44.5 -178.5t125.5 -125.5t187 -46q117 0 198.5 45.5t106.5 126.5h-304v513l140 5v-408h173v182q0 107 60.5 173t170.5 66q78 0 136.5 -37zM401.5 422q-11.5 12 -28.5 12q-19 0 -31.5 -12t-12.5 -30t12.5 -30t31.5 -12
q17 0 28.5 12t11.5 30t-11.5 30zM1195.5 144q22.5 34 22.5 98q0 77 -29 124.5t-81 47.5q-92 0 -92 -130v-174h99q58 0 80.5 34z" />
    <glyph glyph-name="tm_YUu" horiz-adv-x="1221" 
d="M1124 73.5q42 -24.5 64.5 -67t22.5 -95.5q0 -88 -54.5 -156t-152 -106.5t-222.5 -38.5h-469q-82 0 -141.5 21t-90.5 59t-31 87q0 62 47.5 102t128.5 40h490v-110h-490q-18 0 -30 -9.5t-12 -25.5q0 -22 33 -38t92 -16h469q133 0 209 50.5t76 137.5q0 31 -16.5 51.5
t-43.5 20.5q-31 0 -51 -20.5t-20 -50.5v-100h-141v191h-368v28q-56 -46 -126 -46q-108 0 -166.5 64t-58.5 172v295l141 5v-292q0 -127 93 -127q58 0 87.5 42t29.5 113v259h140v-403h228v403h141v-438q44 23 93 23q57 0 99 -24.5z" />
    <glyph glyph-name="tm_RUu" horiz-adv-x="1340" 
d="M1202.5 310.5q46.5 -30.5 71 -86t24.5 -126.5q0 -117 -74.5 -205t-213 -136t-322.5 -48q-190 0 -331 56.5t-218 163.5t-77 255q0 96 39.5 175.5t108.5 125.5t154 46q66 0 107 -39t41 -100q0 -59 -39 -97t-100 -38q-46 0 -80.5 22.5t-49.5 60.5q-38 -70 -38 -152
q0 -115 58.5 -196t167 -122.5t256.5 -41.5q143 0 247.5 32.5t160.5 92.5t56 142q0 57 -21.5 92t-58.5 35q-32 0 -53 -19.5t-21 -49.5v-153h-140v403h-154v-403h-140v513h587l17 -110h-170v-86q45 24 97 24q62 0 108.5 -30.5zM401.5 422q-11.5 12 -28.5 12q-19 0 -31.5 -12
t-12.5 -30t12.5 -30t31.5 -12q17 0 28.5 12t11.5 30t-11.5 30z" />
    <glyph glyph-name="tm_LlUu" horiz-adv-x="1905" 
d="M1766.5 310.5q46.5 -30.5 71 -86t24.5 -126.5q0 -117 -71 -206t-201.5 -138.5t-302.5 -49.5h-670q-156 0 -282.5 56.5t-199.5 158t-73 230.5q0 110 36.5 197t101.5 136t149 49q66 0 107 -39t41 -100q0 -59 -39 -97t-100 -38q-41 0 -73 17.5t-49 48.5q-26 -69 -26 -175
q0 -97 52.5 -173t145 -118t208.5 -42h670q133 0 230 35.5t148 99t51 145.5q0 57 -21.5 92t-57.5 35q-26 0 -45 -13t-26 -35v-174h-140v403h-190v-403h-140v223q0 55 -29.5 98.5t-81 68t-114.5 24.5q-64 0 -111.5 -23t-72.5 -63t-25 -91q0 -33 10 -59q8 61 55 99.5t115 38.5
q53 0 96 -21t67 -58t24 -83q0 -50 -26 -89t-73 -61t-109 -22q-88 0 -158 33t-109.5 91t-39.5 131q0 85 43.5 152t123.5 104.5t186 37.5q69 0 127 -21t102 -60v63h623l16 -110h-169v-84q42 22 93 22q62 0 108.5 -30.5zM379.5 415q-8.5 9 -21.5 9q-14 0 -24 -9t-10 -23t10 -23
t24 -9q13 0 21.5 9t8.5 23t-8.5 23zM796.5 194.5q-16.5 -16.5 -16.5 -42.5t16.5 -42.5t42.5 -16.5q25 0 41.5 17t16.5 42t-16.5 42t-41.5 17q-26 0 -42.5 -16.5z" />
    <glyph glyph-name="tm_LllUu" horiz-adv-x="1409" 
d="M1016 0v-15q0 -38 17.5 -54t50.5 -16h145l16 -111h-191q-56 -43 -161 -69t-243 -26q-167 0 -301 61t-210.5 169.5t-76.5 244.5q0 96 39 175.5t107 125.5t151 46q69 0 111 -39t42 -100q0 -59 -39 -97t-100 -38q-46 0 -80.5 22.5t-49.5 60.5q-38 -70 -38 -152
q0 -103 58 -185.5t159.5 -128.5t227.5 -46q203 0 280 42q-26 12 -40 38.5t-14 61.5v30h-313v513l140 5v-408h173v182q0 107 60.5 173t170.5 66q78 0 136.5 -37t90.5 -103t32 -149q0 -109 -64.5 -175.5t-186.5 -66.5h-99zM401.5 422q-11.5 12 -28.5 12q-19 0 -31.5 -12
t-12.5 -30t12.5 -30t31.5 -12q17 0 28.5 12t11.5 30t-11.5 30zM1016 110h99q58 0 80.5 34t22.5 98q0 77 -29 124.5t-81 47.5q-92 0 -92 -130v-174z" />
    <glyph glyph-name="tm_VUu" horiz-adv-x="1332" 
d="M1241 73.5q42 -24.5 64 -67t22 -95.5q0 -88 -54 -156t-151.5 -106.5t-222.5 -38.5h-595q-83 0 -142.5 21t-90.5 59t-31 87q0 62 47.5 102t128.5 40h616v-110h-616q-18 0 -30 -9.5t-12 -25.5q0 -22 33.5 -38t91.5 -16h596q133 0 209 50.5t76 137.5q0 31 -17 51.5t-44 20.5
q-31 0 -50.5 -20.5t-19.5 -50.5v-100h-141v191h-312v110q37 70 37 140q0 73 -57.5 118.5t-160.5 45.5q-66 0 -117.5 -23t-79.5 -63.5t-28 -90.5q0 -33 10 -59q8 61 55.5 99.5t114.5 38.5q53 0 96 -21t67 -58t24 -83q0 -50 -26 -89t-73 -61t-109 -22q-88 0 -158 33t-109.5 91
t-39.5 131q0 85 47.5 152t132 104.5t192.5 37.5q106 0 189.5 -36t130.5 -100t47 -145q0 -72 -35 -140h162v403h141v-438q44 23 93 23q57 0 99 -24.5zM325.5 194.5q-16.5 -16.5 -16.5 -42.5t16.5 -42.5t42.5 -16.5q25 0 41.5 17t16.5 42t-16.5 42t-41.5 17q-26 0 -42.5 -16.5
z" />
    <glyph glyph-name="tm_KSsa" horiz-adv-x="1792" 
d="M1724 0h-254v-243h-140v243h-429q16 32 25.5 71.5t9.5 68.5q0 43 -23 69t-66 26h-15q41 -52 41 -113t-43.5 -100.5t-110.5 -39.5t-111 39.5t-44 100.5q0 43 21 83h-69q0 -67 -34.5 -118t-94.5 -78t-135 -27q-105 0 -162.5 47.5t-57.5 123.5q0 50 27.5 88.5t80.5 57.5v214
h544l16 -110h-184v-87h146q22 0 47 -5q67 27 139 27q67 0 118.5 -25.5t80 -70.5t28.5 -102q0 -21 -2 -30h257v64h-18q-71 0 -125 23.5t-83.5 65.5t-29.5 95q0 50 26.5 89.5t72.5 61.5t104 22q57 0 100.5 -21.5t68 -60.5t24.5 -89v-38q71 30 114 81h140v-403zM1330 292v63
q0 26 -14 42.5t-38 16.5q-25 0 -40.5 -16t-15.5 -42q0 -31 23.5 -47.5t65.5 -16.5h19zM379 403h-101v-87h101v87zM1584 110v147q-50 -37 -114 -58v-89h114zM343 127q36 28 36 78h-125q-35 0 -54.5 -14.5t-19.5 -37.5q0 -24 20 -39t56 -15q51 0 87 28zM715 193
q-32 -29 -32 -71q0 -18 10 -29.5t26 -11.5q15 0 25 11.5t10 29.5q0 48 -39 71z" />
    <glyph glyph-name="tm_TtI" horiz-adv-x="926" 
d="M769 0v-243h-141v243h-546v513l141 5v-408h154q-57 70 -59 169q0 73 28.5 130.5t82.5 89.5t128 32q64 0 112 -26.5t74 -74.5t26 -111v-209h130l17 -110h-147zM628 110v205q0 47 -17.5 73t-52.5 26q-45 0 -68 -37t-23 -98q0 -48 16 -86.5t43.5 -60.5t61.5 -22h40z" />
    <glyph glyph-name="tm_TtIi" horiz-adv-x="915" 
d="M905 0h-823v513l141 5v-408h123q-38 57 -38 128q0 68 36 122t102.5 84t154.5 30q69 0 126.5 -25t90.5 -69.5t33 -99.5q0 -59 -40.5 -97.5t-101.5 -38.5q-62 0 -103 38t-41 96q0 49 30 84q-67 -1 -105.5 -35.5t-38.5 -88.5q0 -57 33 -92.5t89 -35.5h316zM738 247.5
q12 11.5 12 28.5q0 18 -12 30t-29 12q-18 0 -30 -12t-12 -30q0 -17 12 -28.5t30 -11.5q17 0 29 11.5z" />
    <glyph glyph-name="tm_Shree" horiz-adv-x="1972" 
d="M1836.5 310.5q46.5 -30.5 71 -86t24.5 -126.5q0 -117 -71 -206t-201.5 -138.5t-302.5 -49.5h-700q-178 0 -313.5 59t-210 166t-74.5 246q0 93 40.5 189t105.5 159l144 -10q-63 -57 -103 -150t-40 -190q0 -105 54 -186t156 -126.5t240 -45.5h700q133 0 230 35.5t148 99
t51 145.5q0 57 -21.5 92t-58.5 35q-32 0 -52.5 -19.5t-20.5 -49.5v-153h-141v403h-189v-403h-141v260q0 70 -29.5 112t-87.5 42q-47 0 -70.5 -33t-23.5 -93v-288h-547v513l140 5v-408h267v185q0 108 58.5 172t166.5 64q70 0 126 -46v28h252q-38 55 -38 127q0 69 36 123
t102.5 84.5t153.5 30.5q70 0 127.5 -25t90.5 -70t33 -100q0 -59 -40.5 -97.5t-102.5 -38.5t-102.5 38t-40.5 96q0 49 29 84q-67 -1 -105 -35.5t-38 -89.5q0 -57 32.5 -92t88.5 -35h145l16 -110h-168v-86q42 24 96 24q62 0 108.5 -30.5zM1805 650q12 12 12 30q0 17 -12 29
t-30 12t-29.5 -12t-11.5 -29q0 -18 11.5 -30t29.5 -12t30 12z" />
    </font>
</defs>
</svg>
