<?xml version="1.0" standalone="no"?>
<!DOCTYPE svg PUBLIC "-//W3C//DTD SVG 1.1//EN" "http://www.w3.org/Graphics/SVG/1.1/DTD/svg11.dtd" >
<svg xmlns="http://www.w3.org/2000/svg" xmlns:xlink="http://www.w3.org/1999/xlink" version="1.1">
<metadata>
Created by FontForge 20170731 at Wed Mar 22 18:01:19 2017
 By Aleksey,,,
Copyright 2014 Pria Ravichandran (pria.ravichandran@gmail.com)
</metadata>
<defs>
<font id="Catamaran-ExtraLight" horiz-adv-x="507" >
  <font-face 
    font-family="Catamaran ExtraLight"
    font-weight="275"
    font-stretch="normal"
    units-per-em="1000"
    panose-1="0 0 3 0 0 0 0 0 0 0"
    ascent="770"
    descent="-230"
    x-height="485"
    cap-height="680"
    bbox="-534 -377 2493 1320"
    underline-thickness="50"
    underline-position="-175"
    unicode-range="U+000D-FB02"
  />
<missing-glyph horiz-adv-x="636" 
d="M97 696v-696h441v696h-441zM482 651v-607h-329v607h329z" />
    <glyph glyph-name=".notdef" horiz-adv-x="636" 
d="M97 696v-696h441v696h-441zM482 651v-607h-329v607h329z" />
    <glyph glyph-name="uni0000" horiz-adv-x="0" 
 />
    <glyph glyph-name="uni0000" horiz-adv-x="0" 
 />
    <glyph glyph-name="nonmarkingreturn" unicode="&#xd;" horiz-adv-x="0" 
 />
    <glyph glyph-name="space" unicode=" " horiz-adv-x="238" 
 />
    <glyph glyph-name="exclam" unicode="!" horiz-adv-x="146" 
d="M56 200l43 -21l13 523h-64zM42.5 72q-12.5 -12 -12.5 -29q0 -18 12.5 -30.5t30.5 -12.5t30.5 12.5t12.5 30.5q0 17 -12.5 29t-30.5 12t-30.5 -12z" />
    <glyph glyph-name="quotedbl" unicode="&#x22;" horiz-adv-x="289" 
d="M52 689q-12 -13 -12 -30q0 -15 10.5 -28.5t28.5 -14.5q-3 -46 -59 -80l17 -27q40 20 64.5 59.5t24.5 84.5q0 20 -12.5 34.5t-30.5 14.5q-19 0 -31 -13zM186 689q-12 -13 -12 -30q0 -15 11 -28.5t28 -14.5q-3 -47 -59 -80l17 -27q40 19 64 59t24 85q0 20 -12 34.5
t-30 14.5q-19 0 -31 -13z" />
    <glyph glyph-name="numbersign" unicode="#" horiz-adv-x="497" 
d="M378 502l-32 -131h-134l32 131h-48l-33 -131h-133l8 -44h114l-35 -143h-87l8 -44h68l-33 -135l48 -5l34 140h134l-33 -135l47 -5l34 140h130l-7 44h-112l35 143h84l-7 44h-66l33 131h-49zM335 327l-36 -143h-133l35 143h134z" />
    <glyph glyph-name="dollar" unicode="$" horiz-adv-x="522" 
d="M187 -9q-40 5 -77.5 15.5t-54.5 22.5l15 43q32 -16 76 -27.5t90 -11.5q83 0 130 36.5t47 90.5t-43 91t-139 78q-92 39 -137.5 88t-45.5 116q0 56 37 97.5t102 57.5v99l43 10v-103q14 2 26 2q22 0 41 -3v97l44 10v-114q44 -10 83 -29l-22 -41q-36 16 -67 25t-77 9
q-71 0 -113.5 -33.5t-42.5 -86.5q0 -54 43 -91.5t141 -81.5q96 -42 139 -86.5t43 -112.5q0 -55 -33 -96.5t-94 -60.5v-112h-44v103q-30 -5 -60 -5h-7v-98h-43v102z" />
    <glyph glyph-name="percent" unicode="%" horiz-adv-x="823" 
d="M534 710l-308 -710l52 -4l309 710zM113 681q-35 -21 -55 -59.5t-20 -89.5q0 -80 42.5 -124.5t112.5 -44.5q42 0 77 21t55 59t20 89q0 80 -42 125t-111 45q-44 0 -79 -21zM263 626q28 -33 28 -94t-29 -93.5t-69 -32.5q-42 0 -71.5 33.5t-29.5 92.5q0 61 30 94t70 33
q43 0 71 -33zM553 317q-35 -21 -55 -59.5t-20 -89.5q0 -79 42.5 -124t111.5 -45q43 0 77.5 21t55 59t20.5 89q0 80 -42 125t-111 45q-44 0 -79 -21zM703 261.5q28 -32.5 28 -93.5q0 -60 -29.5 -92.5t-69.5 -32.5q-42 0 -71 33t-29 92q0 62 29.5 94t70.5 32q43 0 71 -32.5z
" />
    <glyph glyph-name="ampersand" unicode="&#x26;" horiz-adv-x="654" 
d="M617 33l-92 86q50 85 53 206l-41 14q-2 -50 -14.5 -98.5t-35.5 -87.5l-203 191q-58 55 -83 93.5t-25 88.5q0 32 16.5 60.5t45.5 46t65 17.5q38 0 61.5 -7t41 -15.5t22.5 -11.5l21 41q-72 39 -151 39q-52 0 -91.5 -23.5t-61.5 -63.5t-22 -88q0 -61 35 -112
q-50 -33 -80 -86.5t-30 -119.5q0 -67 32 -116t87.5 -74.5t124.5 -25.5q66 0 118.5 25t88.5 70l91 -82zM389 55q-43 -22 -95 -22q-49 0 -93.5 20.5t-71.5 59.5t-27 92q0 54 21.5 97.5t62.5 70.5q16 -20 47 -47l230 -210q-31 -39 -74 -61z" />
    <glyph glyph-name="quotesingle" unicode="'" horiz-adv-x="156" 
d="M52 689q-12 -13 -12 -30q0 -15 10.5 -28.5t28.5 -14.5q-3 -46 -59 -80l17 -27q40 20 64.5 59.5t24.5 84.5q0 20 -12.5 34.5t-30.5 14.5q-19 0 -31 -13z" />
    <glyph glyph-name="parenleft" unicode="(" horiz-adv-x="245" 
d="M162 72q-25 62 -40 131t-15 118q0 48 15 116t40 129t53 91l-46 18q-59 -75 -89 -172t-30 -183q0 -87 30 -184t89 -173l46 18q-28 29 -53 91z" />
    <glyph glyph-name="parenright" unicode=")" horiz-adv-x="245" 
d="M82 565.5q25 -61.5 40.5 -130t15.5 -116.5t-15.5 -117t-40.5 -130.5t-52 -90.5l46 -18q58 77 88.5 174t30.5 183q0 84 -30.5 181.5t-88.5 173.5l-46 -18q27 -30 52 -91.5z" />
    <glyph glyph-name="asterisk" unicode="*" horiz-adv-x="325" 
d="M182 774h-41l-1 -118l-118 29l-12 -35l119 -27l-83 -121l36 -21l80 115l83 -115l33 21l-82 121l119 27l-13 35l-120 -29v118z" />
    <glyph glyph-name="plus" unicode="+" horiz-adv-x="531" 
d="M491 295h-200v236l-53 3v-239h-208l8 -43h200v-244l53 -4v248h210z" />
    <glyph glyph-name="comma" unicode="," horiz-adv-x="156" 
d="M52.5 71.5q-12.5 -12.5 -12.5 -29.5q0 -15 11 -28.5t28 -13.5q-1 -47 -59 -81l17 -27q40 19 64.5 59t24.5 86q0 20 -12 33.5t-31 13.5q-18 0 -30.5 -12.5z" />
    <glyph glyph-name="hyphen" unicode="-" horiz-adv-x="313" 
d="M275 295h-245l8 -44h245z" />
    <glyph glyph-name="period" unicode="." horiz-adv-x="145" 
d="M102.5 12.5q12.5 12.5 12.5 30.5q0 16 -12.5 28.5t-29.5 12.5q-18 0 -30.5 -12t-12.5 -29q0 -18 12 -30.5t31 -12.5q17 0 29.5 12.5z" />
    <glyph glyph-name="slash" unicode="/" horiz-adv-x="380" 
d="M318 710l-308 -710l51 -4l309 710z" />
    <glyph glyph-name="zero" unicode="0" horiz-adv-x="578" 
d="M70.5 133q32.5 -69 89.5 -107.5t130 -38.5q72 0 129 39t89.5 108t32.5 155q0 83 -32.5 149t-89.5 103.5t-129 37.5q-73 0 -130 -37.5t-89.5 -104t-32.5 -149.5q0 -86 32.5 -155zM120 415q25 55 69.5 86t100.5 31q55 0 99 -31.5t69 -87.5t25 -127q0 -72 -25 -129.5
t-69 -90t-99 -32.5q-56 0 -100.5 33t-69.5 91.5t-25 132.5q0 69 25 124z" />
    <glyph glyph-name="one" unicode="1" horiz-adv-x="300" 
d="M222 0v566h-38l-174 -81l22 -43l134 57v-499h56z" />
    <glyph glyph-name="two" unicode="2" horiz-adv-x="473" 
d="M118.5 564q-43.5 -15 -80.5 -37l22 -42q39 22 74 35t83 13q66 0 106.5 -32t40.5 -85q0 -48 -25.5 -85t-94.5 -95l-219 -186v-50h428l-8 44h-356l184 151q76 63 112.5 115.5t36.5 107.5q0 46 -25.5 83t-71.5 57.5t-106 20.5q-57 0 -100.5 -15z" />
    <glyph glyph-name="three" unicode="3" horiz-adv-x="451" 
d="M11 520l31 -36q75 49 160 49q40 0 71.5 -16.5t48.5 -43.5t17 -57q0 -58 -48 -93.5t-131 -35.5h-34l10 -41h18q100 0 148.5 -37.5t48.5 -104.5q0 -39 -22.5 -69.5t-59 -47.5t-76.5 -17q-51 0 -86 11t-74 34l-33 -39q39 -22 88.5 -37t101.5 -15q66 0 115 24t76 65t27 93
q0 60 -34.5 104.5t-91.5 57.5q49 16 81.5 56.5t32.5 92.5q0 43 -21.5 80t-65 59.5t-104.5 22.5q-101 0 -194 -59z" />
    <glyph glyph-name="four" unicode="4" horiz-adv-x="512" 
d="M492 119h-111v452h-34l-337 -446l9 -51h307v-143h55v143h103zM326 464v-345h-258z" />
    <glyph glyph-name="five" unicode="5" horiz-adv-x="491" 
d="M179 267.5q34 16.5 70 16.5q66 0 105.5 -41.5t39.5 -112.5q0 -73 -45 -116.5t-123 -43.5q-47 0 -84.5 11.5t-75.5 33.5l-28 -40q96 -51 184 -51q73 0 125 28t79 74.5t27 103.5q-1 88 -52.5 144t-155.5 56q-27 0 -57.5 -10.5t-56.5 -28.5l10 230h268l5 45h-325l-15 -336
h49q22 21 56 37.5z" />
    <glyph glyph-name="six" unicode="6" horiz-adv-x="497" 
d="M365 359.5q46 -27.5 70 -72.5t24 -97q0 -54 -26.5 -100.5t-73 -74.5t-103.5 -28q-64 0 -113.5 32t-77 93.5t-27.5 147.5q0 107 49.5 188t127 128t162.5 58l18 -44q-61 -3 -126 -37.5t-113 -96t-60 -139.5q68 70 159 70q64 0 110 -27.5zM333.5 55.5q33.5 21.5 51.5 56
t18 73.5q0 69 -40 113t-108 44q-47 0 -91.5 -25.5t-71.5 -60.5q2 -109 43 -165.5t119 -56.5q46 0 79.5 21.5z" />
    <glyph glyph-name="seven" unicode="7" horiz-adv-x="429" 
d="M174 -69l235 606l-22 29h-377l8 -45h333l-230 -570z" />
    <glyph glyph-name="eight" unicode="8" horiz-adv-x="508" 
d="M151 620.5q-43 -22.5 -64 -59t-21 -80.5q0 -48 30.5 -85.5t78.5 -56.5q-37 -8 -68.5 -35t-50 -63t-18.5 -72q0 -51 24.5 -92.5t73.5 -65.5t119 -24q69 0 117.5 25t73.5 66.5t25 90.5q0 61 -40.5 109t-95.5 61q45 20 76.5 57.5t31.5 84.5q0 42 -21 79t-63 60t-104 23
q-61 0 -104 -22.5zM353 564.5q35 -33.5 35 -82.5q0 -42 -36.5 -77.5t-96.5 -44.5q-62 9 -97.5 43.5t-35.5 78.5q0 48 33.5 82t96.5 34q66 0 101 -33.5zM372.5 265q41.5 -42 41.5 -101q0 -38 -21.5 -67.5t-58 -46.5t-79.5 -17q-45 0 -81.5 17t-57.5 47t-21 67q0 59 41 101
t119 51q76 -9 117.5 -51z" />
    <glyph glyph-name="nine" unicode="9" horiz-adv-x="497" 
d="M353.5 546.5q49.5 -31.5 77.5 -93.5t28 -148q0 -107 -49.5 -188t-127.5 -128t-163 -58l-18 44q62 3 127 37.5t113.5 96t60.5 140.5q-71 -71 -161 -71q-64 0 -110 27.5t-69.5 72.5t-23.5 97q0 55 26 101.5t72.5 74t103.5 27.5q64 0 113.5 -31.5zM334 250q45 26 71 61
q-3 108 -44.5 164.5t-118.5 56.5q-46 0 -79.5 -21.5t-51.5 -56.5t-18 -74q0 -68 40 -112t108 -44q48 0 93 26z" />
    <glyph glyph-name="colon" unicode=":" horiz-adv-x="145" 
d="M102.5 373q12.5 13 12.5 30t-12.5 30t-30.5 13t-30 -13t-12 -30q0 -18 12 -30.5t30 -12.5t30.5 13zM102.5 53.5q12.5 12.5 12.5 30.5t-12.5 30.5t-30.5 12.5t-30 -12.5t-12 -30.5t12 -30.5t30 -12.5t30.5 12.5z" />
    <glyph glyph-name="semicolon" unicode=";" horiz-adv-x="156" 
d="M113.5 373q12.5 13 12.5 30t-12.5 30t-30.5 13t-30.5 -13t-12.5 -30q0 -18 12.5 -30.5t30.5 -12.5t30.5 13zM52.5 114q-12.5 -13 -12.5 -31q0 -15 11 -28t28 -14q-1 -47 -59 -81l17 -27q40 19 64.5 59.5t24.5 85.5q0 21 -12 35t-31 14q-18 0 -30.5 -13z" />
    <glyph glyph-name="less" unicode="&#x3c;" horiz-adv-x="322" 
d="M302 59l-221 186l221 186l-23 39l-249 -206v-38l249 -207z" />
    <glyph glyph-name="equal" unicode="=" horiz-adv-x="497" 
d="M460 371h-430l8 -44h429zM460 184h-430l8 -44h429z" />
    <glyph glyph-name="greater" unicode="&#x3e;" horiz-adv-x="322" 
d="M292 263l-249 207l-23 -39l221 -187l-221 -186l23 -39l249 207v37z" />
    <glyph glyph-name="question" unicode="?" horiz-adv-x="398" 
d="M90 685.5q-42 -16.5 -80 -44.5l8 -47q45 32 80.5 46.5t85.5 14.5q61 0 93 -29.5t32 -88.5q0 -56 -47.5 -102.5t-126.5 -71.5l8 -205l39 -20l9 194q82 36 129.5 92t47.5 114q0 75 -46 119.5t-136 44.5q-54 0 -96 -16.5zM127 72q-12 -12 -12 -29q0 -18 12 -30.5t30 -12.5
t30.5 12.5t12.5 30.5q0 17 -12.5 29t-30.5 12t-30 -12z" />
    <glyph glyph-name="at" unicode="@" horiz-adv-x="762" 
d="M514 406h-71q-58 0 -108 -25t-79.5 -69.5t-29.5 -100.5q0 -65 42.5 -105t116.5 -40q24 0 50 9.5t45 23.5q14 -17 35 -26.5t46 -9.5q76 0 119.5 62t43.5 179q0 83 -38.5 149t-107.5 103.5t-158 37.5q-118 0 -204.5 -51t-132 -138t-45.5 -192q0 -93 43.5 -164.5t115 -110.5
t154.5 -39q113 0 188 39l-14 42q-30 -17 -74.5 -26t-88.5 -9q-75 0 -136 33t-96.5 94t-35.5 142q0 100 43 176t116.5 118t163.5 42q78 0 136 -32t89 -89.5t31 -131.5q0 -90 -30 -140t-77 -50q-26 0 -42.5 15t-16.5 47q0 9 1 14l24 201zM308 136.5q-27 29.5 -27 74.5
q0 47 21.5 82.5t57.5 54.5t78 19h45l-23 -177q-2 -16 -2 -24q0 -20 5 -34q-13 -11 -34.5 -18t-44.5 -7q-49 0 -76 29.5z" />
    <glyph glyph-name="A" unicode="A" horiz-adv-x="581" 
d="M257 680l-247 -680h54l76 209h296l80 -215l55 11l-259 675h-55zM420 253h-265l130 355z" />
    <glyph glyph-name="B" unicode="B" horiz-adv-x="571" 
d="M463 44q70 44 70 144q0 68 -36.5 111t-102.5 63q45 22 73 57.5t28 83.5q0 96 -64.5 136.5t-180.5 40.5h-152v-680h179q116 0 186 44zM391.5 605.5q46.5 -29.5 46.5 -103.5q0 -67 -53.5 -96.5t-140.5 -30.5h-91v260h104q88 0 134.5 -29.5zM428 294.5q48 -35.5 48 -108.5
q0 -74 -52.5 -107.5t-139.5 -33.5h-131v285h142q85 0 133 -35.5z" />
    <glyph glyph-name="C" unicode="C" horiz-adv-x="553" 
d="M449.5 684q-51.5 10 -88.5 10q-95 0 -166 -47.5t-109 -129t-38 -181.5q0 -96 34.5 -175.5t103.5 -127t169 -47.5q42 0 92.5 11t78.5 26l-24 42q-32 -14 -66.5 -22t-83.5 -8q-75 0 -130.5 41t-84.5 109.5t-29 151.5q0 90 33 160t91 109.5t129 39.5q49 0 78 -7t67 -23
l20 41q-25 17 -76.5 27z" />
    <glyph glyph-name="D" unicode="D" horiz-adv-x="663" 
d="M482.5 45.5q66.5 45.5 99.5 123.5t33 175q0 150 -71 243t-219 93h-227v-680h222q96 0 162.5 45.5zM457.5 596.5q51.5 -38.5 77 -104.5t25.5 -149q0 -87 -30 -154.5t-84 -105.5t-125 -38h-168v590h178q75 0 126.5 -38.5z" />
    <glyph glyph-name="E" unicode="E" horiz-adv-x="499" 
d="M479 0l-6 44h-320v284h245l-5 41h-240v269h303l-5 42h-353v-680h381z" />
    <glyph glyph-name="F" unicode="F" horiz-adv-x="467" 
d="M382 365h-229v273h294l-7 42h-342v-680h55v324h235z" />
    <glyph glyph-name="G" unicode="G" horiz-adv-x="620" 
d="M506 300v-242q-63 -23 -122 -23q-79 0 -141.5 38t-98.5 106.5t-36 156.5q0 92 38.5 163t103.5 109.5t143 38.5q48 0 78 -7t67 -22l19 39q-25 17 -77 27t-89 10q-97 0 -175 -45.5t-123 -127t-45 -185.5q0 -100 41.5 -179.5t118 -125t177.5 -45.5q45 0 96 13t80 32v311
h-202l-6 -42h153z" />
    <glyph glyph-name="H" unicode="H" horiz-adv-x="653" 
d="M555 0v680h-55v-314h-347v319l-55 -5v-680h55v322h347v-322h55z" />
    <glyph glyph-name="I" unicode="I" horiz-adv-x="250" 
d="M153 0v680h-55v-680h55z" />
    <glyph glyph-name="J" unicode="J" horiz-adv-x="239" 
d="M89.5 -7q-7.5 -21 -25 -32.5t-54.5 -25.5l24 -37q48 15 73.5 32.5t35 43.5t9.5 68v638h-55v-626q0 -40 -7.5 -61z" />
    <glyph glyph-name="K" unicode="K" horiz-adv-x="586" 
d="M508 0l-271 352l-84 -89v-263h-55v680h55v-350l340 365l37 -35l-256 -269l302 -391h-68z" />
    <glyph glyph-name="L" unicode="L" horiz-adv-x="494" 
d="M479 44h-326v636h-55v-680h386z" />
    <glyph glyph-name="M" unicode="M" horiz-adv-x="740" 
d="M381 242l206 318v-560h55v680h-33l-240 -360l-243 360h-28v-680h55v555l208 -317z" />
    <glyph glyph-name="N" unicode="N" horiz-adv-x="670" 
d="M153 0v568l14 -29l372 -539h34v680h-56v-561l-34 59l-351 502h-34v-680h55z" />
    <glyph glyph-name="O" unicode="O" horiz-adv-x="713" 
d="M199.5 648.5q-71.5 -46.5 -111.5 -128t-40 -183.5q0 -101 39.5 -181t109 -125t157.5 -45q89 0 160 46.5t111.5 128.5t40.5 184q0 101 -39.5 181t-109.5 125t-157 45q-89 -1 -160.5 -47.5zM140.5 497q32.5 71 90.5 111t130 40q70 0 125.5 -39t87 -108.5t31.5 -156.5
q0 -89 -32.5 -160t-90 -111t-130.5 -40q-70 0 -125.5 39.5t-87 109t-31.5 156.5q0 88 32.5 159z" />
    <glyph glyph-name="P" unicode="P" horiz-adv-x="549" 
d="M153 264h103q113 0 184 53t72 158q0 106 -66 155.5t-179 49.5h-169v-680h55v264zM456 474q-1 -81 -54.5 -123t-138.5 -42h-110v325h121q182 0 182 -160z" />
    <glyph glyph-name="Q" unicode="Q" horiz-adv-x="713" 
d="M640 195q-26 -69 -73 -119l68 -67l-34 -28l-69 65q-79 -60 -178 -60q-88 0 -157.5 45t-109 125t-39.5 181q0 102 40 183.5t111.5 128t160.5 47.5q87 0 157 -45t109.5 -125t39.5 -181q0 -81 -26 -150zM494 82l-106 99l39 33l101 -100q37 43 57 102t20 128
q0 87 -31.5 156.5t-87 108.5t-125.5 39q-72 0 -130 -40t-90.5 -111t-32.5 -159q0 -87 31.5 -156.5t87 -109t125.5 -39.5q79 0 142 49z" />
    <glyph glyph-name="R" unicode="R" horiz-adv-x="576" 
d="M98 0h55v286h103q42 0 85 8l163 -294h62l-177 309q57 22 89.5 66t33.5 111q0 102 -65.5 148t-179.5 46h-169v-680zM456 484q-1 -79 -57 -116t-141 -37h-105v303h116q187 0 187 -150z" />
    <glyph glyph-name="S" unicode="S" horiz-adv-x="506" 
d="M136 0q57 -13 101 -13q109 0 170 47t61 124q0 68 -43 112.5t-139 86.5q-98 44 -141 81.5t-43 91.5q0 53 42.5 86.5t113.5 33.5q46 0 77 -9t67 -25l22 41q-34 17 -77.5 28t-90.5 11q-63 0 -110 -21.5t-72.5 -58.5t-25.5 -83q0 -67 45.5 -116t137.5 -88q96 -41 139 -78
t43 -91t-47 -90.5t-130 -36.5q-46 0 -90 11.5t-76 27.5l-15 -43q24 -16 81 -29z" />
    <glyph glyph-name="T" unicode="T" horiz-adv-x="543" 
d="M528 680h-518v-44h233v-636h56v636h234z" />
    <glyph glyph-name="U" unicode="U" horiz-adv-x="665" 
d="M88 680v-441q0 -73 29.5 -130t84.5 -89t130 -32q76 0 131.5 32t84.5 89t29 130v441h-55v-438q0 -58 -23 -105.5t-66 -74.5t-101 -27q-56 0 -99 27.5t-66.5 74.5t-23.5 105v438h-55z" />
    <glyph glyph-name="V" unicode="V" horiz-adv-x="581" 
d="M65 685l-55 -11l259 -675h55l247 680h-53l-222 -607z" />
    <glyph glyph-name="W" unicode="W" horiz-adv-x="816" 
d="M806 679l-177 -680h-55l-165 588l-149 -588h-55l-195 675l55 11l166 -603l152 597h54l164 -597l152 597h53z" />
    <glyph glyph-name="X" unicode="X" horiz-adv-x="546" 
d="M73 0l201 305l192 -305h64l-215 334l221 346h-60l-191 -302l-199 314l-50 -24l209 -321l-235 -347h63z" />
    <glyph glyph-name="Y" unicode="Y" horiz-adv-x="537" 
d="M290 0v278l237 402h-61l-204 -352l-200 364l-52 -26l225 -394v-272h55z" />
    <glyph glyph-name="Z" unicode="Z" horiz-adv-x="548" 
d="M506 44h-420l435 587l-5 49h-467l10 -44h406l-437 -586l6 -50h477z" />
    <glyph glyph-name="bracketleft" unicode="[" horiz-adv-x="269" 
d="M100 -88h159l-8 41h-98v701h98l8 42h-159v-784z" />
    <glyph glyph-name="backslash" unicode="\" horiz-adv-x="380" 
d="M370 0l-308 710l-52 -4l308 -710z" />
    <glyph glyph-name="bracketright" unicode="]" horiz-adv-x="268" 
d="M168 696h-158l8 -42h98v-701h-98l-8 -41h158v784z" />
    <glyph glyph-name="asciicircum" unicode="^" horiz-adv-x="414" 
d="M205 346l140 -203h54l-169 247h-51l-169 -247h54z" />
    <glyph glyph-name="underscore" unicode="_" horiz-adv-x="434" 
d="M396 44h-366l8 -44h366z" />
    <glyph glyph-name="grave" unicode="`" horiz-adv-x="141" 
d="M95 589l36 12l-55 141h-66z" />
    <glyph glyph-name="a" unicode="a" horiz-adv-x="479" 
d="M170.5 444q28.5 8 73.5 8q57 0 86.5 -31.5t29.5 -84.5v-55h-135q-77 0 -125 -38.5t-48 -106.5q0 -66 42 -107.5t121 -41.5q42 0 82.5 18.5t65.5 46.5l8 -52h44v340q0 72 -46 115t-128 43q-33 0 -81 -12t-74 -30l19 -38q37 18 65.5 26zM138.5 212q30.5 30 87.5 30h134
v-129q-26 -36 -63 -58t-81 -22q-51 0 -79.5 30t-28.5 73q0 46 30.5 76z" />
    <glyph glyph-name="b" unicode="b" horiz-adv-x="516" 
d="M422.5 428q55.5 -70 55.5 -187q0 -73 -25.5 -130.5t-75 -90.5t-119.5 -33q-35 0 -69.5 15t-63.5 38l-13 -40h-34v696l55 10v-257q59 49 130 49q104 0 159.5 -70zM379 92q42 59 42 148q0 95 -39.5 153.5t-117.5 58.5q-42 0 -72.5 -16t-58.5 -45v-305q28 -24 58.5 -38.5
t68.5 -14.5q77 0 119 59z" />
    <glyph glyph-name="c" unicode="c" horiz-adv-x="450" 
d="M364.5 54q-21.5 -11 -47 -16t-57.5 -5q-79 0 -122.5 60t-43.5 153q1 57 21.5 104t59 74.5t90.5 27.5q43 0 69 -8.5t62 -25.5l20 38q-28 18 -73 30t-76 12q-70 0 -122 -32.5t-79.5 -90t-27.5 -130.5q0 -116 58.5 -187t163.5 -71q33 0 77.5 11.5t73.5 29.5l-20 39
q-5 -2 -26.5 -13z" />
    <glyph glyph-name="d" unicode="d" horiz-adv-x="514" 
d="M436 705v-705h-33l-15 42q-60 -55 -136 -55q-104 0 -159 70t-55 187q0 73 25.5 130.5t75 90.5t119.5 33q60 0 123 -46v244zM323 48.5q30 15.5 58 44.5v307q-28 24 -57.5 38t-68.5 14q-77 0 -118.5 -58.5t-42.5 -148.5q0 -94 40 -153t118 -59q41 0 71 15.5z" />
    <glyph glyph-name="e" unicode="e" horiz-adv-x="486" 
d="M397 427q-51 71 -144 71q-104 0 -159.5 -70t-55.5 -183q0 -119 59 -188.5t178 -69.5q42 0 85.5 11.5t76.5 30.5l-20 41q-36 -18 -70 -28t-78 -10q-88 0 -131 57.5t-44 151.5h354q0 115 -51 186zM141.5 404q38.5 48 106.5 48t102 -47t41 -125h-295q7 76 45.5 124z" />
    <glyph glyph-name="f" unicode="f" horiz-adv-x="269" 
d="M92 431v-431h55v431h109l-21 41h-88v100q0 82 69 82q9 0 22 -3t19 -6l12 44q-34 13 -66 13q-53 0 -82 -37.5t-29 -101.5v-91h-73v-41h73z" />
    <glyph glyph-name="g" unicode="g" horiz-adv-x="510" 
d="M436 485v-547q0 -74 -52.5 -121t-145.5 -47q-33 0 -85.5 12t-79.5 29l19 40q36 -17 68 -25.5t76 -9.5q64 0 104.5 30t40.5 87v102q-58 -48 -129 -48q-104 0 -159 70t-55 187q0 73 25.5 130.5t75 90.5t119.5 33q64 0 132 -52l13 39h33zM323 48.5q30 15.5 58 44.5v307
q-28 24 -57.5 38t-68.5 14q-77 0 -118.5 -58.5t-42.5 -148.5q0 -94 40 -153t118 -59q41 0 71 15.5z" />
    <glyph glyph-name="h" unicode="h" horiz-adv-x="517" 
d="M418 454.5q36 -43.5 36 -117.5v-337h-55v331q0 120 -93 120q-40 0 -87 -27t-86 -71v-353h-55v696l55 10v-295q31 37 80.5 62t93.5 25q75 0 111 -43.5z" />
    <glyph glyph-name="i" unicode="i" horiz-adv-x="191" 
d="M125.5 608q12.5 12 12.5 30t-12.5 30t-30.5 12q-19 0 -30.5 -12t-11.5 -30t11.5 -30t30.5 -12q18 0 30.5 12zM123 0v485h-55v-485h55z" />
    <glyph glyph-name="j" unicode="j" horiz-adv-x="210" 
d="M72.5 608q-11.5 12 -11.5 30t11.5 30t30.5 12q18 0 30.5 -12t12.5 -30t-12.5 -30t-30.5 -12q-19 0 -30.5 12zM132 -62q0 -46 -8 -73.5t-32 -48t-71 -35.5l-21 39q34 13 50 27.5t21.5 37t4.5 64.5v536h56v-547z" />
    <glyph glyph-name="k" unicode="k" horiz-adv-x="453" 
d="M133 0v199l73 74l180 -273h67l-211 309l154 155l-38 34l-225 -233v441l-55 -10v-696h55z" />
    <glyph glyph-name="l" unicode="l" horiz-adv-x="210" 
d="M133 0v706l-55 -10v-696h55z" />
    <glyph glyph-name="m" unicode="m" horiz-adv-x="784" 
d="M688 455q33 -43 33 -118v-337h-55v331q0 57 -18 88.5t-65 31.5q-34 0 -77 -24.5t-81 -64.5q1 -8 1 -25v-337h-55v331q0 57 -17.5 88.5t-64.5 31.5q-36 0 -81.5 -27t-84.5 -71v-353h-55v485h44l10 -75q31 36 80 62t88 26q100 0 126 -88q31 36 80 62t88 26q71 0 104 -43z
" />
    <glyph glyph-name="n" unicode="n" 
d="M123 353q39 44 86 71t87 27q93 0 93 -120v-331h55v337q0 74 -36 117.5t-111 43.5q-44 0 -94 -25.5t-81 -62.5l-10 75h-44v-485h55v353z" />
    <glyph glyph-name="o" unicode="o" horiz-adv-x="525" 
d="M459.5 110.5q-27.5 -57.5 -79 -90.5t-121.5 -33q-105 0 -163 71t-58 187q0 72 27.5 129.5t79 90.5t121.5 33q106 -1 163.5 -70.5t57.5 -187.5q0 -72 -27.5 -129.5zM350.5 60.5q38.5 27.5 59 74.5t21.5 104q0 93 -43.5 153t-122.5 60q-52 0 -90.5 -27.5t-59 -74.5
t-21.5 -104q0 -93 43.5 -153t122.5 -60q52 0 90.5 27.5z" />
    <glyph glyph-name="p" unicode="p" horiz-adv-x="512" 
d="M418.5 428q55.5 -70 55.5 -187q0 -73 -25.5 -130.5t-75 -90.5t-119.5 -33q-33 0 -65.5 13t-59.5 34v-242l-55 -11v704h34l13 -43q61 56 138 56q104 0 159.5 -70zM375 92q42 59 42 148q0 95 -39.5 153.5t-117.5 58.5q-42 0 -72.5 -16t-58.5 -45v-305q28 -24 58.5 -38.5
t68.5 -14.5q77 0 119 59z" />
    <glyph glyph-name="q" unicode="q" horiz-adv-x="510" 
d="M436 485v-693l-55 -11v254q-58 -48 -129 -48q-104 0 -159 70t-55 187q0 73 25.5 130.5t75 90.5t119.5 33q63 0 131 -52l14 39h33zM323 48.5q30 15.5 58 44.5v307q-28 24 -57.5 38t-68.5 14q-77 0 -118.5 -58.5t-42.5 -148.5q0 -94 40 -153t118 -59q41 0 71 15.5z" />
    <glyph glyph-name="r" unicode="r" horiz-adv-x="306" 
d="M123 352q31 34 80.5 62t92.5 28l-17 43q-34 0 -79.5 -24.5t-79.5 -52.5l-18 77h-34v-485h55v352z" />
    <glyph glyph-name="s" unicode="s" horiz-adv-x="412" 
d="M112 -2.5q44 -10.5 78 -10.5q91 0 137.5 35.5t46.5 100.5q0 50 -42.5 85.5t-111.5 61.5q-59 22 -91 44.5t-32 53.5q0 36 32 60.5t82 24.5q39 0 65.5 -9t60.5 -25l20 39q-24 17 -66 28.5t-75 11.5q-81 0 -126.5 -36.5t-45.5 -97.5q0 -85 148 -138q130 -48 130 -107
q0 -41 -35 -64t-95 -23q-58 0 -132 36l-18 -43q26 -17 70 -27.5z" />
    <glyph glyph-name="t" unicode="t" horiz-adv-x="295" 
d="M146 472v151l-55 -22v-129h-72v-41h72v-315q0 -62 29.5 -95.5t80.5 -33.5q19 0 39 5q24 7 27 7l-12 44q-21 -9 -41 -9q-35 0 -51.5 25t-16.5 64v308h109l-21 41h-88z" />
    <glyph glyph-name="u" unicode="u" 
d="M385 132q-39 -44 -86.5 -71t-87.5 -27q-50 0 -71 32t-21 88v331h-55v-337q0 -74 35.5 -117.5t110.5 -43.5q44 0 94 26t82 63l10 -76h44v485h-55v-353z" />
    <glyph glyph-name="v" unicode="v" horiz-adv-x="434" 
d="M245 0l179 485h-55l-152 -418l-158 428l-49 -22l179 -473h56z" />
    <glyph glyph-name="w" unicode="w" horiz-adv-x="642" 
d="M492 0l140 485h-55l-113 -412l-121 412h-50l-117 -412l-117 421l-49 -22l139 -472h56l110 402l120 -402h57z" />
    <glyph glyph-name="x" unicode="x" horiz-adv-x="416" 
d="M72 0l129 203l131 -203h61l-150 232l163 253h-60l-132 -212l-137 221l-49 -22l144 -228l-162 -244h62z" />
    <glyph glyph-name="y" unicode="y" horiz-adv-x="434" 
d="M127.5 -146q-21.5 -17 -63.5 -34l10 -39q48 10 83 38t50 69l217 597h-55l-152 -417l-160 426l-47 -22l183 -475l-32 -95q-12 -31 -33.5 -48z" />
    <glyph glyph-name="z" unicode="z" horiz-adv-x="432" 
d="M403 485h-348l16 -43h270l-315 -411l8 -31h366l-10 42h-302l318 411z" />
    <glyph glyph-name="braceleft" unicode="{" horiz-adv-x="265" 
d="M178 348.5q17 27.5 17 70.5q0 28 -19 70t-19 71q0 23 19 40t53 17h19l7 42h-26q-61 0 -92.5 -28t-31.5 -77q0 -31 18 -72q18 -40 18 -72q0 -36 -23.5 -59.5t-54.5 -23.5h-33v-39h33q31 0 54.5 -23.5t23.5 -59.5q0 -30 -18 -71q-18 -40 -18 -72q0 -50 31 -78t93 -28h26
l-7 42h-19q-35 0 -53.5 17t-18.5 41q0 28 19 70t19 71q0 41 -17.5 70t-46.5 42q30 12 47 39.5z" />
    <glyph glyph-name="bar" unicode="|" horiz-adv-x="250" 
d="M98 710v-710l55 -4v710z" />
    <glyph glyph-name="braceright" unicode="}" horiz-adv-x="265" 
d="M87.5 267q-17.5 -28 -17.5 -70q0 -29 19 -71t19 -70q0 -24 -18.5 -41t-53.5 -17h-19l-7 -42h26q62 0 93 28t31 78q0 32 -18 72q-18 41 -18 71q0 36 23.5 60t54.5 24h33v38h-33q-31 0 -54.5 23.5t-23.5 59.5q0 32 18 72q18 41 18 72q0 49 -31.5 77t-92.5 28h-26l7 -42h19
q34 0 53 -17t19 -40q0 -29 -19 -71t-19 -70q0 -42 17.5 -70.5t47.5 -41.5q-30 -12 -47.5 -40z" />
    <glyph glyph-name="asciitilde" unicode="~" horiz-adv-x="378" 
d="M72 210q1 20 15 31t33 11q31 0 68 -24q36 -24 70 -24q41 0 65.5 22t24.5 63h-44q0 -19 -13.5 -30.5t-33.5 -11.5q-27 0 -60 24q-34 24 -77 24q-41 0 -65.5 -22t-24.5 -63h42z" />
    <glyph glyph-name="uni00A0" unicode="&#xa0;" horiz-adv-x="233" 
 />
    <glyph glyph-name="exclamdown" unicode="&#xa1;" horiz-adv-x="146" 
d="M104 628.5q12 12.5 12 30.5t-12 30.5t-30 12.5t-30.5 -13t-12.5 -30t12.5 -30t30.5 -13t30 12.5zM91 502l-43 21l-12 -523h63z" />
    <glyph glyph-name="cent" unicode="&#xa2;" horiz-adv-x="450" 
d="M411 28q-22 -14 -55.5 -24.5t-65.5 -14.5v-100h-47v99q-97 6 -151 76t-54 181q0 105 55 174.5t150 77.5v98l47 10v-109q32 -3 67.5 -14t58.5 -26l-20 -38q-36 17 -62 25.5t-69 8.5q-52 0 -90.5 -27.5t-59 -74.5t-21.5 -104q0 -93 43.5 -153t122.5 -60q32 0 54.5 4.5
t41 12.5t35.5 17z" />
    <glyph glyph-name="sterling" unicode="&#xa3;" horiz-adv-x="428" 
d="M418 0l-6 44h-260q18 18 26 43.5t8 60.5v184h160l-22 41h-138v181q0 83 69 83q9 0 21.5 -3.5t19.5 -6.5l12 44q-34 13 -66 13q-53 0 -82 -37.5t-29 -101.5v-172h-73l2 -41h71v-205q0 -82 -67 -83l4 -44h350z" />
    <glyph glyph-name="currency" unicode="&#xa4;" horiz-adv-x="662" 
d="M166 48q64 -61 159 -61q50 0 93 16.5t75 46.5l108 -106l31 36l-106 107q47 64 49 152q0 45 -12 86t-35 73l104 105l-31 37l-104 -104q-67 62 -162 62q-48 0 -91 -17t-76 -47l-107 106l-31 -37l106 -105q-48 -65 -48 -152q0 -95 46 -162l-104 -104l31 -36zM493.5 135
q-24.5 -47 -68.5 -74t-99 -27q-53 0 -94.5 27.5t-64.5 75.5t-23 109q0 56 25 103t68.5 74.5t98.5 27.5q56 0 97.5 -28.5t63 -76.5t21.5 -107q0 -57 -24.5 -104z" />
    <glyph glyph-name="yen" unicode="&#xa5;" horiz-adv-x="537" 
d="M479 259h-189v-131h182l7 -44h-189v-84h-55v84h-170l-7 44h177v131h-170l-7 44h159l-207 363l52 26l200 -364l204 352h61l-222 -377h167z" />
    <glyph glyph-name="brokenbar" unicode="&#xa6;" horiz-adv-x="250" 
d="M98 710v-300l55 -4v300zM98 292v-292l55 -4v292z" />
    <glyph glyph-name="section" unicode="&#xa7;" horiz-adv-x="566" 
d="M511 169q-18 -34 -53 -57q10 -24 10 -59q0 -77 -61 -124.5t-170 -47.5q-43 0 -100 13t-82 29l15 44q32 -16 76 -27.5t90 -11.5q83 0 130 36t47 90t-43 91.5t-139 77.5q-92 38 -137.5 87.5t-45.5 116.5q0 40 18.5 72.5t53.5 54.5q-12 29 -12 63q0 46 25.5 83.5t73 58.5
t110.5 21q47 0 90.5 -11t77.5 -28l-22 -41q-36 16 -67 25t-77 9q-71 0 -113.5 -33.5t-42.5 -86.5q0 -54 43 -91.5t141 -80.5q96 -43 139 -87t43 -112q0 -40 -18 -74zM474 244q0 54 -43 91.5t-140 77.5q-103 44 -146 98q-43 -35 -43 -87q0 -54 43 -91.5t141 -80.5
q53 -24 88.5 -46.5t57.5 -48.5q42 35 42 87z" />
    <glyph glyph-name="dieresis" unicode="&#xa8;" horiz-adv-x="258" 
d="M78.5 629.5q11.5 11.5 11.5 28.5q0 16 -11.5 27.5t-28.5 11.5t-28.5 -11t-11.5 -28t11.5 -28.5t28.5 -11.5t28.5 11.5zM236.5 629.5q11.5 11.5 11.5 28.5q0 16 -11.5 27.5t-28.5 11.5q-18 0 -29 -11t-11 -28t11 -28.5t29 -11.5q17 0 28.5 11.5z" />
    <glyph glyph-name="copyright" unicode="&#xa9;" horiz-adv-x="789" 
d="M706.5 516q-44.5 81 -125.5 127.5t-187 46.5t-187 -46.5t-125 -127.5t-44 -180t43.5 -179t124 -126.5t188.5 -46.5q106 0 187 46.5t125.5 127t44.5 178.5q0 99 -44.5 180zM127.5 495.5q37.5 70.5 106.5 111t160 40.5t160.5 -40.5t107.5 -111.5t38 -158t-38 -158
t-107.5 -111.5t-160.5 -40.5t-160 40.5t-106.5 111t-37.5 158.5t37.5 158.5zM479 125.5q40 11.5 64 30.5l-20 36q-29 -17 -54.5 -25.5t-62.5 -8.5q-74 0 -113.5 48.5t-39.5 135.5q0 82 41.5 131.5t113.5 49.5q38 0 63.5 -9t53.5 -25l20 37q-23 19 -63 30.5t-72 11.5
q-63 0 -111 -28t-74.5 -79t-26.5 -120q0 -104 57 -165.5t152 -61.5q32 0 72 11.5z" />
    <glyph glyph-name="ordfeminine" unicode="&#xaa;" horiz-adv-x="332" 
d="M93.5 644.5q15.5 6.5 32.5 10t38 3.5q39 0 59.5 -20.5t20.5 -55.5v-20h-86q-52 0 -86 -26t-34 -71q0 -43 32 -72.5t83 -29.5q26 0 51.5 13t42.5 32l11 -36h36v208q0 50 -35 86t-96 36q-22 0 -53.5 -8.5t-49.5 -20.5l12 -37q6 2 21.5 8.5zM109 509q22 17 58 17h77v-70
q-17 -23 -41 -38t-50 -15q-29 0 -47.5 18.5t-18.5 43.5q0 27 22 44z" />
    <glyph glyph-name="guillemotleft" unicode="&#xab;" horiz-adv-x="363" 
d="M30 226l140 -142l21 36l-117 125l117 125l-21 36l-140 -142v-38zM182 226l140 -142l21 36l-118 125l118 125l-21 36l-140 -142v-38z" />
    <glyph glyph-name="logicalnot" unicode="&#xac;" horiz-adv-x="509" 
d="M471 406h-461l8 -44h408v-245l53 -5v244z" />
    <glyph glyph-name="softhyphen" unicode="&#xad;" horiz-adv-x="120" 
 />
    <glyph glyph-name="registered" unicode="&#xae;" horiz-adv-x="710" 
d="M633 646.5q-40 71.5 -112 112.5t-165 41q-95 0 -167 -41t-111.5 -112.5t-39.5 -159.5q0 -87 40 -158t112.5 -112t165.5 -41t165 41t112 112t40 158q0 88 -40 159.5zM121 626.5q33 61.5 93.5 96.5t141.5 35q80 0 140 -35t92.5 -96.5t32.5 -138.5q0 -76 -32.5 -137.5
t-92.5 -97t-140 -35.5q-81 0 -141.5 35.5t-93.5 97t-33 137.5q0 77 33 138.5zM409 472q30 13 49.5 38.5t19.5 61.5q0 56 -36.5 82t-99.5 26h-92v-376h45v158h42q10 0 15 1h14l90 -159h52zM406 630q25 -14 25 -59q0 -42 -28.5 -58t-76.5 -16h-31v147h36q50 0 75 -14z" />
    <glyph glyph-name="macron" unicode="&#xaf;" horiz-adv-x="261" 
d="M10 640h241l-6 43h-235v-43z" />
    <glyph glyph-name="degree" unicode="&#xb0;" horiz-adv-x="238" 
d="M41 672q-31 -30 -31 -73q0 -44 30.5 -72.5t75.5 -28.5q46 0 76.5 28.5t30.5 72.5q0 43 -31 73t-76 30q-44 0 -75 -30zM71.5 553.5q-18.5 20.5 -18.5 46.5t18 45.5t45 19.5t46 -20t19 -45q0 -26 -17.5 -46.5t-45.5 -20.5t-46.5 20.5z" />
    <glyph glyph-name="plusminus" unicode="&#xb1;" horiz-adv-x="492" 
d="M450 347h-181v184l-52 3v-187h-187l8 -42h179v-192l52 -5v197h189zM454 42h-424l8 -42h424z" />
    <glyph glyph-name="twosuperior" unicode="&#xb2;" horiz-adv-x="347" 
d="M97.5 760q-39.5 -11 -68.5 -27l19 -37q24 13 58.5 24t63.5 11q47 0 70 -25.5t23 -58.5q0 -24 -16 -55q-17 -32 -66 -77l-156 -139v-40h302l-6 38h-239l125 109q57 50 81.5 88t24.5 79q0 30 -15 57.5t-47 45.5t-79 18q-35 0 -74.5 -11z" />
    <glyph glyph-name="threesuperior" unicode="&#xb3;" horiz-adv-x="354" 
d="M77.5 759.5q-34.5 -11.5 -68.5 -32.5l22 -34q59 38 123 38q45 0 71.5 -23t26.5 -58q0 -44 -31.5 -69t-92.5 -25h-32l7 -38h20q75 0 107 -26t32 -77q0 -44 -33.5 -69.5t-81.5 -25.5q-40 0 -67 8t-56 25l-24 -35q30 -17 67 -28.5t76 -11.5q77 0 122.5 39.5t45.5 98.5
q0 47 -24 79.5t-67 42.5q35 12 58.5 42.5t23.5 70.5q0 52 -37.5 86t-109.5 34q-43 0 -77.5 -11.5z" />
    <glyph glyph-name="acute" unicode="&#xb4;" horiz-adv-x="141" 
d="M46 589l85 153h-66l-55 -141z" />
    <glyph glyph-name="mu" unicode="&#xb5;" horiz-adv-x="517" 
d="M450 485v-485h-44l-10 76q-32 -37 -82 -63t-94 -26q-56 0 -91 26v-221l-55 -11v704h55v-331q0 -56 21 -88t71 -32q40 0 87.5 27t86.5 71v353h55z" />
    <glyph glyph-name="paragraph" unicode="&#xb6;" horiz-adv-x="810" 
d="M387 636h225v-636h55v636h106v44h-490q-113 0 -179 -51t-66 -154t72 -157t184 -54h38v-264h55v636z" />
    <glyph glyph-name="periodcentered" unicode="&#xb7;" horiz-adv-x="145" 
d="M102.5 232q12.5 13 12.5 30q0 18 -12.5 30t-29.5 12q-19 0 -31 -12t-12 -30t12.5 -30.5t30.5 -12.5q17 0 29.5 13z" />
    <glyph glyph-name="cedilla" unicode="&#xb8;" horiz-adv-x="206" 
d="M121.5 -97q26.5 -17 26.5 -39q0 -19 -19 -31.5t-45 -12.5q-25 0 -59 14l-15 -36q12 -8 34.5 -13.5t41.5 -5.5q48 0 79 23t31 64q0 27 -24 51t-62 31l26 65h-47l-35 -92q41 -1 67.5 -18z" />
    <glyph glyph-name="onesuperior" unicode="&#xb9;" horiz-adv-x="243" 
d="M166 336v429h-30l-126 -65l23 -31l84 42v-375h49z" />
    <glyph glyph-name="ordmasculine" unicode="&#xba;" horiz-adv-x="362" 
d="M103 681q-35 -21 -55.5 -59.5t-20.5 -89.5q0 -79 43.5 -124t109.5 -45q43 0 78.5 21t56 59t20.5 89q0 79 -44 124.5t-111 45.5q-42 0 -77 -21zM252.5 626q29.5 -34 29.5 -94q0 -61 -30.5 -94t-71.5 -33q-42 0 -71.5 34t-29.5 93q0 61 30.5 94.5t70.5 33.5q43 0 72.5 -34z
" />
    <glyph glyph-name="guillemotright" unicode="&#xbb;" horiz-adv-x="363" 
d="M182 264l-140 142l-22 -36l118 -125l-118 -125l22 -36l140 142v38zM333 264l-139 142l-22 -36l118 -125l-118 -125l22 -36l139 142v38z" />
    <glyph glyph-name="onequarter" unicode="&#xbc;" horiz-adv-x="716" 
d="M166 336v429h-30l-126 -65l23 -31l84 42v-375h49zM536 700l-502 -834h55l496 834h-49zM696 -31h-81v352h-32l-253 -352l4 -39h233v-93h48v93h77zM567 230v-261h-185z" />
    <glyph glyph-name="onehalf" unicode="&#xbd;" horiz-adv-x="750" 
d="M166 336v429h-30l-126 -65l23 -31l84 42v-375h49zM532 700l-502 -834h55l496 834h-49zM501 313.5q-40 -11.5 -68 -26.5l19 -37q24 13 58.5 24t63.5 11q47 0 70 -25.5t23 -58.5q0 -24 -16 -55q-17 -32 -66 -77l-156 -139v-40h301l-6 38h-238l125 109q56 50 80.5 88
t24.5 79q0 30 -15 57.5t-46.5 45.5t-78.5 18q-35 0 -75 -11.5z" />
    <glyph glyph-name="threequarters" unicode="&#xbe;" horiz-adv-x="767" 
d="M77.5 759.5q-34.5 -11.5 -68.5 -32.5l22 -34q59 38 123 38q45 0 71.5 -23t26.5 -58q0 -44 -31.5 -69t-92.5 -25h-32l7 -38h20q75 0 107 -26t32 -77q0 -44 -33.5 -69.5t-81.5 -25.5q-40 0 -67 8t-56 25l-24 -35q30 -17 67 -28.5t76 -11.5q77 0 122.5 39.5t45.5 98.5
q0 47 -24 79.5t-67 42.5q35 12 58.5 42.5t23.5 70.5q0 52 -37.5 86t-109.5 34q-43 0 -77.5 -11.5zM616 700l-501 -834h54l497 834h-50zM747 -31h-82v352h-32l-253 -352l4 -39h233v-93h48v93h78zM617 230v-261h-185z" />
    <glyph glyph-name="questiondown" unicode="&#xbf;" horiz-adv-x="398" 
d="M270.5 548.5q12.5 12.5 12.5 30.5t-12.5 30.5t-30.5 12.5q-17 0 -30 -13t-13 -30t13 -30t30 -13q18 0 30.5 12.5zM308.5 -64q42.5 16 79.5 44l-8 48q-45 -32 -80.5 -46.5t-85.5 -14.5q-61 0 -93 29.5t-32 88.5q0 56 47 102.5t126 71.5l-7 205l-39 20l-9 -194
q-82 -36 -129.5 -92.5t-47.5 -114.5q0 -75 45.5 -119t136.5 -44q54 0 96.5 16z" />
    <glyph glyph-name="Agrave" unicode="&#xc0;" horiz-adv-x="581" 
d="M257 680l-247 -680h54l76 209h296l80 -215l55 11l-259 675h-55zM420 253h-265l130 355zM287 739l36 12l-55 141h-66z" />
    <glyph glyph-name="Aacute" unicode="&#xc1;" horiz-adv-x="581" 
d="M257 680l-247 -680h54l76 209h296l80 -215l55 11l-259 675h-55zM420 253h-265l130 355zM289 739l85 153h-66l-55 -141z" />
    <glyph glyph-name="Acircumflex" unicode="&#xc2;" horiz-adv-x="581" 
d="M257 680l-247 -680h54l76 209h296l80 -215l55 11l-259 675h-55zM420 253h-265l130 355zM285 853l79 -113l49 12l-104 141h-49l-103 -143l47 -10z" />
    <glyph glyph-name="Atilde" unicode="&#xc3;" horiz-adv-x="581" 
d="M257 680l-247 -680h54l76 209h296l80 -215l55 11l-259 675h-55zM420 253h-265l130 355zM363.5 813.5q-11.5 -12.5 -28.5 -12.5q-25 0 -48 26t-65 26q-37 0 -60 -22t-23 -69h42q2 23 13.5 36t28.5 13q24 0 52 -26q26 -27 60 -27q37 0 60 22t23 69h-41q-2 -23 -13.5 -35.5z
" />
    <glyph glyph-name="Adieresis" unicode="&#xc4;" horiz-adv-x="581" 
d="M257 680l-247 -680h54l76 209h296l80 -215l55 11l-259 675h-55zM420 253h-265l130 355zM231.5 779.5q11.5 11.5 11.5 28.5q0 16 -11.5 27.5t-28.5 11.5t-28.5 -11t-11.5 -28t11.5 -28.5t28.5 -11.5t28.5 11.5zM389.5 779.5q11.5 11.5 11.5 28.5q0 16 -11.5 27.5
t-28.5 11.5q-18 0 -29 -11t-11 -28t11 -28.5t29 -11.5q17 0 28.5 11.5z" />
    <glyph glyph-name="Aring" unicode="&#xc5;" horiz-adv-x="581" 
d="M257 680l-247 -680h54l76 209h296l80 -215l55 11l-259 675h-55zM420 253h-265l130 355zM221.5 885q-26.5 -24 -26.5 -60q0 -35 26 -58t63 -23t62.5 23t25.5 58q0 36 -26 60t-62 24t-62.5 -24zM250.5 791.5q-13.5 13.5 -13.5 33.5q0 21 13.5 35t33.5 14t33.5 -14t13.5 -35
q0 -20 -13.5 -33.5t-33.5 -13.5t-33.5 13.5z" />
    <glyph glyph-name="AE" unicode="&#xc6;" horiz-adv-x="835" 
d="M434 0h381l-5 44h-321v284h245l-5 41h-240v269h304l-5 42h-362l-416 -675l53 -10l128 214h243v-209zM434 604v-351h-215z" />
    <glyph glyph-name="Ccedilla" unicode="&#xc7;" horiz-adv-x="553" 
d="M457 -1.5q-44 -10.5 -85 -12.5l-15 -38q38 -7 62 -31t24 -51q0 -41 -31 -64t-79 -23q-19 0 -41.5 5.5t-34.5 13.5l15 36q34 -14 59 -14q26 0 45 12.5t19 31.5q0 22 -26.5 39t-67.5 18l25 66q-91 7 -153.5 56t-93.5 125.5t-31 167.5q0 100 38 181.5t109 129t166 47.5
q37 0 88.5 -10t76.5 -27l-20 -41q-38 16 -67 23t-78 7q-71 0 -129 -39.5t-91 -109.5t-33 -160q0 -83 29 -151.5t84.5 -109.5t130.5 -41q49 0 83.5 8t66.5 22l24 -42q-25 -14 -69 -24.5z" />
    <glyph glyph-name="Egrave" unicode="&#xc8;" horiz-adv-x="499" 
d="M479 0l-6 44h-320v284h245l-5 41h-240v269h303l-5 42h-353v-680h381zM278 739l36 12l-55 141h-66z" />
    <glyph glyph-name="Eacute" unicode="&#xc9;" horiz-adv-x="499" 
d="M479 0l-6 44h-320v284h245l-5 41h-240v269h303l-5 42h-353v-680h381zM280 739l85 153h-66l-55 -141z" />
    <glyph glyph-name="Ecircumflex" unicode="&#xca;" horiz-adv-x="499" 
d="M479 0l-6 44h-320v284h245l-5 41h-240v269h303l-5 42h-353v-680h381zM276 853l79 -113l49 12l-104 141h-49l-103 -143l47 -10z" />
    <glyph glyph-name="Edieresis" unicode="&#xcb;" horiz-adv-x="499" 
d="M479 0l-6 44h-320v284h245l-5 41h-240v269h303l-5 42h-353v-680h381zM222.5 779.5q11.5 11.5 11.5 28.5q0 16 -11.5 27.5t-28.5 11.5t-28.5 -11t-11.5 -28t11.5 -28.5t28.5 -11.5t28.5 11.5zM380.5 779.5q11.5 11.5 11.5 28.5q0 16 -11.5 27.5t-28.5 11.5q-18 0 -29 -11
t-11 -28t11 -28.5t29 -11.5q17 0 28.5 11.5z" />
    <glyph glyph-name="Igrave" unicode="&#xcc;" horiz-adv-x="250" 
d="M153 0v680h-55v-680h55zM128 739l36 12l-55 141h-66z" />
    <glyph glyph-name="Iacute" unicode="&#xcd;" horiz-adv-x="250" 
d="M153 0v680h-55v-680h55zM130 739l85 153h-66l-55 -141z" />
    <glyph glyph-name="Icircumflex" unicode="&#xce;" horiz-adv-x="250" 
d="M153 0v680h-55v-680h55zM126 853l79 -113l49 12l-104 141h-49l-103 -143l47 -10z" />
    <glyph glyph-name="Idieresis" unicode="&#xcf;" horiz-adv-x="250" 
d="M153 0v680h-55v-680h55zM72.5 779.5q11.5 11.5 11.5 28.5q0 16 -11.5 27.5t-28.5 11.5t-28.5 -11t-11.5 -28t11.5 -28.5t28.5 -11.5t28.5 11.5zM230.5 779.5q11.5 11.5 11.5 28.5q0 16 -11.5 27.5t-28.5 11.5q-18 0 -29 -11t-11 -28t11 -28.5t29 -11.5q17 0 28.5 11.5z
" />
    <glyph glyph-name="Eth" unicode="&#xd0;" horiz-adv-x="663" 
d="M544 587q71 -93 71 -243q0 -97 -33 -175t-99.5 -123.5t-162.5 -45.5h-222v312h-74l-9 44h83v324h227q148 0 219 -93zM446 83q54 38 84 105.5t30 154.5q0 83 -25.5 149t-77 104.5t-126.5 38.5h-178v-279h110l9 -44h-119v-267h168q71 0 125 38z" />
    <glyph glyph-name="Ntilde" unicode="&#xd1;" horiz-adv-x="670" 
d="M153 0v568l14 -29l372 -539h34v680h-56v-561l-34 59l-351 502h-34v-680h55zM413.5 813.5q-11.5 -12.5 -28.5 -12.5q-25 0 -48 26t-65 26q-37 0 -60 -22t-23 -69h42q2 23 13.5 36t28.5 13q24 0 52 -26q26 -27 60 -27q37 0 60 22t23 69h-41q-2 -23 -13.5 -35.5z" />
    <glyph glyph-name="Ograve" unicode="&#xd2;" horiz-adv-x="713" 
d="M199.5 648.5q-71.5 -46.5 -111.5 -128t-40 -183.5q0 -101 39.5 -181t109 -125t157.5 -45q89 0 160 46.5t111.5 128.5t40.5 184q0 101 -39.5 181t-109.5 125t-157 45q-89 -1 -160.5 -47.5zM140.5 497q32.5 71 90.5 111t130 40q70 0 125.5 -39t87 -108.5t31.5 -156.5
q0 -89 -32.5 -160t-90 -111t-130.5 -40q-70 0 -125.5 39.5t-87 109t-31.5 156.5q0 88 32.5 159zM362 739l36 12l-55 141h-66z" />
    <glyph glyph-name="Oacute" unicode="&#xd3;" horiz-adv-x="713" 
d="M199.5 648.5q-71.5 -46.5 -111.5 -128t-40 -183.5q0 -101 39.5 -181t109 -125t157.5 -45q89 0 160 46.5t111.5 128.5t40.5 184q0 101 -39.5 181t-109.5 125t-157 45q-89 -1 -160.5 -47.5zM140.5 497q32.5 71 90.5 111t130 40q70 0 125.5 -39t87 -108.5t31.5 -156.5
q0 -89 -32.5 -160t-90 -111t-130.5 -40q-70 0 -125.5 39.5t-87 109t-31.5 156.5q0 88 32.5 159zM364 739l85 153h-66l-55 -141z" />
    <glyph glyph-name="Ocircumflex" unicode="&#xd4;" horiz-adv-x="713" 
d="M199.5 648.5q-71.5 -46.5 -111.5 -128t-40 -183.5q0 -101 39.5 -181t109 -125t157.5 -45q89 0 160 46.5t111.5 128.5t40.5 184q0 101 -39.5 181t-109.5 125t-157 45q-89 -1 -160.5 -47.5zM140.5 497q32.5 71 90.5 111t130 40q70 0 125.5 -39t87 -108.5t31.5 -156.5
q0 -89 -32.5 -160t-90 -111t-130.5 -40q-70 0 -125.5 39.5t-87 109t-31.5 156.5q0 88 32.5 159zM360 853l79 -113l49 12l-104 141h-49l-103 -143l47 -10z" />
    <glyph glyph-name="Otilde" unicode="&#xd5;" horiz-adv-x="713" 
d="M199.5 648.5q-71.5 -46.5 -111.5 -128t-40 -183.5q0 -101 39.5 -181t109 -125t157.5 -45q89 0 160 46.5t111.5 128.5t40.5 184q0 101 -39.5 181t-109.5 125t-157 45q-89 -1 -160.5 -47.5zM140.5 497q32.5 71 90.5 111t130 40q70 0 125.5 -39t87 -108.5t31.5 -156.5
q0 -89 -32.5 -160t-90 -111t-130.5 -40q-70 0 -125.5 39.5t-87 109t-31.5 156.5q0 88 32.5 159zM438.5 813.5q-11.5 -12.5 -28.5 -12.5q-25 0 -48 26t-65 26q-37 0 -60 -22t-23 -69h42q2 23 13.5 36t28.5 13q24 0 52 -26q26 -27 60 -27q37 0 60 22t23 69h-41
q-2 -23 -13.5 -35.5z" />
    <glyph glyph-name="Odieresis" unicode="&#xd6;" horiz-adv-x="713" 
d="M199.5 648.5q-71.5 -46.5 -111.5 -128t-40 -183.5q0 -101 39.5 -181t109 -125t157.5 -45q89 0 160 46.5t111.5 128.5t40.5 184q0 101 -39.5 181t-109.5 125t-157 45q-89 -1 -160.5 -47.5zM140.5 497q32.5 71 90.5 111t130 40q70 0 125.5 -39t87 -108.5t31.5 -156.5
q0 -89 -32.5 -160t-90 -111t-130.5 -40q-70 0 -125.5 39.5t-87 109t-31.5 156.5q0 88 32.5 159zM306.5 779.5q11.5 11.5 11.5 28.5q0 16 -11.5 27.5t-28.5 11.5t-28.5 -11t-11.5 -28t11.5 -28.5t28.5 -11.5t28.5 11.5zM464.5 779.5q11.5 11.5 11.5 28.5q0 16 -11.5 27.5
t-28.5 11.5q-18 0 -29 -11t-11 -28t11 -28.5t29 -11.5q17 0 28.5 11.5z" />
    <glyph glyph-name="multiply" unicode="&#xd7;" horiz-adv-x="478" 
d="M265 245l167 -214h-56l-139 174l-150 -174h-57l183 219l-166 214h55l138 -174l152 174h56z" />
    <glyph glyph-name="Oslash" unicode="&#xd8;" horiz-adv-x="713" 
d="M517 651q70 -45 109.5 -125t39.5 -181q0 -102 -40.5 -184t-111.5 -128.5t-160 -46.5q-88 0 -157.5 45t-109 125t-39.5 181q0 102 40 183.5t111.5 128t160.5 47.5q87 0 157 -45zM137 187q29 -67 80 -107l236 548q-43 20 -92 20q-72 0 -130 -40t-90.5 -111t-32.5 -159
q0 -84 29 -151zM482.5 73q57.5 40 90 111t32.5 160q0 82 -28.5 149.5t-78.5 106.5l-236 -548q43 -19 90 -19q73 0 130.5 40z" />
    <glyph glyph-name="Ugrave" unicode="&#xd9;" horiz-adv-x="665" 
d="M88 680v-441q0 -73 29.5 -130t84.5 -89t130 -32q76 0 131.5 32t84.5 89t29 130v441h-55v-438q0 -58 -23 -105.5t-66 -74.5t-101 -27q-56 0 -99 27.5t-66.5 74.5t-23.5 105v438h-55zM334 739l36 12l-55 141h-66z" />
    <glyph glyph-name="Uacute" unicode="&#xda;" horiz-adv-x="665" 
d="M88 680v-441q0 -73 29.5 -130t84.5 -89t130 -32q76 0 131.5 32t84.5 89t29 130v441h-55v-438q0 -58 -23 -105.5t-66 -74.5t-101 -27q-56 0 -99 27.5t-66.5 74.5t-23.5 105v438h-55zM336 739l85 153h-66l-55 -141z" />
    <glyph glyph-name="Ucircumflex" unicode="&#xdb;" horiz-adv-x="665" 
d="M88 680v-441q0 -73 29.5 -130t84.5 -89t130 -32q76 0 131.5 32t84.5 89t29 130v441h-55v-438q0 -58 -23 -105.5t-66 -74.5t-101 -27q-56 0 -99 27.5t-66.5 74.5t-23.5 105v438h-55zM332 853l79 -113l49 12l-104 141h-49l-103 -143l47 -10z" />
    <glyph glyph-name="Udieresis" unicode="&#xdc;" horiz-adv-x="665" 
d="M88 680v-441q0 -73 29.5 -130t84.5 -89t130 -32q76 0 131.5 32t84.5 89t29 130v441h-55v-438q0 -58 -23 -105.5t-66 -74.5t-101 -27q-56 0 -99 27.5t-66.5 74.5t-23.5 105v438h-55zM278.5 779.5q11.5 11.5 11.5 28.5q0 16 -11.5 27.5t-28.5 11.5t-28.5 -11t-11.5 -28
t11.5 -28.5t28.5 -11.5t28.5 11.5zM436.5 779.5q11.5 11.5 11.5 28.5q0 16 -11.5 27.5t-28.5 11.5q-18 0 -29 -11t-11 -28t11 -28.5t29 -11.5q17 0 28.5 11.5z" />
    <glyph glyph-name="Yacute" unicode="&#xdd;" horiz-adv-x="537" 
d="M290 0v278l237 402h-61l-204 -352l-200 364l-52 -26l225 -394v-272h55zM266 739l85 153h-66l-55 -141z" />
    <glyph glyph-name="Thorn" unicode="&#xde;" horiz-adv-x="549" 
d="M446 550.5q66 -49.5 66 -155.5q-1 -105 -72 -158t-184 -53h-103v-184h-55v680h55v-80h114q113 0 179 -49.5zM401.5 271q53.5 42 54.5 123q0 160 -182 160h-121v-325h110q85 0 138.5 42z" />
    <glyph glyph-name="germandbls" unicode="&#xdf;" horiz-adv-x="550" 
d="M133 0v473q0 71 38.5 115.5t110.5 44.5q57 0 95.5 -34t38.5 -97q0 -65 -38.5 -96t-126.5 -31h-27v-45h45q85 0 133 -35.5t48 -108.5q0 -74 -52 -107.5t-139 -33.5h-51v-45h43q117 0 186.5 44t69.5 144q0 63 -34 106t-91 62q44 20 67.5 57t23.5 90q0 85 -54.5 131
t-136.5 46q-94 0 -149 -54.5t-55 -152.5v-473h55z" />
    <glyph glyph-name="agrave" unicode="&#xe0;" horiz-adv-x="479" 
d="M170.5 444q28.5 8 73.5 8q57 0 86.5 -31.5t29.5 -84.5v-55h-135q-77 0 -125 -38.5t-48 -106.5q0 -66 42 -107.5t121 -41.5q42 0 82.5 18.5t65.5 46.5l8 -52h44v340q0 72 -46 115t-128 43q-33 0 -81 -12t-74 -30l19 -38q37 18 65.5 26zM138.5 212q30.5 30 87.5 30h134
v-129q-26 -36 -63 -58t-81 -22q-51 0 -79.5 30t-28.5 73q0 46 30.5 76zM247 589l36 12l-55 141h-66z" />
    <glyph glyph-name="aacute" unicode="&#xe1;" horiz-adv-x="479" 
d="M170.5 444q28.5 8 73.5 8q57 0 86.5 -31.5t29.5 -84.5v-55h-135q-77 0 -125 -38.5t-48 -106.5q0 -66 42 -107.5t121 -41.5q42 0 82.5 18.5t65.5 46.5l8 -52h44v340q0 72 -46 115t-128 43q-33 0 -81 -12t-74 -30l19 -38q37 18 65.5 26zM138.5 212q30.5 30 87.5 30h134
v-129q-26 -36 -63 -58t-81 -22q-51 0 -79.5 30t-28.5 73q0 46 30.5 76zM235 589l85 153h-66l-55 -141z" />
    <glyph glyph-name="acircumflex" unicode="&#xe2;" horiz-adv-x="479" 
d="M170.5 444q28.5 8 73.5 8q57 0 86.5 -31.5t29.5 -84.5v-55h-135q-77 0 -125 -38.5t-48 -106.5q0 -66 42 -107.5t121 -41.5q42 0 82.5 18.5t65.5 46.5l8 -52h44v340q0 72 -46 115t-128 43q-33 0 -81 -12t-74 -30l19 -38q37 18 65.5 26zM138.5 212q30.5 30 87.5 30h134
v-129q-26 -36 -63 -58t-81 -22q-51 0 -79.5 30t-28.5 73q0 46 30.5 76zM248 703l79 -114l49 12l-104 141h-49l-103 -143l47 -10z" />
    <glyph glyph-name="atilde" unicode="&#xe3;" horiz-adv-x="479" 
d="M170.5 444q28.5 8 73.5 8q57 0 86.5 -31.5t29.5 -84.5v-55h-135q-77 0 -125 -38.5t-48 -106.5q0 -66 42 -107.5t121 -41.5q42 0 82.5 18.5t65.5 46.5l8 -52h44v340q0 72 -46 115t-128 43q-33 0 -81 -12t-74 -30l19 -38q37 18 65.5 26zM138.5 212q30.5 30 87.5 30h134
v-129q-26 -36 -63 -58t-81 -22q-51 0 -79.5 30t-28.5 73q0 46 30.5 76zM322.5 663.5q-11.5 -12.5 -28.5 -12.5q-25 0 -48 26t-65 26q-37 0 -60 -22t-23 -69h42q2 23 13.5 36t28.5 13q24 0 52 -26q26 -27 60 -27q37 0 60 22t23 69h-41q-2 -23 -13.5 -35.5z" />
    <glyph glyph-name="adieresis" unicode="&#xe4;" horiz-adv-x="479" 
d="M170.5 444q28.5 8 73.5 8q57 0 86.5 -31.5t29.5 -84.5v-55h-135q-77 0 -125 -38.5t-48 -106.5q0 -66 42 -107.5t121 -41.5q42 0 82.5 18.5t65.5 46.5l8 -52h44v340q0 72 -46 115t-128 43q-33 0 -81 -12t-74 -30l19 -38q37 18 65.5 26zM138.5 212q30.5 30 87.5 30h134
v-129q-26 -36 -63 -58t-81 -22q-51 0 -79.5 30t-28.5 73q0 46 30.5 76zM193.5 629.5q11.5 11.5 11.5 28.5q0 16 -11.5 27.5t-28.5 11.5t-28.5 -11t-11.5 -28t11.5 -28.5t28.5 -11.5t28.5 11.5zM351.5 629.5q11.5 11.5 11.5 28.5q0 16 -11.5 27.5t-28.5 11.5q-18 0 -29 -11
t-11 -28t11 -28.5t29 -11.5q17 0 28.5 11.5z" />
    <glyph glyph-name="aring" unicode="&#xe5;" horiz-adv-x="479" 
d="M170.5 444q28.5 8 73.5 8q57 0 86.5 -31.5t29.5 -84.5v-55h-135q-77 0 -125 -38.5t-48 -106.5q0 -66 42 -107.5t121 -41.5q42 0 82.5 18.5t65.5 46.5l8 -52h44v340q0 72 -46 115t-128 43q-33 0 -81 -12t-74 -30l19 -38q37 18 65.5 26zM138.5 212q30.5 30 87.5 30h134
v-129q-26 -36 -63 -58t-81 -22q-51 0 -79.5 30t-28.5 73q0 46 30.5 76zM180.5 735q-26.5 -24 -26.5 -60q0 -35 26 -58t63 -23t62.5 23t25.5 58q0 36 -26 60t-62 24t-62.5 -24zM209.5 641.5q-13.5 13.5 -13.5 33.5q0 21 13.5 35t33.5 14t33.5 -14t13.5 -35q0 -20 -13.5 -33.5
t-33.5 -13.5t-33.5 13.5z" />
    <glyph glyph-name="ae" unicode="&#xe6;" horiz-adv-x="805" 
d="M667 42.5q34 9.5 69 27.5l20 -41q-33 -19 -76.5 -30.5t-85.5 -11.5q-134 0 -195 93q-67 -93 -184 -93q-79 0 -121 41.5t-42 107.5q0 68 48 106.5t125 38.5h134q0 9 1 13v42q0 53 -29.5 84.5t-86.5 31.5q-45 0 -73.5 -8t-65.5 -26l-19 38q26 18 74 30t81 12q59 0 100 -23
t60 -64q27 42 70.5 64.5t101.5 22.5q92 0 143 -71t51 -186h-354q1 -93 44 -150.5t132 -57.5q44 0 78 9.5zM460.5 404.5q-38.5 -47.5 -45.5 -123.5h295q-7 78 -41 124.5t-102 46.5t-106.5 -47.5zM313 57.5q36 24.5 64 66.5q-20 54 -20 118h-131q-57 0 -87.5 -30t-30.5 -76
q0 -43 28.5 -73t79.5 -30q61 0 97 24.5z" />
    <glyph glyph-name="ccedilla" unicode="&#xe7;" horiz-adv-x="450" 
d="M348 1q-38 -11 -70 -13l-16 -40q38 -7 62 -31t24 -51q0 -41 -31 -64t-79 -23q-19 0 -41.5 5.5t-34.5 13.5l15 36q34 -14 59 -14q26 0 45 12.5t19 31.5q0 22 -26.5 39t-67.5 18l26 67q-92 10 -143 79.5t-51 177.5q0 73 27.5 130.5t79.5 90t122 32.5q31 0 76 -12t73 -30
l-20 -38q-36 17 -62 25.5t-69 8.5q-52 0 -90.5 -27.5t-59 -74.5t-21.5 -104q0 -93 43.5 -153t122.5 -60q32 0 54.5 4.5t41 12.5t35.5 17l20 -39q-25 -16 -63 -27z" />
    <glyph glyph-name="egrave" unicode="&#xe8;" horiz-adv-x="486" 
d="M397 427q-51 71 -144 71q-104 0 -159.5 -70t-55.5 -183q0 -119 59 -188.5t178 -69.5q42 0 85.5 11.5t76.5 30.5l-20 41q-36 -18 -70 -28t-78 -10q-88 0 -131 57.5t-44 151.5h354q0 115 -51 186zM141.5 404q38.5 48 106.5 48t102 -47t41 -125h-295q7 76 45.5 124zM255 589
l36 12l-55 141h-66z" />
    <glyph glyph-name="eacute" unicode="&#xe9;" horiz-adv-x="486" 
d="M397 427q-51 71 -144 71q-104 0 -159.5 -70t-55.5 -183q0 -119 59 -188.5t178 -69.5q42 0 85.5 11.5t76.5 30.5l-20 41q-36 -18 -70 -28t-78 -10q-88 0 -131 57.5t-44 151.5h354q0 115 -51 186zM141.5 404q38.5 48 106.5 48t102 -47t41 -125h-295q7 76 45.5 124zM243 589
l85 153h-66l-55 -141z" />
    <glyph glyph-name="ecircumflex" unicode="&#xea;" horiz-adv-x="486" 
d="M397 427q-51 71 -144 71q-104 0 -159.5 -70t-55.5 -183q0 -119 59 -188.5t178 -69.5q42 0 85.5 11.5t76.5 30.5l-20 41q-36 -18 -70 -28t-78 -10q-88 0 -131 57.5t-44 151.5h354q0 115 -51 186zM141.5 404q38.5 48 106.5 48t102 -47t41 -125h-295q7 76 45.5 124zM256 703
l79 -114l49 12l-104 141h-49l-103 -143l47 -10z" />
    <glyph glyph-name="edieresis" unicode="&#xeb;" horiz-adv-x="486" 
d="M397 427q-51 71 -144 71q-104 0 -159.5 -70t-55.5 -183q0 -119 59 -188.5t178 -69.5q42 0 85.5 11.5t76.5 30.5l-20 41q-36 -18 -70 -28t-78 -10q-88 0 -131 57.5t-44 151.5h354q0 115 -51 186zM141.5 404q38.5 48 106.5 48t102 -47t41 -125h-295q7 76 45.5 124z
M201.5 629.5q11.5 11.5 11.5 28.5q0 16 -11.5 27.5t-28.5 11.5t-28.5 -11t-11.5 -28t11.5 -28.5t28.5 -11.5t28.5 11.5zM359.5 629.5q11.5 11.5 11.5 28.5q0 16 -11.5 27.5t-28.5 11.5q-18 0 -29 -11t-11 -28t11 -28.5t29 -11.5q17 0 28.5 11.5z" />
    <glyph glyph-name="igrave" unicode="&#xec;" horiz-adv-x="191" 
d="M123 0v485h-55v-485h55zM100 589l36 12l-55 141h-66z" />
    <glyph glyph-name="iacute" unicode="&#xed;" horiz-adv-x="191" 
d="M123 0v485h-55v-485h55zM88 589l85 153h-66l-55 -141z" />
    <glyph glyph-name="icircumflex" unicode="&#xee;" horiz-adv-x="191" 
d="M123 0v485h-55v-485h55zM101 703l79 -114l49 12l-104 141h-49l-103 -143l47 -10z" />
    <glyph glyph-name="idieresis" unicode="&#xef;" horiz-adv-x="191" 
d="M123 0v485h-55v-485h55zM46.5 629.5q11.5 11.5 11.5 28.5q0 16 -11.5 27.5t-28.5 11.5t-28.5 -11t-11.5 -28t11.5 -28.5t28.5 -11.5t28.5 11.5zM204.5 629.5q11.5 11.5 11.5 28.5q0 16 -11.5 27.5t-28.5 11.5q-18 0 -29 -11t-11 -28t11 -28.5t29 -11.5q17 0 28.5 11.5z
" />
    <glyph glyph-name="eth" unicode="&#xf0;" horiz-adv-x="525" 
d="M487 240q0 -72 -27.5 -129.5t-79 -90.5t-121.5 -33q-105 0 -163 71t-58 187q0 72 27.5 129.5t79 90.5t121.5 33q70 -1 122 -39q-47 103 -148 176l-128 -64l-22 39l108 53q-49 29 -100 50l16 37q71 -26 131 -64l113 56l21 -36l-93 -47q201 -149 201 -419zM350.5 60.5
q38.5 27.5 59 74.5t21.5 104q0 79 -17 147q-29 32 -67.5 49t-81.5 17q-52 0 -90.5 -27.5t-59 -74.5t-21.5 -104q0 -93 43.5 -153t122.5 -60q52 0 90.5 27.5z" />
    <glyph glyph-name="ntilde" unicode="&#xf1;" 
d="M123 353q39 44 86 71t87 27q93 0 93 -120v-331h55v337q0 74 -36 117.5t-111 43.5q-44 0 -94 -25.5t-81 -62.5l-10 75h-44v-485h55v353zM342.5 663.5q-11.5 -12.5 -28.5 -12.5q-25 0 -48 26t-65 26q-37 0 -60 -22t-23 -69h42q2 23 13.5 36t28.5 13q24 0 52 -26
q26 -27 60 -27q37 0 60 22t23 69h-41q-2 -23 -13.5 -35.5z" />
    <glyph glyph-name="ograve" unicode="&#xf2;" horiz-adv-x="525" 
d="M459.5 110.5q-27.5 -57.5 -79 -90.5t-121.5 -33q-105 0 -163 71t-58 187q0 72 27.5 129.5t79 90.5t121.5 33q106 -1 163.5 -70.5t57.5 -187.5q0 -72 -27.5 -129.5zM350.5 60.5q38.5 27.5 59 74.5t21.5 104q0 93 -43.5 153t-122.5 60q-52 0 -90.5 -27.5t-59 -74.5
t-21.5 -104q0 -93 43.5 -153t122.5 -60q52 0 90.5 27.5zM268 589l36 12l-55 141h-66z" />
    <glyph glyph-name="oacute" unicode="&#xf3;" horiz-adv-x="525" 
d="M459.5 110.5q-27.5 -57.5 -79 -90.5t-121.5 -33q-105 0 -163 71t-58 187q0 72 27.5 129.5t79 90.5t121.5 33q106 -1 163.5 -70.5t57.5 -187.5q0 -72 -27.5 -129.5zM350.5 60.5q38.5 27.5 59 74.5t21.5 104q0 93 -43.5 153t-122.5 60q-52 0 -90.5 -27.5t-59 -74.5
t-21.5 -104q0 -93 43.5 -153t122.5 -60q52 0 90.5 27.5zM256 589l85 153h-66l-55 -141z" />
    <glyph glyph-name="ocircumflex" unicode="&#xf4;" horiz-adv-x="525" 
d="M459.5 110.5q-27.5 -57.5 -79 -90.5t-121.5 -33q-105 0 -163 71t-58 187q0 72 27.5 129.5t79 90.5t121.5 33q106 -1 163.5 -70.5t57.5 -187.5q0 -72 -27.5 -129.5zM350.5 60.5q38.5 27.5 59 74.5t21.5 104q0 93 -43.5 153t-122.5 60q-52 0 -90.5 -27.5t-59 -74.5
t-21.5 -104q0 -93 43.5 -153t122.5 -60q52 0 90.5 27.5zM269 703l79 -114l49 12l-104 141h-49l-103 -143l47 -10z" />
    <glyph glyph-name="otilde" unicode="&#xf5;" horiz-adv-x="525" 
d="M459.5 110.5q-27.5 -57.5 -79 -90.5t-121.5 -33q-105 0 -163 71t-58 187q0 72 27.5 129.5t79 90.5t121.5 33q106 -1 163.5 -70.5t57.5 -187.5q0 -72 -27.5 -129.5zM350.5 60.5q38.5 27.5 59 74.5t21.5 104q0 93 -43.5 153t-122.5 60q-52 0 -90.5 -27.5t-59 -74.5
t-21.5 -104q0 -93 43.5 -153t122.5 -60q52 0 90.5 27.5zM343.5 663.5q-11.5 -12.5 -28.5 -12.5q-25 0 -48 26t-65 26q-37 0 -60 -22t-23 -69h42q2 23 13.5 36t28.5 13q24 0 52 -26q26 -27 60 -27q37 0 60 22t23 69h-41q-2 -23 -13.5 -35.5z" />
    <glyph glyph-name="odieresis" unicode="&#xf6;" horiz-adv-x="525" 
d="M459.5 110.5q-27.5 -57.5 -79 -90.5t-121.5 -33q-105 0 -163 71t-58 187q0 72 27.5 129.5t79 90.5t121.5 33q106 -1 163.5 -70.5t57.5 -187.5q0 -72 -27.5 -129.5zM350.5 60.5q38.5 27.5 59 74.5t21.5 104q0 93 -43.5 153t-122.5 60q-52 0 -90.5 -27.5t-59 -74.5
t-21.5 -104q0 -93 43.5 -153t122.5 -60q52 0 90.5 27.5zM214.5 629.5q11.5 11.5 11.5 28.5q0 16 -11.5 27.5t-28.5 11.5t-28.5 -11t-11.5 -28t11.5 -28.5t28.5 -11.5t28.5 11.5zM372.5 629.5q11.5 11.5 11.5 28.5q0 16 -11.5 27.5t-28.5 11.5q-18 0 -29 -11t-11 -28
t11 -28.5t29 -11.5q17 0 28.5 11.5z" />
    <glyph glyph-name="divide" unicode="&#xf7;" horiz-adv-x="497" 
d="M280.5 383q13.5 14 13.5 32q0 20 -13 33.5t-33 13.5q-21 0 -34 -13.5t-13 -33.5q0 -19 13.5 -32.5t33.5 -13.5q19 0 32.5 14zM458 295h-428l8 -43h429zM283.5 80q13.5 14 13.5 33t-13.5 32.5t-32.5 13.5q-21 0 -34 -13t-13 -33t13 -33.5t34 -13.5q19 0 32.5 14z" />
    <glyph glyph-name="oslash" unicode="&#xf8;" horiz-adv-x="525" 
d="M429.5 427.5q57.5 -69.5 57.5 -187.5q0 -72 -27.5 -129.5t-79 -90.5t-121.5 -33q-105 0 -163 71t-58 187q0 72 27.5 129.5t79 90.5t121.5 33q106 -1 163.5 -70.5zM109.5 146.5q15.5 -44.5 45.5 -72.5l186 359q-35 19 -76 19q-52 0 -90.5 -27.5t-59 -74.5t-21.5 -104
q0 -55 15.5 -99.5zM350.5 60.5q38.5 27.5 59 74.5t21.5 104q0 50 -13 92t-38 71l-184 -356q31 -13 64 -13q52 0 90.5 27.5z" />
    <glyph glyph-name="ugrave" unicode="&#xf9;" 
d="M385 132q-39 -44 -86.5 -71t-87.5 -27q-50 0 -71 32t-21 88v331h-55v-337q0 -74 35.5 -117.5t110.5 -43.5q44 0 94 26t82 63l10 -76h44v485h-55v-353zM252 589l36 12l-55 141h-66z" />
    <glyph glyph-name="uacute" unicode="&#xfa;" 
d="M385 132q-39 -44 -86.5 -71t-87.5 -27q-50 0 -71 32t-21 88v331h-55v-337q0 -74 35.5 -117.5t110.5 -43.5q44 0 94 26t82 63l10 -76h44v485h-55v-353zM240 589l85 153h-66l-55 -141z" />
    <glyph glyph-name="ucircumflex" unicode="&#xfb;" 
d="M385 132q-39 -44 -86.5 -71t-87.5 -27q-50 0 -71 32t-21 88v331h-55v-337q0 -74 35.5 -117.5t110.5 -43.5q44 0 94 26t82 63l10 -76h44v485h-55v-353zM253 703l79 -114l49 12l-104 141h-49l-103 -143l47 -10z" />
    <glyph glyph-name="udieresis" unicode="&#xfc;" 
d="M385 132q-39 -44 -86.5 -71t-87.5 -27q-50 0 -71 32t-21 88v331h-55v-337q0 -74 35.5 -117.5t110.5 -43.5q44 0 94 26t82 63l10 -76h44v485h-55v-353zM198.5 629.5q11.5 11.5 11.5 28.5q0 16 -11.5 27.5t-28.5 11.5t-28.5 -11t-11.5 -28t11.5 -28.5t28.5 -11.5t28.5 11.5
zM356.5 629.5q11.5 11.5 11.5 28.5q0 16 -11.5 27.5t-28.5 11.5q-18 0 -29 -11t-11 -28t11 -28.5t29 -11.5q17 0 28.5 11.5z" />
    <glyph glyph-name="yacute" unicode="&#xfd;" horiz-adv-x="434" 
d="M127.5 -146q-21.5 -17 -63.5 -34l10 -39q48 10 83 38t50 69l217 597h-55l-152 -417l-160 426l-47 -22l183 -475l-32 -95q-12 -31 -33.5 -48zM205 589l85 153h-66l-55 -141z" />
    <glyph glyph-name="thorn" unicode="&#xfe;" horiz-adv-x="512" 
d="M418.5 428q55.5 -70 55.5 -187q0 -73 -25.5 -130.5t-75 -90.5t-119.5 -33q-33 0 -65.5 13t-59.5 34v-242l-55 -11v915l55 10v-258q58 50 130 50q104 0 159.5 -70zM375 92q42 59 42 148q0 95 -39.5 153.5t-117.5 58.5q-42 0 -72.5 -16t-58.5 -46v-303q28 -25 58 -39.5
t69 -14.5q77 0 119 59z" />
    <glyph glyph-name="ydieresis" unicode="&#xff;" horiz-adv-x="434" 
d="M127.5 -146q-21.5 -17 -63.5 -34l10 -39q48 10 83 38t50 69l217 597h-55l-152 -417l-160 426l-47 -22l183 -475l-32 -95q-12 -31 -33.5 -48zM163.5 629.5q11.5 11.5 11.5 28.5q0 16 -11.5 27.5t-28.5 11.5t-28.5 -11t-11.5 -28t11.5 -28.5t28.5 -11.5t28.5 11.5z
M321.5 629.5q11.5 11.5 11.5 28.5q0 16 -11.5 27.5t-28.5 11.5q-18 0 -29 -11t-11 -28t11 -28.5t29 -11.5q17 0 28.5 11.5z" />
    <glyph glyph-name="Amacron" unicode="&#x100;" horiz-adv-x="581" 
d="M257 680l-247 -680h54l76 209h296l80 -215l55 11l-259 675h-55zM420 253h-265l130 355zM163 790h241l-5 43h-236v-43z" />
    <glyph glyph-name="amacron" unicode="&#x101;" horiz-adv-x="479" 
d="M170.5 444q28.5 8 73.5 8q57 0 86.5 -31.5t29.5 -84.5v-55h-135q-77 0 -125 -38.5t-48 -106.5q0 -66 42 -107.5t121 -41.5q42 0 82.5 18.5t65.5 46.5l8 -52h44v340q0 72 -46 115t-128 43q-33 0 -81 -12t-74 -30l19 -38q37 18 65.5 26zM138.5 212q30.5 30 87.5 30h134
v-129q-26 -36 -63 -58t-81 -22q-51 0 -79.5 30t-28.5 73q0 46 30.5 76zM119 640h241l-6 43h-235v-43z" />
    <glyph glyph-name="Abreve" unicode="&#x102;" horiz-adv-x="581" 
d="M257 680l-247 -680h54l76 209h296l80 -215l55 11l-259 675h-55zM420 253h-265l130 355zM347.5 820q-23.5 -26 -62.5 -26q-40 0 -63.5 26.5t-23.5 60.5h-43q0 -54 34 -92t96 -38q63 0 96.5 38t33.5 92h-44q0 -35 -23.5 -61z" />
    <glyph glyph-name="abreve" unicode="&#x103;" horiz-adv-x="479" 
d="M170.5 444q28.5 8 73.5 8q57 0 86.5 -31.5t29.5 -84.5v-55h-135q-77 0 -125 -38.5t-48 -106.5q0 -66 42 -107.5t121 -41.5q42 0 82.5 18.5t65.5 46.5l8 -52h44v340q0 72 -46 115t-128 43q-33 0 -81 -12t-74 -30l19 -38q37 18 65.5 26zM138.5 212q30.5 30 87.5 30h134
v-129q-26 -36 -63 -58t-81 -22q-51 0 -79.5 30t-28.5 73q0 46 30.5 76zM302.5 670q-23.5 -26 -62.5 -26q-40 0 -63.5 26.5t-23.5 60.5h-43q0 -54 34 -92t96 -38q63 0 96.5 38t33.5 92h-44q0 -35 -23.5 -61z" />
    <glyph glyph-name="Aogonek" unicode="&#x104;" horiz-adv-x="581" 
d="M647 -172q-13 -13 -34.5 -21.5t-45.5 -8.5q-45 0 -74.5 27t-29.5 69q0 25 14.5 53t37.5 51l-79 211h-296l-76 -209h-54l247 680h55l259 -675q-27 -22 -42.5 -50.5t-15.5 -59.5q0 -28 17.5 -42t39.5 -14q29 0 55 21zM155 253h265l-135 355z" />
    <glyph glyph-name="aogonek" unicode="&#x105;" horiz-adv-x="479" 
d="M493 -177q-13 -13 -34.5 -21.5t-45.5 -8.5q-45 0 -75 27t-30 69q0 28 17.5 59.5t45.5 54.5l-8 49q-25 -28 -65.5 -46.5t-82.5 -18.5q-79 0 -121 41.5t-42 107.5q0 68 48 106.5t125 38.5h135v55q0 53 -29.5 84.5t-86.5 31.5q-45 0 -73.5 -8t-65.5 -26l-19 38q26 18 74 30
t81 12q82 0 128 -43t46 -115v-340q-27 -22 -42 -50.5t-15 -59.5q0 -27 18 -41.5t40 -14.5q29 0 55 21zM360 242h-134q-57 0 -87.5 -30t-30.5 -76q0 -43 28.5 -73t79.5 -30q44 0 81 22t63 58v129z" />
    <glyph glyph-name="Cacute" unicode="&#x106;" horiz-adv-x="553" 
d="M449.5 684q-51.5 10 -88.5 10q-95 0 -166 -47.5t-109 -129t-38 -181.5q0 -96 34.5 -175.5t103.5 -127t169 -47.5q42 0 92.5 11t78.5 26l-24 42q-32 -14 -66.5 -22t-83.5 -8q-75 0 -130.5 41t-84.5 109.5t-29 151.5q0 90 33 160t91 109.5t129 39.5q49 0 78 -7t67 -23
l20 41q-25 17 -76.5 27zM365 739l85 153h-66l-55 -141z" />
    <glyph glyph-name="cacute" unicode="&#x107;" horiz-adv-x="450" 
d="M364.5 54q-21.5 -11 -47 -16t-57.5 -5q-79 0 -122.5 60t-43.5 153q1 57 21.5 104t59 74.5t90.5 27.5q43 0 69 -8.5t62 -25.5l20 38q-28 18 -73 30t-76 12q-70 0 -122 -32.5t-79.5 -90t-27.5 -130.5q0 -116 58.5 -187t163.5 -71q33 0 77.5 11.5t73.5 29.5l-20 39
q-5 -2 -26.5 -13zM246 589l85 153h-66l-55 -141z" />
    <glyph glyph-name="Ccaron" unicode="&#x10c;" horiz-adv-x="553" 
d="M449.5 684q-51.5 10 -88.5 10q-95 0 -166 -47.5t-109 -129t-38 -181.5q0 -96 34.5 -175.5t103.5 -127t169 -47.5q42 0 92.5 11t78.5 26l-24 42q-32 -14 -66.5 -22t-83.5 -8q-75 0 -130.5 41t-84.5 109.5t-29 151.5q0 90 33 160t91 109.5t129 39.5q49 0 78 -7t67 -23
l20 41q-25 17 -76.5 27zM362 778l-80 114l-49 -10l104 -143h49l103 141l-47 12z" />
    <glyph glyph-name="ccaron" unicode="&#x10d;" horiz-adv-x="450" 
d="M364.5 54q-21.5 -11 -47 -16t-57.5 -5q-79 0 -122.5 60t-43.5 153q1 57 21.5 104t59 74.5t90.5 27.5q43 0 69 -8.5t62 -25.5l20 38q-28 18 -73 30t-76 12q-70 0 -122 -32.5t-79.5 -90t-27.5 -130.5q0 -116 58.5 -187t163.5 -71q33 0 77.5 11.5t73.5 29.5l-20 39
q-5 -2 -26.5 -13zM255 628l-80 114l-49 -10l104 -143h49l103 141l-47 12z" />
    <glyph glyph-name="Dcaron" unicode="&#x10e;" horiz-adv-x="663" 
d="M482.5 45.5q66.5 45.5 99.5 123.5t33 175q0 150 -71 243t-219 93h-227v-680h222q96 0 162.5 45.5zM457.5 596.5q51.5 -38.5 77 -104.5t25.5 -149q0 -87 -30 -154.5t-84 -105.5t-125 -38h-168v590h178q75 0 126.5 -38.5zM313 778l-80 114l-49 -10l104 -143h49l103 141
l-47 12z" />
    <glyph glyph-name="dcaron" unicode="&#x10f;" horiz-adv-x="641" 
d="M381 696l55 9v-705h-33l-15 42q-60 -55 -136 -55q-104 0 -159 70t-55 187q0 73 25.5 130.5t75 90.5t119.5 33q60 0 123 -46v244zM598.5 687.5q12.5 -14.5 12.5 -34.5q0 -45 -24.5 -84.5t-64.5 -59.5l-17 27q56 33 59 80q-17 1 -28 14.5t-11 28.5q0 17 12 30t31 13
q18 0 30.5 -14.5zM323 48.5q30 15.5 58 44.5v307q-28 24 -57.5 38t-68.5 14q-77 0 -118.5 -58.5t-42.5 -148.5q0 -94 40 -153t118 -59q41 0 71 15.5z" />
    <glyph glyph-name="Dcroat" unicode="&#x110;" horiz-adv-x="663" 
d="M544 587q71 -93 71 -243q0 -97 -33 -175t-99.5 -123.5t-162.5 -45.5h-222v312h-74l-9 44h83v324h227q148 0 219 -93zM446 83q54 38 84 105.5t30 154.5q0 83 -25.5 149t-77 104.5t-126.5 38.5h-178v-279h110l9 -44h-119v-267h168q71 0 125 38z" />
    <glyph glyph-name="dcroat" unicode="&#x111;" horiz-adv-x="514" 
d="M510 574h-74v-574h-33l-15 42q-60 -55 -136 -55q-104 0 -159 70t-55 187q0 73 25.5 130.5t75 90.5t119.5 33q60 0 123 -46v122h-119l-8 39h127v83l55 9v-92h66zM323 48.5q30 15.5 58 44.5v307q-28 24 -57.5 38t-68.5 14q-77 0 -118.5 -58.5t-42.5 -148.5q0 -94 40 -153
t118 -59q41 0 71 15.5z" />
    <glyph glyph-name="Emacron" unicode="&#x112;" horiz-adv-x="499" 
d="M479 0l-6 44h-320v284h245l-5 41h-240v269h303l-5 42h-353v-680h381zM154 790h241l-5 43h-236v-43z" />
    <glyph glyph-name="emacron" unicode="&#x113;" horiz-adv-x="486" 
d="M397 427q-51 71 -144 71q-104 0 -159.5 -70t-55.5 -183q0 -119 59 -188.5t178 -69.5q42 0 85.5 11.5t76.5 30.5l-20 41q-36 -18 -70 -28t-78 -10q-88 0 -131 57.5t-44 151.5h354q0 115 -51 186zM141.5 404q38.5 48 106.5 48t102 -47t41 -125h-295q7 76 45.5 124zM127 640
h241l-6 43h-235v-43z" />
    <glyph glyph-name="Edotaccent" unicode="&#x116;" horiz-adv-x="499" 
d="M479 0l-6 44h-320v284h245l-5 41h-240v269h303l-5 42h-353v-680h381zM304.5 780.5q12.5 12.5 12.5 30.5q0 17 -12.5 29.5t-29.5 12.5q-18 0 -30.5 -12.5t-12.5 -29.5q0 -18 12 -30.5t31 -12.5q17 0 29.5 12.5z" />
    <glyph glyph-name="edotaccent" unicode="&#x117;" horiz-adv-x="486" 
d="M397 427q-51 71 -144 71q-104 0 -159.5 -70t-55.5 -183q0 -119 59 -188.5t178 -69.5q42 0 85.5 11.5t76.5 30.5l-20 41q-36 -18 -70 -28t-78 -10q-88 0 -131 57.5t-44 151.5h354q0 115 -51 186zM141.5 404q38.5 48 106.5 48t102 -47t41 -125h-295q7 76 45.5 124z
M280.5 630.5q12.5 12.5 12.5 30.5q0 17 -12.5 29.5t-29.5 12.5q-18 0 -30.5 -12.5t-12.5 -29.5q0 -18 12 -30.5t31 -12.5q17 0 29.5 12.5z" />
    <glyph glyph-name="Eogonek" unicode="&#x118;" horiz-adv-x="499" 
d="M486 -177q-13 -13 -34.5 -21.5t-45.5 -8.5q-45 0 -75 27t-30 69q0 26 16.5 57t42.5 54h-262v680h353l5 -42h-303v-269h240l5 -41h-245v-284h320l6 -44h-71q-27 -22 -42 -50.5t-15 -59.5q0 -27 18 -41.5t40 -14.5q29 0 55 21z" />
    <glyph glyph-name="eogonek" unicode="&#x119;" horiz-adv-x="486" 
d="M298 -110q0 -27 18 -41.5t40 -14.5q29 0 55 21l22 -32q-13 -13 -34.5 -21.5t-45.5 -8.5q-45 0 -75 27t-30 69q0 23 12.5 49.5t33.5 49.5q-6 -1 -19 -1q-119 0 -178 69.5t-59 188.5q0 113 55.5 183t159.5 70q93 0 144 -71t51 -186h-354q1 -94 44 -151.5t131 -57.5
q44 0 78 10t70 28l20 -41q-38 -22 -87 -33q-52 -46 -52 -106zM141.5 404q-38.5 -48 -45.5 -124h295q-7 78 -41 125t-102 47t-106.5 -48z" />
    <glyph glyph-name="Ecaron" unicode="&#x11a;" horiz-adv-x="499" 
d="M479 0l-6 44h-320v284h245l-5 41h-240v269h303l-5 42h-353v-680h381zM277 778l-80 114l-49 -10l104 -143h49l103 141l-47 12z" />
    <glyph glyph-name="ecaron" unicode="&#x11b;" horiz-adv-x="486" 
d="M397 427q-51 71 -144 71q-104 0 -159.5 -70t-55.5 -183q0 -119 59 -188.5t178 -69.5q42 0 85.5 11.5t76.5 30.5l-20 41q-36 -18 -70 -28t-78 -10q-88 0 -131 57.5t-44 151.5h354q0 115 -51 186zM141.5 404q38.5 48 106.5 48t102 -47t41 -125h-295q7 76 45.5 124zM252 628
l-80 114l-49 -10l104 -143h49l103 141l-47 12z" />
    <glyph glyph-name="Gbreve" unicode="&#x11e;" horiz-adv-x="620" 
d="M506 300v-242q-63 -23 -122 -23q-79 0 -141.5 38t-98.5 106.5t-36 156.5q0 92 38.5 163t103.5 109.5t143 38.5q48 0 78 -7t67 -22l19 39q-25 17 -77 27t-89 10q-97 0 -175 -45.5t-123 -127t-45 -185.5q0 -100 41.5 -179.5t118 -125t177.5 -45.5q45 0 96 13t80 32v311
h-202l-6 -42h153zM443.5 820q-23.5 -26 -62.5 -26q-40 0 -63.5 26.5t-23.5 60.5h-43q0 -54 34 -92t96 -38q63 0 96.5 38t33.5 92h-44q0 -35 -23.5 -61z" />
    <glyph glyph-name="gbreve" unicode="&#x11f;" horiz-adv-x="510" 
d="M436 485v-547q0 -74 -52.5 -121t-145.5 -47q-33 0 -85.5 12t-79.5 29l19 40q36 -17 68 -25.5t76 -9.5q64 0 104.5 30t40.5 87v102q-58 -48 -129 -48q-104 0 -159 70t-55 187q0 73 25.5 130.5t75 90.5t119.5 33q64 0 132 -52l13 39h33zM323 48.5q30 15.5 58 44.5v307
q-28 24 -57.5 38t-68.5 14q-77 0 -118.5 -58.5t-42.5 -148.5q0 -94 40 -153t118 -59q41 0 71 15.5zM312.5 670q-23.5 -26 -62.5 -26q-40 0 -63.5 26.5t-23.5 60.5h-43q0 -54 34 -92t96 -38q63 0 96.5 38t33.5 92h-44q0 -35 -23.5 -61z" />
    <glyph glyph-name="Gcommaaccent" unicode="&#x122;" horiz-adv-x="620" 
d="M506 300v-242q-63 -23 -122 -23q-79 0 -141.5 38t-98.5 106.5t-36 156.5q0 92 38.5 163t103.5 109.5t143 38.5q48 0 78 -7t67 -22l19 39q-25 17 -77 27t-89 10q-97 0 -175 -45.5t-123 -127t-45 -185.5q0 -100 41.5 -179.5t118 -125t177.5 -45.5q45 0 96 13t80 32v311
h-202l-6 -42h153zM355.5 -33.5q-12.5 -12.5 -12.5 -30.5q0 -15 11 -28t28 -14q-1 -47 -59 -81l17 -27q40 19 64.5 59t24.5 86q0 20 -12.5 34t-30.5 14t-30.5 -12.5z" />
    <glyph glyph-name="gcommaaccent" unicode="&#x123;" horiz-adv-x="510" 
d="M227 585q-12 14 -12 35q0 45 24.5 85t63.5 60l18 -28q-57 -34 -60 -80q18 -1 28.5 -14.5t10.5 -28.5q0 -18 -11.5 -30.5t-30.5 -12.5t-31 14zM436 485v-547q0 -74 -52.5 -121t-145.5 -47q-33 0 -85.5 12t-79.5 29l19 40q36 -17 68 -25.5t76 -9.5q64 0 104.5 30t40.5 87
v102q-58 -48 -129 -48q-104 0 -159 70t-55 187q0 73 25.5 130.5t75 90.5t119.5 33q64 0 132 -52l13 39h33zM323 48.5q30 15.5 58 44.5v307q-28 24 -57.5 38t-68.5 14q-77 0 -118.5 -58.5t-42.5 -148.5q0 -94 40 -153t118 -59q41 0 71 15.5z" />
    <glyph glyph-name="Imacron" unicode="&#x12a;" horiz-adv-x="250" 
d="M153 0v680h-55v-680h55zM4 790h241l-5 43h-236v-43z" />
    <glyph glyph-name="imacron" unicode="&#x12b;" horiz-adv-x="191" 
d="M123 0v485h-55v-485h55zM-28 640h241l-6 43h-235v-43z" />
    <glyph glyph-name="Iogonek" unicode="&#x12e;" horiz-adv-x="250" 
d="M230 -177q-13 -13 -34.5 -21.5t-45.5 -8.5q-45 0 -74.5 27t-29.5 69q0 30 14 60t38 53v678h55v-680q-27 -22 -42 -50.5t-15 -59.5q0 -28 17.5 -42t39.5 -14q29 0 55 21z" />
    <glyph glyph-name="iogonek" unicode="&#x12f;" horiz-adv-x="191" 
d="M65 630.5q-12 12.5 -12 30.5q0 17 12.5 29.5t30.5 12.5q17 0 29.5 -12.5t12.5 -29.5q0 -18 -12.5 -30.5t-29.5 -12.5q-19 0 -31 12.5zM201 -177q-13 -13 -34.5 -21.5t-45.5 -8.5q-45 0 -75 27t-30 69q0 30 14 59t38 53v484h55v-485q-27 -22 -42 -50.5t-15 -59.5
q0 -27 18 -41.5t40 -14.5q29 0 55 21z" />
    <glyph glyph-name="Idotaccent" unicode="&#x130;" horiz-adv-x="250" 
d="M153 0v680h-55v-680h55zM154.5 780.5q12.5 12.5 12.5 30.5q0 17 -12.5 29.5t-29.5 12.5q-18 0 -30.5 -12.5t-12.5 -29.5q0 -18 12 -30.5t31 -12.5q17 0 29.5 12.5z" />
    <glyph glyph-name="dotlessi" unicode="&#x131;" horiz-adv-x="191" 
d="M123 0v485h-55v-485h55z" />
    <glyph glyph-name="Kcommaaccent" unicode="&#x136;" horiz-adv-x="586" 
d="M508 0l-271 352l-84 -89v-263h-55v680h55v-350l340 365l37 -35l-256 -269l302 -391h-68zM304.5 -33.5q-12.5 -12.5 -12.5 -30.5q0 -15 11 -28t28 -14q-1 -47 -59 -81l17 -27q40 19 64.5 59t24.5 86q0 20 -12.5 34t-30.5 14t-30.5 -12.5z" />
    <glyph glyph-name="kcommaaccent" unicode="&#x137;" horiz-adv-x="453" 
d="M133 0v199l73 74l180 -273h67l-211 309l154 155l-38 34l-225 -233v441l-55 -10v-696h55zM225.5 -33.5q-12.5 -12.5 -12.5 -30.5q0 -15 11 -28t28 -14q-1 -47 -59 -81l17 -27q40 19 64.5 59t24.5 86q0 20 -12.5 34t-30.5 14t-30.5 -12.5z" />
    <glyph glyph-name="Lacute" unicode="&#x139;" horiz-adv-x="494" 
d="M479 44h-326v636h-55v-680h386zM181 739l85 153h-66l-55 -141z" />
    <glyph glyph-name="lacute" unicode="&#x13a;" horiz-adv-x="210" 
d="M119 739l85 153h-65l-55 -141zM133 0v684l-55 -10v-674h55z" />
    <glyph glyph-name="Lcommaaccent" unicode="&#x13b;" horiz-adv-x="494" 
d="M479 44h-326v636h-55v-680h386zM294.5 -33.5q-12.5 -12.5 -12.5 -30.5q0 -15 11 -28t28 -14q-1 -47 -59 -81l17 -27q40 19 64.5 59t24.5 86q0 20 -12.5 34t-30.5 14t-30.5 -12.5z" />
    <glyph glyph-name="lcommaaccent" unicode="&#x13c;" horiz-adv-x="210" 
d="M133 0v706l-55 -10v-696h55zM76.5 -33.5q-12.5 -12.5 -12.5 -30.5q0 -15 11 -28t28 -14q-1 -47 -59 -81l17 -27q40 19 64.5 59t24.5 86q0 20 -12.5 34t-30.5 14t-30.5 -12.5z" />
    <glyph glyph-name="Lcaron" unicode="&#x13d;" horiz-adv-x="494" 
d="M479 44h-326v636h-55v-680h386zM342 689q-12 -13 -12 -30q0 -15 10.5 -28.5t28.5 -14.5q-3 -46 -59 -80l17 -27q40 20 64.5 59.5t24.5 84.5q0 20 -12.5 34.5t-30.5 14.5q-19 0 -31 -13z" />
    <glyph glyph-name="lcaron" unicode="&#x13e;" horiz-adv-x="338" 
d="M133 0v706l-55 -10v-696h55zM234 689q-12 -13 -12 -30q0 -15 10.5 -28.5t28.5 -14.5q-3 -46 -59 -80l17 -27q40 20 64.5 59.5t24.5 84.5q0 20 -12.5 34.5t-30.5 14.5q-19 0 -31 -13z" />
    <glyph glyph-name="Lslash" unicode="&#x141;" horiz-adv-x="489" 
d="M93 0v266l-55 -48l-26 37l81 70v355h55v-307l113 99l26 -35l-139 -123v-270h326l5 -44h-386z" />
    <glyph glyph-name="lslash" unicode="&#x142;" horiz-adv-x="274" 
d="M249 482l-84 -74v298l-55 -10v-336l-110 -95l26 -38l84 74v-301h55v349l109 97z" />
    <glyph glyph-name="Nacute" unicode="&#x143;" horiz-adv-x="670" 
d="M153 0v568l14 -29l372 -539h34v680h-56v-561l-34 59l-351 502h-34v-680h55zM339 739l85 153h-66l-55 -141z" />
    <glyph glyph-name="nacute" unicode="&#x144;" 
d="M123 353q39 44 86 71t87 27q93 0 93 -120v-331h55v337q0 74 -36 117.5t-111 43.5q-44 0 -94 -25.5t-81 -62.5l-10 75h-44v-485h55v353zM255 589l85 153h-66l-55 -141z" />
    <glyph glyph-name="Ncommaaccent" unicode="&#x145;" horiz-adv-x="670" 
d="M153 0v568l14 -29l372 -539h34v680h-56v-561l-34 59l-351 502h-34v-680h55zM320.5 -33.5q-12.5 -12.5 -12.5 -30.5q0 -15 11 -28t28 -14q-1 -47 -59 -81l17 -27q40 19 64.5 59t24.5 86q0 20 -12.5 34t-30.5 14t-30.5 -12.5z" />
    <glyph glyph-name="ncommaaccent" unicode="&#x146;" 
d="M123 353q39 44 86 71t87 27q93 0 93 -120v-331h55v337q0 74 -36 117.5t-111 43.5q-44 0 -94 -25.5t-81 -62.5l-10 75h-44v-485h55v353zM229.5 -33.5q-12.5 -12.5 -12.5 -30.5q0 -15 11 -28t28 -14q-1 -47 -59 -81l17 -27q40 19 64.5 59t24.5 86q0 20 -12.5 34t-30.5 14
t-30.5 -12.5z" />
    <glyph glyph-name="Ncaron" unicode="&#x147;" horiz-adv-x="670" 
d="M153 0v568l14 -29l372 -539h34v680h-56v-561l-34 59l-351 502h-34v-680h55zM336 778l-80 114l-49 -10l104 -143h49l103 141l-47 12z" />
    <glyph glyph-name="ncaron" unicode="&#x148;" 
d="M123 353q39 44 86 71t87 27q93 0 93 -120v-331h55v337q0 74 -36 117.5t-111 43.5q-44 0 -94 -25.5t-81 -62.5l-10 75h-44v-485h55v353zM264 628l-80 114l-49 -10l104 -143h49l103 141l-47 12z" />
    <glyph glyph-name="Omacron" unicode="&#x14c;" horiz-adv-x="713" 
d="M199.5 648.5q-71.5 -46.5 -111.5 -128t-40 -183.5q0 -101 39.5 -181t109 -125t157.5 -45q89 0 160 46.5t111.5 128.5t40.5 184q0 101 -39.5 181t-109.5 125t-157 45q-89 -1 -160.5 -47.5zM140.5 497q32.5 71 90.5 111t130 40q70 0 125.5 -39t87 -108.5t31.5 -156.5
q0 -89 -32.5 -160t-90 -111t-130.5 -40q-70 0 -125.5 39.5t-87 109t-31.5 156.5q0 88 32.5 159zM238 790h241l-5 43h-236v-43z" />
    <glyph glyph-name="omacron" unicode="&#x14d;" horiz-adv-x="525" 
d="M459.5 110.5q-27.5 -57.5 -79 -90.5t-121.5 -33q-105 0 -163 71t-58 187q0 72 27.5 129.5t79 90.5t121.5 33q106 -1 163.5 -70.5t57.5 -187.5q0 -72 -27.5 -129.5zM350.5 60.5q38.5 27.5 59 74.5t21.5 104q0 93 -43.5 153t-122.5 60q-52 0 -90.5 -27.5t-59 -74.5
t-21.5 -104q0 -93 43.5 -153t122.5 -60q52 0 90.5 27.5zM140 640h241l-6 43h-235v-43z" />
    <glyph glyph-name="Ohungarumlaut" unicode="&#x150;" horiz-adv-x="713" 
d="M199.5 648.5q-71.5 -46.5 -111.5 -128t-40 -183.5q0 -101 39.5 -181t109 -125t157.5 -45q89 0 160 46.5t111.5 128.5t40.5 184q0 101 -39.5 181t-109.5 125t-157 45q-89 -1 -160.5 -47.5zM140.5 497q32.5 71 90.5 111t130 40q70 0 125.5 -39t87 -108.5t31.5 -156.5
q0 -89 -32.5 -160t-90 -111t-130.5 -40q-70 0 -125.5 39.5t-87 109t-31.5 156.5q0 88 32.5 159zM298 739l85 153h-66l-55 -141zM431 739l85 153h-65l-55 -141z" />
    <glyph glyph-name="ohungarumlaut" unicode="&#x151;" horiz-adv-x="525" 
d="M459.5 110.5q-27.5 -57.5 -79 -90.5t-121.5 -33q-105 0 -163 71t-58 187q0 72 27.5 129.5t79 90.5t121.5 33q106 -1 163.5 -70.5t57.5 -187.5q0 -72 -27.5 -129.5zM350.5 60.5q38.5 27.5 59 74.5t21.5 104q0 93 -43.5 153t-122.5 60q-52 0 -90.5 -27.5t-59 -74.5
t-21.5 -104q0 -93 43.5 -153t122.5 -60q52 0 90.5 27.5zM204 589l85 153h-66l-55 -141zM337 589l85 153h-65l-55 -141z" />
    <glyph glyph-name="OE" unicode="&#x152;" horiz-adv-x="901" 
d="M500 0v12q-30 -11 -70.5 -18.5t-74.5 -7.5q-100 0 -169 47.5t-103.5 127t-34.5 175.5q0 100 38 181.5t109 129t166 47.5q28 0 68.5 -6.5t70.5 -17.5v10h353l5 -42h-303v-269h240l5 -41h-245v-284h320l6 -44h-381zM435 42.5q34 7.5 65 21.5v554q-34 14 -63.5 21t-75.5 7
q-71 0 -129 -39.5t-91 -109.5t-33 -160q0 -83 29 -151.5t84.5 -109.5t130.5 -41q49 0 83 7.5z" />
    <glyph glyph-name="oe" unicode="&#x153;" horiz-adv-x="766" 
d="M627.5 41.5q33.5 9.5 69.5 28.5l20 -41q-33 -19 -76.5 -30.5t-85.5 -11.5q-87 0 -145 41q-29 -18 -73 -29.5t-77 -11.5q-105 0 -163.5 71t-58.5 187q0 73 27.5 130.5t79.5 90t122 32.5q29 0 70.5 -10.5t71.5 -27.5q51 38 125 38q92 0 143.5 -71.5t51.5 -185.5h-354
q1 -94 43.5 -151.5t131.5 -57.5q44 0 77.5 9.5zM137.5 93q43.5 -60 122.5 -60q40 0 64.5 6.5t50.5 19.5q-57 69 -57 186q0 115 56 183q-24 11 -49 17.5t-60 6.5q-52 0 -90.5 -27.5t-59 -74.5t-21.5 -104q0 -93 43.5 -153zM422.5 404q-38.5 -48 -45.5 -124h295q-7 78 -41 125
t-102 47t-106.5 -48z" />
    <glyph glyph-name="Racute" unicode="&#x154;" horiz-adv-x="576" 
d="M98 0h55v286h103q42 0 85 8l163 -294h62l-177 309q57 22 89.5 66t33.5 111q0 102 -65.5 148t-179.5 46h-169v-680zM456 484q-1 -79 -57 -116t-141 -37h-105v303h116q187 0 187 -150zM271 739l85 153h-66l-55 -141z" />
    <glyph glyph-name="racute" unicode="&#x155;" horiz-adv-x="306" 
d="M123 352q31 34 80.5 62t92.5 28l-17 43q-34 0 -79.5 -24.5t-79.5 -52.5l-18 77h-34v-485h55v352zM146 589l85 153h-66l-55 -141z" />
    <glyph glyph-name="Rcommaaccent" unicode="&#x156;" horiz-adv-x="576" 
d="M98 0h55v286h103q42 0 85 8l163 -294h62l-177 309q57 22 89.5 66t33.5 111q0 102 -65.5 148t-179.5 46h-169v-680zM456 484q-1 -79 -57 -116t-141 -37h-105v303h116q187 0 187 -150zM298.5 -33.5q-12.5 -12.5 -12.5 -30.5q0 -15 11 -28t28 -14q-1 -47 -59 -81l17 -27
q40 19 64.5 59t24.5 86q0 20 -12.5 34t-30.5 14t-30.5 -12.5z" />
    <glyph glyph-name="rcommaaccent" unicode="&#x157;" horiz-adv-x="306" 
d="M123 352q31 34 80.5 62t92.5 28l-17 43q-34 0 -79.5 -24.5t-79.5 -52.5l-18 77h-34v-485h55v352zM66.5 -33.5q-12.5 -12.5 -12.5 -30.5q0 -15 11 -28t28 -14q-1 -47 -59 -81l17 -27q40 19 64.5 59t24.5 86q0 20 -12.5 34t-30.5 14t-30.5 -12.5z" />
    <glyph glyph-name="Rcaron" unicode="&#x158;" horiz-adv-x="576" 
d="M98 0h55v286h103q42 0 85 8l163 -294h62l-177 309q57 22 89.5 66t33.5 111q0 102 -65.5 148t-179.5 46h-169v-680zM456 484q-1 -79 -57 -116t-141 -37h-105v303h116q187 0 187 -150zM268 778l-80 114l-49 -10l104 -143h49l103 141l-47 12z" />
    <glyph glyph-name="rcaron" unicode="&#x159;" horiz-adv-x="306" 
d="M123 352q31 34 80.5 62t92.5 28l-17 43q-34 0 -79.5 -24.5t-79.5 -52.5l-18 77h-34v-485h55v352zM155 628l-80 114l-49 -10l104 -143h49l103 141l-47 12z" />
    <glyph glyph-name="Sacute" unicode="&#x15a;" horiz-adv-x="506" 
d="M136 0q57 -13 101 -13q109 0 170 47t61 124q0 68 -43 112.5t-139 86.5q-98 44 -141 81.5t-43 91.5q0 53 42.5 86.5t113.5 33.5q46 0 77 -9t67 -25l22 41q-34 17 -77.5 28t-90.5 11q-63 0 -110 -21.5t-72.5 -58.5t-25.5 -83q0 -67 45.5 -116t137.5 -88q96 -41 139 -78
t43 -91t-47 -90.5t-130 -36.5q-46 0 -90 11.5t-76 27.5l-15 -43q24 -16 81 -29zM260 739l85 153h-66l-55 -141z" />
    <glyph glyph-name="sacute" unicode="&#x15b;" horiz-adv-x="412" 
d="M112 -2.5q44 -10.5 78 -10.5q91 0 137.5 35.5t46.5 100.5q0 50 -42.5 85.5t-111.5 61.5q-59 22 -91 44.5t-32 53.5q0 36 32 60.5t82 24.5q39 0 65.5 -9t60.5 -25l20 39q-24 17 -66 28.5t-75 11.5q-81 0 -126.5 -36.5t-45.5 -97.5q0 -85 148 -138q130 -48 130 -107
q0 -41 -35 -64t-95 -23q-58 0 -132 36l-18 -43q26 -17 70 -27.5zM207 589l85 153h-66l-55 -141z" />
    <glyph glyph-name="Scedilla" unicode="&#x15e;" horiz-adv-x="506" 
d="M412 38q-56 -47 -157 -51l-16 -39q38 -7 62 -31t24 -51q0 -41 -31 -64t-79 -23q-19 0 -41.5 5.5t-34.5 13.5l15 36q34 -14 59 -14q26 0 45 12.5t19 31.5q0 22 -26.5 39t-67.5 18l26 67q-44 4 -89 15.5t-65 25.5l15 43q32 -16 76 -27.5t90 -11.5q83 0 130 36.5t47 90.5
t-43 91t-139 78q-92 39 -137.5 88t-45.5 116q0 46 25.5 83t72.5 58.5t110 21.5q47 0 90.5 -11t77.5 -28l-22 -41q-36 16 -67 25t-77 9q-71 0 -113.5 -33.5t-42.5 -86.5q0 -54 43 -91.5t141 -81.5q96 -42 139 -86.5t43 -112.5q0 -73 -56 -120z" />
    <glyph glyph-name="scedilla" unicode="&#x15f;" horiz-adv-x="412" 
d="M333 27q-41 -35 -122 -39l-16 -40q38 -7 62 -31t24 -51q0 -41 -31 -64t-79 -23q-19 0 -41.5 5.5t-34.5 13.5l15 36q34 -14 59 -14q26 0 45 12.5t19 31.5q0 22 -26.5 39t-67.5 18l26 67q-33 3 -67.5 13t-55.5 24l18 43q74 -36 132 -36q60 0 95 23t35 64q0 59 -130 107
q-148 53 -148 138q0 61 45.5 97.5t126.5 36.5q33 0 75 -11.5t66 -28.5l-20 -39q-34 16 -60.5 25t-65.5 9q-50 0 -82 -24.5t-32 -60.5q0 -31 32 -53.5t91 -44.5q69 -26 111.5 -61.5t42.5 -85.5q0 -61 -41 -96z" />
    <glyph glyph-name="Scaron" unicode="&#x160;" horiz-adv-x="506" 
d="M136 0q57 -13 101 -13q109 0 170 47t61 124q0 68 -43 112.5t-139 86.5q-98 44 -141 81.5t-43 91.5q0 53 42.5 86.5t113.5 33.5q46 0 77 -9t67 -25l22 41q-34 17 -77.5 28t-90.5 11q-63 0 -110 -21.5t-72.5 -58.5t-25.5 -83q0 -67 45.5 -116t137.5 -88q96 -41 139 -78
t43 -91t-47 -90.5t-130 -36.5q-46 0 -90 11.5t-76 27.5l-15 -43q24 -16 81 -29zM257 778l-80 114l-49 -10l104 -143h49l103 141l-47 12z" />
    <glyph glyph-name="scaron" unicode="&#x161;" horiz-adv-x="412" 
d="M112 -2.5q44 -10.5 78 -10.5q91 0 137.5 35.5t46.5 100.5q0 50 -42.5 85.5t-111.5 61.5q-59 22 -91 44.5t-32 53.5q0 36 32 60.5t82 24.5q39 0 65.5 -9t60.5 -25l20 39q-24 17 -66 28.5t-75 11.5q-81 0 -126.5 -36.5t-45.5 -97.5q0 -85 148 -138q130 -48 130 -107
q0 -41 -35 -64t-95 -23q-58 0 -132 36l-18 -43q26 -17 70 -27.5zM216 628l-80 114l-49 -10l104 -143h49l103 141l-47 12z" />
    <glyph glyph-name="Tcedilla" unicode="&#x162;" horiz-adv-x="543" 
d="M337 -83q24 -24 24 -51q0 -41 -31 -64t-79 -23q-19 0 -41.5 5.5t-34.5 13.5l15 36q34 -14 59 -14q26 0 45 12.5t19 31.5q0 22 -26.5 39t-67.5 18l30 79h-6v636h-233v44h518l5 -44h-234v-623h2l-2 -5v-8h-3l-21 -52q38 -7 62 -31z" />
    <glyph glyph-name="tcedilla" unicode="&#x163;" horiz-adv-x="295" 
d="M246 -83q24 -24 24 -51q0 -41 -31 -64t-79 -23q-19 0 -41.5 5.5t-34.5 13.5l15 36q34 -14 59 -14q26 0 45 12.5t19 31.5q0 22 -26.5 39t-67.5 18l28 74q-31 13 -48 43.5t-17 77.5v315h-72v41h72v129l55 22v-151h88l21 -41h-109v-308q0 -39 16.5 -64t51.5 -25q20 0 41 9
l12 -44q-3 0 -27 -7q-20 -5 -39 -5h-1l-16 -39q38 -7 62 -31z" />
    <glyph glyph-name="Tcaron" unicode="&#x164;" horiz-adv-x="543" 
d="M528 680h-518v-44h233v-636h56v636h234zM273 778l-80 114l-49 -10l104 -143h49l103 141l-47 12z" />
    <glyph glyph-name="tcaron" unicode="&#x165;" horiz-adv-x="409" 
d="M305.5 689q-12.5 -13 -12.5 -30q0 -15 11 -28.5t28 -14.5q-3 -46 -58 -80l16 -27q40 20 64.5 59.5t24.5 84.5q0 20 -12 34.5t-30 14.5q-19 0 -31.5 -13zM146 472v151l-55 -22v-129h-72v-41h72v-315q0 -62 29.5 -95.5t80.5 -33.5q19 0 39 5q24 7 27 7l-12 44
q-21 -9 -41 -9q-35 0 -51.5 25t-16.5 64v308h109l-21 41h-88z" />
    <glyph glyph-name="Umacron" unicode="&#x16a;" horiz-adv-x="665" 
d="M88 680v-441q0 -73 29.5 -130t84.5 -89t130 -32q76 0 131.5 32t84.5 89t29 130v441h-55v-438q0 -58 -23 -105.5t-66 -74.5t-101 -27q-56 0 -99 27.5t-66.5 74.5t-23.5 105v438h-55zM210 790h241l-5 43h-236v-43z" />
    <glyph glyph-name="umacron" unicode="&#x16b;" 
d="M385 132q-39 -44 -86.5 -71t-87.5 -27q-50 0 -71 32t-21 88v331h-55v-337q0 -74 35.5 -117.5t110.5 -43.5q44 0 94 26t82 63l10 -76h44v485h-55v-353zM124 640h241l-6 43h-235v-43z" />
    <glyph glyph-name="Uring" unicode="&#x16e;" horiz-adv-x="665" 
d="M88 680v-441q0 -73 29.5 -130t84.5 -89t130 -32q76 0 131.5 32t84.5 89t29 130v441h-55v-438q0 -58 -23 -105.5t-66 -74.5t-101 -27q-56 0 -99 27.5t-66.5 74.5t-23.5 105v438h-55zM268.5 885q-26.5 -24 -26.5 -60q0 -35 26 -58t63 -23t62.5 23t25.5 58q0 36 -26 60
t-62 24t-62.5 -24zM297.5 791.5q-13.5 13.5 -13.5 33.5q0 21 13.5 35t33.5 14t33.5 -14t13.5 -35q0 -20 -13.5 -33.5t-33.5 -13.5t-33.5 13.5z" />
    <glyph glyph-name="uring" unicode="&#x16f;" 
d="M385 132q-39 -44 -86.5 -71t-87.5 -27q-50 0 -71 32t-21 88v331h-55v-337q0 -74 35.5 -117.5t110.5 -43.5q44 0 94 26t82 63l10 -76h44v485h-55v-353zM185.5 735q-26.5 -24 -26.5 -60q0 -35 26 -58t63 -23t62.5 23t25.5 58q0 36 -26 60t-62 24t-62.5 -24zM214.5 641.5
q-13.5 13.5 -13.5 33.5q0 21 13.5 35t33.5 14t33.5 -14t13.5 -35q0 -20 -13.5 -33.5t-33.5 -13.5t-33.5 13.5z" />
    <glyph glyph-name="Uhungarumlaut" unicode="&#x170;" horiz-adv-x="665" 
d="M88 680v-441q0 -73 29.5 -130t84.5 -89t130 -32q76 0 131.5 32t84.5 89t29 130v441h-55v-438q0 -58 -23 -105.5t-66 -74.5t-101 -27q-56 0 -99 27.5t-66.5 74.5t-23.5 105v438h-55zM270 739l85 153h-66l-55 -141zM403 739l85 153h-65l-55 -141z" />
    <glyph glyph-name="uhungarumlaut" unicode="&#x171;" 
d="M385 132q-39 -44 -86.5 -71t-87.5 -27q-50 0 -71 32t-21 88v331h-55v-337q0 -74 35.5 -117.5t110.5 -43.5q44 0 94 26t82 63l10 -76h44v485h-55v-353zM188 589l85 153h-66l-55 -141zM321 589l85 153h-65l-55 -141z" />
    <glyph glyph-name="Uogonek" unicode="&#x172;" horiz-adv-x="665" 
d="M577 680v-441q0 -71 -28 -127.5t-81.5 -89t-126.5 -34.5q-44 -42 -44 -98q0 -27 18 -41.5t40 -14.5q29 0 55 21l22 -32q-13 -13 -34.5 -21.5t-45.5 -8.5q-45 0 -75 27t-30 69q0 24 13.5 51t35.5 50q-97 12 -152.5 80t-55.5 169v441h55v-438q0 -58 23.5 -105t66.5 -74.5
t99 -27.5q58 0 101 27t66 74.5t23 105.5v438h55z" />
    <glyph glyph-name="uogonek" unicode="&#x173;" 
d="M517 -177q-13 -13 -34.5 -21.5t-45.5 -8.5q-45 0 -74.5 27t-29.5 69q0 28 17.5 59.5t45.5 54.5l-10 73q-32 -37 -82 -63t-94 -26q-75 0 -110.5 43.5t-35.5 117.5v337h55v-331q0 -56 21 -88t71 -32q40 0 87.5 27t86.5 71v353h55v-485q-27 -22 -42 -50.5t-15 -59.5
q0 -28 17.5 -42t39.5 -14q29 0 55 21z" />
    <glyph glyph-name="Ydieresis" unicode="&#x178;" horiz-adv-x="537" 
d="M290 0v278l237 402h-61l-204 -352l-200 364l-52 -26l225 -394v-272h55zM208.5 779.5q11.5 11.5 11.5 28.5q0 16 -11.5 27.5t-28.5 11.5t-28.5 -11t-11.5 -28t11.5 -28.5t28.5 -11.5t28.5 11.5zM366.5 779.5q11.5 11.5 11.5 28.5q0 16 -11.5 27.5t-28.5 11.5
q-18 0 -29 -11t-11 -28t11 -28.5t29 -11.5q17 0 28.5 11.5z" />
    <glyph glyph-name="Zacute" unicode="&#x179;" horiz-adv-x="548" 
d="M506 44h-420l435 587l-5 49h-467l10 -44h406l-437 -586l6 -50h477zM280 739l85 153h-66l-55 -141z" />
    <glyph glyph-name="zacute" unicode="&#x17a;" horiz-adv-x="432" 
d="M403 485h-348l16 -43h270l-315 -411l8 -31h366l-10 42h-302l318 411zM217 589l85 153h-66l-55 -141z" />
    <glyph glyph-name="Zdotaccent" unicode="&#x17b;" horiz-adv-x="548" 
d="M506 44h-420l435 587l-5 49h-467l10 -44h406l-437 -586l6 -50h477zM304.5 780.5q12.5 12.5 12.5 30.5q0 17 -12.5 29.5t-29.5 12.5q-18 0 -30.5 -12.5t-12.5 -29.5q0 -18 12 -30.5t31 -12.5q17 0 29.5 12.5z" />
    <glyph glyph-name="zdotaccent" unicode="&#x17c;" horiz-adv-x="432" 
d="M403 485h-348l16 -43h270l-315 -411l8 -31h366l-10 42h-302l318 411zM254.5 630.5q12.5 12.5 12.5 30.5q0 17 -12.5 29.5t-29.5 12.5q-18 0 -30.5 -12.5t-12.5 -29.5q0 -18 12 -30.5t31 -12.5q17 0 29.5 12.5z" />
    <glyph glyph-name="Zcaron" unicode="&#x17d;" horiz-adv-x="548" 
d="M506 44h-420l435 587l-5 49h-467l10 -44h406l-437 -586l6 -50h477zM277 778l-80 114l-49 -10l104 -143h49l103 141l-47 12z" />
    <glyph glyph-name="zcaron" unicode="&#x17e;" horiz-adv-x="432" 
d="M403 485h-348l16 -43h270l-315 -411l8 -31h366l-10 42h-302l318 411zM226 628l-80 114l-49 -10l104 -143h49l103 141l-47 12z" />
    <glyph glyph-name="florin" unicode="&#x192;" horiz-adv-x="299" 
d="M49 431h73v-367q0 -82 -70 -82q-9 0 -21.5 3t-18.5 6l-12 -44q34 -13 66 -13q53 0 82 37.5t29 101.5v358h109l-21 41h-88v100q0 82 69 82q9 0 22 -3t19 -6l12 44q-34 13 -66 13q-53 0 -82 -37.5t-29 -101.5v-91h-73v-41z" />
    <glyph glyph-name="Scommaaccent" unicode="&#x218;" horiz-adv-x="506" 
d="M136 0q57 -13 101 -13q109 0 170 47t61 124q0 68 -43 112.5t-139 86.5q-98 44 -141 81.5t-43 91.5q0 53 42.5 86.5t113.5 33.5q46 0 77 -9t67 -25l22 41q-34 17 -77.5 28t-90.5 11q-63 0 -110 -21.5t-72.5 -58.5t-25.5 -83q0 -67 45.5 -116t137.5 -88q96 -41 139 -78
t43 -91t-47 -90.5t-130 -36.5q-46 0 -90 11.5t-76 27.5l-15 -43q24 -16 81 -29zM207.5 -33.5q-12.5 -12.5 -12.5 -30.5q0 -15 11 -28t28 -14q-1 -47 -59 -81l17 -27q40 19 64.5 59t24.5 86q0 20 -12.5 34t-30.5 14t-30.5 -12.5z" />
    <glyph glyph-name="scommaaccent" unicode="&#x219;" horiz-adv-x="412" 
d="M112 -2.5q44 -10.5 78 -10.5q91 0 137.5 35.5t46.5 100.5q0 50 -42.5 85.5t-111.5 61.5q-59 22 -91 44.5t-32 53.5q0 36 32 60.5t82 24.5q39 0 65.5 -9t60.5 -25l20 39q-24 17 -66 28.5t-75 11.5q-81 0 -126.5 -36.5t-45.5 -97.5q0 -85 148 -138q130 -48 130 -107
q0 -41 -35 -64t-95 -23q-58 0 -132 36l-18 -43q26 -17 70 -27.5zM163.5 -33.5q-12.5 -12.5 -12.5 -30.5q0 -15 11 -28t28 -14q-1 -47 -59 -81l17 -27q40 19 64.5 59t24.5 86q0 20 -12.5 34t-30.5 14t-30.5 -12.5z" />
    <glyph glyph-name="Tcommaaccent" unicode="&#x21a;" horiz-adv-x="543" 
d="M528 680h-518v-44h233v-636h56v636h234zM243.5 -33.5q-12.5 -12.5 -12.5 -30.5q0 -15 11 -28t28 -14q-1 -47 -59 -81l17 -27q40 19 64.5 59t24.5 86q0 20 -12.5 34t-30.5 14t-30.5 -12.5z" />
    <glyph glyph-name="tcommaaccent" unicode="&#x21b;" horiz-adv-x="295" 
d="M146 472v151l-55 -22v-129h-72v-41h72v-315q0 -62 29.5 -95.5t80.5 -33.5q19 0 39 5q24 7 27 7l-12 44q-21 -9 -41 -9q-35 0 -51.5 25t-16.5 64v308h109l-21 41h-88zM152.5 -33.5q-12.5 -12.5 -12.5 -30.5q0 -15 11 -28t28 -14q-1 -47 -59 -81l17 -27q40 19 64.5 59
t24.5 86q0 20 -12.5 34t-30.5 14t-30.5 -12.5z" />
    <glyph glyph-name="circumflex" unicode="&#x2c6;" horiz-adv-x="276" 
d="M138 703l79 -114l49 12l-104 141h-49l-103 -143l47 -10z" />
    <glyph glyph-name="caron" unicode="&#x2c7;" horiz-adv-x="276" 
d="M139 628l-80 114l-49 -10l104 -143h49l103 141l-47 12z" />
    <glyph glyph-name="uni02C9" unicode="&#x2c9;" horiz-adv-x="261" 
d="M10 645h241l-6 44h-235v-44z" />
    <glyph glyph-name="breve" unicode="&#x2d8;" horiz-adv-x="280" 
d="M202.5 670q-23.5 -26 -62.5 -26q-40 0 -63.5 26.5t-23.5 60.5h-43q0 -54 34 -92t96 -38q63 0 96.5 38t33.5 92h-44q0 -35 -23.5 -61z" />
    <glyph glyph-name="dotaccent" unicode="&#x2d9;" horiz-adv-x="105" 
d="M82.5 630.5q12.5 12.5 12.5 30.5q0 17 -12.5 29.5t-29.5 12.5q-18 0 -30.5 -12.5t-12.5 -29.5q0 -18 12 -30.5t31 -12.5q17 0 29.5 12.5z" />
    <glyph glyph-name="ring" unicode="&#x2da;" horiz-adv-x="197" 
d="M36.5 735q-26.5 -24 -26.5 -60q0 -35 26 -58t63 -23t62.5 23t25.5 58q0 36 -26 60t-62 24t-62.5 -24zM65.5 641.5q-13.5 13.5 -13.5 33.5q0 21 13.5 35t33.5 14t33.5 -14t13.5 -35q0 -20 -13.5 -33.5t-33.5 -13.5t-33.5 13.5z" />
    <glyph glyph-name="ogonek" unicode="&#x2db;" horiz-adv-x="205" 
d="M28 -51q-18 -32 -18 -60q0 -42 30 -69t75 -27q24 0 45.5 8.5t34.5 21.5l-22 32q-26 -21 -55 -21q-22 0 -40 14.5t-18 41.5q0 31 15 59.5t42 50.5l-43 4q-28 -23 -46 -55z" />
    <glyph glyph-name="tilde" unicode="&#x2dc;" horiz-adv-x="302" 
d="M234.5 663.5q-11.5 -12.5 -28.5 -12.5q-25 0 -48 26t-65 26q-37 0 -60 -22t-23 -69h42q2 23 13.5 36t28.5 13q24 0 52 -26q26 -27 60 -27q37 0 60 22t23 69h-41q-2 -23 -13.5 -35.5z" />
    <glyph glyph-name="hungarumlaut" unicode="&#x2dd;" horiz-adv-x="274" 
d="M46 589l85 153h-66l-55 -141zM179 589l85 153h-65l-55 -141z" />
    <glyph glyph-name="pi" unicode="&#x3c0;" horiz-adv-x="554" 
d="M164 0v441h224v-441h56v441h100v44h-534v-44h99v-441h55z" />
    <glyph glyph-name="tm_Anusvara" unicode="&#xb82;" horiz-adv-x="0" 
d="M76 664q31 29 31 73q0 45 -31.5 74t-75.5 29q-43 0 -75 -29t-32 -74q0 -44 31.5 -73t75.5 -29q45 0 76 29zM-43.5 694q-17.5 17 -17.5 43q0 27 17.5 44t43.5 17t43.5 -17t17.5 -44q0 -26 -17.5 -43t-43.5 -17t-43.5 17z" />
    <glyph glyph-name="tm_Visarga" unicode="&#xb83;" horiz-adv-x="672" 
d="M412 351q31 29 31 73t-32 73.5t-76 29.5q-42 0 -74 -29.5t-32 -73.5t31 -73t75 -29q46 0 77 29zM292.5 381q-17.5 17 -17.5 43t17.5 43.5t43.5 17.5t43.5 -17.5t17.5 -43.5t-17.5 -43t-43.5 -17t-43.5 17zM240 15q31 29 31 74q0 44 -31.5 73t-75.5 29q-43 0 -74.5 -29
t-31.5 -73t31 -73.5t75 -29.5q45 0 76 29zM583 15.5q31 29.5 31 73.5t-31.5 73t-75.5 29q-43 0 -75 -29t-32 -73t31.5 -73.5t75.5 -29.5q45 0 76 29.5zM121 45.5q-17 17.5 -17 43.5t17 43.5t43 17.5q27 0 44.5 -17.5t17.5 -43.5t-17.5 -43.5t-44.5 -17.5q-26 0 -43 17.5z
M464 45.5q-17 17.5 -17 43.5t17 43t43 17t43.5 -17t17.5 -43t-17.5 -43.5t-43.5 -17.5t-43 17.5z" />
    <glyph glyph-name="tm_A" unicode="&#xb85;" horiz-adv-x="1056" 
d="M958 513v-639h-49v211h-189q-45 -106 -148.5 -167.5t-242.5 -61.5q-84 0 -150.5 22.5t-103.5 62t-37 88.5q0 44 28.5 70t81.5 26h531q16 53 16 105q0 74 -27.5 132t-78.5 91t-120 33q-43 0 -79.5 -12t-62.5 -34q20 4 32 4q53 0 88.5 -32.5t35.5 -80.5q0 -52 -35.5 -85
t-90.5 -33q-54 0 -89.5 33.5t-35.5 84.5q0 57 31 102.5t85.5 71.5t120.5 26q84 0 147.5 -38.5t98 -107t34.5 -155.5q0 -55 -15 -105h175v388h49zM412 383q-22 21 -56 21t-56 -21t-22 -53v-1q0 -33 22 -54t57 -21q34 0 55.5 21t21.5 54t-22 54zM532.5 -49.5
q87.5 49.5 129.5 134.5h-511q-60 0 -60 -56q0 -35 30 -64.5t84 -46.5t124 -17q116 0 203.5 49.5z" />
    <glyph glyph-name="tm_Aa" unicode="&#xb86;" horiz-adv-x="1256" 
d="M1202 40q44 -48 44 -124q0 -84 -47 -151t-129.5 -104.5t-185.5 -37.5q-62 0 -111.5 17t-77.5 47.5t-28 69.5q0 48 35 79t89 31h21v-40h-21q-32 0 -51.5 -19.5t-19.5 -50.5q0 -40 46 -64.5t118 -24.5q89 0 159.5 32t110 88.5t39.5 128.5q0 55 -30 90t-82 35
q-53 0 -88 -38.5t-35 -97.5v-32h-49v211h-189q-45 -106 -148.5 -167.5t-242.5 -61.5q-84 0 -150.5 22.5t-103.5 62t-37 88.5q0 44 28.5 70t81.5 26h531q16 53 16 105q0 74 -27.5 132t-78.5 91t-120 33q-43 0 -79.5 -12t-62.5 -34q20 4 32 4q53 0 88.5 -32.5t35.5 -80.5
q0 -52 -35.5 -85t-90.5 -33q-54 0 -89.5 33.5t-35.5 84.5q0 57 31 102.5t85.5 71.5t120.5 26q84 0 147.5 -38.5t98 -107t34.5 -155.5q0 -55 -15 -105h175v388h49v-485q22 28 54.5 44t71.5 16q74 0 118 -48zM412 383q-22 21 -56 21t-56 -21t-22 -53v-1q0 -33 22 -54t57 -21
q34 0 55.5 21t21.5 54t-22 54zM532.5 -49.5q87.5 49.5 129.5 134.5h-511q-60 0 -60 -56q0 -35 30 -64.5t84 -46.5t124 -17q116 0 203.5 49.5z" />
    <glyph glyph-name="tm_I" unicode="&#xb87;" horiz-adv-x="1033" 
d="M742 667q90 -44 141.5 -124.5t51.5 -184.5v-506h-49v504q0 94 -44.5 164t-123 108t-178.5 38q-108 0 -191 -37t-129 -108.5t-46 -171.5q0 -120 59 -232q99 35 209 35q75 0 146 -22q65 106 65 190q0 75 -43 120.5t-122 45.5q-87 0 -134 -50q21 8 42 8q53 0 88.5 -32.5
t35.5 -80.5q0 -52 -35.5 -85t-90.5 -33q-54 0 -89.5 33.5t-35.5 84.5q0 57 28 102.5t78 71.5t113 26q103 0 160.5 -58.5t57.5 -152.5q0 -47 -18.5 -100t-52.5 -107q75 -33 120 -87.5t45 -120.5q0 -47 -38 -75t-105 -28q-133 0 -257 73q-117 -73 -219 -73q-67 0 -105 28
t-38 75q0 59 39.5 108.5t109.5 83.5q-65 122 -65 252q0 112 53.5 193.5t148.5 125t216 43.5q112 0 202 -44zM337 383q-22 -21 -22 -54t22 -54t57 -21q34 0 55.5 21t21.5 54t-22 54t-56 21t-56 -21zM257 77q57 -89 143 -147q92 65 162 160q-59 17 -120 17q-98 0 -185 -30z
M709.5 2q-37.5 44 -100.5 71q-70 -98 -167 -169q106 -57 215 -57q90 0 90 58q0 53 -37.5 97zM358 -97q-88 63 -147 154q-56 -28 -88 -67t-32 -85q0 -58 90 -58q84 0 177 56z" />
    <glyph glyph-name="tm_Ii" unicode="&#xb88;" horiz-adv-x="741" 
d="M479 473v-473h-49v473h-283v-473h-49v513h628l5 -40h-252zM316 204.5q11 11.5 11 27.5t-11.5 26.5t-27.5 10.5q-17 0 -27.5 -10.5t-10.5 -26.5q0 -17 10.5 -28t27.5 -11t28 11.5zM648 204.5q11 11.5 11 27.5t-11.5 26.5t-27.5 10.5t-27 -10.5t-11 -26.5q0 -17 11 -28
t27 -11q17 0 28 11.5z" />
    <glyph glyph-name="tm_U" unicode="&#xb89;" horiz-adv-x="972" 
d="M962 40v-40h-885v40h237q65 0 116.5 30t80.5 83t29 120q0 62 -28 110t-78.5 75.5t-116.5 27.5q-64 0 -114 -24.5t-80 -68.5q35 19 77 19q66 0 109.5 -40t43.5 -101q0 -64 -44 -104.5t-112 -40.5q-69 0 -114 42t-45 107q0 73 35 131.5t98.5 91.5t145.5 33q80 0 143 -33.5
t98.5 -92t35.5 -132.5q0 -78 -33 -138.5t-95 -94.5h496zM120 343q-31 -27 -31 -69q0 -46 30.5 -74.5t77.5 -28.5q45 0 74.5 28.5t29.5 71.5t-28.5 71t-72.5 28q-49 0 -80 -27z" />
    <glyph glyph-name="tm_Uu" unicode="&#xb8a;" horiz-adv-x="1657" 
d="M1647 40v-40h-1570v40h237q65 0 116.5 30t80.5 83t29 120q0 62 -28 110t-78.5 75.5t-116.5 27.5q-64 0 -114 -24.5t-80 -68.5q35 19 77 19q66 0 109.5 -40t43.5 -101q0 -64 -44 -104.5t-112 -40.5q-69 0 -114 42t-45 107q0 73 35 131.5t98.5 91.5t145.5 33
q80 0 143 -33.5t98.5 -92t35.5 -132.5q0 -79 -33.5 -139.5t-95.5 -93.5h1182zM791.5 108.5q-52.5 27.5 -80.5 75.5t-28 107q0 68 32.5 122.5t90.5 85.5t132 31q66 0 119.5 -28t85.5 -77v88h451l5 -40h-142v-375h-50v375h-214v-375h-50v189q0 55 -26.5 100.5t-73.5 71.5
t-105 26q-59 0 -105.5 -25.5t-72 -69.5t-25.5 -99q0 -41 15.5 -76t44.5 -58q-14 26 -14 57q0 57 38 94t97 37q61 0 100 -37.5t39 -94.5t-39.5 -94.5t-100.5 -37.5q-71 0 -123.5 27.5zM120 343q-31 -27 -31 -69q0 -46 30.5 -74.5t77.5 -28.5q45 0 74.5 28.5t29.5 71.5
t-28.5 71t-72.5 28q-49 0 -80 -27zM851 146.5q26 -26.5 66 -26.5t65.5 26t25.5 67q0 40 -25.5 66t-65.5 26t-66 -26t-26 -65q0 -41 26 -67.5z" />
    <glyph glyph-name="tm_E" unicode="&#xb8e;" horiz-adv-x="847" 
d="M837 473h-198v-473h-49v473h-201q-137 0 -207.5 -63.5t-70.5 -172.5q0 -56 21 -101.5t60 -73.5q-22 36 -22 78q0 45 21 81t58.5 56.5t83.5 20.5q48 0 86.5 -20.5t60 -56.5t21.5 -82q0 -45 -21.5 -81t-60 -56t-86.5 -20q-85 0 -147 32.5t-95 90.5t-33 132q0 126 82.5 201
t239.5 75h452zM249 55q33 -33 84 -33q52 0 85 33t33 84t-33 84.5t-85 33.5q-51 0 -84 -33t-33 -84q0 -52 33 -85z" />
    <glyph glyph-name="tm_Ee" unicode="&#xb8f;" horiz-adv-x="847" 
d="M837 473h-198v-447q0 -43 -4.5 -68t-19 -42.5t-44.5 -30.5l-322 -135l-23 37l306 130q35 15 46.5 37.5t11.5 71.5v447h-201q-137 0 -207.5 -63.5t-70.5 -172.5q0 -56 21 -101.5t60 -73.5q-22 36 -22 78q0 45 21 81t58.5 56.5t83.5 20.5q48 0 86.5 -20.5t60 -56.5
t21.5 -82q0 -45 -21.5 -81t-60 -56t-86.5 -20q-85 0 -147 32.5t-95 90.5t-33 132q0 126 82.5 201t239.5 75h452zM249 55q33 -33 84 -33q52 0 85 33t33 84t-33 84.5t-85 33.5q-51 0 -84 -33t-33 -84q0 -52 33 -85z" />
    <glyph glyph-name="tm_Ai" unicode="&#xb90;" horiz-adv-x="836" 
d="M726 101q20 -42 29 -75.5t9 -75.5q0 -68 -48 -111.5t-127 -43.5q-111 0 -165 91q-57 -91 -177 -91q-55 0 -98 22.5t-67 62t-24 88.5q0 168 270 205l180 24q105 14 160.5 55t56.5 106q0 56 -34 92t-88 36q-61 0 -100.5 -40.5t-39.5 -102.5v-69h-50v69q0 62 -40.5 102.5
t-104.5 40.5q-43 0 -75 -14t-52 -39q13 4 30 4q45 0 73.5 -27t28.5 -70q0 -41 -29.5 -68t-74.5 -27t-74.5 27t-29.5 70q0 54 26 97t72.5 67.5t104.5 24.5q107 0 170 -95q59 95 165 95q50 0 90 -22.5t62.5 -62t22.5 -88.5q0 -85 -66.5 -135.5t-203.5 -69.5l-180 -24
q-104 -14 -160 -55t-57 -106q0 -56 37.5 -92t98.5 -36q67 0 109.5 40.5t42.5 102.5v69h50v-69q0 -63 38.5 -103t101.5 -40q56 0 89 30.5t33 79.5q0 31 -9.5 71t-25.5 74zM129.5 382.5q-16.5 -14.5 -17.5 -37.5v-6q0 -23 16 -38.5t41 -15.5q24 0 40 15t17 38q0 26 -15.5 42.5
t-39.5 16.5q-25 0 -41.5 -14.5z" />
    <glyph glyph-name="tm_O" unicode="&#xb92;" horiz-adv-x="814" 
d="M661 5h61v-40h-61q-35 0 -65 8v-23q0 -48 -24 -86.5t-66 -60.5t-95 -22t-95 22t-65.5 60.5t-23.5 86.5v50h49v-50q0 -55 38 -90t97 -35t97.5 35t38.5 90v47q-56 41 -56 136v136h48q1 -43 24.5 -70.5t60.5 -27.5q40 0 59.5 30t19.5 81q0 59 -38.5 106t-106 73.5
t-151.5 26.5q-86 0 -154.5 -28t-107 -78t-38.5 -113q0 -14 1 -21q9 39 39.5 62.5t73.5 23.5q53 0 87.5 -33t34.5 -84q0 -50 -35 -82.5t-90 -32.5q-45 0 -81.5 21.5t-57.5 59.5t-21 86q0 76 45 136.5t124.5 94.5t179.5 34t179.5 -32.5t124.5 -90t45 -129.5q0 -69 -35 -112.5
t-97 -43.5q-53 0 -88 38v-31q0 -128 125 -128zM164.5 271q-21.5 -21 -21.5 -54q0 -32 21 -53t53 -21h1q32 0 53.5 21t22.5 53q0 33 -21 54t-53 21q-34 0 -55.5 -21z" />
    <glyph glyph-name="tm_Oo" unicode="&#xb93;" horiz-adv-x="814" 
d="M661 5h61v-40h-61q-35 0 -65 8v-23q0 -48 -26.5 -86.5t-72.5 -60.5t-104 -22q-55 0 -99 17t-68.5 47.5t-24.5 68.5q0 48 35 80t88 32h21v-40h-21q-31 0 -51.5 -20.5t-20.5 -51.5q0 -39 39.5 -64t101.5 -25q67 0 110.5 35t43.5 90v47q-56 41 -56 136v136h48
q1 -43 24.5 -70.5t60.5 -27.5q40 0 59.5 30t19.5 81q0 59 -38.5 106t-106 73.5t-151.5 26.5q-86 0 -154.5 -28t-107 -78t-38.5 -113q0 -14 1 -21q9 39 39.5 62.5t73.5 23.5q53 0 87.5 -33t34.5 -84q0 -50 -35 -82.5t-90 -32.5q-45 0 -81.5 21.5t-57.5 59.5t-21 86
q0 76 45 136.5t124.5 94.5t179.5 34t179.5 -32.5t124.5 -90t45 -129.5q0 -69 -35 -112.5t-97 -43.5q-53 0 -88 38v-31q0 -128 125 -128zM164.5 271q-21.5 -21 -21.5 -54q0 -32 21 -53t53 -21h1q32 0 53.5 21t22.5 53q0 33 -21 54t-53 21q-34 0 -55.5 -21z" />
    <glyph glyph-name="tm_Au" unicode="&#xb94;" horiz-adv-x="2015" 
d="M661 5h61v-40h-61q-35 0 -65 8v-23q0 -48 -24 -86.5t-66 -60.5t-95 -22t-95 22t-65.5 60.5t-23.5 86.5v50h49v-50q0 -55 38 -90t97 -35t97.5 35t38.5 90v47q-56 41 -56 136v136h48q1 -43 24.5 -70.5t60.5 -27.5q40 0 59.5 30t19.5 81q0 59 -38.5 106t-106 73.5
t-151.5 26.5q-86 0 -154.5 -28t-107 -78t-38.5 -113q0 -14 1 -21q9 39 39.5 62.5t73.5 23.5q53 0 87.5 -33t34.5 -84q0 -50 -35 -82.5t-90 -32.5q-45 0 -81.5 21.5t-57.5 59.5t-21 86q0 76 45 136.5t124.5 94.5t179.5 34t179.5 -32.5t124.5 -90t45 -129.5q0 -69 -35 -112.5
t-97 -43.5q-53 0 -88 38v-31q0 -128 125 -128zM164.5 271q-21.5 -21 -21.5 -54q0 -32 21 -53t53 -21h1q32 0 53.5 21t22.5 53q0 33 -21 54t-53 21q-34 0 -55.5 -21zM2005 473h-197v-473h-50v473h-267v-473h-49v228q0 74 -33.5 133t-92 92t-130.5 33q-80 0 -139 -32
t-90.5 -88.5t-31.5 -128.5q0 -56 21 -101.5t60 -73.5q-22 36 -22 78q0 45 21 81t58.5 56.5t83.5 20.5q48 0 86.5 -20.5t60 -56.5t21.5 -82q0 -45 -21.5 -81t-60 -56t-86.5 -20q-85 0 -147 32.5t-95 90.5t-33 132q0 85 38 152t109 104.5t167 37.5q82 0 149.5 -38t106.5 -105
v125h558zM1063 55q33 -33 84 -33q52 0 85 33t33 84t-33 84.5t-85 33.5q-51 0 -84 -33t-33 -84q0 -52 33 -85z" />
    <glyph glyph-name="tm_Ka" unicode="&#xb95;" horiz-adv-x="729" 
d="M641 248.5q50 -41.5 50 -108.5q0 -70 -53.5 -114t-144.5 -44v40q69 0 107 32.5t38 85.5q0 49 -34.5 79.5t-97.5 30.5h-48v-45q0 -106 -60.5 -164.5t-161.5 -58.5q-56 0 -98.5 20t-66 55t-23.5 79q0 54 31 93t87 54v230h461l5 -40h-174v-183h47q86 0 136 -41.5zM216 473
v-183h13h179v183h-192zM408 250h-177q-62 0 -96 -31.5t-34 -83.5q0 -48 37 -78t98 -30q79 0 125.5 46.5t46.5 131.5v45z" />
    <glyph glyph-name="tm_Nga" unicode="&#xb99;" horiz-adv-x="951" 
d="M853 513v-513h-511v40h123q73 0 117 44t44 112q0 55 -29 89.5t-81 34.5q-55 0 -90 -39t-35 -98v-37h-49v327h-195v-473h-49v513h486l4 -40h-197v-168q23 28 56 44t72 16q74 0 117 -47.5t43 -122.5q0 -51 -20.5 -90.5t-59.5 -64.5h205v473h49z" />
    <glyph glyph-name="tm_Ca" unicode="&#xb9a;" horiz-adv-x="669" 
d="M632 250h-174v-45q0 -106 -60.5 -164.5t-161.5 -58.5q-56 0 -98.5 20t-66 55t-23.5 79q0 54 31 93t87 54v230h461l5 -40h-174v-183h169zM216 473v-183h13h179v183h-192zM408 250h-177q-62 0 -96 -31.5t-34 -83.5q0 -48 37 -78t98 -30q79 0 125.5 46.5t46.5 131.5v45z" />
    <glyph glyph-name="tm_Ja" unicode="&#xb9c;" horiz-adv-x="836" 
d="M738 32.5q40 -37.5 40 -96.5q0 -60 -48 -99t-123 -39h-122v40h122q54 0 86 27.5t32 70.5q0 40 -24 64.5t-68 24.5q-41 0 -79.5 -26t-96.5 -79q-67 -61 -117 -93t-107 -32q-79 0 -127 48.5t-48 124.5q0 168 270 205l180 24q105 14 160.5 55t56.5 106q0 56 -34 92t-88 36
q-61 0 -100.5 -40.5t-39.5 -102.5v-69h-50v69q0 62 -40.5 102.5t-104.5 40.5q-43 0 -75 -14t-52 -39q13 4 30 4q45 0 73.5 -27t28.5 -70q0 -41 -29.5 -68t-74.5 -27t-74.5 27t-29.5 70q0 54 26 97t72.5 67.5t104.5 24.5q107 0 170 -95q59 95 165 95q50 0 90 -22.5t62.5 -62
t22.5 -88.5q0 -85 -66.5 -135.5t-203.5 -69.5l-180 -24q-104 -14 -160 -55t-57 -106q0 -57 33 -92.5t89 -35.5q43 0 84 27t104 83q66 59 113.5 89.5t98.5 30.5q65 0 105 -37.5zM129.5 382.5q-16.5 -14.5 -17.5 -37.5v-6q0 -23 16 -38.5t41 -15.5q24 0 40 15t17 38
q0 26 -15.5 42.5t-39.5 16.5q-25 0 -41.5 -14.5z" />
    <glyph glyph-name="tm_Nya" unicode="&#xb9e;" horiz-adv-x="1198" 
d="M1096.5 289.5q43.5 -59.5 43.5 -152.5q0 -119 -62 -207t-176 -134.5t-266 -46.5q-169 0 -295 52t-194.5 149.5t-68.5 230.5q0 89 40.5 187t101.5 155l51 -10q-60 -49 -100 -144.5t-40 -189.5q0 -119 62 -205.5t176 -132.5t267 -46q137 0 238.5 41t157 118.5t55.5 184.5
q0 72 -29 118.5t-85 46.5q-54 0 -89 -39t-35 -98v-167h-49v473h-179q-137 0 -207.5 -63.5t-70.5 -172.5q0 -56 21.5 -101.5t61.5 -73.5q-23 34 -23 78q0 69 46 113.5t117 44.5q48 0 86.5 -20.5t60 -56.5t21.5 -82q0 -45 -21.5 -81t-60 -56t-86.5 -20q-85 0 -147.5 32.5
t-95.5 90.5t-33 132q0 83 36.5 145t108.5 96.5t177 34.5h430l5 -40h-198v-184q22 28 54.5 44t71.5 16q78 0 121.5 -59.5zM481 55q33 -33 85 -33q51 0 84 33t33 84t-33 84.5t-84 33.5q-52 0 -85 -33t-33 -84q0 -52 33 -85z" />
    <glyph glyph-name="tm_Tta" unicode="&#xb9f;" horiz-adv-x="715" 
d="M701 40h-554v478l-49 -5v-513h607z" />
    <glyph glyph-name="tm_Nna" unicode="&#xba3;" horiz-adv-x="1672" 
d="M1662 473h-198v-473h-50v473h-101q-92 0 -163 -40q49 -49 76 -117t27 -145q0 -84 -42.5 -136.5t-113.5 -52.5q-70 0 -111.5 52.5t-41.5 136.5q0 80 34 148.5t95 115.5q-73 51 -166 51q-97 0 -169 -50q62 -50 97 -118.5t35 -146.5q0 -84 -42 -136.5t-112 -52.5
q-71 0 -113.5 52.5t-42.5 136.5q0 76 26.5 143.5t75.5 117.5q-94 54 -215 54q-102 0 -178 -33t-117 -91.5t-41 -133.5q0 -52 21 -94.5t60 -70.5q-22 35 -22 77q0 45 21 81t58.5 56.5t83.5 20.5q48 0 86.5 -20.5t60 -56.5t21.5 -82q0 -45 -21.5 -81t-60 -56t-86.5 -20
q-82 0 -144.5 32t-96.5 88t-34 126q0 87 48 156t136.5 108t204.5 39q140 0 252 -67q88 67 208 67q119 0 209 -68q88 50 197 50h344zM1176 301.5q-24 60.5 -68 103.5q-52 -41 -81.5 -102t-29.5 -132q0 -64 26.5 -104t73.5 -40t75 40.5t28 103.5q0 70 -24 130.5zM786 302.5
q-30 60.5 -84 102.5q-43 -43 -66 -103.5t-23 -130.5q0 -63 28 -103.5t75 -40.5t73.5 40t26.5 104q0 71 -30 131.5zM249 55q33 -33 84 -33q52 0 85 33t33 84t-33 84.5t-85 33.5q-51 0 -84 -33t-33 -84q0 -52 33 -85z" />
    <glyph glyph-name="tm_Ta" unicode="&#xba4;" horiz-adv-x="739" 
d="M592 262.5q47 -27.5 73 -76.5t26 -111q0 -69 -36 -123.5t-102 -85t-153 -30.5h-147q-57 0 -100 -21.5t-66 -57.5l-39 22q25 43 77.5 70t120.5 27h154q73 0 126.5 25.5t82.5 70.5t29 103q0 77 -42 126t-111 49h-27v-45q0 -106 -60.5 -164.5t-161.5 -58.5q-56 0 -98.5 20
t-66 55t-23.5 79q0 54 31 93t87 54v230h461l5 -40h-174v-183h26q61 0 108 -27.5zM216 473v-183h13h179v183h-192zM408 250h-177q-62 0 -96 -31.5t-34 -83.5q0 -48 37 -78t98 -30q79 0 125.5 46.5t46.5 131.5v45z" />
    <glyph glyph-name="tm_Na" unicode="&#xba8;" horiz-adv-x="740" 
d="M639.5 288.5q42.5 -60.5 42.5 -161.5q0 -83 -31.5 -149t-94 -104t-151.5 -38h-102q-57 0 -100 -21.5t-66 -57.5l-39 22q25 43 77.5 70t120.5 27h109q73 0 123.5 33t75.5 90t25 129q0 81 -28.5 128.5t-86.5 47.5q-53 0 -88 -39t-35 -98v-167h-49v473h-195v-473h-49v513
h486l4 -40h-197v-184q22 28 54.5 44t71.5 16q80 0 122.5 -60.5z" />
    <glyph glyph-name="tm_Nnna" unicode="&#xba9;" horiz-adv-x="1288" 
d="M1278 473h-198v-473h-49v473h-102q-99 0 -177 -48q56 -49 87 -114.5t31 -139.5q0 -84 -42 -136.5t-113 -52.5t-113 52.5t-42 136.5q0 75 30.5 140.5t85.5 112.5q-99 62 -229 62q-102 0 -178 -33t-117 -91.5t-41 -133.5q0 -52 21 -94.5t60 -70.5q-22 35 -22 77q0 45 21 81
t58.5 56.5t83.5 20.5q48 0 86.5 -20.5t60 -56.5t21.5 -82q0 -45 -21.5 -81t-60 -56t-86.5 -20q-82 0 -144.5 32t-96.5 88t-34 126q0 87 48 156t136.5 108t204.5 39q77 0 145 -20.5t123 -57.5q95 60 214 60h345zM789 296q-27 58 -76 100q-48 -42 -74 -100t-26 -125
q0 -64 27.5 -104t74.5 -40t74 40t27 104q0 67 -27 125zM249 55q33 -33 84 -33q52 0 85 33t33 84t-33 84.5t-85 33.5q-51 0 -84 -33t-33 -84q0 -52 33 -85z" />
    <glyph glyph-name="tm_Pa" unicode="&#xbaa;" horiz-adv-x="706" 
d="M609 513v-513h-511v513l49 5v-478h412v473h50z" />
    <glyph glyph-name="tm_Ma" unicode="&#xbae;" horiz-adv-x="796" 
d="M642.5 492.5q46.5 -38.5 71 -106.5t24.5 -155q0 -105 -48.5 -168t-145.5 -63h-446v513l49 5v-478h226v312q0 88 43.5 133.5t115.5 45.5q64 0 110.5 -38.5zM651.5 91q33.5 51 33.5 140q0 114 -40 184.5t-110 70.5q-51 0 -81.5 -32.5t-30.5 -99.5v-314h121q74 0 107.5 51z
" />
    <glyph glyph-name="tm_Ya" unicode="&#xbaf;" horiz-adv-x="897" 
d="M799 513v-513h-417v51q-45 -69 -128 -69q-77 0 -121.5 49t-44.5 149v333l49 5v-338q0 -153 117 -153q62 0 95 46.5t33 122.5v317h50v-473h317v473h50z" />
    <glyph glyph-name="tm_Ra" unicode="&#xbb0;" horiz-adv-x="670" 
d="M463 473v-447q0 -42 -5 -65.5t-19 -40.5t-44 -35l-232 -135l-23 39l224 131q31 19 40.5 41.5t9.5 71.5v440h-267v-473h-49v513h558l4 -40h-197z" />
    <glyph glyph-name="tm_Rra" unicode="&#xbb1;" horiz-adv-x="787" 
d="M679 449q51 -82 51 -218q0 -117 -36 -206t-109 -139t-181 -50h-111q-57 0 -100 -21.5t-66 -57.5l-39 22q25 43 77.5 70t120.5 27h118q137 0 205 96.5t68 258.5q0 117 -36 186t-109 69q-50 0 -84 -37t-34 -105v-344h-49v317q-1 77 -31.5 123t-88.5 46q-108 0 -108 -153
v-333h-49v333q0 97 41.5 147.5t113.5 50.5q49 0 85.5 -26t56.5 -72q21 47 59 72.5t85 25.5q99 0 150 -82z" />
    <glyph glyph-name="tm_La" unicode="&#xbb2;" horiz-adv-x="1005" 
d="M925.5 378.5q21.5 -79.5 21.5 -143.5q0 -119 -45 -186t-134 -67q-84 0 -129.5 57.5t-45.5 170.5v47q0 106 -63 167.5t-168 61.5q-77 0 -134 -31.5t-87 -87.5t-30 -129q0 -56 20.5 -101t60.5 -73q-22 35 -22 76q0 45 21 81t58.5 56.5t83.5 20.5q48 0 86.5 -20.5t60 -56.5
t21.5 -82q0 -45 -21.5 -81t-60 -56t-86.5 -20q-85 0 -147 33t-95 91t-33 132q0 85 37 151.5t106 104t161 37.5q83 0 147 -33.5t99 -95.5t35 -145v-47q0 -92 32 -137.5t93 -45.5q63 0 95 55t32 151q0 64 -21 144t-61 136l49 14q42 -69 63.5 -148.5zM249 55q33 -33 84 -33
q52 0 85 33t33 84t-33 84.5t-85 33.5q-51 0 -84 -33t-33 -84q0 -52 33 -85z" />
    <glyph glyph-name="tm_Lla" unicode="&#xbb3;" horiz-adv-x="1201" 
d="M1191 473h-197v-473h-50v473h-267v-473h-49v228q0 74 -33.5 133t-92 92t-130.5 33q-80 0 -139 -32t-90.5 -88.5t-31.5 -128.5q0 -56 21 -101.5t60 -73.5q-22 36 -22 78q0 45 21 81t58.5 56.5t83.5 20.5q48 0 86.5 -20.5t60 -56.5t21.5 -82q0 -45 -21.5 -81t-60 -56
t-86.5 -20q-85 0 -147 32.5t-95 90.5t-33 132q0 85 38 152t109 104.5t167 37.5q82 0 149.5 -38t106.5 -105v125h558zM249 55q33 -33 84 -33q52 0 85 33t33 84t-33 84.5t-85 33.5q-51 0 -84 -33t-33 -84q0 -52 33 -85z" />
    <glyph glyph-name="tm_Llla" unicode="&#xbb4;" horiz-adv-x="796" 
d="M423 0v-50q0 -42 14 -61.5t44 -19.5h173l4 -40h-180q-18 -59 -70 -95t-114 -36q-79 0 -123 41.5t-44 109.5h49q0 -48 30.5 -76.5t88.5 -28.5q45 0 81.5 22.5t55.5 70.5q-36 16 -47.5 44.5t-11.5 75.5v43h-275v513l49 5v-478h226v312q0 88 43.5 133.5t115.5 45.5
q64 0 110.5 -38.5t71 -106.5t24.5 -155q0 -105 -48.5 -168t-145.5 -63h-121zM423 40h121q74 0 107.5 51t33.5 140q0 114 -40 184.5t-110 70.5q-51 0 -81.5 -32.5t-30.5 -99.5v-314z" />
    <glyph glyph-name="tm_Va" unicode="&#xbb5;" horiz-adv-x="1019" 
d="M921 513v-513h-376v40q38 40 60.5 95t22.5 120q0 66 -31 118.5t-87.5 82.5t-132.5 30q-81 0 -141.5 -32t-92.5 -88.5t-32 -128.5q0 -56 21 -101.5t60 -73.5q-22 36 -22 78q0 45 21 81t58.5 56.5t83.5 20.5q48 0 86.5 -20.5t60 -56.5t21.5 -82q0 -45 -21.5 -81t-60 -56
t-86.5 -20q-85 0 -147 32.5t-95 90.5t-33 132q0 85 39 152t111 104.5t169 37.5q88 0 157.5 -35.5t108 -98.5t38.5 -142q0 -61 -19 -117t-53 -98h263v473h49zM249 55q33 -33 84 -33q52 0 85 33t33 84t-33 84.5t-85 33.5q-51 0 -84 -33t-33 -84q0 -52 33 -85z" />
    <glyph glyph-name="tm_Sha" unicode="&#xbb6;" horiz-adv-x="1006" 
d="M899.5 450q48.5 -63 48.5 -168q0 -87 -24.5 -155t-71 -106.5t-110.5 -38.5q-72 0 -115.5 45.5t-43.5 133.5v312h-163v-293q0 -97 -45 -147.5t-121 -50.5t-121 50.5t-45 147.5v333l49 5v-338q0 -77 31.5 -115t85.5 -38t85.5 38t31.5 115v333h383q97 0 145.5 -63z
M855.5 97.5q39.5 70.5 39.5 184.5q0 89 -33.5 140t-107.5 51h-121v-314q0 -67 30.5 -99.5t82.5 -32.5q70 0 109.5 70.5z" />
    <glyph glyph-name="tm_Ssa" unicode="&#xbb7;" horiz-adv-x="1338" 
d="M1245 0h-206v-243h-50v243h-444v40q38 40 60.5 95t22.5 120q0 66 -31.5 118.5t-88.5 82.5t-131 30q-81 0 -141.5 -32t-92.5 -88.5t-32 -128.5q0 -56 21 -101.5t60 -73.5q-22 36 -22 78q0 45 21 81t58.5 56.5t83.5 20.5q48 0 86.5 -20.5t60 -56.5t21.5 -82
q0 -45 -21.5 -81t-60 -56t-86.5 -20q-85 0 -147 32.5t-95 90.5t-33 132q0 85 39 152t111 104.5t169 37.5q88 0 157.5 -35.5t108 -98.5t38.5 -142q0 -60 -19 -116t-52 -99h379v172q-34 -8 -65 -8q-60 0 -105 22t-69.5 61t-25.5 87q0 69 44 113t117 44q72 0 113 -44.5
t41 -117.5v-86q48 29 88 79t68 111h50v-473zM989 260v104q0 57 -26.5 89.5t-77.5 32.5q-49 0 -78.5 -31t-29.5 -81q0 -55 39.5 -90t107.5 -35q32 0 65 11zM1195 40v337q-30 -49 -70 -86.5t-86 -59.5v-191h156zM249 55q33 -33 84 -33q52 0 85 33t33 84t-33 84.5t-85 33.5
q-51 0 -84 -33t-33 -84q0 -52 33 -85z" />
    <glyph glyph-name="tm_Sa" unicode="&#xbb8;" horiz-adv-x="1283" 
d="M1203.5 378.5q21.5 -79.5 21.5 -143.5q0 -119 -45 -186t-134 -67q-84 0 -129.5 57.5t-45.5 170.5v128q0 73 -26.5 110t-76.5 37q-63 0 -94 -62t-31 -166v-257h-50v257q0 106 -63 167.5t-168 61.5q-77 0 -134 -31.5t-87 -87.5t-30 -129q0 -56 20.5 -101t60.5 -73
q-22 35 -22 76q0 45 21 81t58.5 56.5t83.5 20.5q48 0 86.5 -20.5t60 -56.5t21.5 -82q0 -45 -21.5 -81t-60 -56t-86.5 -20q-85 0 -147 33t-95 91t-33 132q0 85 37 151.5t106 104t161 37.5q87 0 152.5 -36.5t99.5 -103.5q18 66 56.5 103t97.5 37q71 0 112 -50.5t41 -143.5
v-127q0 -92 32 -137.5t93 -45.5q63 0 95 54.5t32 151.5q0 64 -21 144t-61 136l49 14q42 -69 63.5 -148.5zM249 55q33 -33 84 -33q52 0 85 33t33 84t-33 84.5t-85 33.5q-51 0 -84 -33t-33 -84q0 -52 33 -85z" />
    <glyph glyph-name="tm_Ha" unicode="&#xbb9;" horiz-adv-x="1536" 
d="M1425.5 448.5q52.5 -82.5 52.5 -217.5q0 -117 -36 -206t-109 -139t-180 -50h-891q-57 0 -99.5 -21.5t-65.5 -57.5l-39 22q25 43 77.5 70t120.5 27h897q137 0 204.5 96.5t67.5 258.5q0 116 -37.5 185t-110.5 69q-53 0 -84 -35.5t-31 -105.5v-344h-49v317q0 76 -31.5 122.5
t-87.5 46.5q-109 0 -109 -153v-333h-340v40q38 40 60.5 95t22.5 120q0 66 -31.5 118.5t-88.5 82.5t-131 30q-81 0 -141.5 -32t-92.5 -88.5t-32 -128.5q0 -56 21 -101.5t60 -73.5q-22 36 -22 78q0 45 21 81t58.5 56.5t83.5 20.5q48 0 86.5 -20.5t60 -56.5t21.5 -82
q0 -45 -21.5 -81t-60 -56t-86.5 -20q-85 0 -147 32.5t-95 90.5t-33 132q0 85 39 152t111 104.5t169 37.5q88 0 157.5 -35.5t108 -98.5t38.5 -142q0 -61 -19.5 -117.5t-52.5 -97.5h227v293q0 97 41.5 147.5t113.5 50.5q48 0 83.5 -24.5t56.5 -68.5q20 45 57.5 69t84.5 24
q100 0 152.5 -82.5zM249 55q33 -33 84 -33q52 0 85 33t33 84t-33 84.5t-85 33.5q-51 0 -84 -33t-33 -84q0 -52 33 -85z" />
    <glyph glyph-name="tm_VowelAa" unicode="&#xbbe;" horiz-adv-x="650" 
d="M443 473v-473h-49v473h-247v-473h-49v513h538l4 -40h-197z" />
    <glyph glyph-name="tm_VowelI" unicode="&#xbbf;" horiz-adv-x="244" 
d="M11.5 759.5q64.5 -37.5 100 -104.5t35.5 -152v-503h-49v503q0 73 -29 129.5t-82.5 88t-125.5 31.5q-81 0 -128 -34.5t-47 -90.5q0 -53 35 -83.5t104 -30.5h40v-40h-40q-90 0 -140.5 43t-51.5 111q0 49 28 88t79.5 60.5t120.5 21.5q86 0 150.5 -37.5z" />
    <glyph glyph-name="tm_VowelIi" unicode="&#xbc0;" horiz-adv-x="0" 
d="M-55.5 852q46.5 -26 72.5 -69t26 -92q0 -44 -27.5 -73.5t-69.5 -29.5q-43 0 -72 26.5t-29 66.5t27.5 65.5t70.5 25.5q15 0 32 -5q-20 31 -55 48t-82 17q-73 0 -116.5 -44.5t-43.5 -115.5q0 -69 37.5 -114t95.5 -45v-39q-53 0 -95.5 25.5t-66.5 71t-24 101.5
q0 59 26.5 106t74.5 73.5t112 26.5q60 0 106.5 -26zM-16 642q15 15 15 38q0 22 -15 37t-38 15t-38.5 -15t-15.5 -37q0 -23 15.5 -38t38.5 -15t38 15z" />
    <glyph glyph-name="tm_VowelU" unicode="&#xbc1;" horiz-adv-x="464" 
d="M344.5 493q38.5 -20 60 -56t21.5 -81t-21.5 -81.5t-60 -57t-86.5 -20.5t-86.5 20.5t-60 56.5t-21.5 81q0 36 14 66.5t40 51.5h-291v40h405q48 0 86.5 -20zM340.5 271.5q32.5 33.5 32.5 84.5t-32.5 84t-82.5 33q-52 0 -85.5 -33t-33.5 -85q0 -51 33.5 -84t85.5 -33
q50 0 82.5 33.5z" />
    <glyph glyph-name="tm_VowelUu" unicode="&#xbc2;" horiz-adv-x="653" 
d="M492 579q58 -33 90.5 -91t32.5 -131q0 -76 -38.5 -137t-106 -95.5t-151.5 -34.5h-57v40h57q71 0 126 29t85.5 81t30.5 117q0 61 -25.5 109t-70.5 74.5t-103 26.5q-97 0 -159 -54h50q76 0 123.5 -44t47.5 -113q0 -45 -21 -81.5t-58.5 -57t-84.5 -20.5q-49 0 -87.5 21.5
t-60.5 60t-22 85.5q0 59 25 109h-262v40h287q37 47 94.5 73t127.5 26q72 0 130 -33zM340 440q-33 33 -87 33h-84q-30 -47 -30 -109q0 -54 34.5 -90t86.5 -36q49 0 81 33.5t32 84.5t-33 84z" />
    <glyph glyph-name="tm_VowelE" unicode="&#xbc6;" horiz-adv-x="777" 
d="M599 588q80 -87 80 -243v-345h-50v345q0 137 -66 211t-186 74q-81 0 -141.5 -39.5t-92.5 -109t-32 -158.5q0 -65 16.5 -120.5t46.5 -95.5q-4 13 -4 33q0 45 21 81t58.5 56.5t83.5 20.5q48 0 86.5 -20.5t60 -56.5t21.5 -82q0 -45 -21.5 -81t-60 -56t-86.5 -20
q-79 0 -141.5 44t-98 121.5t-35.5 175.5q0 102 39 182t111.5 125t168.5 45q142 0 222 -87zM249 224q-33 -33 -33 -84q0 -52 33 -85t84 -33q52 0 85 33t33 84t-33 84.5t-85 33.5q-51 0 -84 -33z" />
    <glyph glyph-name="tm_VowelEe" unicode="&#xbc7;" horiz-adv-x="664" 
d="M566.5 229q39.5 -38 39.5 -96q0 -44 -26 -78.5t-73.5 -53.5t-108.5 -19q-103 0 -180.5 45.5t-118.5 124.5t-41 177q0 97 41 176t118.5 124.5t180.5 45.5q61 0 108.5 -19t73.5 -53.5t26 -78.5q0 -58 -39.5 -96t-99.5 -38q-59 0 -98 38.5t-39 96.5q0 34 16 62t43 46h-2
q-81 -2 -144 -42.5t-97.5 -109.5t-34.5 -152t34.5 -152t97.5 -109.5t144 -42.5h1q-27 17 -42.5 45.5t-15.5 62.5q0 58 39 96t98 38q60 0 99.5 -38zM532 459q25 26 25 65q0 40 -25 66t-63 26q-39 0 -64.5 -26t-25.5 -65q0 -40 25.5 -66t63.5 -26q39 0 64 26zM404.5 198
q-25.5 -26 -25.5 -65q0 -40 25.5 -66t64.5 -26q38 0 63 26t25 66q0 39 -25 65t-64 26q-38 0 -63.5 -26z" />
    <glyph glyph-name="tm_VowelAi" unicode="&#xbc8;" horiz-adv-x="1196" 
d="M1024 497.5q56 -33.5 85 -92.5t29 -136q0 -63 -21 -138t-64 -145l-49 14q40 57 61 132.5t21 138.5q0 97 -50.5 156t-146.5 59q-84 0 -152 -49q63 -49 98 -118t35 -148q0 -84 -42 -136.5t-112 -52.5q-71 0 -113.5 52.5t-42.5 136.5q0 75 27 143t75 118q-91 54 -215 54
q-102 0 -178 -33t-117 -91.5t-41 -133.5q0 -52 21 -94.5t60 -70.5q-22 35 -22 77q0 45 21 81t58.5 56.5t83.5 20.5q48 0 86.5 -20.5t60 -56.5t21.5 -82q0 -45 -21.5 -81t-60 -56t-86.5 -20q-82 0 -144.5 32t-96.5 88t-34 126q0 87 48 156t136.5 108t204.5 39q142 0 250 -67
q86 67 192 67q79 0 135 -33.5zM786 302.5q-30 60.5 -85 103.5q-42 -43 -65 -104t-23 -131q0 -63 28 -103.5t75 -40.5t73.5 40t26.5 104q0 71 -30 131.5zM249 55q33 -33 84 -33q52 0 85 33t33 84t-33 84.5t-85 33.5q-51 0 -84 -33t-33 -84q0 -52 33 -85z" />
    <glyph glyph-name="tm_VowelO" unicode="&#xbca;" horiz-adv-x="1905" 
d="M599 588q80 -87 80 -243v-345h-50v345q0 137 -66 211t-186 74q-81 0 -141.5 -39.5t-92.5 -109t-32 -158.5q0 -65 16.5 -120.5t46.5 -95.5q-4 13 -4 33q0 45 21 81t58.5 56.5t83.5 20.5q48 0 86.5 -20.5t60 -56.5t21.5 -82q0 -45 -21.5 -81t-60 -56t-86.5 -20
q-79 0 -141.5 44t-98 121.5t-35.5 175.5q0 102 39 182t111.5 125t168.5 45q142 0 222 -87zM249 224q-33 -33 -33 -84q0 -52 33 -85t84 -33q52 0 85 33t33 84t-33 84.5t-85 33.5q-51 0 -84 -33zM1682 473v-473h-49v473h-247v-473h-49v513h538l4 -40h-197zM1033 467q8 8 8 21
t-8 21.5t-21 8.5t-21 -8.5t-8 -21.5t8 -21t21 -8t21 8zM902 494q-8 -8 -8 -21t8 -21t21 -8t21 8t8 21t-8 21t-21 8t-21 -8zM1123 452q8 8 8 21t-8 21t-21 8t-21 -8t-8 -21t8 -21t21 -8t21 8zM825.5 443.5q-8.5 -8.5 -8.5 -21.5t8.5 -21t21.5 -8t21 8t8 21t-8 21.5t-21 8.5
t-21.5 -8.5zM1199.5 401q8.5 8 8.5 21t-8.5 21.5t-21.5 8.5t-21 -8.5t-8 -21.5t8 -21t21 -8t21.5 8zM777.5 364.5q-8.5 -8.5 -8.5 -21.5t8.5 -21t21.5 -8t21 8t8 21t-8 21.5t-21 8.5t-21.5 -8.5zM1247 322q8 8 8 21t-8 21.5t-21 8.5t-21 -8.5t-8 -21.5t8 -21t21 -8t21 8z
M763.5 278.5q-8.5 -8.5 -8.5 -21.5t8.5 -20.5t21.5 -7.5t21 7.5t8 20.5t-8 21.5t-21 8.5t-21.5 -8.5zM1261.5 236.5q8.5 7.5 8.5 20.5t-8.5 21.5t-21.5 8.5t-21 -8.5t-8 -21.5t8 -20.5t21 -7.5t21.5 7.5zM777.5 195q-8.5 -8 -8.5 -21t8.5 -21t21.5 -8t21 8t8 21t-8 21t-21 8
t-21.5 -8zM1247 153q8 8 8 21t-8 21t-21 8t-21 -8t-8 -21t8 -21t21 -8t21 8zM824.5 115q-8.5 -8 -8.5 -21t8.5 -21t21.5 -8t21 8t8 21t-8 21t-21 8t-21.5 -8zM1200.5 73q8.5 8 8.5 21t-8.5 21t-21.5 8t-21 -8t-8 -21t8 -21t21 -8t21.5 8zM902 65.5q-8 -8.5 -8 -21.5t8 -21
t21 -8t21 8t8 21t-8 21.5t-21 8.5t-21 -8.5zM1123 23q8 8 8 21t-8 21.5t-21 8.5t-21 -8.5t-8 -21.5t8 -21t21 -8t21 8zM1033 8q8 8 8 21t-8 21.5t-21 8.5t-21 -8.5t-8 -21.5t8 -21t21 -8t21 8z" />
    <glyph glyph-name="tm_VowelOo" unicode="&#xbcb;" horiz-adv-x="1806" 
d="M566.5 229q39.5 -38 39.5 -96q0 -44 -26 -78.5t-73.5 -53.5t-108.5 -19q-103 0 -180.5 45.5t-118.5 124.5t-41 177q0 97 41 176t118.5 124.5t180.5 45.5q61 0 108.5 -19t73.5 -53.5t26 -78.5q0 -58 -39.5 -96t-99.5 -38q-59 0 -98 38.5t-39 96.5q0 34 16 62t43 46h-2
q-81 -2 -144 -42.5t-97.5 -109.5t-34.5 -152t34.5 -152t97.5 -109.5t144 -42.5h1q-27 17 -42.5 45.5t-15.5 62.5q0 58 39 96t98 38q60 0 99.5 -38zM532 459q25 26 25 65q0 40 -25 66t-63 26q-39 0 -64.5 -26t-25.5 -65q0 -40 25.5 -66t63.5 -26q39 0 64 26zM404.5 198
q-25.5 -26 -25.5 -65q0 -40 25.5 -66t64.5 -26q38 0 63 26t25 66q0 39 -25 65t-64 26q-38 0 -63.5 -26zM1582 473v-473h-49v473h-247v-473h-49v513h538l4 -40h-197zM937 467q8 8 8 21t-8 21.5t-21 8.5t-21 -8.5t-8 -21.5t8 -21t21 -8t21 8zM806 494q-8 -8 -8 -21t8 -21
t21 -8t21 8t8 21t-8 21t-21 8t-21 -8zM1027 452q8 8 8 21t-8 21t-21 8t-21 -8t-8 -21t8 -21t21 -8t21 8zM729.5 443.5q-8.5 -8.5 -8.5 -21.5t8.5 -21t21.5 -8t21 8t8 21t-8 21.5t-21 8.5t-21.5 -8.5zM1103.5 401q8.5 8 8.5 21t-8.5 21.5t-21.5 8.5t-21 -8.5t-8 -21.5t8 -21
t21 -8t21.5 8zM681.5 364.5q-8.5 -8.5 -8.5 -21.5t8.5 -21t21.5 -8t21 8t8 21t-8 21.5t-21 8.5t-21.5 -8.5zM1151 322q8 8 8 21t-8 21.5t-21 8.5t-21 -8.5t-8 -21.5t8 -21t21 -8t21 8zM667.5 278.5q-8.5 -8.5 -8.5 -21.5t8.5 -20.5t21.5 -7.5t21 7.5t8 20.5t-8 21.5t-21 8.5
t-21.5 -8.5zM1165.5 236.5q8.5 7.5 8.5 20.5t-8.5 21.5t-21.5 8.5t-21 -8.5t-8 -21.5t8 -20.5t21 -7.5t21.5 7.5zM681.5 195q-8.5 -8 -8.5 -21t8.5 -21t21.5 -8t21 8t8 21t-8 21t-21 8t-21.5 -8zM1151 153q8 8 8 21t-8 21t-21 8t-21 -8t-8 -21t8 -21t21 -8t21 8zM728.5 115
q-8.5 -8 -8.5 -21t8.5 -21t21.5 -8t21 8t8 21t-8 21t-21 8t-21.5 -8zM1104.5 73q8.5 8 8.5 21t-8.5 21t-21.5 8t-21 -8t-8 -21t8 -21t21 -8t21.5 8zM806 65.5q-8 -8.5 -8 -21.5t8 -21t21 -8t21 8t8 21t-8 21.5t-21 8.5t-21 -8.5zM1027 23q8 8 8 21t-8 21.5t-21 8.5t-21 -8.5
t-8 -21.5t8 -21t21 -8t21 8zM937 8q8 8 8 21t-8 21.5t-21 8.5t-21 -8.5t-8 -21.5t8 -21t21 -8t21 8z" />
    <glyph glyph-name="tm_VowelAu" unicode="&#xbcc;" horiz-adv-x="2503" 
d="M601 588q80 -87 80 -243v-345h-50v345q0 137 -66 211t-186 74q-81 0 -141.5 -39.5t-92.5 -109t-32 -158.5q0 -65 16.5 -120.5t46.5 -95.5q-4 13 -4 33q0 45 21 81t58.5 56.5t83.5 20.5q48 0 86.5 -20.5t60 -56.5t21.5 -82q0 -45 -21.5 -81t-60 -56t-86.5 -20
q-79 0 -141.5 44t-98 121.5t-35.5 175.5q0 102 39 182t111.5 125t168.5 45q142 0 222 -87zM251 224q-33 -33 -33 -84q0 -52 33 -85t84 -33q52 0 85 33t33 84t-33 84.5t-85 33.5q-51 0 -84 -33zM2493 473h-197v-473h-50v473h-267v-473h-49v228q0 74 -33.5 133t-92 92
t-130.5 33q-80 0 -139 -32t-90.5 -88.5t-31.5 -128.5q0 -56 21 -101.5t60 -73.5q-22 36 -22 78q0 45 21 81t58.5 56.5t83.5 20.5q48 0 86.5 -20.5t60 -56.5t21.5 -82q0 -45 -21.5 -81t-60 -56t-86.5 -20q-85 0 -147 32.5t-95 90.5t-33 132q0 85 38 152t109 104.5t167 37.5
q82 0 149.5 -38t106.5 -105v125h558zM1551 55q33 -33 84 -33q52 0 85 33t33 84t-33 84.5t-85 33.5q-51 0 -84 -33t-33 -84q0 -52 33 -85zM1054 467q8 8 8 21t-8 21.5t-21 8.5t-21 -8.5t-8 -21.5t8 -21t21 -8t21 8zM923 494q-8 -8 -8 -21t8 -21t21 -8t21 8t8 21t-8 21t-21 8
t-21 -8zM1144 452q8 8 8 21t-8 21t-21 8t-21 -8t-8 -21t8 -21t21 -8t21 8zM846.5 443.5q-8.5 -8.5 -8.5 -21.5t8.5 -21t21.5 -8t21 8t8 21t-8 21.5t-21 8.5t-21.5 -8.5zM1220.5 401q8.5 8 8.5 21t-8.5 21.5t-21.5 8.5t-21 -8.5t-8 -21.5t8 -21t21 -8t21.5 8zM798.5 364.5
q-8.5 -8.5 -8.5 -21.5t8.5 -21t21.5 -8t21 8t8 21t-8 21.5t-21 8.5t-21.5 -8.5zM1268 322q8 8 8 21t-8 21.5t-21 8.5t-21 -8.5t-8 -21.5t8 -21t21 -8t21 8zM784.5 278.5q-8.5 -8.5 -8.5 -21.5t8.5 -20.5t21.5 -7.5t21 7.5t8 20.5t-8 21.5t-21 8.5t-21.5 -8.5zM1282.5 236.5
q8.5 7.5 8.5 20.5t-8.5 21.5t-21.5 8.5t-21 -8.5t-8 -21.5t8 -20.5t21 -7.5t21.5 7.5zM798.5 195q-8.5 -8 -8.5 -21t8.5 -21t21.5 -8t21 8t8 21t-8 21t-21 8t-21.5 -8zM1268 153q8 8 8 21t-8 21t-21 8t-21 -8t-8 -21t8 -21t21 -8t21 8zM845.5 115q-8.5 -8 -8.5 -21t8.5 -21
t21.5 -8t21 8t8 21t-8 21t-21 8t-21.5 -8zM1221.5 73q8.5 8 8.5 21t-8.5 21t-21.5 8t-21 -8t-8 -21t8 -21t21 -8t21.5 8zM923 65.5q-8 -8.5 -8 -21.5t8 -21t21 -8t21 8t8 21t-8 21.5t-21 8.5t-21 -8.5zM1144 23q8 8 8 21t-8 21.5t-21 8.5t-21 -8.5t-8 -21.5t8 -21t21 -8
t21 8zM1054 8q8 8 8 21t-8 21.5t-21 8.5t-21 -8.5t-8 -21.5t8 -21t21 -8t21 8z" />
    <glyph glyph-name="tm_Virama" unicode="&#xbcd;" horiz-adv-x="0" 
d="M27.5 646q11.5 11 11.5 27t-11.5 27.5t-27.5 11.5q-17 0 -27.5 -11t-10.5 -28q0 -16 10.5 -27t27.5 -11q16 0 27.5 11z" />
    <glyph glyph-name="tm_Om" unicode="&#xbd0;" horiz-adv-x="814" 
d="M661 5h61v-40h-61q-35 0 -65 8v-23q0 -48 -24 -86.5t-66 -60.5t-95 -22t-95 22t-65.5 60.5t-23.5 86.5v50h49v-50q0 -55 38 -90t97 -35t97.5 35t38.5 90v47q-56 41 -56 136v136h48q1 -43 24.5 -70.5t60.5 -27.5q40 0 59.5 30t19.5 81q0 59 -38.5 106t-106 73.5
t-151.5 26.5q-86 0 -154.5 -28t-107 -78t-38.5 -113q0 -14 1 -21q9 39 39.5 62.5t73.5 23.5q53 0 87.5 -33t34.5 -84q0 -50 -35 -82.5t-90 -32.5q-45 0 -81.5 21.5t-57.5 59.5t-21 86q0 76 45 136.5t124.5 94.5t179.5 34t179.5 -32.5t124.5 -90t45 -129.5q0 -69 -35 -112.5
t-97 -43.5q-53 0 -88 38v-31q0 -128 125 -128zM164.5 271q-21.5 -21 -21.5 -54q0 -32 21 -53t53 -21h1q32 0 53.5 21t22.5 53q0 33 -21 54t-53 21q-34 0 -55.5 -21zM398.5 36.5q-4.5 4.5 -4.5 11.5t4.5 12t11.5 5t11.5 -5t4.5 -12t-4.5 -11.5t-11.5 -4.5t-11.5 4.5zM366 12
v-84h32v41q0 20 10.5 33t30.5 13q24 0 37 -15.5t13 -40.5q0 -24 -14 -39t-38 -15h-96v106zM423 -72h16q11 0 18 8.5t7 22.5q0 15 -5.5 24.5t-16.5 9.5q-19 0 -19 -25v-40z" />
    <glyph glyph-name="tm_AuLengthMark" unicode="&#xbd7;" horiz-adv-x="1201" 
d="M1191 473h-197v-473h-50v473h-267v-473h-49v228q0 74 -33.5 133t-92 92t-130.5 33q-80 0 -139 -32t-90.5 -88.5t-31.5 -128.5q0 -56 21 -101.5t60 -73.5q-22 36 -22 78q0 45 21 81t58.5 56.5t83.5 20.5q48 0 86.5 -20.5t60 -56.5t21.5 -82q0 -45 -21.5 -81t-60 -56
t-86.5 -20q-85 0 -147 32.5t-95 90.5t-33 132q0 85 38 152t109 104.5t167 37.5q82 0 149.5 -38t106.5 -105v125h558zM249 55q33 -33 84 -33q52 0 85 33t33 84t-33 84.5t-85 33.5q-51 0 -84 -33t-33 -84q0 -52 33 -85z" />
    <glyph glyph-name="tm_Zero" unicode="&#xbe6;" horiz-adv-x="721" 
d="M516 496q69 -35 108 -97.5t39 -141.5q0 -80 -39 -142.5t-108 -97.5t-156 -35t-155.5 35t-107.5 97.5t-39 142.5q0 79 39 141.5t107.5 97.5t155.5 35t156 -35zM490 56.5q57 29.5 88.5 82t31.5 118.5t-31.5 118t-88.5 81.5t-130 29.5t-129.5 -29.5t-88 -82t-31.5 -117.5
q0 -66 31.5 -118.5t88 -82t129.5 -29.5t130 29.5z" />
    <glyph glyph-name="tm_One" unicode="&#xbe7;" horiz-adv-x="729" 
d="M641 248.5q50 -41.5 50 -108.5q0 -70 -53.5 -114t-144.5 -44v40q69 0 107 32.5t38 85.5q0 49 -34.5 79.5t-97.5 30.5h-48v-45q0 -106 -60.5 -164.5t-161.5 -58.5q-56 0 -98.5 20t-66 55t-23.5 79q0 54 31 93t87 54v230h461l5 -40h-174v-183h47q86 0 136 -41.5zM216 473
v-183h13h179v183h-192zM408 250h-177q-62 0 -96 -31.5t-34 -83.5q0 -48 37 -78t98 -30q79 0 125.5 46.5t46.5 131.5v45z" />
    <glyph glyph-name="tm_Two" unicode="&#xbe8;" horiz-adv-x="751" 
d="M741 40v-40h-664v40h237q65 0 116.5 30t80.5 83t29 120q0 62 -28 110t-78.5 75.5t-116.5 27.5q-64 0 -114 -24.5t-80 -68.5q35 19 77 19q66 0 109.5 -40t43.5 -101q0 -64 -44 -104.5t-112 -40.5q-69 0 -114 42t-45 107q0 73 35 131.5t98.5 91.5t145.5 33q80 0 143 -33.5
t98.5 -92t35.5 -132.5q0 -78 -33 -138.5t-95 -94.5h275zM120 343q-31 -27 -31 -69q0 -46 30.5 -74.5t77.5 -28.5q45 0 74.5 28.5t29.5 71.5t-28.5 71t-72.5 28q-49 0 -80 -27z" />
    <glyph glyph-name="tm_Three" unicode="&#xbe9;" horiz-adv-x="814" 
d="M804 40v-40h-462v40h123q73 0 117 44t44 112q0 55 -29 89.5t-81 34.5q-55 0 -90 -39t-35 -98v-37h-49v327h-195v-473h-49v513h486l4 -40h-197v-168q23 28 56 44t72 16q74 0 117 -47.5t43 -122.5q0 -51 -20.5 -90.5t-59.5 -64.5h205z" />
    <glyph glyph-name="tm_Four" unicode="&#xbea;" horiz-adv-x="796" 
d="M748 250h-290v-45q0 -106 -60.5 -164.5t-161.5 -58.5q-56 0 -98.5 20t-66 55t-23.5 79q0 54 31 93t87 54v230h461l5 -40h-174v-183h242v223h48v-263zM216 473v-183h13h179v183h-192zM408 250h-177q-62 0 -96 -31.5t-34 -83.5q0 -48 37 -78t98 -30q79 0 125.5 46.5
t46.5 131.5v45z" />
    <glyph glyph-name="tm_Five" unicode="&#xbeb;" horiz-adv-x="1224" 
d="M636 473h-211v-473h-50v513h503l5 -40h-198v-184q22 28 54.5 44t71.5 16q79 0 122 -61t43 -161q0 -115 -53 -200.5t-149 -131.5t-222 -46q-146 0 -253 62t-164 175.5t-57 263.5q0 154 66.5 276.5t192 192t297.5 69.5q146 0 257.5 -56t173.5 -158t62 -236v-338h-50v336
q0 122 -55.5 214t-156 142.5t-231.5 50.5q-157 0 -270.5 -64t-173 -176.5t-59.5 -254.5q0 -137 50 -239t144.5 -158t226.5 -56q111 0 195 40t130 115t46 178q0 79 -29 127.5t-85 48.5q-54 0 -89 -39t-35 -98v-167h-49v473z" />
    <glyph glyph-name="tm_Six" unicode="&#xbec;" horiz-adv-x="1043" 
d="M1033 40v-40h-306v40q68 0 104 32.5t36 85.5q0 48 -29 78t-79 30q-54 0 -88 -35t-34 -91v-140h-49v140q0 49 -34 79t-96 31v-45q0 -106 -60.5 -164.5t-161.5 -58.5q-56 0 -98.5 20t-66 55t-23.5 79q0 54 31 93t87 54v230h461l5 -40h-174v-183q53 -1 92 -17.5t61 -47.5
q21 40 61 63.5t90 23.5q72 0 115 -43t43 -112q0 -37 -15 -67t-44 -50h172zM216 473v-183h13h179v183h-192zM361.5 73.5q46.5 46.5 46.5 131.5v45h-177q-62 0 -96 -31.5t-34 -83.5q0 -48 37 -78t98 -30q79 0 125.5 46.5z" />
    <glyph glyph-name="tm_Seven" unicode="&#xbed;" horiz-adv-x="734" 
d="M639 0h-49v473h-201q-137 0 -207.5 -63.5t-70.5 -172.5q0 -56 21 -101.5t60 -73.5q-22 36 -22 78q0 45 21 81t58.5 56.5t83.5 20.5q48 0 86.5 -20.5t60 -56.5t21.5 -82q0 -45 -21.5 -81t-60 -56t-86.5 -20q-85 0 -147 32.5t-95 90.5t-33 132q0 126 82.5 201t239.5 75h259
v-513zM249 55q33 -33 84 -33q52 0 85 33t33 84t-33 84.5t-85 33.5q-51 0 -84 -33t-33 -84q0 -52 33 -85z" />
    <glyph glyph-name="tm_Eight" unicode="&#xbee;" horiz-adv-x="1056" 
d="M958 513v-639h-49v211h-189q-44 -105 -148 -167t-243 -62q-84 0 -150.5 22.5t-103.5 62t-37 88.5q0 43 28.5 69.5t81.5 26.5h180q-46 28 -72 74.5t-26 104.5q0 66 30.5 117.5t85 80.5t123.5 29q84 0 147.5 -38.5t98 -107t34.5 -155.5q0 -55 -15 -105h175v388h49zM695 230
q0 74 -27.5 132t-78.5 91t-120 33q-54 0 -96 -23.5t-65.5 -65t-23.5 -93.5q0 -51 24 -92t66.5 -64t95.5 -23h209q16 47 16 105zM533.5 -49.5q87.5 49.5 129.5 134.5h-512q-60 0 -60 -56q0 -35 30 -64.5t84 -46.5t124 -17q117 0 204.5 49.5z" />
    <glyph glyph-name="tm_Nine" unicode="&#xbef;" horiz-adv-x="928" 
d="M845.5 265.5q44.5 -47.5 44.5 -120.5q0 -42 -9 -75t-28 -76l-51 6q16 32 25.5 72.5t9.5 72.5q0 56 -28.5 89.5t-78.5 33.5q-30 0 -58 -11q38 -26 59 -66t21 -87q0 -52 -31 -87t-79 -35q-50 0 -81.5 35t-31.5 87q0 43 13.5 79.5t38.5 64.5q-14 2 -21 2h-102v-45
q0 -106 -60.5 -164.5t-161.5 -58.5q-56 0 -98.5 20t-66 55t-23.5 79q0 54 31 93t87 54v230h461l5 -40h-174v-183h101q33 0 61 -9q47 32 110 32q71 0 115.5 -47.5zM216 473v-183h13h179v183h-192zM408 250h-177q-62 0 -96 -31.5t-34 -83.5q0 -48 37 -78t98 -30
q79 0 125.5 46.5t46.5 131.5v45zM680.5 178.5q-17.5 33.5 -48.5 52.5q-24 -22 -37.5 -54.5t-13.5 -72.5q0 -33 17 -54.5t44 -21.5q25 0 40.5 21.5t15.5 54.5q0 41 -17.5 74.5z" />
    <glyph glyph-name="tm_Ten" unicode="&#xbf0;" horiz-adv-x="774" 
d="M694.5 378.5q21.5 -79.5 21.5 -143.5q0 -119 -45.5 -186t-134.5 -67q-52 0 -90 23.5t-59 69.5q-43 -93 -150 -93q-89 0 -134 67t-45 186q0 64 21 143.5t63 148.5l50 -14q-40 -56 -61 -136t-21 -144q0 -97 32 -151.5t95 -54.5q61 0 93 45.5t32 137.5v128h49v-128
q0 -92 32.5 -137.5t92.5 -45.5q63 0 95 54.5t32 151.5q0 64 -21 144t-61 136l50 14q42 -69 63.5 -148.5z" />
    <glyph glyph-name="tm_Hundred" unicode="&#xbf1;" horiz-adv-x="955" 
d="M945 473h-197v-473h-49v473h-267v-473h-50v317q0 76 -33 122.5t-95 46.5q-117 0 -117 -153v-333h-49v333q0 100 44.5 149t121.5 49q83 0 128 -69v51h558z" />
    <glyph glyph-name="tm_Thousand" unicode="&#xbf2;" horiz-adv-x="1040" 
d="M956 85.5q46 -48.5 46 -125.5q0 -55 -28 -97.5t-78.5 -66t-116.5 -23.5h-138q-92 0 -130 -58l-38 25q19 33 63 52.5t102 19.5h141q77 0 123.5 41.5t46.5 106.5q0 58 -31 96.5t-82 38.5h-17v-29q0 -81 -50 -128t-131 -47q-72 0 -114.5 34.5t-42.5 89.5q0 53 39.5 86
t110.5 33h138v116h-311v-45q0 -106 -60.5 -164.5t-161.5 -58.5q-56 0 -98.5 20t-66 55t-23.5 79q0 54 31 93t87 54v230h461l5 -40h-174v-183h499l5 -40h-143v-116h16q75 0 121 -48.5zM216 473v-183h13h179v183h-192zM408 250h-177q-62 0 -96 -31.5t-34 -83.5q0 -48 37 -78
t98 -30q79 0 125.5 46.5t46.5 131.5v45zM769 95h-136q-49 0 -74 -22.5t-25 -58.5q0 -35 27.5 -56t76.5 -21q59 0 95 35t36 94v29z" />
    <glyph glyph-name="tm_Naal" unicode="&#xbf3;" horiz-adv-x="882" 
d="M872 40v-40h-327v40q38 40 60.5 95t22.5 120q0 66 -31.5 118.5t-88.5 82.5t-131 30q-81 0 -141.5 -32t-92.5 -88.5t-32 -128.5q0 -56 21 -101.5t60 -73.5q-22 36 -22 78q0 45 21 81t58.5 56.5t83.5 20.5q48 0 86.5 -20.5t60 -56.5t21.5 -82q0 -45 -21.5 -81t-60 -56
t-86.5 -20q-85 0 -147 32.5t-95 90.5t-33 132q0 85 39 152t111 104.5t169 37.5q88 0 157.5 -35.5t108 -98.5t38.5 -142q0 -60 -19 -116t-52 -99h262zM249 55q33 -33 84 -33q52 0 85 33t33 84t-33 84.5t-85 33.5q-51 0 -84 -33t-33 -84q0 -52 33 -85z" />
    <glyph glyph-name="tm_Maatham" unicode="&#xbf4;" horiz-adv-x="1168" 
d="M1168 604v-40h-284v40q58 0 90 32.5t32 84.5q0 50 -37.5 80.5t-97.5 30.5q-43 0 -78 -13q28 -28 43.5 -67t15.5 -84q0 -52 -31 -87t-80 -35q-50 0 -82 35t-32 87q0 46 20 86t56 68q-23 10 -54 10q-45 0 -81.5 -20.5t-57 -57t-20.5 -82.5q0 -50 19 -87.5t54 -55.5
q82 -14 128.5 -95t46.5 -203q0 -105 -48.5 -168t-145.5 -63h-446v513l49 5v-478h226v312q0 75 32 119t87 56q-26 26 -40.5 63.5t-14.5 81.5q0 59 27 106t75.5 73.5t109.5 26.5q56 0 102 -26q54 26 120 26q54 0 97 -20t67 -56t24 -81q0 -37 -14.5 -67.5t-42.5 -49.5h166z
M785.5 741q-13.5 33 -38.5 55q-31 -22 -48.5 -55t-17.5 -73q0 -34 16.5 -55t43.5 -21q25 0 41.5 21.5t16.5 54.5q0 40 -13.5 73zM645 415.5q-40 70.5 -110 70.5q-51 0 -81.5 -32.5t-30.5 -99.5v-314h121q74 0 107.5 51t33.5 140q0 114 -40 184.5z" />
    <glyph glyph-name="tm_Varudam" unicode="&#xbf5;" horiz-adv-x="1719" 
d="M1618 288q43 -61 43 -161q0 -184 -134.5 -273t-368.5 -89h-554q-159 0 -278 53.5t-183.5 148t-64.5 214.5q0 89 40.5 187t101.5 155l51 -10q-60 -49 -100 -144.5t-40 -189.5q0 -108 57.5 -193.5t165 -133.5t250.5 -48h554q206 -2 328.5 79t122.5 245q0 79 -29.5 127.5
t-86.5 48.5q-53 0 -87.5 -39t-34.5 -98v-167h-50v473h-204v-473h-341l1 40q38 40 60.5 95t22.5 120q0 66 -30.5 118.5t-87.5 82.5t-133 30q-81 0 -141 -32t-92.5 -88.5t-32.5 -128.5q0 -56 21.5 -101.5t61.5 -73.5q-23 34 -23 78q0 69 46 113.5t117 44.5q48 0 86.5 -20.5
t60 -56.5t21.5 -82q0 -45 -21.5 -81t-60 -56t-86.5 -20q-85 0 -147.5 32.5t-95.5 90.5t-33 132q0 85 39 152t111.5 104.5t168.5 37.5q88 0 157.5 -35.5t108.5 -98.5t39 -142q0 -60 -19.5 -116.5t-52.5 -98.5h226v473h496l4 -40h-197v-184q22 28 54 44t71 16q79 0 122 -61z
M481 55q33 -33 85 -33q51 0 84 33t33 84t-33 84.5t-84 33.5q-52 0 -85 -33t-33 -84q0 -52 33 -85z" />
    <glyph glyph-name="tm_Patru" unicode="&#xbf6;" horiz-adv-x="955" 
d="M857 -130h-250q-7 -59 -47 -104t-104 -70t-142 -25q-97 0 -156.5 37.5t-59.5 99.5q0 46 32 73.5t94 27.5h335v91h-461v513l49 5v-478h412v473h50v-604h198v604h50v-643zM429.5 -263.5q52.5 19.5 86.5 54.5t41 79h-333q-38 0 -55.5 -16.5t-17.5 -45.5q0 -43 45 -67
t118 -24q63 0 115.5 19.5z" />
    <glyph glyph-name="tm_Varavu" unicode="&#xbf7;" horiz-adv-x="1274" 
d="M1264 40v-40h-275v40q55 0 86.5 32t31.5 82t-36.5 82t-93.5 32q-50 0 -93 -19q33 -26 51.5 -63.5t18.5 -81.5q0 -52 -31 -87t-79 -35q-49 0 -79.5 34.5t-30.5 87.5q0 83 63 143q-15 3 -32 3h-126v-250h-49v473h-201q-137 0 -207.5 -63.5t-70.5 -172.5q0 -56 21 -101.5
t60 -73.5q-22 36 -22 78q0 45 21 81t58.5 56.5t83.5 20.5q48 0 86.5 -20.5t60 -56.5t21.5 -82q0 -45 -21.5 -81t-60 -56t-86.5 -20q-85 0 -147 32.5t-95 90.5t-33 132q0 126 82.5 201t239.5 75h452l5 -40h-198v-183h125q37 0 73 -13q61 36 140 36q53 0 94.5 -20t65.5 -56.5
t24 -82.5q0 -35 -14.5 -64.5t-40.5 -49.5h158zM249 55q33 -33 84 -33q52 0 85 33t33 84t-33 84.5t-85 33.5q-51 0 -84 -33t-33 -84q0 -52 33 -85zM886 174q-15 31 -42 51q-27 -22 -42 -53t-15 -68q0 -33 15.5 -54.5t41.5 -21.5q25 0 41 21.5t16 54.5q0 39 -15 70z" />
    <glyph glyph-name="tm_Merpadi" unicode="&#xbf8;" horiz-adv-x="1813" 
d="M1716 0h-206v-243h-50v243h-432v40q28 54 43 116.5t15 114.5q0 97 -50.5 156t-146.5 59q-84 0 -152 -49q63 -49 98 -118t35 -148q0 -84 -42 -136.5t-112 -52.5q-71 0 -113.5 52.5t-42.5 136.5q0 75 27 143t75 118q-91 54 -215 54q-102 0 -178 -33t-117 -91.5t-41 -133.5
q0 -52 21 -94.5t60 -70.5q-22 35 -22 77q0 45 21 81t58.5 56.5t83.5 20.5q48 0 86.5 -20.5t60 -56.5t21.5 -82q0 -45 -21.5 -81t-60 -56t-86.5 -20q-82 0 -144.5 32t-96.5 88t-34 126q0 87 48 156t136.5 108t204.5 39q142 0 250 -67q86 67 192 67q79 0 135 -33.5t85 -92.5
t29 -136q0 -52 -13.5 -111t-42.5 -118h378v173q-31 -9 -66 -9q-60 0 -105 22t-69.5 61t-25.5 87q0 69 44 113t117 44q72 0 113.5 -44.5t41.5 -117.5v-85q47 28 87 77.5t69 111.5h50v-473zM1460 260v104q0 57 -27 89.5t-78 32.5q-49 0 -78 -31t-29 -81q0 -55 39.5 -90
t106.5 -35q33 0 66 11zM786 302.5q-30 60.5 -85 103.5q-42 -43 -65 -104t-23 -131q0 -63 28 -103.5t75 -40.5t73.5 40t26.5 104q0 71 -30 131.5zM1666 40v338q-65 -104 -156 -147v-191h156zM249 55q33 -33 84 -33q52 0 85 33t33 84t-33 84.5t-85 33.5q-51 0 -84 -33t-33 -84
q0 -52 33 -85z" />
    <glyph glyph-name="tm_Rupee" unicode="&#xbf9;" horiz-adv-x="1054" 
d="M953 288q43 -61 43 -161q0 -114 -53.5 -200t-150 -132t-221.5 -46q-157 0 -267.5 64.5t-168 182.5t-57.5 278q0 177 65 314.5t181 213.5t262 76q97 0 174 -28.5t120.5 -72.5t43.5 -90q0 -44 -27 -71.5t-69 -27.5q-43 0 -71.5 26.5t-28.5 66.5q0 39 27 64.5t69 26.5
q-41 28 -104 43.5t-134 15.5q-132 0 -235.5 -69.5t-161.5 -196.5t-58 -293q0 -146 50.5 -253t149.5 -165.5t240 -58.5q110 0 194.5 40.5t131 115.5t46.5 177q0 79 -29 127.5t-85 48.5q-54 0 -89 -39t-35 -98v-167h-49v473h-231v-473h-50v513h523l5 -40h-198v-184
q22 28 54.5 44t71.5 16q79 0 122 -61zM868.5 640q15.5 16 15.5 40t-15.5 39.5t-40.5 15.5q-24 0 -39.5 -16t-15.5 -39q0 -24 15.5 -40t39.5 -16q25 0 40.5 16z" />
    <glyph glyph-name="tm_Enn" unicode="&#xbfa;" horiz-adv-x="972" 
d="M972 604v-40h-284v40q57 0 89.5 32.5t32.5 84.5q0 49 -38 80t-97 31q-45 0 -78 -13q28 -28 43.5 -67t15.5 -84q0 -52 -31 -87t-80 -35q-51 0 -82 34.5t-31 87.5q0 46 20 86t56 68q-24 10 -55 10q-70 0 -114.5 -45t-44.5 -115q0 -69 37 -114t96 -45h157l4 -40h-197v-184
q22 28 54.5 44t71.5 16q80 0 122.5 -60.5t42.5 -161.5q0 -83 -31.5 -149t-94 -104t-151.5 -38h-102q-57 0 -100 -21.5t-66 -57.5l-39 22q25 43 77.5 70t120.5 27h109q73 0 123.5 33t75.5 90t25 129q0 81 -28.5 128.5t-86.5 47.5q-53 0 -88 -39t-35 -98v-167h-49v473h-195
v-473h-49v513h214q-34 26 -52.5 67t-18.5 92q0 59 27 106t75.5 73.5t109.5 26.5q56 0 102 -26q54 26 120 26q54 0 97 -20t67 -56t24 -81q0 -74 -57 -117h166zM590 741q-14 33 -39 55q-31 -22 -48.5 -55t-17.5 -73q0 -34 16.5 -55t43.5 -21q26 0 42.5 21.5t16.5 54.5
q0 40 -14 73z" />
    <glyph glyph-name="uni200C" unicode="&#x200c;" horiz-adv-x="0" 
d="M-27 -68h54v1305h-54v-1305z" />
    <glyph glyph-name="uni200D" unicode="&#x200d;" horiz-adv-x="0" 
d="M0 1246l-73 74l-40 -40l74 -74l-74 -74l39 -39l47 43v-1204h54v1205l48 -44l39 39l-74 74l74 74l-40 40z" />
    <glyph glyph-name="endash" unicode="&#x2013;" horiz-adv-x="435" 
d="M397 295h-367l8 -44h367z" />
    <glyph glyph-name="emdash" unicode="&#x2014;" horiz-adv-x="529" 
d="M491 295h-461l8 -44h461z" />
    <glyph glyph-name="quoteleft" unicode="&#x2018;" horiz-adv-x="156" 
d="M103.5 521.5q11.5 12.5 11.5 29.5q0 16 -10.5 29t-28.5 14q3 48 60 80l-18 28q-39 -20 -63.5 -60t-24.5 -85q0 -20 12 -34t31 -14t30.5 12.5z" />
    <glyph glyph-name="quoteright" unicode="&#x2019;" horiz-adv-x="156" 
d="M52 689q-12 -13 -12 -30q0 -15 10.5 -28.5t28.5 -14.5q-3 -46 -59 -80l17 -27q40 20 64.5 59.5t24.5 84.5q0 20 -12.5 34.5t-30.5 14.5q-19 0 -31 -13z" />
    <glyph glyph-name="quotesinglbase" unicode="&#x201a;" horiz-adv-x="156" 
d="M52 71.5q-12 -12.5 -12 -29.5q0 -15 11 -28.5t28 -13.5q-3 -47 -59 -81l17 -27q40 20 64.5 59.5t24.5 85.5q0 20 -12.5 33.5t-30.5 13.5q-19 0 -31 -12.5z" />
    <glyph glyph-name="quotedblleft" unicode="&#x201c;" horiz-adv-x="289" 
d="M103.5 521.5q11.5 12.5 11.5 29.5q0 16 -10.5 29t-28.5 14q3 48 60 80l-18 28q-39 -20 -63.5 -60t-24.5 -85q0 -20 12 -34t31 -14t30.5 12.5zM237 521.5q12 12.5 12 29.5q0 16 -10.5 29t-27.5 14q1 47 58 80l-16 28q-40 -19 -64.5 -59.5t-24.5 -85.5q0 -20 12 -34t30 -14
q19 0 31 12.5z" />
    <glyph glyph-name="quotedblright" unicode="&#x201d;" horiz-adv-x="289" 
d="M52 689q-12 -13 -12 -30q0 -15 10.5 -28.5t28.5 -14.5q-3 -46 -59 -80l17 -27q40 20 64.5 59.5t24.5 84.5q0 20 -12.5 34.5t-30.5 14.5q-19 0 -31 -13zM186 689q-12 -13 -12 -30q0 -15 11 -28.5t28 -14.5q-3 -47 -59 -80l17 -27q40 19 64 59t24 85q0 20 -12 34.5
t-30 14.5q-19 0 -31 -13z" />
    <glyph glyph-name="quotedblbase" unicode="&#x201e;" horiz-adv-x="289" 
d="M52 72.5q-12 -12.5 -12 -30.5q0 -15 11 -28.5t28 -13.5q-3 -47 -59 -81l17 -27q40 20 64.5 59.5t24.5 85.5q0 20 -12.5 34t-30.5 14q-19 0 -31 -12.5zM186 71.5q-12 -12.5 -12 -29.5q0 -15 11 -28.5t28 -13.5q-3 -48 -59 -81l17 -27q40 19 64 59t24 86q0 20 -12 33.5
t-30 13.5q-19 0 -31 -12.5z" />
    <glyph glyph-name="dagger" unicode="&#x2020;" horiz-adv-x="369" 
d="M154 783v-161h-124l19 -42h105l5 -580l47 -4l5 584h128l-19 42h-109v158z" />
    <glyph glyph-name="daggerdbl" unicode="&#x2021;" horiz-adv-x="376" 
d="M216 1l-2 188h132l-19 43h-113l2 305h130l-19 43h-113l3 200l-58 3l2 -203h-131l19 -43h111l-1 -305h-129l19 -43h111l-2 -195z" />
    <glyph glyph-name="bullet" unicode="&#x2022;" horiz-adv-x="202" 
d="M151 276.5q21 20.5 21 49.5q0 30 -21 51t-50 21t-50 -21t-21 -51q0 -29 21 -49.5t50 -20.5t50 20.5z" />
    <glyph glyph-name="ellipsis" unicode="&#x2026;" horiz-adv-x="395" 
d="M99.5 11.5q11.5 11.5 11.5 28.5t-11.5 28.5t-28.5 11.5t-29 -11.5t-12 -28.5t12 -28.5t29 -11.5t28.5 11.5zM227.5 11.5q11.5 11.5 11.5 28.5t-11.5 28.5t-28.5 11.5t-29 -11.5t-12 -28.5t12 -28.5t29 -11.5t28.5 11.5zM353.5 11.5q11.5 11.5 11.5 28.5t-11.5 28.5
t-28.5 11.5t-29 -11.5t-12 -28.5t12 -28.5t29 -11.5t28.5 11.5z" />
    <glyph glyph-name="perthousand" unicode="&#x2030;" horiz-adv-x="1187" 
d="M534 710l-308 -710l52 -4l309 710zM113 681q-35 -21 -55 -59.5t-20 -89.5q0 -80 42.5 -124.5t112.5 -44.5q42 0 77 21t55 59t20 89q0 80 -42 125t-111 45q-44 0 -79 -21zM263 626q28 -33 28 -94t-29 -93.5t-69 -32.5q-42 0 -71.5 33.5t-29.5 92.5q0 61 30 94t70 33
q43 0 71 -33zM553 317q-35 -21 -55 -59.5t-20 -89.5q0 -79 42.5 -124t111.5 -45q43 0 77.5 21t55 59t20.5 89q0 80 -42 125t-111 45q-44 0 -79 -21zM917 317q-35 -21 -55 -59.5t-20 -89.5q0 -80 42 -124.5t112 -44.5q43 0 77.5 21t55 59t20.5 89q0 80 -41.5 125t-112.5 45
q-43 0 -78 -21zM703 261.5q28 -32.5 28 -93.5q0 -60 -29.5 -92.5t-69.5 -32.5q-42 0 -71 33t-29 92q0 62 29.5 94t70.5 32q43 0 71 -32.5zM1067 261.5q28 -32.5 28 -93.5q0 -60 -29.5 -92.5t-69.5 -32.5q-42 0 -71 33t-29 92q0 61 29.5 93.5t69.5 32.5q44 0 72 -32.5z" />
    <glyph glyph-name="guilsinglleft" unicode="&#x2039;" horiz-adv-x="211" 
d="M30 226l140 -143l21 39l-114 123l114 123l-21 40l-140 -144v-38z" />
    <glyph glyph-name="guilsinglright" unicode="&#x203a;" horiz-adv-x="212" 
d="M182 264l-140 144l-22 -39l116 -123l-116 -124l22 -39l140 144v37z" />
    <glyph glyph-name="fraction" unicode="&#x2044;" horiz-adv-x="380" 
d="M318 710l-308 -710l51 -4l309 710z" />
    <glyph glyph-name="Euro" unicode="&#x20ac;" horiz-adv-x="593" 
d="M474.5 43q34.5 8 66.5 22l24 -42q-28 -15 -78 -26t-92 -11q-118 0 -193.5 66t-101.5 173h-93l-7 44h92q-5 37 -5 67q0 32 5 70h-85l-7 44h101q28 110 106.5 177t193.5 67q37 0 88 -10t76 -27l-20 -41q-38 16 -67 23t-78 7q-83 -1 -147.5 -53.5t-90.5 -142.5h252l7 -44
h-269q-5 -37 -5 -69q0 -31 5 -68h262l7 -44h-259q25 -86 84.5 -138t144.5 -52q49 0 83.5 8z" />
    <glyph glyph-name="Turkishlira" unicode="&#x20ba;" horiz-adv-x="486" 
d="M163 0q74 0 144.5 45.5t114.5 122t44 163.5h-53q0 -72 -37.5 -138t-96 -107t-116.5 -41v349l182 65l-8 41l-174 -62v62l182 64l-8 41l-174 -62v163l-55 -10v-172l-108 -38l7 -42l101 35v-60l-108 -38l7 -42l101 36v-375h55z" />
    <glyph glyph-name="Ruble" unicode="&#x20bd;" horiz-adv-x="549" 
d="M153 264v-60h290l5 -43h-295v-161h-55v161h-56l-5 43h61v62h-56l-5 42h61v372h169q113 0 179 -49.5t66 -155.5q-1 -105 -72 -158t-184 -53h-103zM153 309h110q85 0 138.5 42t54.5 123q0 160 -182 160h-121v-325z" />
    <glyph glyph-name="litre" unicode="&#x2113;" horiz-adv-x="344" 
d="M83 227v-89q0 -71 32 -110.5t97 -39.5q20 0 41 6.5t33 17.5l-16 38q-13 -6 -27.5 -10.5t-27.5 -4.5q-41 0 -59 28.5t-18 75.5v135q76 72 126 151.5t50 148.5q0 59 -31.5 93.5t-83.5 34.5q-53 0 -84.5 -36t-31.5 -100v-276q-44 -39 -73 -58l13 -47q27 16 60 42zM138 566
q0 46 17 67.5t44 22.5q26 0 42.5 -21t16.5 -63q0 -54 -33 -112.5t-87 -116.5v223z" />
    <glyph glyph-name="trademark" unicode="&#x2122;" horiz-adv-x="714" 
d="M288 680h-278v-38h117v-336h48v336h116zM519 420l104 153v-267h44v374h-21l-133 -197l-138 197h-19v-374h46v266l105 -154z" />
    <glyph glyph-name="Ohm" unicode="&#x2126;" horiz-adv-x="709" 
d="M586 224q-17 -60 -47 -108t-67 -69l-5 -47h189l5 44h-120q55 41 88 124t33 169q0 100 -36.5 181.5t-106 129t-163.5 48.5q-94 -1 -163.5 -48.5t-107 -129t-37.5 -181.5q0 -86 33 -169t87 -124h-119l5 -44h190l-5 47q-37 21 -67 69t-47 108t-17 114q0 86 32 156.5t89 111
t127 40.5t126.5 -40.5t88.5 -110.5t32 -157q0 -54 -17 -114z" />
    <glyph glyph-name="estimated" unicode="&#x212e;" horiz-adv-x="486" 
d="M397 427q-51 71 -144 71q-104 0 -159.5 -70t-55.5 -183q0 -119 59 -188.5t178 -69.5q42 0 85.5 11.5t76.5 30.5l-20 41q-36 -18 -70 -28t-78 -10q-88 0 -131 57.5t-44 151.5h354q0 115 -51 186zM141.5 404q38.5 48 106.5 48t102 -47t41 -125h-295q7 76 45.5 124z" />
    <glyph glyph-name="partialdiff" unicode="&#x2202;" horiz-adv-x="525" 
d="M487 240q0 -72 -27.5 -129.5t-79 -90.5t-121.5 -33q-105 0 -163 71t-58 187q0 72 27.5 129.5t79 90.5t121.5 33q70 -1 122 -39q-75 164 -290 254l16 37q373 -141 373 -510zM350.5 60.5q38.5 27.5 59 74.5t21.5 104q0 79 -17 147q-29 32 -67.5 49t-81.5 17
q-52 0 -90.5 -27.5t-59 -74.5t-21.5 -104q0 -93 43.5 -153t122.5 -60q52 0 90.5 27.5z" />
    <glyph glyph-name="Delta" unicode="&#x2206;" horiz-adv-x="581" 
d="M257 680l-247 -680h561v11l-259 669h-55zM499 44h-420l206 564z" />
    <glyph glyph-name="product" unicode="&#x220f;" horiz-adv-x="601" 
d="M98 0h52v639h300v-639h54v680h-406v-680z" />
    <glyph glyph-name="summation" unicode="&#x2211;" horiz-adv-x="437" 
d="M390 680h-360v-45l205 -290l-205 -295v-50h387l-5 50h-319l192 280v30l-192 275h303z" />
    <glyph glyph-name="minus" unicode="&#x2212;" horiz-adv-x="471" 
d="M432 295h-402l8 -44h403z" />
    <glyph glyph-name="divisionslash" unicode="&#x2215;" horiz-adv-x="380" 
d="M318 710l-308 -710l51 -4l309 710z" />
    <glyph glyph-name="bulletmath" unicode="&#x2219;" horiz-adv-x="202" 
d="M151 276.5q21 20.5 21 49.5q0 30 -21 51t-50 21t-50 -21t-21 -51q0 -29 21 -49.5t50 -20.5t50 20.5z" />
    <glyph glyph-name="radical" unicode="&#x221a;" horiz-adv-x="528" 
d="M467 710l-264 -652l-139 263l-54 -4l168 -317l48 -4l292 710z" />
    <glyph glyph-name="infinity" unicode="&#x221e;" horiz-adv-x="816" 
d="M131 429.5q-44 -28.5 -68.5 -76.5t-24.5 -107q0 -90 53 -144.5t142 -54.5q52 0 94 34t70 87q33 -53 82.5 -87t103.5 -34q58 0 102.5 28t68.5 76t24 107q0 90 -53 145t-142 55q-52 0 -94 -33.5t-70 -86.5q-31 52 -82 86t-104 34q-58 0 -102 -28.5zM382 255
q-22 -65 -58.5 -112.5t-88.5 -47.5q-65 0 -104 42t-39 108q0 73 39 119t105 46q50 -1 91 -33.5t68 -83.5zM434 249q21 62 58.5 111.5t89.5 49.5q65 0 104 -42t39 -109q0 -72 -38.5 -118t-103.5 -46q-51 0 -92.5 33t-68.5 84z" />
    <glyph glyph-name="integral" unicode="&#x222b;" horiz-adv-x="299" 
d="M246 736q15 0 41 -9l12 43q-34 13 -66 13q-53 0 -82 -37t-29 -102v-693q0 -82 -69 -82q-9 0 -22 3t-19 6l-12 -44q34 -13 66 -13q53 0 82 37.5t29 101.5v693q0 83 69 83z" />
    <glyph glyph-name="approxequal" unicode="&#x2248;" horiz-adv-x="500" 
d="M404 352.5q-20 -9.5 -42 -9.5q-40 0 -105 22q-66 22 -111 22q-43 0 -78 -17.5t-38 -56.5l41 -10q4 20 25 29.5t44 9.5q45 0 112 -22q72 -23 104 -23q43 0 77 17t37 58l-42 10q-4 -20 -24 -29.5zM404 175q-20 -10 -42 -10q-38 0 -105 23q-66 22 -111 22q-43 0 -78 -17.5
t-38 -57.5l41 -9q4 19 25.5 29t43.5 10q45 0 112 -22q72 -23 104 -23q42 0 76.5 17.5t37.5 56.5l-42 11q-4 -20 -24 -30z" />
    <glyph glyph-name="notequal" unicode="&#x2260;" horiz-adv-x="497" 
d="M338 522l-66 -151h-242l8 -44h214l-63 -143h-159l8 -44h132l-67 -150l49 -4l69 154h246l-7 44h-221l64 143h164l-7 44h-138l65 147z" />
    <glyph glyph-name="lessequal" unicode="&#x2264;" horiz-adv-x="322" 
d="M302 145l-219 145l219 142l-23 38l-249 -163v-37l249 -162zM293 44h-262l8 -44h260z" />
    <glyph glyph-name="greaterequal" unicode="&#x2265;" horiz-adv-x="322" 
d="M292 308l-249 162l-23 -36l219 -144l-219 -143l23 -39l249 163v37zM282 44h-262l8 -44h260z" />
    <glyph glyph-name="lozenge" unicode="&#x25ca;" horiz-adv-x="520" 
d="M271 0l219 292v15l-219 292h-22l-219 -292v-15l219 -292h22zM259 539l178 -240l-178 -238l-174 238z" />
    <glyph glyph-name="uni25CC" unicode="&#x25cc;" horiz-adv-x="615" 
d="M328 467q8 8 8 21t-8 21.5t-21 8.5t-21 -8.5t-8 -21.5t8 -21t21 -8t21 8zM197 494q-8 -8 -8 -21t8 -21t21 -8t21 8t8 21t-8 21t-21 8t-21 -8zM418 452q8 8 8 21t-8 21t-21 8t-21 -8t-8 -21t8 -21t21 -8t21 8zM120.5 443.5q-8.5 -8.5 -8.5 -21.5t8.5 -21t21.5 -8t21 8
t8 21t-8 21.5t-21 8.5t-21.5 -8.5zM494.5 401q8.5 8 8.5 21t-8.5 21.5t-21.5 8.5t-21 -8.5t-8 -21.5t8 -21t21 -8t21.5 8zM72.5 364.5q-8.5 -8.5 -8.5 -21.5t8.5 -21t21.5 -8t21 8t8 21t-8 21.5t-21 8.5t-21.5 -8.5zM542 322q8 8 8 21t-8 21.5t-21 8.5t-21 -8.5t-8 -21.5
t8 -21t21 -8t21 8zM58.5 278.5q-8.5 -8.5 -8.5 -21.5t8.5 -20.5t21.5 -7.5t21 7.5t8 20.5t-8 21.5t-21 8.5t-21.5 -8.5zM556.5 236.5q8.5 7.5 8.5 20.5t-8.5 21.5t-21.5 8.5t-21 -8.5t-8 -21.5t8 -20.5t21 -7.5t21.5 7.5zM72.5 195q-8.5 -8 -8.5 -21t8.5 -21t21.5 -8t21 8
t8 21t-8 21t-21 8t-21.5 -8zM542 153q8 8 8 21t-8 21t-21 8t-21 -8t-8 -21t8 -21t21 -8t21 8zM119.5 115q-8.5 -8 -8.5 -21t8.5 -21t21.5 -8t21 8t8 21t-8 21t-21 8t-21.5 -8zM495.5 73q8.5 8 8.5 21t-8.5 21t-21.5 8t-21 -8t-8 -21t8 -21t21 -8t21.5 8zM197 65.5
q-8 -8.5 -8 -21.5t8 -21t21 -8t21 8t8 21t-8 21.5t-21 8.5t-21 -8.5zM418 23q8 8 8 21t-8 21.5t-21 8.5t-21 -8.5t-8 -21.5t8 -21t21 -8t21 8zM328 8q8 8 8 21t-8 21.5t-21 8.5t-21 -8.5t-8 -21.5t8 -21t21 -8t21 8z" />
    <glyph glyph-name="commaaccent" unicode="&#xf6c3;" horiz-adv-x="0" 
d="M-83.5 -33.5q-12.5 -12.5 -12.5 -30.5q0 -15 11 -28t28 -14q-1 -47 -59 -81l17 -27q40 19 64.5 59t24.5 86q0 20 -12.5 34t-30.5 14t-30.5 -12.5z" />
    <glyph glyph-name="fi" unicode="&#xfb01;" horiz-adv-x="460" 
d="M92 431v-431h55v431h109l-21 41h-88v100q0 82 69 82q9 0 22 -3t19 -6l12 44q-34 13 -66 13q-53 0 -82 -37.5t-29 -101.5v-91h-73v-41h73zM394.5 608q12.5 12 12.5 30t-12.5 30t-30.5 12q-19 0 -30.5 -12t-11.5 -30t11.5 -30t30.5 -12q18 0 30.5 12zM392 0v485h-55v-485
h55z" />
    <glyph glyph-name="fl" unicode="&#xfb02;" horiz-adv-x="479" 
d="M92 431v-431h55v431h109l-21 41h-88v100q0 82 69 82q9 0 22 -3t19 -6l12 44q-34 13 -66 13q-53 0 -82 -37.5t-29 -101.5v-91h-73v-41h73zM402 0v706l-55 -10v-696h55z" />
    <glyph glyph-name="grave.case" horiz-adv-x="141" 
d="M95 739l36 12l-55 141h-66z" />
    <glyph glyph-name="dieresis.case" horiz-adv-x="258" 
d="M78.5 779.5q11.5 11.5 11.5 28.5q0 16 -11.5 27.5t-28.5 11.5t-28.5 -11t-11.5 -28t11.5 -28.5t28.5 -11.5t28.5 11.5zM236.5 779.5q11.5 11.5 11.5 28.5q0 16 -11.5 27.5t-28.5 11.5q-18 0 -29 -11t-11 -28t11 -28.5t29 -11.5q17 0 28.5 11.5z" />
    <glyph glyph-name="macron.case" horiz-adv-x="261" 
d="M10 790h241l-5 43h-236v-43z" />
    <glyph glyph-name="acute.case" horiz-adv-x="141" 
d="M46 739l85 153h-66l-55 -141z" />
    <glyph glyph-name="circumflex.case" horiz-adv-x="276" 
d="M138 853l79 -113l49 12l-104 141h-49l-103 -143l47 -10z" />
    <glyph glyph-name="caron.case" horiz-adv-x="276" 
d="M139 778l-80 114l-49 -10l104 -143h49l103 141l-47 12z" />
    <glyph glyph-name="breve.case" horiz-adv-x="280" 
d="M202.5 820q-23.5 -26 -62.5 -26q-40 0 -63.5 26.5t-23.5 60.5h-43q0 -54 34 -92t96 -38q63 0 96.5 38t33.5 92h-44q0 -35 -23.5 -61z" />
    <glyph glyph-name="dotaccent.case" horiz-adv-x="105" 
d="M82.5 780.5q12.5 12.5 12.5 30.5q0 17 -12.5 29.5t-29.5 12.5q-18 0 -30.5 -12.5t-12.5 -29.5q0 -18 12 -30.5t31 -12.5q17 0 29.5 12.5z" />
    <glyph glyph-name="ring.case" horiz-adv-x="197" 
d="M36.5 885q-26.5 -24 -26.5 -60q0 -35 26 -58t63 -23t62.5 23t25.5 58q0 36 -26 60t-62 24t-62.5 -24zM65.5 791.5q-13.5 13.5 -13.5 33.5q0 21 13.5 35t33.5 14t33.5 -14t13.5 -35q0 -20 -13.5 -33.5t-33.5 -13.5t-33.5 13.5z" />
    <glyph glyph-name="tilde.case" horiz-adv-x="299" 
d="M234.5 813.5q-11.5 -12.5 -28.5 -12.5q-25 0 -48 26t-65 26q-37 0 -60 -22t-23 -69h42q2 23 13.5 36t28.5 13q24 0 52 -26q26 -27 60 -27q37 0 60 22t23 69h-41q-2 -23 -13.5 -35.5z" />
    <glyph glyph-name="hungarumlaut.case" horiz-adv-x="274" 
d="M46 739l85 153h-66l-55 -141zM179 739l85 153h-65l-55 -141z" />
    <glyph glyph-name="tm_VowelAi.alt" horiz-adv-x="355" 
d="M456 201q0 -64 -25 -113.5t-70 -77.5t-102 -28q-49 0 -86.5 18.5t-58 50t-20.5 70.5q0 37 20.5 74t65.5 77l81 73q43 38 65 69.5t22 75.5q0 45 -33 75.5t-83 30.5q-81 0 -119 -47q17 5 31 5q46 0 74 -28t27 -71q0 -40 -29.5 -66.5t-73.5 -26.5q-45 0 -74.5 27t-29.5 70
q0 51 24 92.5t68 66t102 24.5q76 0 122.5 -43.5t46.5 -111.5q0 -50 -29 -91.5t-83 -90.5l-81 -72q-61 -55 -61 -109q0 -41 31 -69t81 -28q45 0 80.5 23t55.5 64t20 91zM102 500q-16 -15 -18 -38v-6q0 -25 16 -41t40 -16q25 0 42 16t18 40q0 26 -16.5 43t-41.5 17
q-24 0 -40 -15z" />
    <glyph glyph-name="tm_VowelI.alt1" horiz-adv-x="242" 
d="M11.5 759.5q64.5 -37.5 100 -104.5t35.5 -152v-503h-49v503q0 73 -29 129.5t-82.5 88t-125.5 31.5q-81 0 -128 -34.5t-47 -90.5q0 -38 20.5 -70.5t56.5 -44.5l-51 -19q-36 19 -57 56t-22 78q0 49 28 88t79.5 60.5t120.5 21.5q86 0 150.5 -37.5z" />
    <glyph glyph-name="tm_VowelU.alt1" horiz-adv-x="0" 
d="M-98 -187l-49 -10v227l49 1v-218z" />
    <glyph glyph-name="tm_VowelUu.alt1" horiz-adv-x="426" 
d="M218 473v-603h-49v603h-316v40h558l5 -40h-198z" />
    <glyph glyph-name="tm_VowelI.alt2" horiz-adv-x="242" 
d="M-33 759.5q88 -37.5 134 -104t46 -152.5v-503h-49v503q0 74 -39.5 130t-116.5 87.5t-187 31.5q-111 0 -173.5 -34t-62.5 -91q0 -39 22 -67t63 -40l-33 -26q-49 16 -76.5 51t-28.5 82q0 50 35 88.5t100.5 60t153.5 21.5q124 0 212 -37.5z" />
    <glyph glyph-name="tm_VowelU.alt2" horiz-adv-x="464" 
d="M344.5 493q38.5 -20 60 -56t21.5 -81t-21.5 -81.5t-60 -57t-86.5 -20.5t-86.5 20.5t-60 56.5t-21.5 81q0 36 14 66.5t40 51.5h-413v40h527q48 0 86.5 -20zM340.5 271.5q32.5 33.5 32.5 84.5t-32.5 84t-82.5 33q-52 0 -85.5 -33t-33.5 -85q0 -51 33.5 -84t85.5 -33
q50 0 82.5 33.5z" />
    <glyph glyph-name="tm_VowelUu.alt2" horiz-adv-x="653" 
d="M492 579q58 -33 90.5 -91t32.5 -131q0 -76 -38.5 -137t-106 -95.5t-151.5 -34.5h-57v40h57q71 0 126 29t85.5 81t30.5 117q0 61 -25.5 109t-70.5 74.5t-103 26.5q-97 0 -159 -54h50q76 0 123.5 -44t47.5 -113q0 -45 -21 -81.5t-58.5 -57t-84.5 -20.5q-49 0 -87.5 21.5
t-60.5 60t-22 85.5q0 59 25 109h-391v40h416q37 47 94.5 73t127.5 26q72 0 130 -33zM340 440q-33 33 -87 33h-84q-30 -47 -30 -109q0 -54 34.5 -90t86.5 -36q49 0 81 33.5t32 84.5t-33 84z" />
    <glyph glyph-name="tm_VowelI.alt3" horiz-adv-x="242" 
d="M-4 759.5q74 -37.5 112.5 -104t38.5 -152.5v-503h-49v503q0 74 -32.5 130t-95 87.5t-150.5 31.5q-81 0 -127.5 -34.5t-46.5 -90.5q0 -53 39 -83.5t109 -30.5v-33q-93 0 -147 40t-55 107q0 49 28 88t79.5 60.5t120.5 21.5q102 0 176 -37.5z" />
    <glyph glyph-name="tm_VowelU.alt3" horiz-adv-x="464" 
d="M344.5 493q38.5 -20 60 -56t21.5 -81t-21.5 -81.5t-60 -57t-86.5 -20.5t-86.5 20.5t-60 56.5t-21.5 81q0 36 14 66.5t40 51.5h-329v40h443q48 0 86.5 -20zM340.5 271.5q32.5 33.5 32.5 84.5t-32.5 84t-82.5 33q-52 0 -85.5 -33t-33.5 -85q0 -51 33.5 -84t85.5 -33
q50 0 82.5 33.5z" />
    <glyph glyph-name="tm_VowelUu.alt3" horiz-adv-x="653" 
d="M492 579q58 -33 90.5 -91t32.5 -131q0 -76 -38.5 -137t-106 -95.5t-151.5 -34.5h-57v40h57q71 0 126 29t85.5 81t30.5 117q0 61 -25.5 109t-70.5 74.5t-103 26.5q-97 0 -159 -54h50q76 0 123.5 -44t47.5 -113q0 -45 -21 -81.5t-58.5 -57t-84.5 -20.5q-49 0 -87.5 21.5
t-60.5 60t-22 85.5q0 59 25 109h-300v40h325q37 47 94.5 73t127.5 26q72 0 130 -33zM340 440q-33 33 -87 33h-84q-30 -47 -30 -109q0 -54 34.5 -90t86.5 -36q49 0 81 33.5t32 84.5t-33 84z" />
    <glyph glyph-name="tm_VowelI.alt4" horiz-adv-x="242" 
d="M-19 759.5q81 -37.5 123.5 -104t42.5 -152.5v-503h-49v503q0 74 -36 130t-106 87.5t-168 31.5q-106 0 -162.5 -34t-56.5 -91q0 -53 39 -83.5t109 -30.5v-33q-92 0 -146.5 40t-55.5 107q0 50 32 88.5t93.5 60t147.5 21.5q112 0 193 -37.5z" />
    <glyph glyph-name="tm_KU" horiz-adv-x="1023" 
d="M906 228.5q59 -61.5 59 -163.5q0 -94 -50.5 -165.5t-146 -111t-225.5 -39.5q-142 0 -247.5 52t-161.5 144t-56 210q0 97 40.5 204.5t101.5 163.5l51 -10q-40 -32 -72 -91.5t-50 -130.5t-18 -138q0 -104 49.5 -185.5t142.5 -127t220 -45.5q115 0 198.5 33.5t127 94.5
t43.5 141q0 85 -44 135.5t-125 50.5h-16v-45q0 -106 -60 -164.5t-161 -58.5q-56 0 -99 20t-66.5 55t-23.5 79q0 54 31 93t87 53v231h461l5 -40h-174v-183h15q105 0 164 -61.5zM485 473v-183h13h179v183h-192zM677 250h-177q-62 0 -96 -31.5t-34 -83.5q0 -48 37 -78t99 -30
q79 0 125 46.5t46 131.5v45z" />
    <glyph glyph-name="tm_CU" horiz-adv-x="805" 
d="M645 250v-250h-49v250h-138v-45q0 -106 -60.5 -164.5t-161.5 -58.5q-56 0 -98.5 20t-66 55t-23.5 79q0 54 31 93t87 54v230h461l5 -40h-174v-183h304l5 -40h-122zM216 473v-183h13h179v183h-192zM408 250h-177q-62 0 -96 -31.5t-34 -83.5q0 -48 37 -78t98 -30
q79 0 125.5 46.5t46.5 131.5v45z" />
    <glyph glyph-name="tm_NyU" horiz-adv-x="1199" 
d="M1101 -130h-278q-72 -94 -193.5 -146.5t-275.5 -52.5q-126 0 -193 36.5t-67 103.5q0 45 34.5 71.5t94.5 26.5h563q69 97 69 219q0 80 -29 128t-86 48q-54 0 -88.5 -39t-34.5 -98v-167h-50v473h-178q-137 0 -207.5 -63.5t-70.5 -172.5q0 -56 21 -101.5t60 -73.5
q-22 36 -22 78q0 45 21 81t58.5 56.5t83.5 20.5q48 0 86.5 -20.5t60 -56.5t21.5 -82q0 -45 -21.5 -81t-60 -56t-86.5 -20q-85 0 -147 32.5t-95 90.5t-33 132q0 126 82.5 201t239.5 75h430l5 -40h-198v-184q21 28 53.5 44t72.5 16q79 0 122 -61t43 -161q0 -119 -59 -218h202
v604h50v-643zM249 55q33 -33 84 -33q52 0 85 33t33 84t-33 84.5t-85 33.5q-51 0 -84 -33t-33 -84q0 -52 33 -85zM583.5 -242.5q103.5 40.5 170.5 112.5h-531q-37 0 -56.5 -16t-19.5 -43q0 -46 55.5 -70t151.5 -24q126 0 229.5 40.5z" />
    <glyph glyph-name="tm_TtU" horiz-adv-x="779" 
d="M678 276q43 -73 43 -185q0 -100 -37 -177.5t-109 -121t-172 -43.5q-102 0 -175.5 49t-111.5 136.5t-38 199.5q0 106 40.5 217.5t101.5 171.5l50 -10q-60 -53 -99.5 -162t-39.5 -219q0 -99 31.5 -175t92.5 -119t148 -43q85 0 144.5 37.5t90 104.5t30.5 155q0 92 -29 151.5
t-87 59.5q-54 0 -88 -38t-34 -98v-167h-49v513h49v-222q22 28 54 43t70 15q81 0 124 -73z" />
    <glyph glyph-name="tm_NnU" horiz-adv-x="1867" 
d="M1769 -130h-431q-125 -97 -334.5 -148t-500.5 -51q-204 0 -306.5 39t-102.5 106q0 42 32.5 67.5t97.5 25.5h1084q160 127 160 332q0 118 -50 181.5t-148 63.5q-73 0 -136 -38q57 -50 88 -122t31 -155q0 -84 -42.5 -136.5t-113.5 -52.5q-70 0 -113 52.5t-43 136.5
q0 81 30.5 152.5t84.5 122.5q-67 40 -149 40q-97 0 -169 -50q62 -50 97 -118.5t35 -146.5q0 -84 -42 -136.5t-112 -52.5q-71 0 -113.5 52.5t-42.5 136.5q0 76 26.5 143.5t75.5 117.5q-94 54 -215 54q-102 0 -178 -33t-117 -91.5t-41 -133.5q0 -52 21 -94.5t60 -70.5
q-22 35 -22 77q0 45 21 81t58.5 56.5t83.5 20.5q48 0 86.5 -20.5t60 -56.5t21.5 -82q0 -45 -21.5 -81t-60 -56t-86.5 -20q-82 0 -144.5 32t-96.5 88t-34 126q0 87 48 156t136.5 108t204.5 39q140 0 252 -67q88 67 208 67q105 0 189 -54q79 54 174 54q121 0 185.5 -77
t64.5 -215q0 -197 -137 -330h336v604h50v-643zM1172.5 310q-27.5 64 -77.5 108q-47 -44 -73.5 -108t-26.5 -139q0 -63 27.5 -103.5t74.5 -40.5t75 40.5t28 103.5q0 75 -27.5 139zM786 302.5q-30 60.5 -84 102.5q-43 -43 -66 -103.5t-23 -130.5q0 -63 28 -103.5t75 -40.5
t73.5 40t26.5 104q0 71 -30 131.5zM249 55q33 -33 84 -33q52 0 85 33t33 84t-33 84.5t-85 33.5q-51 0 -84 -33t-33 -84q0 -52 33 -85zM1253 -130h-1029q-77 0 -77 -54q0 -45 95 -72t261 -27q502 0 750 153z" />
    <glyph glyph-name="tm_TU" horiz-adv-x="982" 
d="M884 -130h-226q-44 -96 -141 -147.5t-231 -51.5q-112 0 -175 38t-63 102q0 44 34 71t96 27h439q21 57 21 125q0 97 -42.5 156.5t-119.5 59.5h-18v-45q0 -106 -60.5 -164.5t-161.5 -58.5q-56 0 -98.5 20t-66 55t-23.5 79q0 54 31 93t87 54v230h461l5 -40h-174v-183h17
q67 0 115.5 -33t74.5 -91t26 -132q0 -68 -18 -125h162v604h49v-643zM216 473v-183h13h179v183h-192zM408 250h-177q-62 0 -96 -31.5t-34 -83.5q0 -48 37 -78t98 -30q79 0 125.5 46.5t46.5 131.5v45zM480 -241.5q79 39.5 119 111.5h-421q-39 0 -58 -16t-19 -43
q0 -43 48.5 -67.5t136.5 -24.5q115 0 194 39.5z" />
    <glyph glyph-name="tm_NU" horiz-adv-x="972" 
d="M875 -130h-242q-45 -97 -127 -148t-198 -51q-96 0 -153 37.5t-57 98.5q0 47 34 74.5t96 27.5h366q35 90 35 219q0 81 -28.5 128.5t-86.5 47.5q-53 0 -88 -39t-35 -98v-167h-49v473h-195v-473h-49v513h486l4 -40h-197v-184q22 28 54.5 44t71.5 16q80 0 122.5 -60.5
t42.5 -161.5q0 -125 -33 -218h177v604h49v-643zM471 -243.5q67 39.5 106 113.5h-349q-77 0 -77 -63q0 -41 42 -65.5t115 -24.5q96 0 163 39.5z" />
    <glyph glyph-name="tm_NnnU" horiz-adv-x="1485" 
d="M1387 -130h-389q-93 -96 -242 -147.5t-348 -51.5q-157 0 -235.5 38t-78.5 102q0 45 34 71.5t101 26.5h736q60 65 90.5 149.5t30.5 182.5q0 118 -49.5 181.5t-147.5 63.5q-84 0 -152 -49q63 -49 98 -118t35 -148q0 -84 -42 -136.5t-112 -52.5q-71 0 -113.5 52.5
t-42.5 136.5q0 75 27 143t75 118q-91 54 -215 54q-102 0 -178 -33t-117 -91.5t-41 -133.5q0 -52 21 -94.5t60 -70.5q-22 35 -22 77q0 45 21 81t58.5 56.5t83.5 20.5q48 0 86.5 -20.5t60 -56.5t21.5 -82q0 -45 -21.5 -81t-60 -56t-86.5 -20q-82 0 -144.5 32t-96.5 88t-34 126
q0 87 48 156t136.5 108t204.5 39q142 0 250 -67q86 67 192 67q120 0 184.5 -77t64.5 -215q0 -193 -107 -330h307v604h49v-643zM786 302.5q-30 60.5 -85 103.5q-42 -43 -65 -104t-23 -131q0 -63 28 -103.5t75 -40.5t73.5 40t26.5 104q0 71 -30 131.5zM249 55q33 -33 84 -33
q52 0 85 33t33 84t-33 84.5t-85 33.5q-51 0 -84 -33t-33 -84q0 -52 33 -85zM708 -243.5q130 39.5 216 113.5h-695q-82 0 -82 -59q0 -42 67 -68t194 -26q170 0 300 39.5z" />
    <glyph glyph-name="tm_MU" horiz-adv-x="1074" 
d="M920.5 492.5q46.5 -38.5 71.5 -106.5t25 -155q0 -105 -49 -168t-146 -63h-121q-3 -74 -37.5 -131t-98 -88.5t-152.5 -31.5q-105 0 -180.5 51t-115 139.5t-39.5 199.5q0 103 36 212.5t88 171.5l50 -10q-51 -54 -86 -161.5t-35 -214.5q0 -97 32.5 -175t96.5 -122.5
t153 -44.5q114 0 175.5 56t63.5 149h-277v513l50 5v-478h227v312q0 88 43 133.5t115 45.5q64 0 110.5 -38.5zM929.5 91q33.5 51 33.5 140q0 114 -39.5 184.5t-109.5 70.5q-52 0 -82.5 -32.5t-30.5 -99.5v-314h121q74 0 107.5 51z" />
    <glyph glyph-name="tm_RU" horiz-adv-x="1054" 
d="M953 288q43 -61 43 -161q0 -110 -54 -195.5t-155.5 -134t-239.5 -48.5q-143 0 -249.5 53.5t-163 148t-56.5 215.5q0 96 40.5 198t101.5 159l51 -10q-61 -49 -100.5 -148.5t-39.5 -200.5q0 -107 50 -191t144 -131t222 -47q122 0 211.5 42.5t137 118t47.5 172.5
q0 79 -29 127.5t-85 48.5q-54 0 -89 -39t-35 -98v-167h-49v473h-231v-473h-50v513h523l5 -40h-198v-184q22 28 54.5 44t71.5 16q79 0 122 -61z" />
    <glyph glyph-name="tm_RrU" horiz-adv-x="1020" 
d="M923 -130h-271q-53 -96 -141 -147.5t-210 -51.5q-90 0 -147 34.5t-57 98.5q0 49 36 77t104 28h377q63 126 63 322q0 117 -36 186t-109 69q-50 0 -84 -37t-34 -105v-344h-49v317q-1 77 -31.5 123t-88.5 46q-108 0 -108 -153v-333h-49v333q0 97 41.5 147.5t113.5 50.5
q49 0 85.5 -26t56.5 -72q21 47 59 72.5t85 25.5q99 0 150 -82t51 -218q0 -191 -59 -322h201v604h51v-643zM592 -130h-351q-46 0 -68.5 -17.5t-22.5 -48.5q0 -45 42 -66t109 -21q194 0 291 153z" />
    <glyph glyph-name="tm_LU" horiz-adv-x="1229" 
d="M1131 -130h-370q-50 -93 -159 -146t-254 -53q-122 0 -191 36.5t-69 98.5q0 49 35.5 76t99.5 27h500q14 33 19 75q-72 8 -110.5 65.5t-38.5 160.5v47q0 106 -63 167.5t-168 61.5q-77 0 -134 -31.5t-87 -87.5t-30 -129q0 -56 20.5 -101t60.5 -73q-22 35 -22 76q0 45 21 81
t58.5 56.5t83.5 20.5q48 0 86.5 -20.5t60 -56.5t21.5 -82q0 -45 -21.5 -81t-60 -56t-86.5 -20q-85 0 -147 33t-95 91t-33 132q0 85 37 151.5t106 104t161 37.5q83 0 147 -33.5t99 -95.5t35 -145v-47q0 -92 32 -137.5t93 -45.5q63 0 95 55t32 151q0 64 -21 144t-61 136l49 14
q42 -69 63.5 -148.5t21.5 -143.5q0 -110 -38.5 -175.5t-114.5 -75.5q-4 -41 -16 -75h304v604h49v-643zM249 55q33 -33 84 -33q52 0 85 33t33 84t-33 84.5t-85 33.5q-51 0 -84 -33t-33 -84q0 -52 33 -85zM563.5 -242.5q92.5 40.5 138.5 112.5h-479q-41 0 -61.5 -16.5
t-20.5 -47.5q0 -42 54.5 -65.5t152.5 -23.5q123 0 215.5 40.5z" />
    <glyph glyph-name="tm_LlU" horiz-adv-x="1574" 
d="M1473 288q43 -61 43 -161q0 -184 -134.5 -273t-368.5 -89h-404q-161 0 -281.5 53.5t-185 148t-64.5 214.5q0 89 40.5 187t101.5 155l51 -10q-60 -49 -100 -144.5t-40 -189.5q0 -105 58 -190.5t166.5 -135t253.5 -49.5h404q207 0 329 80t122 244q0 79 -29.5 127.5
t-85.5 48.5q-41 0 -72.5 -24.5t-44.5 -64.5v-215h-50v473h-267v-473h-49v228q0 74 -33.5 133t-92 92t-130.5 33q-80 0 -139 -32t-90.5 -88.5t-31.5 -128.5q0 -56 21 -101.5t60 -73.5q-22 36 -22 78q0 45 21 81t58.5 56.5t83.5 20.5q48 0 86.5 -20.5t60 -56.5t21.5 -82
q0 -45 -21.5 -81t-60 -56t-86.5 -20q-85 0 -147 32.5t-95 90.5t-33 132q0 85 38 152t109 104.5t167 37.5q82 0 149.5 -38t106.5 -105v125h558l5 -40h-197v-176q22 25 52.5 38.5t66.5 13.5q79 0 122 -61zM487 55q33 -33 84 -33q52 0 85 33t33 84t-33 84.5t-85 33.5
q-51 0 -84 -33t-33 -84q0 -52 33 -85z" />
    <glyph glyph-name="tm_LllU" horiz-adv-x="1074" 
d="M701 0v-10q0 -42 14 -61.5t45 -19.5h172l4 -39h-173q-36 -57 -112 -89t-171 -32q-122 0 -213 49.5t-140 137t-49 198.5q0 97 37 212.5t87 176.5l50 -10q-32 -35 -60 -99.5t-44.5 -140t-16.5 -141.5q0 -98 42.5 -174.5t121.5 -119.5t185 -43q161 0 230 83q-36 16 -47 44.5
t-11 75.5v2h-277v513l50 5v-478h227v312q0 88 43 133.5t115 45.5q64 0 110.5 -38.5t71.5 -106.5t25 -155q0 -105 -49 -168t-146 -63h-121zM701 40h121q74 0 107.5 51t33.5 140q0 114 -39.5 184.5t-109.5 70.5q-52 0 -82.5 -32.5t-30.5 -99.5v-314z" />
    <glyph glyph-name="tm_KUu" horiz-adv-x="1056" 
d="M1046 40v-40h-244q16 32 25.5 72.5t9.5 72.5q0 56 -28.5 89.5t-78.5 33.5q-30 0 -58 -11q38 -26 59 -66t21 -87q0 -52 -31 -87t-79 -35q-50 0 -81.5 35t-31.5 87q0 43 13.5 79.5t38.5 64.5q-14 2 -21 2h-102v-45q0 -106 -60.5 -164.5t-161.5 -58.5q-56 0 -98.5 20t-66 55
t-23.5 79q0 54 31 93t87 54v230h461l5 -40h-174v-183h101q33 0 61 -9q47 32 110 32q71 0 115.5 -47.5t44.5 -120.5q0 -57 -18 -105h174zM216 473v-183h13h179v183h-192zM408 250h-177q-62 0 -96 -31.5t-34 -83.5q0 -48 37 -78t98 -30q79 0 125.5 46.5t46.5 131.5v45z
M680.5 178.5q-17.5 33.5 -48.5 52.5q-24 -22 -37.5 -54.5t-13.5 -72.5q0 -33 17 -54.5t44 -21.5q25 0 40.5 21.5t15.5 54.5q0 41 -17.5 74.5z" />
    <glyph glyph-name="tm_NgUu" horiz-adv-x="1152" 
d="M1097.5 24q44.5 -48 44.5 -124q0 -123 -99 -185.5t-264 -62.5h-502q-98 0 -157.5 29.5t-59.5 87.5q0 48 34.5 79t89.5 31h522v-40h-522q-32 0 -51.5 -19.5t-19.5 -50.5q0 -38 44 -57.5t120 -19.5h502q142 0 226 51.5t84 157.5q0 55 -30.5 90.5t-82.5 35.5
q-53 0 -87.5 -39t-34.5 -98v-81h-50v191h-462v40h123q73 0 117 44t44 112q0 55 -29 89.5t-81 34.5q-55 0 -90 -39t-35 -98v-37h-49v327h-195v-473h-49v513h486l4 -40h-197v-168q23 28 56 44t72 16q74 0 117 -47.5t43 -122.5q0 -51 -20.5 -90.5t-59.5 -64.5h205v473h49v-410
h1v-91q21 28 53.5 44t71.5 16q74 0 118.5 -48z" />
    <glyph glyph-name="tm_CUu" horiz-adv-x="1217" 
d="M1091.5 162q31.5 -21 49.5 -58.5t18 -84.5q0 -79 -60 -140t-174.5 -95.5t-273.5 -34.5q-178 0 -307.5 54t-197.5 149t-68 218q0 97 40 196.5t102 156.5l51 -10q-61 -50 -100.5 -147t-39.5 -198q0 -109 61.5 -193.5t179 -132t279.5 -47.5q144 0 247 29t156 80t53 117
q0 51 -25 84.5t-64 33.5q-44 0 -73 -31.5t-29 -80.5v-27h-50v250h-138v-45q0 -106 -60 -164.5t-161 -58.5q-56 0 -99 20t-66.5 55t-23.5 79q0 54 31.5 93t87.5 54v230h460l5 -40h-174v-183h305l5 -40h-122v-117q38 50 104 50q40 0 71.5 -21zM486 473v-183h14h179v183h-193z
M679 250h-178q-62 0 -96 -31.5t-34 -83.5q0 -48 37 -78t99 -30q79 0 125.5 46.5t46.5 131.5v45z" />
    <glyph glyph-name="tm_TtUu" horiz-adv-x="828" 
d="M602.5 566.5q27.5 25.5 70.5 25.5q23 0 42 -8q-25 72 -91 115t-158 43q-108 0 -183.5 -65.5t-113.5 -176t-38 -245.5q0 -219 73.5 -339.5t211.5 -120.5q84 0 144 39t90.5 109t30.5 160q0 84 -29.5 142t-87.5 58q-54 0 -88 -38t-34 -98v-167h-49v513h49v-221q23 27 55 42
t69 15q54 0 92 -34t57 -90.5t19 -123.5q0 -103 -37.5 -182.5t-109 -124.5t-171.5 -45q-107 0 -183 61t-115.5 175t-39.5 272q0 146 45 267t132.5 192.5t210.5 71.5q87 0 156.5 -36t109 -99t39.5 -141q0 -46 -26 -75t-70 -29q-43 0 -71.5 26.5t-28.5 66.5t27.5 65.5zM714 538
q-15 15 -39 15q-22 0 -37.5 -15t-15.5 -38t15 -38t38 -15q24 0 39 15t15 38t-15 38z" />
    <glyph glyph-name="tm_PUu" horiz-adv-x="906" 
d="M852.5 24q43.5 -48 43.5 -124q0 -123 -99 -185.5t-263 -62.5h-257q-98 0 -157.5 29.5t-59.5 87.5q0 48 34.5 79t89.5 31h278v-40h-278q-32 0 -51.5 -19.5t-19.5 -50.5q0 -38 44 -57.5t120 -19.5h257q142 0 226 51.5t84 157.5q0 55 -30.5 90.5t-81.5 35.5q-54 0 -88.5 -39
t-34.5 -98v-81h-50v191h-461v513l49 5v-478h412v473h50v-501q21 28 53.5 44t71.5 16q75 0 118.5 -48z" />
    <glyph glyph-name="tm_MUu" horiz-adv-x="1223" 
d="M1068.5 492.5q46.5 -38.5 71.5 -106.5t25 -155q0 -105 -49 -168t-146 -63h-122q-6 -73 -50 -130t-121 -89t-177 -32q-127 0 -223 51.5t-147.5 144.5t-51.5 213q0 105 34 190t94 134t134 49q49 0 81 -31.5t32 -80.5q0 -47 -32 -77.5t-81 -30.5q-48 0 -79 30t-31 77
q0 16 4 28q-48 -41 -75.5 -116.5t-27.5 -171.5q0 -107 45 -189t128.5 -128t195.5 -46q86 0 151.5 26t103.5 72.5t44 106.5h-275v513l50 5v-478h226v312q0 88 43 133.5t115 45.5q64 0 110.5 -38.5zM386.5 467q-18.5 19 -46.5 19q-29 0 -47.5 -19t-18.5 -48t18.5 -47.5
t47.5 -18.5q28 0 46.5 18.5t18.5 47.5t-18.5 48zM1077.5 91q33.5 51 33.5 140q0 114 -39.5 184.5t-109.5 70.5q-52 0 -82.5 -32.5t-30.5 -99.5v-314h121q74 0 107.5 51z" />
    <glyph glyph-name="tm_YUu" horiz-adv-x="1096" 
d="M1042.5 24q43.5 -48 43.5 -124q0 -123 -99 -185.5t-263 -62.5h-447q-98 0 -157.5 29.5t-59.5 87.5q0 48 34.5 79t89.5 31h468v-40h-468q-32 0 -51.5 -19.5t-19.5 -50.5q0 -38 44 -57.5t120 -19.5h447q142 0 225.5 51.5t83.5 157.5q0 55 -30 90.5t-81 35.5
q-54 0 -88.5 -39t-34.5 -98v-81h-50v191h-367v51q-45 -69 -128 -69q-77 0 -121.5 49t-44.5 149v333l49 5v-338q0 -153 117 -153q62 0 95 46.5t33 122.5v317h50v-473h317v473h50v-501q21 28 53.5 44t72.5 16q74 0 117.5 -48z" />
    <glyph glyph-name="tm_RUu" horiz-adv-x="1203" 
d="M1101.5 288q43.5 -61 43.5 -161q0 -110 -61 -195.5t-176.5 -134t-273.5 -48.5q-169 0 -295 54t-193.5 151.5t-67.5 223.5q0 95 34 176t94 129t134 48q49 0 81 -31.5t32 -80.5q0 -47 -32 -77.5t-81 -30.5q-48 0 -79 30t-31 77q0 17 4 29q-48 -40 -75.5 -111.5
t-27.5 -157.5q0 -113 61 -200t174.5 -135t267.5 -48q142 0 245.5 42.5t157.5 118t54 172.5q0 79 -29 127.5t-85 48.5q-53 0 -88 -39t-35 -98v-167h-49v473h-231v-473h-50v513h522l5 -40h-197v-183q22 28 54 43.5t71 15.5q79 0 122.5 -61zM386.5 467q-18.5 19 -46.5 19
q-29 0 -47.5 -19t-18.5 -48t18.5 -47.5t47.5 -18.5q28 0 46.5 18.5t18.5 47.5t-18.5 48z" />
    <glyph glyph-name="tm_LlUu" horiz-adv-x="1759" 
d="M1658 288q43 -61 43 -161q0 -184 -135 -273t-368 -89h-592q-157 0 -277 50.5t-185.5 140.5t-65.5 204q0 104 34 188.5t94 133.5t134 49q49 0 81 -31.5t32 -80.5q0 -47 -32 -77.5t-81 -30.5q-48 0 -79 30t-31 77q0 16 4 28q-48 -41 -75.5 -116t-27.5 -170
q0 -103 58.5 -184t166.5 -126.5t250 -45.5h592q207 0 329 80t122 244q0 79 -29.5 127.5t-85.5 48.5q-42 0 -73.5 -24.5t-43.5 -64.5v-215h-50v473h-267v-473h-49v228q0 74 -33.5 133t-92 92t-130.5 33q-80 0 -139 -32t-90.5 -88.5t-31.5 -128.5q0 -56 21 -101.5t60 -73.5
q-22 36 -22 78q0 45 21 81t58.5 56.5t83.5 20.5q48 0 86.5 -20.5t60 -56.5t21.5 -82q0 -45 -21.5 -81t-60 -56t-86.5 -20q-85 0 -147 32.5t-95 90.5t-33 132q0 85 38 152t109 104.5t167 37.5q82 0 149.5 -38t106.5 -105v125h558l5 -40h-197v-176q22 25 52.5 38.5t66.5 13.5
q79 0 122 -61zM386.5 467q-18.5 19 -46.5 19q-29 0 -47.5 -19t-18.5 -48t18.5 -47.5t47.5 -18.5q28 0 46.5 18.5t18.5 47.5t-18.5 48zM672 55q33 -33 84 -33q52 0 85 33t33 84t-33 84.5t-85 33.5q-51 0 -84 -33t-33 -84q0 -52 33 -85z" />
    <glyph glyph-name="tm_LllUu" horiz-adv-x="1223" 
d="M849 0v-20q0 -42 14 -61.5t45 -19.5h172l5 -40h-165q-52 -48 -146.5 -79t-206.5 -31q-143 0 -254 54t-173 152t-62 224q0 95 34 175.5t94 128.5t134 48q49 0 81 -31.5t32 -80.5q0 -47 -32 -77.5t-81 -30.5q-48 0 -79 30t-31 77q0 17 4 29q-48 -40 -75.5 -111t-27.5 -157
q0 -113 55 -200.5t154.5 -135.5t226.5 -48q91 0 166.5 19t124.5 53q-36 16 -47 44.5t-11 75.5v13h-276v513l50 5v-478h226v312q0 88 43 133.5t115 45.5q64 0 110.5 -38.5t71.5 -106.5t25 -155q0 -105 -49 -168t-146 -63h-121zM386.5 467q-18.5 19 -46.5 19q-29 0 -47.5 -19
t-18.5 -48t18.5 -47.5t47.5 -18.5q28 0 46.5 18.5t18.5 47.5t-18.5 48zM849 40h121q74 0 107.5 51t33.5 140q0 114 -39.5 184.5t-109.5 70.5q-52 0 -82.5 -32.5t-30.5 -99.5v-314z" />
    <glyph glyph-name="tm_VUu" horiz-adv-x="1219" 
d="M1165 24q44 -48 44 -124q0 -123 -99 -185.5t-263 -62.5h-570q-98 0 -157.5 29.5t-59.5 87.5q0 48 34.5 79t89.5 31h590v-40h-590q-32 0 -51.5 -19.5t-19.5 -50.5q0 -38 44 -57.5t120 -19.5h570q142 0 225.5 51.5t83.5 157.5q0 55 -30 90.5t-81 35.5q-54 0 -89 -39
t-35 -98v-81h-49v191h-327v40q38 40 60.5 95t22.5 120q0 66 -31 118.5t-87.5 82.5t-132.5 30q-81 0 -141.5 -32t-92.5 -88.5t-32 -128.5q0 -56 21 -101.5t60 -73.5q-22 36 -22 78q0 45 21 81t58.5 56.5t83.5 20.5q48 0 86.5 -20.5t60 -56.5t21.5 -82q0 -45 -21.5 -81
t-60 -56t-86.5 -20q-85 0 -147 32.5t-95 90.5t-33 132q0 85 39 152t111 104.5t169 37.5q88 0 157.5 -35.5t108 -98.5t38.5 -142q0 -61 -19 -117t-53 -98h263v473h49v-501q22 28 54.5 44t71.5 16q74 0 118 -48zM249 55q33 -33 84 -33q52 0 85 33t33 84t-33 84.5t-85 33.5
q-51 0 -84 -33t-33 -84q0 -52 33 -85z" />
    <glyph glyph-name="tm_KSsa" horiz-adv-x="1495" 
d="M1402 0h-206v-243h-49v243h-345q16 32 25.5 72.5t9.5 72.5q0 56 -28.5 89.5t-78.5 33.5q-30 0 -58 -11q38 -26 59 -66t21 -87q0 -52 -31 -87t-79 -35q-50 0 -81.5 35t-31.5 87q0 43 13.5 79.5t38.5 64.5q-14 2 -21 2h-102v-45q0 -106 -60.5 -164.5t-161.5 -58.5
q-56 0 -98.5 20t-66 55t-23.5 79q0 54 31 93t87 54v230h461l5 -40h-174v-183h101q33 0 61 -9q47 32 110 32q71 0 115.5 -47.5t44.5 -120.5q0 -57 -18 -105h275v173q-31 -9 -66 -9q-60 0 -105 22t-69.5 61t-25.5 87q0 69 44 113t116 44q73 0 114 -44.5t41 -117.5v-86
q48 29 88.5 79t68.5 111h49v-473zM1147 260v104q0 57 -27.5 89.5t-78.5 32.5q-49 0 -78 -31.5t-29 -80.5q0 -55 39.5 -90t107.5 -35q33 0 66 11zM216 473v-183h13h179v183h-192zM1353 40v338q-64 -103 -157 -147v-191h157zM408 250h-177q-62 0 -96 -31.5t-34 -83.5
q0 -48 37 -78t98 -30q79 0 125.5 46.5t46.5 131.5v45zM680.5 178.5q-17.5 33.5 -48.5 52.5q-24 -22 -37.5 -54.5t-13.5 -72.5q0 -33 17 -54.5t44 -21.5q25 0 40.5 21.5t15.5 54.5q0 41 -17.5 74.5z" />
    <glyph glyph-name="tm_TtI" horiz-adv-x="810" 
d="M651 0v-243h-49v243h-504v513l49 5v-478h254q-52 35 -80 98t-29 144q0 111 50 180t137 69q84 0 128 -60t44 -158v-273h145l4 -40h-149zM602 40v273q0 79 -30.5 126t-92.5 47q-64 0 -99 -56t-35 -148q0 -70 23 -125t65.5 -86t98.5 -31h70z" />
    <glyph glyph-name="tm_TtIi" horiz-adv-x="769" 
d="M759 0h-661v513l49 5v-478h208q-34 27 -53 68t-19 91q0 59 27 106t75.5 73.5t109.5 26.5q57 0 104 -26t74 -69t27 -92q0 -45 -27.5 -74t-69.5 -29q-43 0 -72 26.5t-29 66.5t27.5 65.5t70.5 25.5q18 0 31 -4q-21 30 -56 47t-80 17t-81.5 -20.5t-57 -57t-20.5 -82.5
q0 -69 37 -114t96 -45h286zM641.5 168.5q15.5 15.5 15.5 38.5q0 22 -15.5 37t-38.5 15t-38 -15t-15 -37q0 -23 15 -38.5t38 -15.5t38.5 15.5z" />
    <glyph glyph-name="tm_Shree" horiz-adv-x="1735" 
d="M1635 288q43 -61 43 -161q0 -184 -135 -273t-369 -89h-570q-159 0 -278 53.5t-183.5 148t-64.5 214.5q0 89 40.5 187t101.5 155l51 -10q-60 -49 -100 -144.5t-40 -189.5q0 -106 58 -191.5t165 -134.5t250 -49h570q207 0 329 80t122 244q0 79 -29.5 127.5t-85.5 48.5
q-53 0 -88 -39t-35 -98v-167h-50v473h-230v-473h-50v317q0 76 -33 122.5t-95 46.5q-117 0 -117 -153v-333h-457v513l50 5v-478h357v293q0 100 45 149t122 49q83 0 128 -70v52h241q-34 27 -53.5 68t-19.5 91q0 59 27 106t75.5 73.5t109.5 26.5q57 0 104 -26t74 -69t27 -92
q0 -44 -27.5 -73.5t-69.5 -29.5q-43 0 -72 26.5t-29 66.5t27.5 65.5t70.5 25.5q18 0 31 -4q-21 30 -56 47t-80 17q-70 0 -114.5 -45t-44.5 -115q0 -69 37 -114t96 -45h169l4 -40h-197v-184q22 29 54 44.5t72 15.5q79 0 122 -61zM1583.5 642q15.5 15 15.5 38q0 22 -15.5 37
t-38.5 15t-38 -14.5t-15 -37.5t15 -38t38 -15t38.5 15z" />
    </font>
</defs>
</svg>
