<?xml version="1.0" standalone="no"?>
<!DOCTYPE svg PUBLIC "-//W3C//DTD SVG 1.1//EN" "http://www.w3.org/Graphics/SVG/1.1/DTD/svg11.dtd" >
<svg xmlns="http://www.w3.org/2000/svg" xmlns:xlink="http://www.w3.org/1999/xlink" version="1.1">
<metadata>
Created by FontForge 20170731 at Wed Mar 22 18:01:20 2017
 By Aleksey,,,
Copyright 2014 Pria Ravichandran (pria.ravichandran@gmail.com)
</metadata>
<defs>
<font id="Catamaran-Light" horiz-adv-x="516" >
  <font-face 
    font-family="Catamaran Light"
    font-weight="300"
    font-stretch="normal"
    units-per-em="1000"
    panose-1="0 0 4 0 0 0 0 0 0 0"
    ascent="770"
    descent="-230"
    x-height="485"
    cap-height="680"
    bbox="-535 -377 2503 1320"
    underline-thickness="50"
    underline-position="-175"
    unicode-range="U+000D-FB02"
  />
<missing-glyph horiz-adv-x="645" 
d="M94 696v-696h456v696h-456zM486 645l1 -595h-330v595h329z" />
    <glyph glyph-name=".notdef" horiz-adv-x="645" 
d="M94 696v-696h456v696h-456zM486 645l1 -595h-330v595h329z" />
    <glyph glyph-name="uni0000" horiz-adv-x="0" 
 />
    <glyph glyph-name="uni0000" horiz-adv-x="0" 
 />
    <glyph glyph-name="nonmarkingreturn" unicode="&#xd;" horiz-adv-x="0" 
 />
    <glyph glyph-name="space" unicode=" " horiz-adv-x="235" 
 />
    <glyph glyph-name="exclam" unicode="!" horiz-adv-x="156" 
d="M58 217l42 -21l16 506h-74zM45 80q-15 -14 -15 -32q0 -20 15 -34t34 -14q20 0 33.5 14t13.5 34q0 19 -13.5 32.5t-33.5 13.5q-19 0 -34 -14z" />
    <glyph glyph-name="quotedbl" unicode="&#x22;" horiz-adv-x="306" 
d="M48 687.5q-14 -14.5 -14 -33.5q0 -18 12 -32t30 -16q-2 -25 -16 -43.5t-40 -35.5l18 -29q38 19 65 62t27 87q0 24 -14 39.5t-33 15.5q-21 0 -35 -14.5zM195 687.5q-14 -14.5 -14 -33.5q0 -18 12 -32t31 -16q-2 -25 -16.5 -43.5t-40.5 -35.5l18 -29q37 19 64 62t27 87
q0 24 -14 39.5t-33 15.5q-20 0 -34 -14.5z" />
    <glyph glyph-name="numbersign" unicode="#" horiz-adv-x="497" 
d="M375 502l-31 -131h-137l32 131h-51l-31 -131h-127l8 -49h106l-31 -132h-83l8 -50h63l-32 -134l50 -5l33 139h137l-32 -134l49 -5l33 139h128l-7 50h-109l31 132h85l-7 49h-65l32 131h-52zM332 322l-32 -132h-136l32 132h136z" />
    <glyph glyph-name="dollar" unicode="$" horiz-adv-x="508" 
d="M180 -8q-80 12 -124 37l15 48q32 -16 76 -27.5t90 -11.5q84 0 130.5 34t46.5 88q0 38 -20.5 65.5t-59 50.5t-105.5 51q-184 78 -184 203q0 55 36 97t99 59v101l46 10v-102l31 1q12 0 36 -2v96l47 10v-113q45 -11 85 -30l-22 -47q-36 16 -67 25t-77 9q-72 0 -114 -31
t-42 -83q0 -38 20.5 -65t57.5 -49t109 -56q67 -31 105 -57.5t58 -60.5t20 -82q0 -56 -35 -98t-98 -61v-112h-47v102q-23 -4 -55 -4h-12v-98h-46v103z" />
    <glyph glyph-name="percent" unicode="%" horiz-adv-x="839" 
d="M544 710l-308 -710l58 -4l309 710zM111.5 681q-35.5 -21 -56 -59.5t-20.5 -89.5q0 -80 42.5 -124.5t114.5 -44.5q67 0 111 46t44 123q0 80 -42.5 125t-113.5 45q-44 0 -79.5 -21zM257.5 621q26.5 -30 26.5 -89q0 -60 -27.5 -89t-64.5 -29q-40 0 -67 29.5t-27 88.5
q0 60 27.5 89.5t65.5 29.5q40 0 66.5 -30zM569.5 317q-35.5 -21 -56 -59.5t-20.5 -88.5q0 -80 42.5 -124.5t113.5 -44.5q67 0 111 46t44 123q0 79 -42.5 124t-112.5 45q-44 0 -79.5 -21zM714.5 258q26.5 -30 26.5 -89t-27.5 -88.5t-64.5 -29.5q-40 0 -66.5 29.5t-26.5 88.5
q0 61 27.5 90t65.5 29q39 0 65.5 -30z" />
    <glyph glyph-name="ampersand" unicode="&#x26;" horiz-adv-x="663" 
d="M628 41l-83 77q44 78 50 203l-46 18q-8 -112 -47 -183l-210 198q-43 41 -63.5 63t-32 48.5t-11.5 60.5q0 30 15 57t43 44t64 17q41 0 65 -7t41 -15.5l23 -11.5l22 47q-37 19 -71.5 29t-79.5 10q-57 0 -97.5 -23.5t-62 -64t-21.5 -88.5q0 -60 31 -105q-50 -31 -80.5 -86
t-31.5 -122q0 -70 33 -119.5t90.5 -74.5t130.5 -26q142 0 217 88l83 -75zM299 39q-50 0 -94 19t-71 57t-27 94q1 57 22.5 101t60.5 65l32 -30l252 -230q-62 -76 -175 -76z" />
    <glyph glyph-name="quotesingle" unicode="'" horiz-adv-x="160" 
d="M48 687.5q-14 -14.5 -14 -33.5q0 -18 12 -32t30 -16q-2 -25 -16 -43.5t-40 -35.5l18 -29q38 19 65 62t27 87q0 24 -14 39.5t-33 15.5q-21 0 -35 -14.5z" />
    <glyph glyph-name="parenleft" unicode="(" horiz-adv-x="251" 
d="M168 72q-25 62 -40 131t-15 118q0 48 15 116t40 129t53 91l-52 18q-59 -75 -89 -172t-30 -183q0 -87 30 -184t89 -173l52 18q-28 29 -53 91z" />
    <glyph glyph-name="parenright" unicode=")" horiz-adv-x="251" 
d="M82 565.5q25 -61.5 40.5 -130t15.5 -116.5t-15.5 -117t-40.5 -130.5t-52 -90.5l52 -18q58 77 88.5 174t30.5 183q0 84 -30.5 181.5t-88.5 173.5l-52 -18q27 -30 52 -91.5z" />
    <glyph glyph-name="asterisk" unicode="*" horiz-adv-x="339" 
d="M193 774h-48l-1 -115l-122 26l-12 -39l123 -24l-87 -124l36 -26l88 118l87 -118l35 26l-86 124l123 24l-13 39l-122 -26z" />
    <glyph glyph-name="plus" unicode="+" horiz-adv-x="535" 
d="M495 298h-200v233l-57 3v-236h-208l8 -50h200v-240l57 -4v244h210z" />
    <glyph glyph-name="comma" unicode="," horiz-adv-x="160" 
d="M48.5 80.5q-14.5 -13.5 -14.5 -32.5q0 -18 12.5 -32t30.5 -15q-1 -25 -15.5 -43.5t-41.5 -36.5l18 -29q39 19 65.5 61.5t26.5 87.5q0 24 -13.5 38.5t-34.5 14.5q-19 0 -33.5 -13.5z" />
    <glyph glyph-name="hyphen" unicode="-" horiz-adv-x="316" 
d="M278 298h-248l8 -50h248z" />
    <glyph glyph-name="period" unicode="." horiz-adv-x="155" 
d="M111 14q14 14 14 34q0 19 -14 32.5t-33 13.5q-20 0 -34 -13.5t-14 -32.5q0 -20 14 -34t34 -14q19 0 33 14z" />
    <glyph glyph-name="slash" unicode="/" horiz-adv-x="385" 
d="M318 710l-308 -710l56 -4l309 710z" />
    <glyph glyph-name="zero" unicode="0" horiz-adv-x="588" 
d="M68.5 133q33.5 -69 92.5 -107.5t134 -38.5q74 0 133 39t92 108t33 155q0 83 -33 149t-92 103.5t-133 37.5q-75 0 -134 -37.5t-92.5 -104t-33.5 -149.5q0 -86 33.5 -155zM125 411.5q25 53.5 69.5 84t100.5 30.5q55 0 99 -31t69 -85.5t25 -123.5q0 -70 -25 -126t-69 -87.5
t-99 -31.5q-56 0 -100.5 32t-69.5 89t-25 129q0 67 25 120.5z" />
    <glyph glyph-name="one" unicode="1" horiz-adv-x="299" 
d="M224 0v566h-42l-172 -77l26 -51l125 51v-489h63z" />
    <glyph glyph-name="two" unicode="2" horiz-adv-x="476" 
d="M118.5 564q-43.5 -15 -80.5 -37l23 -51q43 24 76 37.5t81 13.5q66 0 104 -29.5t38 -82.5q0 -47 -26.5 -84.5t-96.5 -97.5l-212 -183v-50h431l-8 49l-342 1l170 144q77 65 113 117.5t36 106.5q0 47 -25 83.5t-71.5 57t-109.5 20.5q-57 0 -100.5 -15z" />
    <glyph glyph-name="three" unicode="3" horiz-adv-x="456" 
d="M11 520l31 -41q75 49 160 49q41 0 72 -15.5t48 -41t17 -55.5q0 -58 -48 -92.5t-131 -34.5h-34l10 -45h18q101 0 149 -37t48 -103q0 -39 -22.5 -68.5t-58.5 -45t-77 -15.5q-51 0 -86 11t-74 34l-33 -44q39 -22 88.5 -37t101.5 -15q68 0 119.5 24t79 65t27.5 93
q0 60 -34.5 104.5t-91.5 57.5q49 16 81.5 56.5t32.5 92.5q0 43 -22.5 80t-67.5 59.5t-109 22.5q-101 0 -194 -59z" />
    <glyph glyph-name="four" unicode="4" horiz-adv-x="512" 
d="M492 125h-104v446h-41l-337 -446l9 -51h307v-143h62v143h96zM326 456v-331h-249z" />
    <glyph glyph-name="five" unicode="5" horiz-adv-x="490" 
d="M251 279q62 0 100 -39.5t38 -109.5q0 -72 -44 -113.5t-117 -41.5q-50 0 -85.5 11t-74.5 34l-33 -44q98 -52 189 -52q73 0 125 28t79 74.5t27 103.5q-1 88 -52.5 144t-155.5 56q-28 0 -58 -10t-56 -27l10 221h265l8 52h-333l-15 -336h63q61 49 120 49z" />
    <glyph glyph-name="six" unicode="6" horiz-adv-x="502" 
d="M372 359.5q47 -27.5 71 -72.5t24 -97q0 -57 -27.5 -103.5t-75 -73t-105.5 -26.5q-64 0 -115 32t-80 94t-29 147q0 107 50.5 188t130 128t164.5 58l18 -48q-61 -3 -125.5 -36.5t-112 -93.5t-59.5 -137q70 68 157 68q67 0 114 -27.5zM336.5 60q33.5 20 51.5 53t18 72
q0 68 -39.5 110t-108.5 42q-46 0 -90 -24.5t-71 -58.5q6 -214 160 -214q46 0 79.5 20z" />
    <glyph glyph-name="seven" unicode="7" horiz-adv-x="429" 
d="M179 -69l230 606l-22 29h-377l8 -52h323l-222 -563z" />
    <glyph glyph-name="eight" unicode="8" horiz-adv-x="517" 
d="M153 620.5q-44 -22.5 -67 -59.5t-23 -80q0 -48 30.5 -85.5t78.5 -56.5q-37 -8 -68.5 -35t-50 -63t-18.5 -72q0 -51 26 -92.5t76.5 -65.5t121.5 -24q70 0 120.5 25t76.5 66.5t26 90.5q0 61 -40.5 109t-95.5 61q45 20 76.5 57.5t31.5 84.5q0 43 -22.5 80t-66.5 59.5
t-106 22.5t-106 -22.5zM357 560.5q35 -32.5 35 -81.5q0 -42 -36 -76t-97 -43q-62 9 -97.5 42.5t-35.5 76.5q0 48 33.5 81t96.5 33q66 0 101 -32.5zM377 266.5q41 -40.5 41 -99.5q0 -57 -46 -93t-113 -36q-69 0 -114.5 36t-45.5 93q0 59 41 99.5t119 49.5q77 -9 118 -49.5z
" />
    <glyph glyph-name="nine" unicode="9" horiz-adv-x="502" 
d="M358 547q51 -32 80 -94t29 -147q0 -107 -50.5 -188t-130 -128t-164.5 -58l-18 48q61 3 125.5 36.5t112 93.5t59.5 137q-70 -68 -157 -68q-67 0 -114 27.5t-71 72.5t-24 97q0 57 27.5 103.5t75 73t105.5 26.5q64 0 115 -32zM334 253.5q44 24.5 71 58.5q-6 214 -160 214
q-46 0 -79.5 -20t-51.5 -53t-18 -72q0 -68 39.5 -110t108.5 -42q46 0 90 24.5z" />
    <glyph glyph-name="colon" unicode=":" horiz-adv-x="155" 
d="M111 369q14 14 14 33t-14 34t-34 15q-19 0 -33 -15t-14 -34t14 -33t33 -14q20 0 34 14zM111 50q14 14 14 34t-14 34t-34 14q-19 0 -33 -14t-14 -34t14 -34t33 -14q20 0 34 14z" />
    <glyph glyph-name="semicolon" unicode=";" horiz-adv-x="161" 
d="M117 369q14 14 14 33t-14 34t-34 15t-34 -15t-14 -34t14 -33t34 -14t34 14zM48.5 118q-14.5 -14 -14.5 -34q0 -19 12 -32t31 -15q-1 -24 -15.5 -43t-41.5 -37l18 -29q38 18 65 61t27 87q0 26 -13.5 41t-34.5 15q-19 0 -33.5 -14z" />
    <glyph glyph-name="less" unicode="&#x3c;" horiz-adv-x="322" 
d="M302 64l-216 181l216 181l-23 44l-249 -201v-48l249 -202z" />
    <glyph glyph-name="equal" unicode="=" horiz-adv-x="497" 
d="M460 371h-430l8 -49h429zM460 190h-430l8 -50h429z" />
    <glyph glyph-name="greater" unicode="&#x3e;" horiz-adv-x="323" 
d="M293 269l-250 201l-23 -44l216 -181l-216 -181l23 -45l250 202v48z" />
    <glyph glyph-name="question" unicode="?" horiz-adv-x="404" 
d="M97 687.5q-36 -14.5 -87 -46.5l8 -54q45 32 80.5 46.5t85.5 14.5q64 0 94.5 -26t30.5 -85q0 -56 -49 -102.5t-129 -71.5l8 -206l46 -18l8 193q83 37 132 93t49 113q0 76 -46.5 120t-141.5 44q-53 0 -89 -14.5zM127.5 80.5q-13.5 -13.5 -13.5 -32.5q0 -20 13.5 -34
t33.5 -14t34 14t14 34q0 19 -14 32.5t-34 13.5t-33.5 -13.5z" />
    <glyph glyph-name="at" unicode="@" horiz-adv-x="764" 
d="M517 409h-71q-58 0 -109 -25t-82 -70t-31 -103q0 -66 41 -105.5t121 -39.5q25 0 51 10t46 24q28 -35 81 -35q77 0 121 61t44 178q0 83 -39 149t-108.5 103.5t-158.5 37.5q-118 0 -206 -51t-135 -138.5t-47 -191.5q0 -93 45 -166t118 -113.5t156 -40.5q111 0 190 41
l-16 46q-30 -17 -74.5 -26t-88.5 -9q-75 0 -136 33t-96.5 94t-35.5 142q0 99 44.5 174.5t118.5 116.5t160 41q77 0 134.5 -32t89 -88.5t31.5 -128.5q0 -85 -28.5 -135t-74.5 -50q-26 0 -43.5 16.5t-14.5 54.5l24 201zM309 141.5q-25 29.5 -25 69.5q0 47 21.5 82.5t57.5 54.5
t78 19h45l-23 -177q-2 -16 -2 -23q0 -15 3 -27q-13 -13 -34 -20.5t-45 -7.5q-51 0 -76 29.5z" />
    <glyph glyph-name="A" unicode="A" horiz-adv-x="592" 
d="M257 680l-247 -680h59l75 204h297l80 -209l61 10l-260 675h-65zM423 254h-262l129 346z" />
    <glyph glyph-name="B" unicode="B" horiz-adv-x="577" 
d="M472 44q70 44 70 144q0 68 -36.5 111t-102.5 63q45 22 73 57.5t28 83.5q0 96 -64.5 136.5t-180.5 40.5h-164v-680h191q116 0 186 44zM397 601q45 -26 45 -99q0 -122 -194 -124h-91v249h104q91 0 136 -26zM432.5 293q47.5 -34 47.5 -107t-51.5 -103.5t-140.5 -30.5h-131
v275h142q86 0 133.5 -34z" />
    <glyph glyph-name="C" unicode="C" horiz-adv-x="554" 
d="M452 684q-52 10 -89 10q-96 0 -168 -47.5t-111 -129t-39 -181.5q0 -95 35.5 -175t106 -127.5t170.5 -47.5q43 0 93.5 11t78.5 26l-24 48q-32 -14 -66.5 -22t-83.5 -8q-75 0 -130.5 39.5t-84.5 107t-29 149.5q0 86 33.5 155t91 108.5t128.5 39.5q49 0 78.5 -7t66.5 -22
l20 46q-25 17 -77 27z" />
    <glyph glyph-name="D" unicode="D" horiz-adv-x="664" 
d="M482 45.5q68 45.5 102.5 123.5t34.5 175q0 150 -72 243t-220 93h-232v-680h223q96 0 164 45.5zM500.5 548.5q58.5 -78.5 58.5 -205.5q0 -87 -30 -153t-84 -102t-125 -36h-163v575h173q112 0 170.5 -78.5z" />
    <glyph glyph-name="E" unicode="E" horiz-adv-x="503" 
d="M483 0l-6 50h-320v276h245l-5 45h-240v264h303l-5 45h-360v-680h388z" />
    <glyph glyph-name="F" unicode="F" horiz-adv-x="471" 
d="M386 367h-229v268h294l-7 45h-349v-680h62v322h235z" />
    <glyph glyph-name="G" unicode="G" horiz-adv-x="626" 
d="M509 297v-233q-63 -23 -122 -23q-78 0 -140.5 36t-99 103.5t-36.5 156.5q0 93 40.5 161.5t106 104.5t138.5 37q48 0 78 -7t67 -22l19 46q-25 17 -77 27t-89 10q-97 0 -177 -45t-126 -126.5t-46 -186.5q0 -99 43 -179t121 -125.5t179 -45.5q47 0 100 13t83 33v310h-209
l-6 -45h153z" />
    <glyph glyph-name="H" unicode="H" horiz-adv-x="651" 
d="M556 0v680h-62v-311h-337v316l-62 -5v-680h62v319h337v-319h62z" />
    <glyph glyph-name="I" unicode="I" horiz-adv-x="252" 
d="M157 0v680h-62v-680h62z" />
    <glyph glyph-name="J" unicode="J" horiz-adv-x="242" 
d="M88.5 -2q-7.5 -21 -24.5 -32.5t-54 -25.5l24 -42q49 15 75 33t37 44t11 67v638h-62v-621q1 -40 -6.5 -61z" />
    <glyph glyph-name="K" unicode="K" horiz-adv-x="593" 
d="M509 0l-271 341l-81 -84v-257h-62v680h62v-345l346 360l40 -38l-264 -274l304 -383h-74z" />
    <glyph glyph-name="L" unicode="L" horiz-adv-x="497" 
d="M482 50h-325v630h-62v-680h392z" />
    <glyph glyph-name="M" unicode="M" horiz-adv-x="760" 
d="M391 234l211 318v-552h63v680h-41l-245 -358l-249 358h-35v-680h62v547l214 -317z" />
    <glyph glyph-name="N" unicode="N" horiz-adv-x="685" 
d="M157 0v560l14 -29l378 -531h41v680h-63v-551l-34 59l-357 492h-41v-680h62z" />
    <glyph glyph-name="O" unicode="O" horiz-adv-x="721" 
d="M199.5 647q-72.5 -47 -113.5 -128t-41 -182t40 -181t111.5 -125t160.5 -45q91 1 164 48t114 128.5t41 182.5t-40 181t-111.5 125t-161.5 45q-91 -2 -163.5 -49zM143.5 493q32.5 69 90 108t130.5 39q70 0 125.5 -38t87 -105.5t31.5 -152.5q0 -87 -32.5 -156t-90 -108
t-130.5 -39q-70 0 -125.5 38.5t-87 106t-31.5 152.5q0 86 32.5 155z" />
    <glyph glyph-name="P" unicode="P" horiz-adv-x="551" 
d="M157 264h103q113 0 184 53t72 158q0 106 -66 155.5t-179 49.5h-176v-680h62v264zM407 592q46 -35 46 -118q-1 -81 -53 -119t-138 -38h-105v310h116q88 0 134 -35z" />
    <glyph glyph-name="Q" unicode="Q" horiz-adv-x="721" 
d="M647 189.5q-29 -71.5 -81 -120.5l52 -51l-37 -32l-55 52q-73 -50 -169 -52q-89 0 -160.5 45t-111.5 125t-40 181t41 182t113.5 128t163.5 49q90 0 161.5 -45t111.5 -125t40 -181q0 -84 -29 -155.5zM483 78l-115 108l44 33l111 -108q40 41 62.5 101t22.5 132
q0 85 -31.5 152.5t-87 105.5t-125.5 38q-73 0 -130.5 -39t-90 -108t-32.5 -155q0 -85 31.5 -152.5t87 -106t125.5 -38.5q71 0 128 37z" />
    <glyph glyph-name="R" unicode="R" horiz-adv-x="580" 
d="M95 0h62v286h103q37 0 79 5l161 -291h70l-176 308q121 48 122 178q0 102 -65.5 148t-179.5 46h-176v-680zM406.5 596q46.5 -31 46.5 -112q-1 -79 -53.5 -113t-137.5 -34h-105v290h116q87 0 133.5 -31z" />
    <glyph glyph-name="S" unicode="S" horiz-adv-x="508" 
d="M142 -1q53 -12 96 -12q72 0 125.5 22t81.5 61.5t28 89.5q0 48 -20 82t-58 60.5t-105 57.5q-72 34 -109 56t-57.5 49t-20.5 65q0 52 42 83t114 31q46 0 77 -9t67 -25l22 47q-34 17 -77.5 28t-90.5 11q-63 0 -111 -22t-74.5 -60t-26.5 -84q0 -125 184 -203
q67 -28 105.5 -51t59 -50.5t20.5 -65.5q0 -54 -46.5 -88t-130.5 -34q-46 0 -90 11.5t-76 27.5l-15 -48q33 -18 86 -30z" />
    <glyph glyph-name="T" unicode="T" horiz-adv-x="553" 
d="M538 680h-528v-49h235v-631h63v631h235z" />
    <glyph glyph-name="U" unicode="U" horiz-adv-x="673" 
d="M85 680v-441q0 -72 31 -129t88 -89.5t132 -32.5q76 0 133 32.5t88 89.5t31 129v441h-63v-432q0 -58 -22.5 -105.5t-65.5 -74.5t-101 -27q-56 0 -99 27.5t-66.5 74.5t-23.5 105v432h-62z" />
    <glyph glyph-name="V" unicode="V" horiz-adv-x="592" 
d="M71 685l-61 -10l260 -675h65l247 680h-59l-221 -600z" />
    <glyph glyph-name="W" unicode="W" horiz-adv-x="821" 
d="M811 680l-177 -680h-65l-158 581l-146 -581h-65l-190 675l61 10l161 -599l151 594h59l159 -594l151 594h59z" />
    <glyph glyph-name="X" unicode="X" horiz-adv-x="573" 
d="M79 0l210 297l191 -297h69l-214 331l228 349h-68l-193 -303l-215 317l-54 -26l222 -324l-245 -344h69z" />
    <glyph glyph-name="Y" unicode="Y" horiz-adv-x="546" 
d="M297 0l1 283l238 397h-67l-203 -344l-201 359l-55 -31l225 -388l-1 -276h63z" />
    <glyph glyph-name="Z" unicode="Z" horiz-adv-x="559" 
d="M514 50h-420l440 581l-5 49h-477l10 -49h405l-442 -581l6 -50h488z" />
    <glyph glyph-name="bracketleft" unicode="[" horiz-adv-x="273" 
d="M100 -88h163l-8 44h-98v695h98l8 45h-163v-784z" />
    <glyph glyph-name="backslash" unicode="\" horiz-adv-x="385" 
d="M375 0l-308 710l-57 -4l308 -710z" />
    <glyph glyph-name="bracketright" unicode="]" horiz-adv-x="272" 
d="M172 696h-162l8 -45h97v-695h-97l-8 -44h162v784z" />
    <glyph glyph-name="asciicircum" unicode="^" horiz-adv-x="411" 
d="M206 344l135 -201h60l-166 247h-59l-166 -247h60z" />
    <glyph glyph-name="underscore" unicode="_" horiz-adv-x="439" 
d="M401 50h-371l8 -50h371z" />
    <glyph glyph-name="grave" unicode="`" horiz-adv-x="145" 
d="M95 589l40 13l-54 140h-71z" />
    <glyph glyph-name="a" unicode="a" horiz-adv-x="483" 
d="M170.5 438q26.5 8 73.5 8q57 0 86.5 -31.5t29.5 -84.5v-49h-135q-77 1 -125 -38t-48 -107q0 -66 42 -107.5t121 -41.5q40 0 81.5 19.5t66.5 45.5l8 -52h51v340q0 72 -49 115t-132 43q-33 0 -81 -12t-74 -30l19 -44q39 18 65.5 26zM142 210q29 30 81 30h137v-123
q-28 -34 -65.5 -56.5t-81.5 -22.5q-50 0 -75 29.5t-25 68.5q0 44 29 74z" />
    <glyph glyph-name="b" unicode="b" horiz-adv-x="520" 
d="M427 428q58 -70 58 -186q-1 -73 -27.5 -131t-77 -91t-120.5 -33q-64 0 -131 54l-13 -41h-41v696l62 10v-254q59 46 127 46q105 0 163 -70zM380.5 95.5q40.5 56.5 41.5 145.5q0 94 -39 149.5t-118 55.5q-40 0 -71 -15t-57 -42v-298q27 -24 56 -38t70 -14q77 0 117.5 56.5z
" />
    <glyph glyph-name="c" unicode="c" horiz-adv-x="451" 
d="M332.5 46.5q-24.5 -7.5 -71.5 -7.5q-79 0 -121 57t-42 150q1 88 45.5 144t122.5 56q45 0 71.5 -8t62.5 -26l20 44q-28 18 -74 30t-77 12q-70 0 -123 -32.5t-82 -90.5t-29 -130q0 -76 27 -134.5t78.5 -91t121.5 -32.5q33 0 79 11.5t74 29.5l-20 45q-38 -19 -62.5 -26.5z
" />
    <glyph glyph-name="d" unicode="d" 
d="M441 705v-705h-41l-11 38q-29 -24 -63 -37.5t-70 -13.5q-105 0 -163 70t-58 186q1 73 27.5 131t77 91t120.5 33q58 0 118 -44v242zM378 91v307q-25 23 -53.5 35.5t-67.5 12.5q-77 0 -117.5 -56.5t-41.5 -145.5q0 -94 39 -149.5t118 -55.5q71 0 123 52z" />
    <glyph glyph-name="e" unicode="e" horiz-adv-x="493" 
d="M408 427.5q-50 70.5 -153 70.5q-104 0 -161.5 -70t-58.5 -183q0 -118 62 -188t184 -70q52 0 89.5 11.5t80.5 34.5l-21 46q-40 -21 -76 -31.5t-76 -10.5q-93 0 -136 54.5t-44 147.5h360q0 118 -50 188.5zM145 401.5q38 44.5 107 44.5q127 0 143 -164h-295q7 75 45 119.5z
" />
    <glyph glyph-name="f" unicode="f" horiz-adv-x="274" 
d="M90 428v-428h62v428h109l-21 47h-88v88q0 82 69 82q9 0 22 -3t19 -6l12 53q-34 13 -66 13q-54 0 -86 -38t-32 -101v-88h-73l1 -47h72z" />
    <glyph glyph-name="g" unicode="g" horiz-adv-x="512" 
d="M441 485v-547q0 -48 -25 -86t-72 -60t-109 -22q-33 0 -84.5 12t-80.5 29l19 46q32 -15 65 -24.5t79 -10.5q64 0 104.5 30t40.5 87v90q-57 -42 -122 -42q-105 0 -163 70t-58 186q1 73 27.5 131t77 91t120.5 33q61 0 126 -50l14 37h41zM378 91v307q-25 23 -53.5 35.5
t-67.5 12.5q-77 0 -117.5 -56.5t-41.5 -145.5q0 -94 39 -149.5t118 -55.5q71 0 123 52z" />
    <glyph glyph-name="h" unicode="h" horiz-adv-x="526" 
d="M428 454q37 -44 37 -117v-336h-62v324q0 120 -94 120q-38 0 -88.5 -28.5t-83.5 -70.5v-346h-62v696l62 10v-294q31 36 82.5 61t96.5 25q75 0 112 -44z" />
    <glyph glyph-name="i" unicode="i" horiz-adv-x="193" 
d="M129.5 604.5q14.5 13.5 14.5 33.5t-14.5 33.5t-33.5 13.5q-21 0 -34 -13.5t-13 -33.5t13 -33.5t34 -13.5q19 0 33.5 13.5zM128 0v485h-63v-485h63z" />
    <glyph glyph-name="j" unicode="j" horiz-adv-x="215" 
d="M72 604.5q-13 13.5 -13 33.5t13 33.5t34 13.5q19 0 33.5 -13.5t14.5 -33.5t-14.5 -33.5t-33.5 -13.5q-21 0 -34 13.5zM138 -62q0 -45 -9 -73t-33.5 -48.5t-71.5 -35.5l-24 43q34 13 49.5 27t21 36.5t4.5 65.5v532h63v-547z" />
    <glyph glyph-name="k" unicode="k" horiz-adv-x="457" 
d="M137 0v190l72 74l173 -264h75l-208 305l152 156l-39 37l-225 -232v440l-62 -10v-696h62z" />
    <glyph glyph-name="l" unicode="l" horiz-adv-x="212" 
d="M137 0v706l-62 -10v-696h62z" />
    <glyph glyph-name="m" unicode="m" horiz-adv-x="794" 
d="M699.5 454.5q33.5 -43.5 33.5 -117.5v-336h-62v324q0 56 -18.5 88t-65.5 32q-32 0 -76 -25t-77 -63q1 -6 1 -20v-336h-62v324q0 56 -18.5 88t-65.5 32q-34 0 -81.5 -28.5t-80.5 -70.5v-346h-62v485h51l10 -74q31 36 80 61.5t90 25.5q100 0 128 -87q31 36 80 61.5t90 25.5
q72 0 105.5 -43.5z" />
    <glyph glyph-name="n" unicode="n" 
d="M127 346q33 42 83.5 70.5t88.5 28.5q94 0 94 -120v-324h62v336q0 73 -37 117t-112 44q-45 0 -97 -25.5t-83 -61.5l-10 74h-51v-485h62v346z" />
    <glyph glyph-name="o" unicode="o" horiz-adv-x="527" 
d="M463 109.5q-29 -57.5 -83 -90t-126 -32.5q-68 0 -117.5 33t-75.5 91.5t-26 133.5q1 72 29 129.5t80.5 90.5t122.5 33q107 0 166 -68.5t59 -189.5q0 -73 -29 -130.5zM383.5 95q44.5 56 45.5 144q0 93 -42 150t-121 57q-78 0 -122.5 -56t-45.5 -144q0 -93 42 -150t121 -57
q78 0 122.5 56z" />
    <glyph glyph-name="p" unicode="p" 
d="M423 428q58 -70 58 -186q-1 -73 -27.5 -131t-77 -91t-120.5 -33q-60 0 -123 48v-243l-62 -11v704h41l13 -40q29 25 63.5 39t71.5 14q105 0 163 -70zM376.5 95.5q40.5 56.5 41.5 145.5q0 94 -39 149.5t-118 55.5q-40 0 -71 -15t-57 -42v-298q27 -24 56 -38t70 -14
q77 0 117.5 56.5z" />
    <glyph glyph-name="q" unicode="q" horiz-adv-x="512" 
d="M441 485v-693l-63 -11v248q-57 -42 -122 -42q-105 0 -163 70t-58 186q1 73 27.5 131t77 91t120.5 33q63 0 126 -50l14 37h41zM378 91v307q-25 23 -53.5 35.5t-67.5 12.5q-77 0 -117.5 -56.5t-41.5 -145.5q0 -94 39 -149.5t118 -55.5q71 0 123 52z" />
    <glyph glyph-name="r" unicode="r" horiz-adv-x="310" 
d="M127 346q31 34 80.5 62t92.5 28l-17 49q-34 0 -79.5 -24.5t-79.5 -52.5l-18 77h-41v-485h62v346z" />
    <glyph glyph-name="s" unicode="s" horiz-adv-x="419" 
d="M112.5 -2.5q45.5 -10.5 79.5 -10.5q92 0 142 36.5t50 100.5q0 93 -162 150q-60 20 -92.5 41.5t-33.5 52.5q0 35 33 57.5t84 22.5q39 0 67 -9t61 -25l20 44q-23 17 -68 28.5t-78 11.5q-82 0 -130 -35.5t-48 -98.5q0 -52 43.5 -85t113.5 -56q132 -46 132 -104
q0 -40 -35 -61t-97 -21q-63 0 -133 34l-20 -46q26 -17 71.5 -27.5z" />
    <glyph glyph-name="t" unicode="t" horiz-adv-x="298" 
d="M152 475v148l-63 -22v-126h-72l1 -47h71v-312q0 -62 32 -95.5t86 -33.5q29 0 46 5.5t20 6.5l-12 51q-21 -9 -41 -9q-35 0 -51.5 22t-16.5 60v305h109l-21 47h-88z" />
    <glyph glyph-name="u" unicode="u" 
d="M389 140q-33 -42 -83.5 -70.5t-88.5 -28.5q-94 0 -94 120v324h-62v-336q0 -73 37 -117t112 -44q45 0 97 25.5t83 61.5l10 -75h51v486h-62v-346z" />
    <glyph glyph-name="v" unicode="v" horiz-adv-x="438" 
d="M251 0l177 485h-60l-150 -406l-156 419l-52 -26l175 -472h66z" />
    <glyph glyph-name="w" unicode="w" horiz-adv-x="642" 
d="M496 0l136 485h-61l-110 -402l-115 402h-59l-110 -402l-115 414l-52 -26l134 -471h67l104 393l114 -393h67z" />
    <glyph glyph-name="x" unicode="x" horiz-adv-x="429" 
d="M80 0l127 199l130 -199h68l-152 233l166 252h-68l-132 -206l-138 216l-55 -25l147 -225l-163 -245h70z" />
    <glyph glyph-name="y" unicode="y" horiz-adv-x="438" 
d="M129 -143.5q-19 -14.5 -64 -35.5l17 -40q48 10 83 38t50 69l213 597h-60l-150 -402l-159 414l-49 -26l182 -478l-32 -91q-12 -31 -31 -45.5z" />
    <glyph glyph-name="z" unicode="z" horiz-adv-x="432" 
d="M406 485h-354l16 -49h262l-307 -405l8 -31h372l-10 48h-295l311 405z" />
    <glyph glyph-name="braceleft" unicode="{" horiz-adv-x="265" 
d="M181.5 348q15.5 26 15.5 71q0 28 -19 70t-19 71q0 23 18.5 38.5t53.5 15.5h19l5 45h-26q-61 0 -92.5 -28t-31.5 -77q0 -31 18 -72q18 -40 18 -72q0 -36 -23.5 -59t-54.5 -23h-33v-40h33q32 0 55 -22t23 -59q0 -30 -18 -71q-18 -40 -18 -72q0 -50 31 -78t93 -28h26l-5 45
h-19q-35 0 -53.5 16t-18.5 39q0 28 19 70t19 71q0 41 -16.5 70t-47.5 42q33 11 48.5 37z" />
    <glyph glyph-name="bar" unicode="|" horiz-adv-x="252" 
d="M95 710v-710l62 -4v710z" />
    <glyph glyph-name="braceright" unicode="}" horiz-adv-x="264" 
d="M67 199q0 -29 19 -71t19 -70q0 -23 -18.5 -39t-52.5 -16h-19l-5 -45h25q62 0 93.5 28t31.5 78q0 32 -18 72q-19 39 -19 71q0 37 23.5 60t54.5 23h33v39h-33q-31 0 -54.5 23t-23.5 58q0 33 19 72q18 41 18 72q0 49 -31.5 77t-93.5 28h-25l5 -45h19q34 0 52.5 -15.5
t18.5 -38.5q0 -29 -19 -71t-19 -70q0 -42 17 -71t49 -42q-66 -22 -66 -107z" />
    <glyph glyph-name="asciitilde" unicode="~" horiz-adv-x="382" 
d="M75 205q2 21 15.5 31.5t33.5 10.5q26 0 63 -24q38 -24 71 -24q42 0 68 21.5t26 69.5h-47q-1 -22 -14.5 -32.5t-33.5 -10.5q-27 0 -58 24q-33 24 -75 24q-43 0 -68.5 -21t-25.5 -69h45z" />
    <glyph glyph-name="uni00A0" unicode="&#xa0;" horiz-adv-x="236" 
 />
    <glyph glyph-name="exclamdown" unicode="&#xa1;" horiz-adv-x="156" 
d="M112 619.5q14 14.5 14 34.5q0 19 -14 33.5t-33 14.5q-20 0 -34.5 -14.5t-14.5 -33.5q0 -20 14.5 -34.5t34.5 -14.5q19 0 33 14.5zM100 485l-42 20l-16 -505h74z" />
    <glyph glyph-name="cent" unicode="&#xa2;" horiz-adv-x="451" 
d="M415 28q-22 -14 -54.5 -24t-63.5 -14v-101h-51v98q-98 6 -154.5 76.5t-56.5 181.5q0 68 26 123.5t73.5 89.5t111.5 39v98l51 10v-109q32 -4 66.5 -15t56.5 -25l-20 -44q-36 18 -62.5 26t-71.5 8q-78 0 -122.5 -56t-45.5 -144q0 -93 42 -150t121 -57q47 0 71.5 7.5
t62.5 26.5z" />
    <glyph glyph-name="sterling" unicode="&#xa3;" horiz-adv-x="431" 
d="M421 0l-6 50h-258q34 39 34 104v176h158l-22 46h-136v169q0 84 69 84q9 0 21.5 -3.5t18.5 -7.5l12 53q-12 4 -30.5 8.5t-35.5 4.5q-53 0 -85.5 -38t-32.5 -101v-169h-73l2 -46h71v-197q0 -82 -68 -83l5 -50h356z" />
    <glyph glyph-name="currency" unicode="&#xa4;" horiz-adv-x="664" 
d="M634 -18l-104 108q45 65 46 149q0 92 -45 156l103 106l-34 42l-104 -106q-32 29 -72.5 45t-87.5 16q-92 -1 -164 -63l-108 108l-34 -42l105 -107q-46 -67 -46 -149q0 -90 44 -158l-103 -105l34 -41l105 106q30 -28 70 -43.5t85 -16.5q50 0 93.5 16t75.5 46l107 -108z
M488.5 136.5q-24.5 -45.5 -66.5 -71t-95 -25.5q-80 0 -127.5 57.5t-47.5 148.5q0 56 24 101.5t66 71.5t95 26q54 0 94 -27t61 -74t21 -105q0 -57 -24.5 -102.5z" />
    <glyph glyph-name="yen" unicode="&#xa5;" horiz-adv-x="546" 
d="M492 259h-194l-1 -132h186l9 -49h-195v-78h-63v78h-172l-8 49h180l1 132h-173l-8 50h162l-206 355l55 31l201 -359l203 344h67l-222 -371h169z" />
    <glyph glyph-name="brokenbar" unicode="&#xa6;" horiz-adv-x="252" 
d="M95 710v-300l62 -4v300zM95 292v-292l62 -4v292z" />
    <glyph glyph-name="section" unicode="&#xa7;" horiz-adv-x="562" 
d="M510.5 174.5q-16.5 -32.5 -48.5 -55.5q11 -30 11 -64q0 -50 -28 -89.5t-81.5 -61.5t-125.5 -22q-43 0 -96 12t-86 30l15 48q32 -16 76 -27.5t90 -11.5q84 0 130.5 34t46.5 88q0 38 -20.5 65.5t-59 50.5t-105.5 51q-184 78 -184 203q0 37 18 69.5t50 55.5q-14 31 -14 65
q0 46 26.5 84t74.5 60t111 22q47 0 90.5 -11t77.5 -28l-22 -47q-36 16 -67 25t-77 9q-72 0 -114 -31t-42 -83q0 -38 20.5 -65t57.5 -49t109 -56q67 -31 105 -57.5t58 -60.5t20 -82q0 -38 -16.5 -70.5zM468 245q0 38 -20.5 65.5t-59 50.5t-105.5 51q-95 41 -141 94
q-39 -31 -39 -81q0 -38 20.5 -65t57.5 -49t109 -56q51 -24 85.5 -45.5t56.5 -44.5q36 34 36 80z" />
    <glyph glyph-name="dieresis" unicode="&#xa8;" horiz-adv-x="263" 
d="M84.5 630.5q12.5 12.5 12.5 31.5q0 17 -12.5 29.5t-31.5 12.5q-17 0 -30 -12.5t-13 -29.5q0 -18 13 -31t30 -13q19 0 31.5 12.5zM241 630.5q12 12.5 12 31.5q0 18 -12 30t-31 12q-18 0 -30.5 -12.5t-12.5 -29.5q0 -19 12.5 -31.5t30.5 -12.5q19 0 31 12.5z" />
    <glyph glyph-name="copyright" unicode="&#xa9;" horiz-adv-x="791" 
d="M711.5 517.5q-44.5 81.5 -126 129t-189.5 47.5t-190 -47.5t-126.5 -129t-44.5 -181.5q0 -99 44.5 -180t126.5 -128.5t190 -47.5t189.5 47.5t126 128.5t44.5 180q0 100 -44.5 181.5zM131 495q37 70 105.5 110t159.5 40t160 -40t106 -110t37 -158t-37 -158t-106 -110
t-160 -40t-159.5 40t-105.5 110t-37 158t37 158zM484 117.5q43 11.5 71 30.5l-20 43q-36 -19 -59 -26.5t-68 -7.5q-80 0 -115 47t-35 140q0 80 38.5 129t115.5 49q43 0 66.5 -7t40 -15.5t21.5 -11.5l20 45q-26 19 -69 30t-77 11q-69 0 -118 -30t-74.5 -82.5t-25.5 -119.5
q0 -106 54.5 -171t157.5 -65q33 0 76 11.5z" />
    <glyph glyph-name="ordfeminine" unicode="&#xaa;" horiz-adv-x="332" 
d="M90.5 639.5q15.5 6.5 32.5 10t38 3.5q39 0 59.5 -20.5t20.5 -55.5v-18h-86q-53 0 -86.5 -25.5t-33.5 -70.5q0 -43 33 -71.5t82 -28.5q28 0 52.5 13.5t41.5 31.5l11 -36h42v208q0 32 -17 60t-48 45t-72 17q-22 0 -53.5 -8.5t-49.5 -20.5l12 -42q6 2 21.5 8.5zM112 503
q22 15 52 15h77v-52q-17 -24 -41 -40t-50 -16q-27 0 -43.5 16t-16.5 37q0 25 22 40z" />
    <glyph glyph-name="guillemotleft" unicode="&#xab;" horiz-adv-x="363" 
d="M30 223l140 -139l21 41l-112 120l112 120l-21 41l-140 -139v-44zM182 223l140 -139l21 41l-113 120l113 120l-21 41l-140 -139v-44z" />
    <glyph glyph-name="logicalnot" unicode="&#xac;" horiz-adv-x="514" 
d="M476 406h-466l8 -50h408v-239l58 -5v244z" />
    <glyph glyph-name="softhyphen" unicode="&#xad;" horiz-adv-x="120" 
 />
    <glyph glyph-name="registered" unicode="&#xae;" horiz-adv-x="705" 
d="M631 647q-39 72 -111 113.5t-167 41.5q-96 0 -168 -41.5t-111 -113.5t-39 -160t39 -159t111 -112.5t168 -41.5q95 0 167 41.5t111 112.5t39 159t-39 160zM121 626.5q32 60.5 91.5 94.5t140.5 34q80 0 139.5 -34t91.5 -95t32 -138q0 -76 -32 -136.5t-91.5 -95.5
t-139.5 -35q-81 0 -140.5 35t-91.5 95.5t-32 136.5q0 78 32 138.5zM411 475q64 28 64 97q0 56 -36.5 82t-99.5 26h-97v-376h50v158h42q24 0 29 1l90 -159h58zM379.5 636q20.5 -4 33 -19t12.5 -46q-1 -42 -28 -56t-77 -14h-28v139h33q34 0 54.5 -4z" />
    <glyph glyph-name="macron" unicode="&#xaf;" horiz-adv-x="261" 
d="M10 640h241l-6 49h-235v-49z" />
    <glyph glyph-name="degree" unicode="&#xb0;" horiz-adv-x="233" 
d="M41.5 671.5q-31.5 -30.5 -31.5 -72.5q0 -44 31 -72.5t75 -28.5q45 0 76 28.5t31 72.5q0 43 -31.5 73t-75.5 30q-43 0 -74.5 -30.5zM73 556q-17 18 -17 43t17 42.5t43 17.5q25 0 43.5 -17.5t18.5 -42.5t-18.5 -43t-43.5 -18q-26 0 -43 18z" />
    <glyph glyph-name="plusminus" unicode="&#xb1;" horiz-adv-x="492" 
d="M454 350h-181v181l-56 3v-184h-187l8 -48h179v-189l56 -5v194h189zM454 48h-424l8 -47h424z" />
    <glyph glyph-name="twosuperior" unicode="&#xb2;" horiz-adv-x="352" 
d="M96 760.5q-39 -10.5 -67 -27.5l22 -44q23 16 56 26.5t63 10.5q47 0 70 -23.5t23 -55.5q0 -34 -20 -64t-62 -68l-156 -136v-43h307l-6 43h-237l119 102q58 51 84 88.5t26 77.5q0 49 -36 86.5t-110 37.5q-37 0 -76 -10.5z" />
    <glyph glyph-name="threesuperior" unicode="&#xb3;" horiz-adv-x="354" 
d="M77.5 759.5q-34.5 -11.5 -68.5 -32.5l22 -38q59 38 123 38q45 0 70.5 -21.5t25.5 -55.5q0 -43 -33 -66.5t-95 -23.5h-26l7 -44h14q76 0 109.5 -25.5t33.5 -75.5q0 -44 -32.5 -68t-80.5 -24q-40 0 -67 8t-56 25l-24 -38q30 -17 67 -28.5t76 -11.5q51 0 90 18t60 49.5
t21 70.5q0 47 -25.5 79.5t-68.5 42.5q36 12 60.5 42.5t24.5 70.5q0 52 -39 86t-111 34q-43 0 -77.5 -11.5z" />
    <glyph glyph-name="acute" unicode="&#xb4;" horiz-adv-x="145" 
d="M50 589l85 153h-71l-54 -140z" />
    <glyph glyph-name="mu" unicode="&#xb5;" horiz-adv-x="526" 
d="M461 486v-485h-51l-10 74q-31 -36 -83 -61.5t-97 -25.5q-52 0 -87 22v-218l-62 -11v704h62v-324q0 -120 94 -120q38 0 88.5 28.5t83.5 70.5v346h62z" />
    <glyph glyph-name="paragraph" unicode="&#xb6;" horiz-adv-x="813" 
d="M391 631h226v-631h62v631h99v49h-498q-114 0 -179.5 -49.5t-65.5 -155.5q1 -105 72 -158t184 -53h38v-264h62v631z" />
    <glyph glyph-name="periodcentered" unicode="&#xb7;" horiz-adv-x="155" 
d="M111 228.5q14 14.5 14 33.5q0 20 -14 33.5t-33 13.5q-20 0 -34 -13.5t-14 -33.5q0 -19 14 -33.5t34 -14.5q19 0 33 14.5z" />
    <glyph glyph-name="cedilla" unicode="&#xb8;" horiz-adv-x="206" 
d="M116 -99.5q26 -14.5 26 -34.5q0 -18 -17.5 -29t-40.5 -11q-25 0 -59 14l-15 -42q13 -8 34.5 -13.5t39.5 -5.5q48 0 80 23t32 66q0 27 -23.5 50.5t-56.5 27.5l26 67h-53l-37 -94q38 -4 64 -18.5z" />
    <glyph glyph-name="onesuperior" unicode="&#xb9;" horiz-adv-x="247" 
d="M172 336v429h-36l-126 -65l23 -37l84 42v-369h55z" />
    <glyph glyph-name="ordmasculine" unicode="&#xba;" horiz-adv-x="382" 
d="M110.5 681q-35.5 -21 -55.5 -59.5t-20 -89.5q0 -80 42.5 -124.5t112.5 -44.5q44 0 80 20.5t56.5 59t20.5 89.5q0 80 -43 125t-114 45q-44 0 -79.5 -21zM257.5 621.5q27.5 -30.5 27.5 -89.5q0 -60 -28.5 -90t-66.5 -30q-39 0 -67 31t-28 89q0 60 29 90t66 30
q40 0 67.5 -30.5z" />
    <glyph glyph-name="guillemotright" unicode="&#xbb;" horiz-adv-x="364" 
d="M183 267l-140 139l-23 -41l113 -120l-113 -120l23 -41l140 139v44zM334 267l-139 139l-23 -41l114 -120l-114 -120l23 -41l139 139v44z" />
    <glyph glyph-name="onequarter" unicode="&#xbc;" horiz-adv-x="724" 
d="M172 336v429h-36l-126 -65l23 -37l84 42v-369h55zM541 700l-496 -834h60l491 834h-55zM627 -75h73l4 44h-77v352h-36l-254 -352l5 -44h233v-88h52v88zM575 220v-251h-180z" />
    <glyph glyph-name="onehalf" unicode="&#xbd;" horiz-adv-x="741" 
d="M172 336v429h-36l-126 -65l23 -37l84 42v-369h55zM521 700l-496 -834h60l491 834h-55zM485 314.5q-39 -10.5 -67 -27.5l22 -44q23 16 56 26.5t63 10.5q47 0 70 -23.5t23 -55.5q0 -34 -20 -64t-62 -68l-156 -136v-43h307l-6 43h-237l119 102q58 51 84 88.5t26 77.5
q0 49 -36 86.5t-110 37.5q-37 0 -76 -10.5z" />
    <glyph glyph-name="threequarters" unicode="&#xbe;" horiz-adv-x="759" 
d="M77.5 759.5q-34.5 -11.5 -68.5 -32.5l22 -38q59 38 123 38q45 0 70.5 -21.5t25.5 -55.5q0 -43 -33 -66.5t-95 -23.5h-26l7 -44h14q76 0 109.5 -25.5t33.5 -75.5q0 -44 -32.5 -68t-80.5 -24q-40 0 -67 8t-56 25l-24 -38q30 -17 67 -28.5t76 -11.5q51 0 90 18t60 49.5
t21 70.5q0 47 -25.5 79.5t-68.5 42.5q36 12 60.5 42.5t24.5 70.5q0 52 -39 86t-111 34q-43 0 -77.5 -11.5zM610 700l-496 -834h60l491 834h-55zM661 -31v352h-36l-253 -352l4 -44h233v-88h52v88h74l4 44h-78zM609 -31h-179l179 251v-251z" />
    <glyph glyph-name="questiondown" unicode="&#xbf;" horiz-adv-x="404" 
d="M277 539.5q14 14.5 14 34.5q0 19 -14 33.5t-34 14.5q-19 0 -33.5 -14.5t-14.5 -33.5q0 -20 14.5 -34.5t33.5 -14.5q20 0 34 14.5zM310 -65.5q38 14.5 84 44.5l-8 56q-45 -32 -80.5 -46.5t-85.5 -14.5q-64 0 -94 25.5t-30 84.5q0 56 48.5 102.5t128.5 71.5l-8 206l-46 19
l-7 -193q-83 -36 -132.5 -93t-49.5 -115q0 -75 46 -118.5t142 -43.5q54 0 92 14.5z" />
    <glyph glyph-name="Agrave" unicode="&#xc0;" horiz-adv-x="592" 
d="M257 680l-247 -680h59l75 204h297l80 -209l61 10l-260 675h-65zM423 254h-262l129 346zM289 739l40 13l-54 140h-71z" />
    <glyph glyph-name="Aacute" unicode="&#xc1;" horiz-adv-x="592" 
d="M257 680l-247 -680h59l75 204h297l80 -209l61 10l-260 675h-65zM423 254h-262l129 346zM293 739l85 153h-71l-54 -140z" />
    <glyph glyph-name="Acircumflex" unicode="&#xc2;" horiz-adv-x="592" 
d="M257 680l-247 -680h59l75 204h297l80 -209l61 10l-260 675h-65zM423 254h-262l129 346zM283 848l74 -109l58 10l-102 143h-60l-100 -143l55 -10z" />
    <glyph glyph-name="Atilde" unicode="&#xc3;" horiz-adv-x="592" 
d="M257 680l-247 -680h59l75 204h297l80 -209l61 10l-260 675h-65zM423 254h-262l129 346zM364 816.5q-11 -10.5 -25 -10.5q-26 0 -48 24q-23 23 -65 23q-83 0 -83 -91h45q2 22 13.5 33t25.5 11q25 0 52 -24q25 -24 60 -24q84 0 84 91h-46q-2 -22 -13 -32.5z" />
    <glyph glyph-name="Adieresis" unicode="&#xc4;" horiz-adv-x="592" 
d="M257 680l-247 -680h59l75 204h297l80 -209l61 10l-260 675h-65zM423 254h-262l129 346zM238.5 780.5q12.5 12.5 12.5 31.5q0 17 -12.5 29.5t-31.5 12.5q-17 0 -30 -12.5t-13 -29.5q0 -18 13 -31t30 -13q19 0 31.5 12.5zM395 780.5q12 12.5 12 31.5q0 18 -12 30t-31 12
q-18 0 -30.5 -12.5t-12.5 -29.5q0 -19 12.5 -31.5t30.5 -12.5q19 0 31 12.5z" />
    <glyph glyph-name="Aring" unicode="&#xc5;" horiz-adv-x="592" 
d="M257 680l-247 -680h59l75 204h297l80 -209l61 10l-260 675h-65zM423 254h-262l129 346zM228.5 885q-26.5 -24 -26.5 -60q0 -35 26 -58t63 -23t62.5 23t25.5 58q0 36 -26 60t-62 24t-62.5 -24zM260 795q-13 12 -13 30q0 19 13 31.5t31 12.5t31 -12.5t13 -31.5
q0 -18 -13 -30t-31 -12t-31 12z" />
    <glyph glyph-name="AE" unicode="&#xc6;" horiz-adv-x="842" 
d="M434 0h388l-4 50h-321v276h245l-6 45h-239v264h305l-6 45h-370l-416 -675l57 -10l126 209h241v-204zM434 595v-341h-210z" />
    <glyph glyph-name="Ccedilla" unicode="&#xc7;" horiz-adv-x="554" 
d="M461 -0.5q-44 -10.5 -85 -12.5l-16 -41q33 -4 56.5 -27.5t23.5 -50.5q0 -43 -32 -66t-80 -23q-18 0 -39.5 5.5t-34.5 13.5l15 42q34 -14 59 -14q23 0 40.5 11t17.5 29q0 20 -26 34.5t-64 18.5l27 69q-89 8 -152 57t-94.5 125t-31.5 166q0 100 39 181.5t111 129t168 47.5
q37 0 89 -10t77 -27l-20 -46q-37 15 -66.5 22t-78.5 7q-71 0 -128.5 -39.5t-91 -108.5t-33.5 -155q0 -82 29 -149.5t84.5 -107t130.5 -39.5q49 0 83.5 8t66.5 22l24 -48q-24 -13 -68 -23.5z" />
    <glyph glyph-name="Egrave" unicode="&#xc8;" horiz-adv-x="503" 
d="M483 0l-6 50h-320v276h245l-5 45h-240v264h303l-5 45h-360v-680h388zM277 739l40 13l-54 140h-71z" />
    <glyph glyph-name="Eacute" unicode="&#xc9;" horiz-adv-x="503" 
d="M483 0l-6 50h-320v276h245l-5 45h-240v264h303l-5 45h-360v-680h388zM281 739l85 153h-71l-54 -140z" />
    <glyph glyph-name="Ecircumflex" unicode="&#xca;" horiz-adv-x="503" 
d="M483 0l-6 50h-320v276h245l-5 45h-240v264h303l-5 45h-360v-680h388zM271 848l74 -109l58 10l-102 143h-60l-100 -143l55 -10z" />
    <glyph glyph-name="Edieresis" unicode="&#xcb;" horiz-adv-x="503" 
d="M483 0l-6 50h-320v276h245l-5 45h-240v264h303l-5 45h-360v-680h388zM226.5 780.5q12.5 12.5 12.5 31.5q0 17 -12.5 29.5t-31.5 12.5q-17 0 -30 -12.5t-13 -29.5q0 -18 13 -31t30 -13q19 0 31.5 12.5zM383 780.5q12 12.5 12 31.5q0 18 -12 30t-31 12q-18 0 -30.5 -12.5
t-12.5 -29.5q0 -19 12.5 -31.5t30.5 -12.5q19 0 31 12.5z" />
    <glyph glyph-name="Igrave" unicode="&#xcc;" horiz-adv-x="252" 
d="M157 0v680h-62v-680h62zM126 739l40 13l-54 140h-71z" />
    <glyph glyph-name="Iacute" unicode="&#xcd;" horiz-adv-x="252" 
d="M157 0v680h-62v-680h62zM130 739l85 153h-71l-54 -140z" />
    <glyph glyph-name="Icircumflex" unicode="&#xce;" horiz-adv-x="252" 
d="M157 0v680h-62v-680h62zM120 848l74 -109l58 10l-102 143h-60l-100 -143l55 -10z" />
    <glyph glyph-name="Idieresis" unicode="&#xcf;" horiz-adv-x="252" 
d="M157 0v680h-62v-680h62zM75.5 780.5q12.5 12.5 12.5 31.5q0 17 -12.5 29.5t-31.5 12.5q-17 0 -30 -12.5t-13 -29.5q0 -18 13 -31t30 -13q19 0 31.5 12.5zM232 780.5q12 12.5 12 31.5q0 18 -12 30t-31 12q-18 0 -30.5 -12.5t-12.5 -29.5q0 -19 12.5 -31.5t30.5 -12.5
q19 0 31 12.5z" />
    <glyph glyph-name="Eth" unicode="&#xd0;" horiz-adv-x="664" 
d="M547 587q72 -93 72 -243q0 -97 -34.5 -175t-102.5 -123.5t-164 -45.5h-223v309h-66l-8 50h74v321h232q148 0 220 -93zM445 88q54 36 84 102t30 153q0 127 -58.5 205.5t-170.5 78.5h-173v-268h112l8 -50h-120v-257h163q71 0 125 36z" />
    <glyph glyph-name="Ntilde" unicode="&#xd1;" horiz-adv-x="685" 
d="M157 0v560l14 -29l378 -531h41v680h-63v-551l-34 59l-357 492h-41v-680h62zM415 816.5q-11 -10.5 -25 -10.5q-26 0 -48 24q-23 23 -65 23q-83 0 -83 -91h45q2 22 13.5 33t25.5 11q25 0 52 -24q25 -24 60 -24q84 0 84 91h-46q-2 -22 -13 -32.5z" />
    <glyph glyph-name="Ograve" unicode="&#xd2;" horiz-adv-x="721" 
d="M199.5 647q-72.5 -47 -113.5 -128t-41 -182t40 -181t111.5 -125t160.5 -45q91 1 164 48t114 128.5t41 182.5t-40 181t-111.5 125t-161.5 45q-91 -2 -163.5 -49zM143.5 493q32.5 69 90 108t130.5 39q70 0 125.5 -38t87 -105.5t31.5 -152.5q0 -87 -32.5 -156t-90 -108
t-130.5 -39q-70 0 -125.5 38.5t-87 106t-31.5 152.5q0 86 32.5 155zM362 739l40 13l-54 140h-71z" />
    <glyph glyph-name="Oacute" unicode="&#xd3;" horiz-adv-x="721" 
d="M199.5 647q-72.5 -47 -113.5 -128t-41 -182t40 -181t111.5 -125t160.5 -45q91 1 164 48t114 128.5t41 182.5t-40 181t-111.5 125t-161.5 45q-91 -2 -163.5 -49zM143.5 493q32.5 69 90 108t130.5 39q70 0 125.5 -38t87 -105.5t31.5 -152.5q0 -87 -32.5 -156t-90 -108
t-130.5 -39q-70 0 -125.5 38.5t-87 106t-31.5 152.5q0 86 32.5 155zM366 739l85 153h-71l-54 -140z" />
    <glyph glyph-name="Ocircumflex" unicode="&#xd4;" horiz-adv-x="721" 
d="M199.5 647q-72.5 -47 -113.5 -128t-41 -182t40 -181t111.5 -125t160.5 -45q91 1 164 48t114 128.5t41 182.5t-40 181t-111.5 125t-161.5 45q-91 -2 -163.5 -49zM143.5 493q32.5 69 90 108t130.5 39q70 0 125.5 -38t87 -105.5t31.5 -152.5q0 -87 -32.5 -156t-90 -108
t-130.5 -39q-70 0 -125.5 38.5t-87 106t-31.5 152.5q0 86 32.5 155zM356 848l74 -109l58 10l-102 143h-60l-100 -143l55 -10z" />
    <glyph glyph-name="Otilde" unicode="&#xd5;" horiz-adv-x="721" 
d="M199.5 647q-72.5 -47 -113.5 -128t-41 -182t40 -181t111.5 -125t160.5 -45q91 1 164 48t114 128.5t41 182.5t-40 181t-111.5 125t-161.5 45q-91 -2 -163.5 -49zM143.5 493q32.5 69 90 108t130.5 39q70 0 125.5 -38t87 -105.5t31.5 -152.5q0 -87 -32.5 -156t-90 -108
t-130.5 -39q-70 0 -125.5 38.5t-87 106t-31.5 152.5q0 86 32.5 155zM437 816.5q-11 -10.5 -25 -10.5q-26 0 -48 24q-23 23 -65 23q-83 0 -83 -91h45q2 22 13.5 33t25.5 11q25 0 52 -24q25 -24 60 -24q84 0 84 91h-46q-2 -22 -13 -32.5z" />
    <glyph glyph-name="Odieresis" unicode="&#xd6;" horiz-adv-x="721" 
d="M199.5 647q-72.5 -47 -113.5 -128t-41 -182t40 -181t111.5 -125t160.5 -45q91 1 164 48t114 128.5t41 182.5t-40 181t-111.5 125t-161.5 45q-91 -2 -163.5 -49zM143.5 493q32.5 69 90 108t130.5 39q70 0 125.5 -38t87 -105.5t31.5 -152.5q0 -87 -32.5 -156t-90 -108
t-130.5 -39q-70 0 -125.5 38.5t-87 106t-31.5 152.5q0 86 32.5 155zM311.5 780.5q12.5 12.5 12.5 31.5q0 17 -12.5 29.5t-31.5 12.5q-17 0 -30 -12.5t-13 -29.5q0 -18 13 -31t30 -13q19 0 31.5 12.5zM468 780.5q12 12.5 12 31.5q0 18 -12 30t-31 12q-18 0 -30.5 -12.5
t-12.5 -29.5q0 -19 12.5 -31.5t30.5 -12.5q19 0 31 12.5z" />
    <glyph glyph-name="multiply" unicode="&#xd7;" horiz-adv-x="488" 
d="M274 246l168 -215h-63l-135 172l-151 -172h-63l184 218l-168 215h63l135 -172l151 172h63z" />
    <glyph glyph-name="Oslash" unicode="&#xd8;" horiz-adv-x="721" 
d="M524.5 651q71.5 -45 111.5 -125t40 -181t-41 -182.5t-114 -128.5t-164 -48q-89 0 -160.5 45t-111.5 125t-40 181t41 182t113.5 128t163.5 49q90 0 161.5 -45zM140 191q29 -66 80 -105l235 535q-44 19 -91 19q-73 0 -130.5 -39t-90 -108t-32.5 -155q0 -81 29 -147z
M485.5 80q57.5 39 90 108t32.5 156q0 81 -28.5 145.5t-78.5 103.5l-233 -535q42 -17 87 -17q73 0 130.5 39z" />
    <glyph glyph-name="Ugrave" unicode="&#xd9;" horiz-adv-x="673" 
d="M85 680v-441q0 -72 31 -129t88 -89.5t132 -32.5q76 0 133 32.5t88 89.5t31 129v441h-63v-432q0 -58 -22.5 -105.5t-65.5 -74.5t-101 -27q-56 0 -99 27.5t-66.5 74.5t-23.5 105v432h-62zM335 739l40 13l-54 140h-71z" />
    <glyph glyph-name="Uacute" unicode="&#xda;" horiz-adv-x="673" 
d="M85 680v-441q0 -72 31 -129t88 -89.5t132 -32.5q76 0 133 32.5t88 89.5t31 129v441h-63v-432q0 -58 -22.5 -105.5t-65.5 -74.5t-101 -27q-56 0 -99 27.5t-66.5 74.5t-23.5 105v432h-62zM339 739l85 153h-71l-54 -140z" />
    <glyph glyph-name="Ucircumflex" unicode="&#xdb;" horiz-adv-x="673" 
d="M85 680v-441q0 -72 31 -129t88 -89.5t132 -32.5q76 0 133 32.5t88 89.5t31 129v441h-63v-432q0 -58 -22.5 -105.5t-65.5 -74.5t-101 -27q-56 0 -99 27.5t-66.5 74.5t-23.5 105v432h-62zM329 848l74 -109l58 10l-102 143h-60l-100 -143l55 -10z" />
    <glyph glyph-name="Udieresis" unicode="&#xdc;" horiz-adv-x="673" 
d="M85 680v-441q0 -72 31 -129t88 -89.5t132 -32.5q76 0 133 32.5t88 89.5t31 129v441h-63v-432q0 -58 -22.5 -105.5t-65.5 -74.5t-101 -27q-56 0 -99 27.5t-66.5 74.5t-23.5 105v432h-62zM284.5 780.5q12.5 12.5 12.5 31.5q0 17 -12.5 29.5t-31.5 12.5q-17 0 -30 -12.5
t-13 -29.5q0 -18 13 -31t30 -13q19 0 31.5 12.5zM441 780.5q12 12.5 12 31.5q0 18 -12 30t-31 12q-18 0 -30.5 -12.5t-12.5 -29.5q0 -19 12.5 -31.5t30.5 -12.5q19 0 31 12.5z" />
    <glyph glyph-name="Yacute" unicode="&#xdd;" horiz-adv-x="546" 
d="M297 0l1 283l238 397h-67l-203 -344l-201 359l-55 -31l225 -388l-1 -276h63zM269 739l85 153h-71l-54 -140z" />
    <glyph glyph-name="Thorn" unicode="&#xde;" horiz-adv-x="551" 
d="M450 550.5q66 -49.5 66 -155.5q-1 -105 -72 -158t-184 -53h-103v-184h-62v680h62v-80h114q113 0 179 -49.5zM400 275q52 38 53 119q0 83 -46 118t-134 35h-116v-310h105q86 0 138 38z" />
    <glyph glyph-name="germandbls" unicode="&#xdf;" horiz-adv-x="557" 
d="M137 0v473q0 70 38.5 112t110.5 42q58 0 96 -31.5t38 -93.5q0 -64 -38.5 -94t-126.5 -30h-27v-51h45q86 0 133.5 -34t47.5 -107q0 -74 -51 -104t-140 -30h-51v-52h49q117 0 186.5 44t69.5 144q0 120 -120 168q85 43 85 147q0 86 -55.5 131.5t-138.5 45.5
q-96 0 -154.5 -54t-58.5 -153v-473h62z" />
    <glyph glyph-name="agrave" unicode="&#xe0;" horiz-adv-x="483" 
d="M170.5 438q26.5 8 73.5 8q57 0 86.5 -31.5t29.5 -84.5v-49h-135q-77 1 -125 -38t-48 -107q0 -66 42 -107.5t121 -41.5q40 0 81.5 19.5t66.5 45.5l8 -52h51v340q0 72 -49 115t-132 43q-33 0 -81 -12t-74 -30l19 -44q39 18 65.5 26zM142 210q29 30 81 30h137v-123
q-28 -34 -65.5 -56.5t-81.5 -22.5q-50 0 -75 29.5t-25 68.5q0 44 29 74zM252 589l40 13l-54 140h-71z" />
    <glyph glyph-name="aacute" unicode="&#xe1;" horiz-adv-x="483" 
d="M170.5 438q26.5 8 73.5 8q57 0 86.5 -31.5t29.5 -84.5v-49h-135q-77 1 -125 -38t-48 -107q0 -66 42 -107.5t121 -41.5q40 0 81.5 19.5t66.5 45.5l8 -52h51v340q0 72 -49 115t-132 43q-33 0 -81 -12t-74 -30l19 -44q39 18 65.5 26zM142 210q29 30 81 30h137v-123
q-28 -34 -65.5 -56.5t-81.5 -22.5q-50 0 -75 29.5t-25 68.5q0 44 29 74zM242 589l85 153h-71l-54 -140z" />
    <glyph glyph-name="acircumflex" unicode="&#xe2;" horiz-adv-x="483" 
d="M170.5 438q26.5 8 73.5 8q57 0 86.5 -31.5t29.5 -84.5v-49h-135q-77 1 -125 -38t-48 -107q0 -66 42 -107.5t121 -41.5q40 0 81.5 19.5t66.5 45.5l8 -52h51v340q0 72 -49 115t-132 43q-33 0 -81 -12t-74 -30l19 -44q39 18 65.5 26zM142 210q29 30 81 30h137v-123
q-28 -34 -65.5 -56.5t-81.5 -22.5q-50 0 -75 29.5t-25 68.5q0 44 29 74zM246 698l74 -109l58 10l-102 143h-60l-100 -143l55 -10z" />
    <glyph glyph-name="atilde" unicode="&#xe3;" horiz-adv-x="483" 
d="M170.5 438q26.5 8 73.5 8q57 0 86.5 -31.5t29.5 -84.5v-49h-135q-77 1 -125 -38t-48 -107q0 -66 42 -107.5t121 -41.5q40 0 81.5 19.5t66.5 45.5l8 -52h51v340q0 72 -49 115t-132 43q-33 0 -81 -12t-74 -30l19 -44q39 18 65.5 26zM142 210q29 30 81 30h137v-123
q-28 -34 -65.5 -56.5t-81.5 -22.5q-50 0 -75 29.5t-25 68.5q0 44 29 74zM316 666.5q-11 -10.5 -25 -10.5q-26 0 -48 24q-23 23 -65 23q-83 0 -83 -91h45q2 22 13.5 33t25.5 11q25 0 52 -24q25 -24 60 -24q84 0 84 91h-46q-2 -22 -13 -32.5z" />
    <glyph glyph-name="adieresis" unicode="&#xe4;" horiz-adv-x="483" 
d="M170.5 438q26.5 8 73.5 8q57 0 86.5 -31.5t29.5 -84.5v-49h-135q-77 1 -125 -38t-48 -107q0 -66 42 -107.5t121 -41.5q40 0 81.5 19.5t66.5 45.5l8 -52h51v340q0 72 -49 115t-132 43q-33 0 -81 -12t-74 -30l19 -44q39 18 65.5 26zM142 210q29 30 81 30h137v-123
q-28 -34 -65.5 -56.5t-81.5 -22.5q-50 0 -75 29.5t-25 68.5q0 44 29 74zM198.5 630.5q12.5 12.5 12.5 31.5q0 17 -12.5 29.5t-31.5 12.5q-17 0 -30 -12.5t-13 -29.5q0 -18 13 -31t30 -13q19 0 31.5 12.5zM355 630.5q12 12.5 12 31.5q0 18 -12 30t-31 12q-18 0 -30.5 -12.5
t-12.5 -29.5q0 -19 12.5 -31.5t30.5 -12.5q19 0 31 12.5z" />
    <glyph glyph-name="aring" unicode="&#xe5;" horiz-adv-x="483" 
d="M170.5 438q26.5 8 73.5 8q57 0 86.5 -31.5t29.5 -84.5v-49h-135q-77 1 -125 -38t-48 -107q0 -66 42 -107.5t121 -41.5q40 0 81.5 19.5t66.5 45.5l8 -52h51v340q0 72 -49 115t-132 43q-33 0 -81 -12t-74 -30l19 -44q39 18 65.5 26zM142 210q29 30 81 30h137v-123
q-28 -34 -65.5 -56.5t-81.5 -22.5q-50 0 -75 29.5t-25 68.5q0 44 29 74zM187.5 735q-26.5 -24 -26.5 -60q0 -35 26 -58t63 -23t62.5 23t25.5 58q0 36 -26 60t-62 24t-62.5 -24zM219 645q-13 12 -13 30q0 19 13 31.5t31 12.5t31 -12.5t13 -31.5q0 -18 -13 -30t-31 -12t-31 12
z" />
    <glyph glyph-name="ae" unicode="&#xe6;" horiz-adv-x="817" 
d="M678 48.5q36 10.5 76 31.5l21 -46q-43 -23 -80.5 -34.5t-89.5 -11.5q-70 0 -121 24t-81 69q-37 -41 -80 -67.5t-108 -26.5q-79 0 -121 41.5t-42 107.5q0 68 48 107t125 38h135v49q0 53 -29.5 84.5t-86.5 31.5q-47 0 -73.5 -8t-65.5 -26l-19 44q26 18 74 30t81 12
q59 0 101.5 -22.5t62.5 -62.5q29 41 73 63.5t101 22.5q103 0 153 -70.5t50 -188.5h-360q1 -93 44 -147.5t136 -54.5q40 0 76 10.5zM469 402.5q-38 -44.5 -45 -119.5h295q-16 164 -143 164q-69 0 -107 -44.5zM291.5 51q31.5 13 49.5 31.5t37 45.5q-17 48 -19 112h-136
q-52 0 -81 -30t-29 -74q0 -39 25 -68.5t75 -29.5q47 0 78.5 13z" />
    <glyph glyph-name="ccedilla" unicode="&#xe7;" horiz-adv-x="451" 
d="M353 2q-38 -11 -71 -14l-16 -42q33 -4 56.5 -27.5t23.5 -50.5q0 -43 -32 -66t-80 -23q-18 0 -39.5 5.5t-34.5 13.5l15 42q34 -14 59 -14q23 0 40.5 11t17.5 29q0 20 -26 34.5t-64 18.5l28 70q-92 11 -143.5 80.5t-51.5 175.5q0 72 29 130t82 90.5t123 32.5q31 0 77 -12
t74 -30l-20 -44q-36 18 -62.5 26t-71.5 8q-78 0 -122.5 -56t-45.5 -144q0 -93 42 -150t121 -57q47 0 71.5 7.5t62.5 26.5l20 -45q-24 -15 -62 -26z" />
    <glyph glyph-name="egrave" unicode="&#xe8;" horiz-adv-x="493" 
d="M408 427.5q-50 70.5 -153 70.5q-104 0 -161.5 -70t-58.5 -183q0 -118 62 -188t184 -70q52 0 89.5 11.5t80.5 34.5l-21 46q-40 -21 -76 -31.5t-76 -10.5q-93 0 -136 54.5t-44 147.5h360q0 118 -50 188.5zM145 401.5q38 44.5 107 44.5q127 0 143 -164h-295q7 75 45 119.5z
M257 589l40 13l-54 140h-71z" />
    <glyph glyph-name="eacute" unicode="&#xe9;" horiz-adv-x="493" 
d="M408 427.5q-50 70.5 -153 70.5q-104 0 -161.5 -70t-58.5 -183q0 -118 62 -188t184 -70q52 0 89.5 11.5t80.5 34.5l-21 46q-40 -21 -76 -31.5t-76 -10.5q-93 0 -136 54.5t-44 147.5h360q0 118 -50 188.5zM145 401.5q38 44.5 107 44.5q127 0 143 -164h-295q7 75 45 119.5z
M247 589l85 153h-71l-54 -140z" />
    <glyph glyph-name="ecircumflex" unicode="&#xea;" horiz-adv-x="493" 
d="M408 427.5q-50 70.5 -153 70.5q-104 0 -161.5 -70t-58.5 -183q0 -118 62 -188t184 -70q52 0 89.5 11.5t80.5 34.5l-21 46q-40 -21 -76 -31.5t-76 -10.5q-93 0 -136 54.5t-44 147.5h360q0 118 -50 188.5zM145 401.5q38 44.5 107 44.5q127 0 143 -164h-295q7 75 45 119.5z
M251 698l74 -109l58 10l-102 143h-60l-100 -143l55 -10z" />
    <glyph glyph-name="edieresis" unicode="&#xeb;" horiz-adv-x="493" 
d="M408 427.5q-50 70.5 -153 70.5q-104 0 -161.5 -70t-58.5 -183q0 -118 62 -188t184 -70q52 0 89.5 11.5t80.5 34.5l-21 46q-40 -21 -76 -31.5t-76 -10.5q-93 0 -136 54.5t-44 147.5h360q0 118 -50 188.5zM145 401.5q38 44.5 107 44.5q127 0 143 -164h-295q7 75 45 119.5z
M203.5 630.5q12.5 12.5 12.5 31.5q0 17 -12.5 29.5t-31.5 12.5q-17 0 -30 -12.5t-13 -29.5q0 -18 13 -31t30 -13q19 0 31.5 12.5zM360 630.5q12 12.5 12 31.5q0 18 -12 30t-31 12q-18 0 -30.5 -12.5t-12.5 -29.5q0 -19 12.5 -31.5t30.5 -12.5q19 0 31 12.5z" />
    <glyph glyph-name="igrave" unicode="&#xec;" horiz-adv-x="193" 
d="M128 0v485h-63v-485h63zM101 589l40 13l-54 140h-71z" />
    <glyph glyph-name="iacute" unicode="&#xed;" horiz-adv-x="193" 
d="M128 0v485h-63v-485h63zM91 589l85 153h-71l-54 -140z" />
    <glyph glyph-name="icircumflex" unicode="&#xee;" horiz-adv-x="193" 
d="M128 0v485h-63v-485h63zM95 698l74 -109l58 10l-102 143h-60l-100 -143l55 -10z" />
    <glyph glyph-name="idieresis" unicode="&#xef;" horiz-adv-x="193" 
d="M128 0v485h-63v-485h63zM47.5 630.5q12.5 12.5 12.5 31.5q0 17 -12.5 29.5t-31.5 12.5q-17 0 -30 -12.5t-13 -29.5q0 -18 13 -31t30 -13q19 0 31.5 12.5zM204 630.5q12 12.5 12 31.5q0 18 -12 30t-31 12q-18 0 -30.5 -12.5t-12.5 -29.5q0 -19 12.5 -31.5t30.5 -12.5
q19 0 31 12.5z" />
    <glyph glyph-name="eth" unicode="&#xf0;" horiz-adv-x="527" 
d="M445 478q47 -105 47 -238q0 -73 -29 -130.5t-83 -90t-126 -32.5q-68 0 -117.5 33t-75.5 91.5t-26 133.5q1 72 29 129.5t80.5 90.5t122.5 33q69 0 123 -39q-46 103 -150 174l-124 -63l-26 40l104 51q-38 22 -99 47l18 42q74 -26 135 -62l110 54l25 -37l-90 -46
q105 -76 152 -181zM383.5 95q44.5 56 45.5 144q0 79 -14 143q-27 31 -65.5 47.5t-83.5 16.5q-78 0 -122.5 -56t-45.5 -144q0 -93 42 -150t121 -57q78 0 122.5 56z" />
    <glyph glyph-name="ntilde" unicode="&#xf1;" 
d="M127 346q33 42 83.5 70.5t88.5 28.5q94 0 94 -120v-324h62v336q0 73 -37 117t-112 44q-45 0 -97 -25.5t-83 -61.5l-10 74h-51v-485h62v346zM336 666.5q-11 -10.5 -25 -10.5q-26 0 -48 24q-23 23 -65 23q-83 0 -83 -91h45q2 22 13.5 33t25.5 11q25 0 52 -24q25 -24 60 -24
q84 0 84 91h-46q-2 -22 -13 -32.5z" />
    <glyph glyph-name="ograve" unicode="&#xf2;" horiz-adv-x="527" 
d="M463 109.5q-29 -57.5 -83 -90t-126 -32.5q-68 0 -117.5 33t-75.5 91.5t-26 133.5q1 72 29 129.5t80.5 90.5t122.5 33q107 0 166 -68.5t59 -189.5q0 -73 -29 -130.5zM383.5 95q44.5 56 45.5 144q0 93 -42 150t-121 57q-78 0 -122.5 -56t-45.5 -144q0 -93 42 -150t121 -57
q78 0 122.5 56zM268 589l40 13l-54 140h-71z" />
    <glyph glyph-name="oacute" unicode="&#xf3;" horiz-adv-x="527" 
d="M463 109.5q-29 -57.5 -83 -90t-126 -32.5q-68 0 -117.5 33t-75.5 91.5t-26 133.5q1 72 29 129.5t80.5 90.5t122.5 33q107 0 166 -68.5t59 -189.5q0 -73 -29 -130.5zM383.5 95q44.5 56 45.5 144q0 93 -42 150t-121 57q-78 0 -122.5 -56t-45.5 -144q0 -93 42 -150t121 -57
q78 0 122.5 56zM258 589l85 153h-71l-54 -140z" />
    <glyph glyph-name="ocircumflex" unicode="&#xf4;" horiz-adv-x="527" 
d="M463 109.5q-29 -57.5 -83 -90t-126 -32.5q-68 0 -117.5 33t-75.5 91.5t-26 133.5q1 72 29 129.5t80.5 90.5t122.5 33q107 0 166 -68.5t59 -189.5q0 -73 -29 -130.5zM383.5 95q44.5 56 45.5 144q0 93 -42 150t-121 57q-78 0 -122.5 -56t-45.5 -144q0 -93 42 -150t121 -57
q78 0 122.5 56zM262 698l74 -109l58 10l-102 143h-60l-100 -143l55 -10z" />
    <glyph glyph-name="otilde" unicode="&#xf5;" horiz-adv-x="527" 
d="M463 109.5q-29 -57.5 -83 -90t-126 -32.5q-68 0 -117.5 33t-75.5 91.5t-26 133.5q1 72 29 129.5t80.5 90.5t122.5 33q107 0 166 -68.5t59 -189.5q0 -73 -29 -130.5zM383.5 95q44.5 56 45.5 144q0 93 -42 150t-121 57q-78 0 -122.5 -56t-45.5 -144q0 -93 42 -150t121 -57
q78 0 122.5 56zM332 666.5q-11 -10.5 -25 -10.5q-26 0 -48 24q-23 23 -65 23q-83 0 -83 -91h45q2 22 13.5 33t25.5 11q25 0 52 -24q25 -24 60 -24q84 0 84 91h-46q-2 -22 -13 -32.5z" />
    <glyph glyph-name="odieresis" unicode="&#xf6;" horiz-adv-x="527" 
d="M463 109.5q-29 -57.5 -83 -90t-126 -32.5q-68 0 -117.5 33t-75.5 91.5t-26 133.5q1 72 29 129.5t80.5 90.5t122.5 33q107 0 166 -68.5t59 -189.5q0 -73 -29 -130.5zM383.5 95q44.5 56 45.5 144q0 93 -42 150t-121 57q-78 0 -122.5 -56t-45.5 -144q0 -93 42 -150t121 -57
q78 0 122.5 56zM214.5 630.5q12.5 12.5 12.5 31.5q0 17 -12.5 29.5t-31.5 12.5q-17 0 -30 -12.5t-13 -29.5q0 -18 13 -31t30 -13q19 0 31.5 12.5zM371 630.5q12 12.5 12 31.5q0 18 -12 30t-31 12q-18 0 -30.5 -12.5t-12.5 -29.5q0 -19 12.5 -31.5t30.5 -12.5q19 0 31 12.5z
" />
    <glyph glyph-name="divide" unicode="&#xf7;" horiz-adv-x="497" 
d="M287 377q16 17 16 39q0 24 -16 40t-39 16q-25 0 -41 -16t-16 -40q0 -22 16.5 -39t40.5 -17q23 0 39 17zM460 298h-430l8 -50h429zM289.5 74q16.5 17 16.5 40t-16.5 39.5t-39.5 16.5q-24 0 -40 -16.5t-16 -39.5q0 -24 16 -40.5t40 -16.5q23 0 39.5 17z" />
    <glyph glyph-name="oslash" unicode="&#xf8;" horiz-adv-x="527" 
d="M433 429.5q59 -68.5 59 -189.5q0 -73 -29 -130.5t-83 -90t-126 -32.5q-68 0 -117.5 33t-75.5 91.5t-26 133.5q1 72 29 129.5t80.5 90.5t122.5 33q107 0 166 -68.5zM113 148q15 -43 44 -71l182 353q-34 16 -73 16q-78 0 -122.5 -56t-45.5 -144q0 -55 15 -98zM383.5 95
q44.5 56 45.5 144q0 49 -12 89.5t-36 67.5l-178 -347q24 -10 58 -10q78 0 122.5 56z" />
    <glyph glyph-name="ugrave" unicode="&#xf9;" 
d="M389 140q-33 -42 -83.5 -70.5t-88.5 -28.5q-94 0 -94 120v324h-62v-336q0 -73 37 -117t112 -44q45 0 97 25.5t83 61.5l10 -75h51v486h-62v-346zM254 589l40 13l-54 140h-71z" />
    <glyph glyph-name="uacute" unicode="&#xfa;" 
d="M389 140q-33 -42 -83.5 -70.5t-88.5 -28.5q-94 0 -94 120v324h-62v-336q0 -73 37 -117t112 -44q45 0 97 25.5t83 61.5l10 -75h51v486h-62v-346zM244 589l85 153h-71l-54 -140z" />
    <glyph glyph-name="ucircumflex" unicode="&#xfb;" 
d="M389 140q-33 -42 -83.5 -70.5t-88.5 -28.5q-94 0 -94 120v324h-62v-336q0 -73 37 -117t112 -44q45 0 97 25.5t83 61.5l10 -75h51v486h-62v-346zM248 698l74 -109l58 10l-102 143h-60l-100 -143l55 -10z" />
    <glyph glyph-name="udieresis" unicode="&#xfc;" 
d="M389 140q-33 -42 -83.5 -70.5t-88.5 -28.5q-94 0 -94 120v324h-62v-336q0 -73 37 -117t112 -44q45 0 97 25.5t83 61.5l10 -75h51v486h-62v-346zM200.5 630.5q12.5 12.5 12.5 31.5q0 17 -12.5 29.5t-31.5 12.5q-17 0 -30 -12.5t-13 -29.5q0 -18 13 -31t30 -13
q19 0 31.5 12.5zM357 630.5q12 12.5 12 31.5q0 18 -12 30t-31 12q-18 0 -30.5 -12.5t-12.5 -29.5q0 -19 12.5 -31.5t30.5 -12.5q19 0 31 12.5z" />
    <glyph glyph-name="yacute" unicode="&#xfd;" horiz-adv-x="438" 
d="M129 -143.5q-19 -14.5 -64 -35.5l17 -40q48 10 83 38t50 69l213 597h-60l-150 -402l-159 414l-49 -26l182 -478l-32 -91q-12 -31 -31 -45.5zM210 589l85 153h-71l-54 -140z" />
    <glyph glyph-name="thorn" unicode="&#xfe;" 
d="M423 428q58 -70 58 -186q-1 -73 -27.5 -131t-77 -91t-120.5 -33q-60 0 -123 48v-243l-62 -11v915l62 10v-254q59 46 127 46q105 0 163 -70zM376.5 95.5q40.5 56.5 41.5 145.5q0 94 -39 149.5t-118 55.5q-40 0 -71 -15t-57 -42v-298q27 -24 56 -38t70 -14q77 0 117.5 56.5
z" />
    <glyph glyph-name="ydieresis" unicode="&#xff;" horiz-adv-x="438" 
d="M129 -143.5q-19 -14.5 -64 -35.5l17 -40q48 10 83 38t50 69l213 597h-60l-150 -402l-159 414l-49 -26l182 -478l-32 -91q-12 -31 -31 -45.5zM166.5 630.5q12.5 12.5 12.5 31.5q0 17 -12.5 29.5t-31.5 12.5q-17 0 -30 -12.5t-13 -29.5q0 -18 13 -31t30 -13q19 0 31.5 12.5
zM323 630.5q12 12.5 12 31.5q0 18 -12 30t-31 12q-18 0 -30.5 -12.5t-12.5 -29.5q0 -19 12.5 -31.5t30.5 -12.5q19 0 31 12.5z" />
    <glyph glyph-name="Amacron" unicode="&#x100;" horiz-adv-x="592" 
d="M257 680l-247 -680h59l75 204h297l80 -209l61 10l-260 675h-65zM423 254h-262l129 346zM169 790h241l-6 49h-235v-49z" />
    <glyph glyph-name="amacron" unicode="&#x101;" horiz-adv-x="483" 
d="M170.5 438q26.5 8 73.5 8q57 0 86.5 -31.5t29.5 -84.5v-49h-135q-77 1 -125 -38t-48 -107q0 -66 42 -107.5t121 -41.5q40 0 81.5 19.5t66.5 45.5l8 -52h51v340q0 72 -49 115t-132 43q-33 0 -81 -12t-74 -30l19 -44q39 18 65.5 26zM142 210q29 30 81 30h137v-123
q-28 -34 -65.5 -56.5t-81.5 -22.5q-50 0 -75 29.5t-25 68.5q0 44 29 74zM120 640h241l-6 49h-235v-49z" />
    <glyph glyph-name="Abreve" unicode="&#x102;" horiz-adv-x="592" 
d="M257 680l-247 -680h59l75 204h297l80 -209l61 10l-260 675h-65zM423 254h-262l129 346zM348 824.5q-23 -25.5 -60 -25.5q-39 0 -61.5 25.5t-22.5 56.5h-46q0 -55 32.5 -92t97.5 -38q65 1 97.5 38t32.5 92h-47q0 -31 -23 -56.5z" />
    <glyph glyph-name="abreve" unicode="&#x103;" horiz-adv-x="483" 
d="M170.5 438q26.5 8 73.5 8q57 0 86.5 -31.5t29.5 -84.5v-49h-135q-77 1 -125 -38t-48 -107q0 -66 42 -107.5t121 -41.5q40 0 81.5 19.5t66.5 45.5l8 -52h51v340q0 72 -49 115t-132 43q-33 0 -81 -12t-74 -30l19 -44q39 18 65.5 26zM142 210q29 30 81 30h137v-123
q-28 -34 -65.5 -56.5t-81.5 -22.5q-50 0 -75 29.5t-25 68.5q0 44 29 74zM303 674.5q-23 -25.5 -60 -25.5q-39 0 -61.5 25.5t-22.5 56.5h-46q0 -55 32.5 -92t97.5 -38q65 1 97.5 38t32.5 92h-47q0 -31 -23 -56.5z" />
    <glyph glyph-name="Aogonek" unicode="&#x104;" horiz-adv-x="592" 
d="M650 -172q-13 -13 -34.5 -21.5t-45.5 -8.5q-45 0 -74.5 27t-29.5 69q0 24 15 52t39 52l-79 206h-297l-75 -204h-59l247 680h65l260 -675q-26 -18 -43.5 -48.5t-17.5 -58.5t15 -40.5t37 -12.5q29 0 55 21zM161 254h262l-133 346z" />
    <glyph glyph-name="aogonek" unicode="&#x105;" horiz-adv-x="483" 
d="M490 -177q-13 -13 -34.5 -21.5t-45.5 -8.5q-45 0 -74.5 27t-29.5 69q0 26 18.5 58t46.5 55l-8 50q-25 -26 -66.5 -45.5t-81.5 -19.5q-79 0 -121 41.5t-42 107.5q0 68 48 107t125 38h135v49q0 53 -29.5 84.5t-86.5 31.5q-47 0 -73.5 -8t-65.5 -26l-19 44q26 18 74 30
t81 12q83 0 132 -43t49 -115v-340q-26 -18 -43.5 -48.5t-17.5 -58.5t15 -40.5t37 -12.5q29 0 55 21zM360 240h-137q-52 0 -81 -30t-29 -74q0 -39 25 -68.5t75 -29.5q44 0 81.5 22.5t65.5 56.5v123z" />
    <glyph glyph-name="Cacute" unicode="&#x106;" horiz-adv-x="554" 
d="M452 684q-52 10 -89 10q-96 0 -168 -47.5t-111 -129t-39 -181.5q0 -95 35.5 -175t106 -127.5t170.5 -47.5q43 0 93.5 11t78.5 26l-24 48q-32 -14 -66.5 -22t-83.5 -8q-75 0 -130.5 39.5t-84.5 107t-29 149.5q0 86 33.5 155t91 108.5t128.5 39.5q49 0 78.5 -7t66.5 -22
l20 46q-25 17 -77 27zM366 739l85 153h-71l-54 -140z" />
    <glyph glyph-name="cacute" unicode="&#x107;" horiz-adv-x="451" 
d="M332.5 46.5q-24.5 -7.5 -71.5 -7.5q-79 0 -121 57t-42 150q1 88 45.5 144t122.5 56q45 0 71.5 -8t62.5 -26l20 44q-28 18 -74 30t-77 12q-70 0 -123 -32.5t-82 -90.5t-29 -130q0 -76 27 -134.5t78.5 -91t121.5 -32.5q33 0 79 11.5t74 29.5l-20 45q-38 -19 -62.5 -26.5z
M259 589l85 153h-71l-54 -140z" />
    <glyph glyph-name="Ccaron" unicode="&#x10c;" horiz-adv-x="554" 
d="M452 684q-52 10 -89 10q-96 0 -168 -47.5t-111 -129t-39 -181.5q0 -95 35.5 -175t106 -127.5t170.5 -47.5q43 0 93.5 11t78.5 26l-24 48q-32 -14 -66.5 -22t-83.5 -8q-75 0 -130.5 39.5t-84.5 107t-29 149.5q0 86 33.5 155t91 108.5t128.5 39.5q49 0 78.5 -7t66.5 -22
l20 46q-25 17 -77 27zM363 783l-74 109l-58 -10l102 -143h60l100 143l-55 10z" />
    <glyph glyph-name="ccaron" unicode="&#x10d;" horiz-adv-x="451" 
d="M332.5 46.5q-24.5 -7.5 -71.5 -7.5q-79 0 -121 57t-42 150q1 88 45.5 144t122.5 56q45 0 71.5 -8t62.5 -26l20 44q-28 18 -74 30t-77 12q-70 0 -123 -32.5t-82 -90.5t-29 -130q0 -76 27 -134.5t78.5 -91t121.5 -32.5q33 0 79 11.5t74 29.5l-20 45q-38 -19 -62.5 -26.5z
M268 633l-74 109l-58 -10l102 -143h60l100 143l-55 10z" />
    <glyph glyph-name="Dcaron" unicode="&#x10e;" horiz-adv-x="664" 
d="M482 45.5q68 45.5 102.5 123.5t34.5 175q0 150 -72 243t-220 93h-232v-680h223q96 0 164 45.5zM500.5 548.5q58.5 -78.5 58.5 -205.5q0 -87 -30 -153t-84 -102t-125 -36h-163v575h173q112 0 170.5 -78.5zM318 783l-74 109l-58 -10l102 -143h60l100 143l-55 10z" />
    <glyph glyph-name="dcaron" unicode="&#x10f;" horiz-adv-x="647" 
d="M378 696l63 9v-705h-41l-11 38q-29 -24 -63 -37.5t-70 -13.5q-105 0 -163 70t-58 186q1 73 27.5 131t77 91t120.5 33q58 0 118 -44v242zM603 686.5q14 -15.5 14 -39.5q0 -44 -27 -87t-65 -62l-18 29q26 17 40 35.5t16 43.5q-18 2 -30 16t-12 32q0 19 14 33.5t35 14.5
q19 0 33 -15.5zM378 91v307q-25 23 -53.5 35.5t-67.5 12.5q-77 0 -117.5 -56.5t-41.5 -145.5q0 -94 39 -149.5t118 -55.5q71 0 123 52z" />
    <glyph glyph-name="Dcroat" unicode="&#x110;" horiz-adv-x="664" 
d="M547 587q72 -93 72 -243q0 -97 -34.5 -175t-102.5 -123.5t-164 -45.5h-223v309h-66l-8 50h74v321h232q148 0 220 -93zM445 88q54 36 84 102t30 153q0 127 -58.5 205.5t-170.5 78.5h-173v-268h112l8 -50h-120v-257h163q71 0 125 36z" />
    <glyph glyph-name="dcroat" unicode="&#x111;" 
d="M522 566h-81v-566h-41l-11 38q-29 -24 -63 -37.5t-70 -13.5q-105 0 -163 70t-58 186q1 73 27.5 131t77 91t120.5 33q58 0 118 -44v112h-104l-7 45h111v85l63 9v-94h74zM378 91v307q-25 23 -53.5 35.5t-67.5 12.5q-77 0 -117.5 -56.5t-41.5 -145.5q0 -94 39 -149.5
t118 -55.5q71 0 123 52z" />
    <glyph glyph-name="Emacron" unicode="&#x112;" horiz-adv-x="503" 
d="M483 0l-6 50h-320v276h245l-5 45h-240v264h303l-5 45h-360v-680h388zM157 790h241l-6 49h-235v-49z" />
    <glyph glyph-name="emacron" unicode="&#x113;" horiz-adv-x="493" 
d="M408 427.5q-50 70.5 -153 70.5q-104 0 -161.5 -70t-58.5 -183q0 -118 62 -188t184 -70q52 0 89.5 11.5t80.5 34.5l-21 46q-40 -21 -76 -31.5t-76 -10.5q-93 0 -136 54.5t-44 147.5h360q0 118 -50 188.5zM145 401.5q38 44.5 107 44.5q127 0 143 -164h-295q7 75 45 119.5z
M125 640h241l-6 49h-235v-49z" />
    <glyph glyph-name="Edotaccent" unicode="&#x116;" horiz-adv-x="503" 
d="M483 0l-6 50h-320v276h245l-5 45h-240v264h303l-5 45h-360v-680h388zM310 782q14 14 14 34q0 19 -14 33.5t-33 14.5q-20 0 -34 -14.5t-14 -33.5q0 -20 14 -34t34 -14q19 0 33 14z" />
    <glyph glyph-name="edotaccent" unicode="&#x117;" horiz-adv-x="493" 
d="M408 427.5q-50 70.5 -153 70.5q-104 0 -161.5 -70t-58.5 -183q0 -118 62 -188t184 -70q52 0 89.5 11.5t80.5 34.5l-21 46q-40 -21 -76 -31.5t-76 -10.5q-93 0 -136 54.5t-44 147.5h360q0 118 -50 188.5zM145 401.5q38 44.5 107 44.5q127 0 143 -164h-295q7 75 45 119.5z
M287 632q14 14 14 34q0 19 -14 33.5t-33 14.5q-20 0 -34 -14.5t-14 -33.5q0 -20 14 -34t34 -14q19 0 33 14z" />
    <glyph glyph-name="Eogonek" unicode="&#x118;" horiz-adv-x="503" 
d="M488 -177q-13 -13 -34.5 -21.5t-45.5 -8.5q-45 0 -74.5 27t-29.5 69q0 25 17.5 56.5t44.5 54.5h-271v680h360l5 -45h-303v-264h240l5 -45h-245v-276h320l6 -50h-63q-26 -18 -43.5 -48.5t-17.5 -58.5t15 -40.5t37 -12.5q29 0 55 21z" />
    <glyph glyph-name="eogonek" unicode="&#x119;" horiz-adv-x="493" 
d="M318.5 -51.5q-15.5 -28.5 -15.5 -55.5q0 -28 15 -40.5t37 -12.5q29 0 55 21l22 -38q-13 -13 -34.5 -21.5t-45.5 -8.5q-45 0 -74.5 27t-29.5 69q0 22 13.5 48.5t35.5 49.5h-16q-122 0 -184 70t-62 188q1 113 58.5 183t161.5 70q103 0 153 -70.5t50 -188.5h-360
q1 -93 44 -147.5t136 -54.5q40 0 76 10.5t76 31.5l21 -46q-54 -28 -93 -38q-24 -18 -39.5 -46.5zM145 401.5q-38 -44.5 -45 -119.5h295q-16 164 -143 164q-69 0 -107 -44.5z" />
    <glyph glyph-name="Ecaron" unicode="&#x11a;" horiz-adv-x="503" 
d="M483 0l-6 50h-320v276h245l-5 45h-240v264h303l-5 45h-360v-680h388zM278 783l-74 109l-58 -10l102 -143h60l100 143l-55 10z" />
    <glyph glyph-name="ecaron" unicode="&#x11b;" horiz-adv-x="493" 
d="M408 427.5q-50 70.5 -153 70.5q-104 0 -161.5 -70t-58.5 -183q0 -118 62 -188t184 -70q52 0 89.5 11.5t80.5 34.5l-21 46q-40 -21 -76 -31.5t-76 -10.5q-93 0 -136 54.5t-44 147.5h360q0 118 -50 188.5zM145 401.5q38 44.5 107 44.5q127 0 143 -164h-295q7 75 45 119.5z
M256 633l-74 109l-58 -10l102 -143h60l100 143l-55 10z" />
    <glyph glyph-name="Gbreve" unicode="&#x11e;" horiz-adv-x="626" 
d="M509 297v-233q-63 -23 -122 -23q-78 0 -140.5 36t-99 103.5t-36.5 156.5q0 93 40.5 161.5t106 104.5t138.5 37q48 0 78 -7t67 -22l19 46q-25 17 -77 27t-89 10q-97 0 -177 -45t-126 -126.5t-46 -186.5q0 -99 43 -179t121 -125.5t179 -45.5q47 0 100 13t83 33v310h-209
l-6 -45h153zM431 824.5q-23 -25.5 -60 -25.5q-39 0 -61.5 25.5t-22.5 56.5h-46q0 -55 32.5 -92t97.5 -38q65 1 97.5 38t32.5 92h-47q0 -31 -23 -56.5z" />
    <glyph glyph-name="gbreve" unicode="&#x11f;" horiz-adv-x="512" 
d="M441 485v-547q0 -48 -25 -86t-72 -60t-109 -22q-33 0 -84.5 12t-80.5 29l19 46q32 -15 65 -24.5t79 -10.5q64 0 104.5 30t40.5 87v90q-57 -42 -122 -42q-105 0 -163 70t-58 186q1 73 27.5 131t77 91t120.5 33q61 0 126 -50l14 37h41zM378 91v307q-25 23 -53.5 35.5
t-67.5 12.5q-77 0 -117.5 -56.5t-41.5 -145.5q0 -94 39 -149.5t118 -55.5q71 0 123 52zM311 674.5q-23 -25.5 -60 -25.5q-39 0 -61.5 25.5t-22.5 56.5h-46q0 -55 32.5 -92t97.5 -38q65 1 97.5 38t32.5 92h-47q0 -31 -23 -56.5z" />
    <glyph glyph-name="Gcommaaccent" unicode="&#x122;" horiz-adv-x="626" 
d="M509 297v-233q-63 -23 -122 -23q-78 0 -140.5 36t-99 103.5t-36.5 156.5q0 93 40.5 161.5t106 104.5t138.5 37q48 0 78 -7t67 -22l19 46q-25 17 -77 27t-89 10q-97 0 -177 -45t-126 -126.5t-46 -186.5q0 -99 43 -179t121 -125.5t179 -45.5q47 0 100 13t83 33v310h-209
l-6 -45h153zM355.5 -35q-14.5 -14 -14.5 -34q0 -17 12 -31t31 -16q-1 -24 -15.5 -42.5t-41.5 -36.5l18 -30q39 19 65.5 62t26.5 88q0 24 -13.5 39t-34.5 15q-19 0 -33.5 -14z" />
    <glyph glyph-name="gcommaaccent" unicode="&#x123;" horiz-adv-x="512" 
d="M226 581q-13 15 -13 41q0 44 27 87t64 62l19 -30q-26 -17 -41 -35.5t-17 -43.5q19 -2 31 -16t12 -31q0 -21 -13.5 -35t-34.5 -14t-34 15zM441 485v-547q0 -48 -25 -86t-72 -60t-109 -22q-33 0 -84.5 12t-80.5 29l19 46q32 -15 65 -24.5t79 -10.5q64 0 104.5 30t40.5 87
v90q-57 -42 -122 -42q-105 0 -163 70t-58 186q1 73 27.5 131t77 91t120.5 33q61 0 126 -50l14 37h41zM378 91v307q-25 23 -53.5 35.5t-67.5 12.5q-77 0 -117.5 -56.5t-41.5 -145.5q0 -94 39 -149.5t118 -55.5q71 0 123 52z" />
    <glyph glyph-name="Imacron" unicode="&#x12a;" horiz-adv-x="252" 
d="M157 0v680h-62v-680h62zM6 790h241l-6 49h-235v-49z" />
    <glyph glyph-name="imacron" unicode="&#x12b;" horiz-adv-x="193" 
d="M128 0v485h-63v-485h63zM-31 640h241l-6 49h-235v-49z" />
    <glyph glyph-name="Iogonek" unicode="&#x12e;" horiz-adv-x="252" 
d="M223 -177q-13 -13 -34.5 -21.5t-45.5 -8.5q-45 0 -74.5 27t-29.5 69q0 27 15 58t41 53v680h62v-680q-27 -18 -45 -48.5t-18 -58.5t15 -40.5t37 -12.5q29 0 55 21z" />
    <glyph glyph-name="iogonek" unicode="&#x12f;" horiz-adv-x="193" 
d="M64 632q-14 14 -14 34q0 19 14 33.5t34 14.5q19 0 33 -14.5t14 -33.5q0 -20 -14 -34t-33 -14q-20 0 -34 14zM194 -177q-13 -13 -34.5 -21.5t-45.5 -8.5q-45 0 -74.5 27t-29.5 69q0 27 14.5 58t40.5 53v485h63v-485q-27 -18 -45 -48.5t-18 -58.5t15 -40.5t37 -12.5
q29 0 55 21z" />
    <glyph glyph-name="Idotaccent" unicode="&#x130;" horiz-adv-x="252" 
d="M157 0v680h-62v-680h62zM159 782q14 14 14 34q0 19 -14 33.5t-33 14.5q-20 0 -34 -14.5t-14 -33.5q0 -20 14 -34t34 -14q19 0 33 14z" />
    <glyph glyph-name="dotlessi" unicode="&#x131;" horiz-adv-x="193" 
d="M128 0v485h-63v-485h63z" />
    <glyph glyph-name="Kcommaaccent" unicode="&#x136;" horiz-adv-x="593" 
d="M509 0l-271 341l-81 -84v-257h-62v680h62v-345l346 360l40 -38l-264 -274l304 -383h-74zM304.5 -35q-14.5 -14 -14.5 -34q0 -17 12 -31t31 -16q-1 -24 -15.5 -42.5t-41.5 -36.5l18 -30q39 19 65.5 62t26.5 88q0 24 -13.5 39t-34.5 15q-19 0 -33.5 -14z" />
    <glyph glyph-name="kcommaaccent" unicode="&#x137;" horiz-adv-x="457" 
d="M137 0v190l72 74l173 -264h75l-208 305l152 156l-39 37l-225 -232v440l-62 -10v-696h62zM221.5 -35q-14.5 -14 -14.5 -34q0 -17 12 -31t31 -16q-1 -24 -15.5 -42.5t-41.5 -36.5l18 -30q39 19 65.5 62t26.5 88q0 24 -13.5 39t-34.5 15q-19 0 -33.5 -14z" />
    <glyph glyph-name="Lacute" unicode="&#x139;" horiz-adv-x="497" 
d="M482 50h-325v630h-62v-680h392zM160 739l85 153h-71l-54 -140z" />
    <glyph glyph-name="lacute" unicode="&#x13a;" horiz-adv-x="212" 
d="M123 739l85 153h-71l-54 -140zM137 0v685l-62 -12v-673h62z" />
    <glyph glyph-name="Lcommaaccent" unicode="&#x13b;" horiz-adv-x="497" 
d="M482 50h-325v630h-62v-680h392zM313.5 -35q-14.5 -14 -14.5 -34q0 -17 12 -31t31 -16q-1 -24 -15.5 -42.5t-41.5 -36.5l18 -30q39 19 65.5 62t26.5 88q0 24 -13.5 39t-34.5 15q-19 0 -33.5 -14z" />
    <glyph glyph-name="lcommaaccent" unicode="&#x13c;" horiz-adv-x="212" 
d="M137 0v706l-62 -10v-696h62zM72.5 -35q-14.5 -14 -14.5 -34q0 -17 12 -31t31 -16q-1 -24 -15.5 -42.5t-41.5 -36.5l18 -30q39 19 65.5 62t26.5 88q0 24 -13.5 39t-34.5 15q-19 0 -33.5 -14z" />
    <glyph glyph-name="Lcaron" unicode="&#x13d;" horiz-adv-x="497" 
d="M482 50h-325v630h-62v-680h392zM341 687.5q-14 -14.5 -14 -33.5q0 -18 12 -32t30 -16q-2 -25 -16 -43.5t-40 -35.5l18 -29q38 19 65 62t27 87q0 24 -14 39.5t-33 15.5q-21 0 -35 -14.5z" />
    <glyph glyph-name="lcaron" unicode="&#x13e;" horiz-adv-x="343" 
d="M137 0v706l-62 -10v-696h62zM231 687.5q-14 -14.5 -14 -33.5q0 -18 12 -32t30 -16q-2 -25 -16 -43.5t-40 -35.5l18 -29q38 19 65 62t27 87q0 24 -14 39.5t-33 15.5q-21 0 -35 -14.5z" />
    <glyph glyph-name="Lslash" unicode="&#x141;" horiz-adv-x="487" 
d="M85 0v251l-40 -35l-30 39l70 61v364h62v-310l117 102l30 -37l-147 -129v-256h325l5 -50h-392z" />
    <glyph glyph-name="lslash" unicode="&#x142;" horiz-adv-x="277" 
d="M248 494l-78 -70v282l-62 -10v-326l-108 -94l30 -39l78 69v-306h62v360l107 95z" />
    <glyph glyph-name="Nacute" unicode="&#x143;" horiz-adv-x="685" 
d="M157 0v560l14 -29l378 -531h41v680h-63v-551l-34 59l-357 492h-41v-680h62zM344 739l85 153h-71l-54 -140z" />
    <glyph glyph-name="nacute" unicode="&#x144;" 
d="M127 346q33 42 83.5 70.5t88.5 28.5q94 0 94 -120v-324h62v336q0 73 -37 117t-112 44q-45 0 -97 -25.5t-83 -61.5l-10 74h-51v-485h62v346zM262 589l85 153h-71l-54 -140z" />
    <glyph glyph-name="Ncommaaccent" unicode="&#x145;" horiz-adv-x="685" 
d="M157 0v560l14 -29l378 -531h41v680h-63v-551l-34 59l-357 492h-41v-680h62zM320.5 -35q-14.5 -14 -14.5 -34q0 -17 12 -31t31 -16q-1 -24 -15.5 -42.5t-41.5 -36.5l18 -30q39 19 65.5 62t26.5 88q0 24 -13.5 39t-34.5 15q-19 0 -33.5 -14z" />
    <glyph glyph-name="ncommaaccent" unicode="&#x146;" 
d="M127 346q33 42 83.5 70.5t88.5 28.5q94 0 94 -120v-324h62v336q0 73 -37 117t-112 44q-45 0 -97 -25.5t-83 -61.5l-10 74h-51v-485h62v346zM232.5 -35q-14.5 -14 -14.5 -34q0 -17 12 -31t31 -16q-1 -24 -15.5 -42.5t-41.5 -36.5l18 -30q39 19 65.5 62t26.5 88
q0 24 -13.5 39t-34.5 15q-19 0 -33.5 -14z" />
    <glyph glyph-name="Ncaron" unicode="&#x147;" horiz-adv-x="685" 
d="M157 0v560l14 -29l378 -531h41v680h-63v-551l-34 59l-357 492h-41v-680h62zM341 783l-74 109l-58 -10l102 -143h60l100 143l-55 10z" />
    <glyph glyph-name="ncaron" unicode="&#x148;" 
d="M127 346q33 42 83.5 70.5t88.5 28.5q94 0 94 -120v-324h62v336q0 73 -37 117t-112 44q-45 0 -97 -25.5t-83 -61.5l-10 74h-51v-485h62v346zM271 633l-74 109l-58 -10l102 -143h60l100 143l-55 10z" />
    <glyph glyph-name="Omacron" unicode="&#x14c;" horiz-adv-x="721" 
d="M199.5 647q-72.5 -47 -113.5 -128t-41 -182t40 -181t111.5 -125t160.5 -45q91 1 164 48t114 128.5t41 182.5t-40 181t-111.5 125t-161.5 45q-91 -2 -163.5 -49zM143.5 493q32.5 69 90 108t130.5 39q70 0 125.5 -38t87 -105.5t31.5 -152.5q0 -87 -32.5 -156t-90 -108
t-130.5 -39q-70 0 -125.5 38.5t-87 106t-31.5 152.5q0 86 32.5 155zM242 790h241l-6 49h-235v-49z" />
    <glyph glyph-name="omacron" unicode="&#x14d;" horiz-adv-x="527" 
d="M463 109.5q-29 -57.5 -83 -90t-126 -32.5q-68 0 -117.5 33t-75.5 91.5t-26 133.5q1 72 29 129.5t80.5 90.5t122.5 33q107 0 166 -68.5t59 -189.5q0 -73 -29 -130.5zM383.5 95q44.5 56 45.5 144q0 93 -42 150t-121 57q-78 0 -122.5 -56t-45.5 -144q0 -93 42 -150t121 -57
q78 0 122.5 56zM136 640h241l-6 49h-235v-49z" />
    <glyph glyph-name="Ohungarumlaut" unicode="&#x150;" horiz-adv-x="721" 
d="M199.5 647q-72.5 -47 -113.5 -128t-41 -182t40 -181t111.5 -125t160.5 -45q91 1 164 48t114 128.5t41 182.5t-40 181t-111.5 125t-161.5 45q-91 -2 -163.5 -49zM143.5 493q32.5 69 90 108t130.5 39q70 0 125.5 -38t87 -105.5t31.5 -152.5q0 -87 -32.5 -156t-90 -108
t-130.5 -39q-70 0 -125.5 38.5t-87 106t-31.5 152.5q0 86 32.5 155zM298 739l85 153h-71l-54 -140zM438 739l85 153h-71l-54 -140z" />
    <glyph glyph-name="ohungarumlaut" unicode="&#x151;" horiz-adv-x="527" 
d="M463 109.5q-29 -57.5 -83 -90t-126 -32.5q-68 0 -117.5 33t-75.5 91.5t-26 133.5q1 72 29 129.5t80.5 90.5t122.5 33q107 0 166 -68.5t59 -189.5q0 -73 -29 -130.5zM383.5 95q44.5 56 45.5 144q0 93 -42 150t-121 57q-78 0 -122.5 -56t-45.5 -144q0 -93 42 -150t121 -57
q78 0 122.5 56zM199 589l85 153h-71l-54 -140zM339 589l85 153h-71l-54 -140z" />
    <glyph glyph-name="OE" unicode="&#x152;" horiz-adv-x="911" 
d="M503 0v12q-31 -11 -71.5 -18.5t-74.5 -7.5q-100 0 -170.5 47.5t-106 127.5t-35.5 175q0 100 39 181.5t111 129t168 47.5q28 0 69 -6.5t71 -17.5v10h360l5 -45h-303v-264h240l5 -45h-245v-276h320l6 -50h-388zM438 48.5q34 7.5 65 21.5v543q-33 14 -62.5 20.5t-76.5 6.5
q-71 0 -128.5 -39.5t-91 -108.5t-33.5 -155q0 -82 29 -149.5t84.5 -107t130.5 -39.5q49 0 83 7.5z" />
    <glyph glyph-name="oe" unicode="&#x153;" horiz-adv-x="776" 
d="M637 47.5q36 10.5 76 31.5l21 -46q-43 -23 -80.5 -34.5t-89.5 -11.5q-89 0 -150 40q-29 -17 -74 -28.5t-78 -11.5q-70 0 -121.5 32.5t-78.5 91t-27 134.5q0 72 29 130t82 90.5t123 32.5q29 0 71.5 -10.5t71.5 -26.5q51 37 126 37q103 0 153 -70.5t50 -188.5h-360
q1 -93 44 -147.5t136 -54.5q40 0 76 10.5zM325 45q25 6 50 18q-57 66 -57 182q0 54 14 100t42 80q-50 21 -108 21q-78 0 -122.5 -56t-45.5 -144q0 -93 42 -150t121 -57q39 0 64 6zM428 401.5q-38 -44.5 -45 -119.5h295q-16 164 -143 164q-69 0 -107 -44.5z" />
    <glyph glyph-name="Racute" unicode="&#x154;" horiz-adv-x="580" 
d="M95 0h62v286h103q37 0 79 5l161 -291h70l-176 308q121 48 122 178q0 102 -65.5 148t-179.5 46h-176v-680zM406.5 596q46.5 -31 46.5 -112q-1 -79 -53.5 -113t-137.5 -34h-105v290h116q87 0 133.5 -31zM274 739l85 153h-71l-54 -140z" />
    <glyph glyph-name="racute" unicode="&#x155;" horiz-adv-x="310" 
d="M127 346q31 34 80.5 62t92.5 28l-17 49q-34 0 -79.5 -24.5t-79.5 -52.5l-18 77h-41v-485h62v346zM148 589l85 153h-71l-54 -140z" />
    <glyph glyph-name="Rcommaaccent" unicode="&#x156;" horiz-adv-x="580" 
d="M95 0h62v286h103q37 0 79 5l161 -291h70l-176 308q121 48 122 178q0 102 -65.5 148t-179.5 46h-176v-680zM406.5 596q46.5 -31 46.5 -112q-1 -79 -53.5 -113t-137.5 -34h-105v290h116q87 0 133.5 -31zM294.5 -35q-14.5 -14 -14.5 -34q0 -17 12 -31t31 -16
q-1 -24 -15.5 -42.5t-41.5 -36.5l18 -30q39 19 65.5 62t26.5 88q0 24 -13.5 39t-34.5 15q-19 0 -33.5 -14z" />
    <glyph glyph-name="rcommaaccent" unicode="&#x157;" horiz-adv-x="310" 
d="M127 346q31 34 80.5 62t92.5 28l-17 49q-34 0 -79.5 -24.5t-79.5 -52.5l-18 77h-41v-485h62v346zM64.5 -35q-14.5 -14 -14.5 -34q0 -17 12 -31t31 -16q-1 -24 -15.5 -42.5t-41.5 -36.5l18 -30q39 19 65.5 62t26.5 88q0 24 -13.5 39t-34.5 15q-19 0 -33.5 -14z" />
    <glyph glyph-name="Rcaron" unicode="&#x158;" horiz-adv-x="580" 
d="M95 0h62v286h103q37 0 79 5l161 -291h70l-176 308q121 48 122 178q0 102 -65.5 148t-179.5 46h-176v-680zM406.5 596q46.5 -31 46.5 -112q-1 -79 -53.5 -113t-137.5 -34h-105v290h116q87 0 133.5 -31zM271 783l-74 109l-58 -10l102 -143h60l100 143l-55 10z" />
    <glyph glyph-name="rcaron" unicode="&#x159;" horiz-adv-x="310" 
d="M127 346q31 34 80.5 62t92.5 28l-17 49q-34 0 -79.5 -24.5t-79.5 -52.5l-18 77h-41v-485h62v346zM157 633l-74 109l-58 -10l102 -143h60l100 143l-55 10z" />
    <glyph glyph-name="Sacute" unicode="&#x15a;" horiz-adv-x="508" 
d="M142 -1q53 -12 96 -12q72 0 125.5 22t81.5 61.5t28 89.5q0 48 -20 82t-58 60.5t-105 57.5q-72 34 -109 56t-57.5 49t-20.5 65q0 52 42 83t114 31q46 0 77 -9t67 -25l22 47q-34 17 -77.5 28t-90.5 11q-63 0 -111 -22t-74.5 -60t-26.5 -84q0 -125 184 -203
q67 -28 105.5 -51t59 -50.5t20.5 -65.5q0 -54 -46.5 -88t-130.5 -34q-46 0 -90 11.5t-76 27.5l-15 -48q33 -18 86 -30zM260 739l85 153h-71l-54 -140z" />
    <glyph glyph-name="sacute" unicode="&#x15b;" horiz-adv-x="419" 
d="M112.5 -2.5q45.5 -10.5 79.5 -10.5q92 0 142 36.5t50 100.5q0 93 -162 150q-60 20 -92.5 41.5t-33.5 52.5q0 35 33 57.5t84 22.5q39 0 67 -9t61 -25l20 44q-23 17 -68 28.5t-78 11.5q-82 0 -130 -35.5t-48 -98.5q0 -52 43.5 -85t113.5 -56q132 -46 132 -104
q0 -40 -35 -61t-97 -21q-63 0 -133 34l-20 -46q26 -17 71.5 -27.5zM208 589l85 153h-71l-54 -140z" />
    <glyph glyph-name="Scedilla" unicode="&#x15e;" horiz-adv-x="508" 
d="M415.5 39.5q-57.5 -47.5 -157.5 -52.5l-16 -41q33 -4 56.5 -27.5t23.5 -50.5q0 -43 -32 -66t-80 -23q-18 0 -39.5 5.5t-34.5 13.5l15 42q34 -14 59 -14q23 0 40.5 11t17.5 29q0 20 -26 34.5t-64 18.5l27 70q-40 4 -81.5 14.5t-67.5 25.5l15 48q32 -16 76 -27.5t90 -11.5
q84 0 130.5 34t46.5 88q0 38 -20.5 65.5t-59 50.5t-105.5 51q-184 78 -184 203q0 46 26.5 84t74.5 60t111 22q47 0 90.5 -11t77.5 -28l-22 -47q-36 16 -67 25t-77 9q-72 0 -114 -31t-42 -83q0 -38 20.5 -65t57.5 -49t109 -56q67 -31 105 -57.5t58 -60.5t20 -82
q0 -73 -57.5 -120.5z" />
    <glyph glyph-name="scedilla" unicode="&#x15f;" horiz-adv-x="419" 
d="M340.5 28q-43.5 -36 -123.5 -40l-16 -42q33 -4 56.5 -27.5t23.5 -50.5q0 -43 -32 -66t-80 -23q-18 0 -39.5 5.5t-34.5 13.5l15 42q34 -14 59 -14q23 0 40.5 11t17.5 29q0 20 -26 34.5t-64 18.5l27 70q-34 3 -68 12.5t-55 23.5l20 46q70 -34 133 -34q62 0 97 21t35 61
q0 58 -132 104q-70 23 -113.5 56t-43.5 85q0 63 48 98.5t130 35.5q33 0 78 -11.5t68 -28.5l-20 -44q-33 16 -61 25t-67 9q-51 0 -84 -22.5t-33 -57.5q1 -31 33.5 -52.5t92.5 -41.5q162 -57 162 -150q0 -60 -43.5 -96z" />
    <glyph glyph-name="Scaron" unicode="&#x160;" horiz-adv-x="508" 
d="M142 -1q53 -12 96 -12q72 0 125.5 22t81.5 61.5t28 89.5q0 48 -20 82t-58 60.5t-105 57.5q-72 34 -109 56t-57.5 49t-20.5 65q0 52 42 83t114 31q46 0 77 -9t67 -25l22 47q-34 17 -77.5 28t-90.5 11q-63 0 -111 -22t-74.5 -60t-26.5 -84q0 -125 184 -203
q67 -28 105.5 -51t59 -50.5t20.5 -65.5q0 -54 -46.5 -88t-130.5 -34q-46 0 -90 11.5t-76 27.5l-15 -48q33 -18 86 -30zM257 783l-74 109l-58 -10l102 -143h60l100 143l-55 10z" />
    <glyph glyph-name="scaron" unicode="&#x161;" horiz-adv-x="419" 
d="M112.5 -2.5q45.5 -10.5 79.5 -10.5q92 0 142 36.5t50 100.5q0 93 -162 150q-60 20 -92.5 41.5t-33.5 52.5q0 35 33 57.5t84 22.5q39 0 67 -9t61 -25l20 44q-23 17 -68 28.5t-78 11.5q-82 0 -130 -35.5t-48 -98.5q0 -52 43.5 -85t113.5 -56q132 -46 132 -104
q0 -40 -35 -61t-97 -21q-63 0 -133 34l-20 -46q26 -17 71.5 -27.5zM217 633l-74 109l-58 -10l102 -143h60l100 143l-55 10z" />
    <glyph glyph-name="Tcedilla" unicode="&#x162;" horiz-adv-x="553" 
d="M339.5 -81.5q23.5 -23.5 23.5 -50.5q0 -43 -32 -66t-80 -23q-18 0 -39.5 5.5t-34.5 13.5l15 42q34 -14 59 -14q23 0 40.5 11t17.5 29q0 20 -26 34.5t-64 18.5l32 81h-6v631h-235v49h528l5 -49h-235v-618h1l-1 -3v-10h-4l-21 -54q33 -4 56.5 -27.5z" />
    <glyph glyph-name="tcedilla" unicode="&#x163;" horiz-adv-x="298" 
d="M236.5 -81.5q23.5 -23.5 23.5 -50.5q0 -43 -32 -66t-80 -23q-18 0 -39.5 5.5t-34.5 13.5l15 42q34 -14 59 -14q23 0 40.5 11t17.5 29q0 20 -26 34.5t-64 18.5l32 81q-28 15 -43.5 44t-15.5 72v312h-71l-1 47h72v126l63 22v-148h88l21 -47h-109v-305q0 -38 16.5 -60
t51.5 -22q20 0 41 9l12 -51q-3 -1 -20 -6.5t-46 -5.5h-11l-16 -41q33 -4 56.5 -27.5z" />
    <glyph glyph-name="Tcaron" unicode="&#x164;" horiz-adv-x="553" 
d="M538 680h-528v-49h235v-631h63v631h235zM278 783l-74 109l-58 -10l102 -143h60l100 143l-55 10z" />
    <glyph glyph-name="tcaron" unicode="&#x165;" horiz-adv-x="406" 
d="M294 687.5q-14 -14.5 -14 -33.5q0 -18 12 -32t30 -16q-2 -25 -16 -43.5t-40 -35.5l18 -29q38 19 65 62t27 87q0 24 -14 39.5t-33 15.5q-21 0 -35 -14.5zM152 475v148l-63 -22v-126h-72l1 -47h71v-312q0 -62 32 -95.5t86 -33.5q29 0 46 5.5t20 6.5l-12 51q-21 -9 -41 -9
q-35 0 -51.5 22t-16.5 60v305h109l-21 47h-88z" />
    <glyph glyph-name="Umacron" unicode="&#x16a;" horiz-adv-x="673" 
d="M85 680v-441q0 -72 31 -129t88 -89.5t132 -32.5q76 0 133 32.5t88 89.5t31 129v441h-63v-432q0 -58 -22.5 -105.5t-65.5 -74.5t-101 -27q-56 0 -99 27.5t-66.5 74.5t-23.5 105v432h-62zM215 790h241l-6 49h-235v-49z" />
    <glyph glyph-name="umacron" unicode="&#x16b;" 
d="M389 140q-33 -42 -83.5 -70.5t-88.5 -28.5q-94 0 -94 120v324h-62v-336q0 -73 37 -117t112 -44q45 0 97 25.5t83 61.5l10 -75h51v486h-62v-346zM122 640h241l-6 49h-235v-49z" />
    <glyph glyph-name="Uring" unicode="&#x16e;" horiz-adv-x="673" 
d="M85 680v-441q0 -72 31 -129t88 -89.5t132 -32.5q76 0 133 32.5t88 89.5t31 129v441h-63v-432q0 -58 -22.5 -105.5t-65.5 -74.5t-101 -27q-56 0 -99 27.5t-66.5 74.5t-23.5 105v432h-62zM274.5 885q-26.5 -24 -26.5 -60q0 -35 26 -58t63 -23t62.5 23t25.5 58q0 36 -26 60
t-62 24t-62.5 -24zM306 795q-13 12 -13 30q0 19 13 31.5t31 12.5t31 -12.5t13 -31.5q0 -18 -13 -30t-31 -12t-31 12z" />
    <glyph glyph-name="uring" unicode="&#x16f;" 
d="M389 140q-33 -42 -83.5 -70.5t-88.5 -28.5q-94 0 -94 120v324h-62v-336q0 -73 37 -117t112 -44q45 0 97 25.5t83 61.5l10 -75h51v486h-62v-346zM189.5 735q-26.5 -24 -26.5 -60q0 -35 26 -58t63 -23t62.5 23t25.5 58q0 36 -26 60t-62 24t-62.5 -24zM221 645
q-13 12 -13 30q0 19 13 31.5t31 12.5t31 -12.5t13 -31.5q0 -18 -13 -30t-31 -12t-31 12z" />
    <glyph glyph-name="Uhungarumlaut" unicode="&#x170;" horiz-adv-x="673" 
d="M85 680v-441q0 -72 31 -129t88 -89.5t132 -32.5q76 0 133 32.5t88 89.5t31 129v441h-63v-432q0 -58 -22.5 -105.5t-65.5 -74.5t-101 -27q-56 0 -99 27.5t-66.5 74.5t-23.5 105v432h-62zM271 739l85 153h-71l-54 -140zM411 739l85 153h-71l-54 -140z" />
    <glyph glyph-name="uhungarumlaut" unicode="&#x171;" 
d="M389 140q-33 -42 -83.5 -70.5t-88.5 -28.5q-94 0 -94 120v324h-62v-336q0 -73 37 -117t112 -44q45 0 97 25.5t83 61.5l10 -75h51v486h-62v-346zM185 589l85 153h-71l-54 -140zM325 589l85 153h-71l-54 -140z" />
    <glyph glyph-name="Uogonek" unicode="&#x172;" horiz-adv-x="673" 
d="M588 680v-441q0 -70 -29.5 -126t-83.5 -89t-127 -36q-20 -19 -33 -45t-13 -50q0 -28 15 -40.5t37 -12.5q29 0 55 21l22 -38q-13 -13 -34.5 -21.5t-45.5 -8.5q-45 0 -74.5 27t-29.5 69q0 23 14.5 50.5t37.5 50.5q-98 13 -156 81t-58 168v441h62v-432q0 -58 23.5 -105
t66.5 -74.5t99 -27.5q58 0 101 27t65.5 74.5t22.5 105.5v432h63z" />
    <glyph glyph-name="uogonek" unicode="&#x173;" 
d="M519 -177q-13 -13 -34.5 -21.5t-45.5 -8.5q-45 0 -74.5 27t-29.5 69q0 26 18.5 58t46.5 55l-10 73q-31 -36 -83 -61.5t-97 -25.5q-75 0 -112 44t-37 117v336h62v-324q0 -120 94 -120q38 0 88.5 28.5t83.5 70.5v346h62v-486q-26 -18 -43.5 -48.5t-17.5 -58.5t15 -40.5
t37 -12.5q29 0 55 21z" />
    <glyph glyph-name="Ydieresis" unicode="&#x178;" horiz-adv-x="546" 
d="M297 0l1 283l238 397h-67l-203 -344l-201 359l-55 -31l225 -388l-1 -276h63zM214.5 780.5q12.5 12.5 12.5 31.5q0 17 -12.5 29.5t-31.5 12.5q-17 0 -30 -12.5t-13 -29.5q0 -18 13 -31t30 -13q19 0 31.5 12.5zM371 780.5q12 12.5 12 31.5q0 18 -12 30t-31 12
q-18 0 -30.5 -12.5t-12.5 -29.5q0 -19 12.5 -31.5t30.5 -12.5q19 0 31 12.5z" />
    <glyph glyph-name="Zacute" unicode="&#x179;" horiz-adv-x="559" 
d="M514 50h-420l440 581l-5 49h-477l10 -49h405l-442 -581l6 -50h488zM289 739l85 153h-71l-54 -140z" />
    <glyph glyph-name="zacute" unicode="&#x17a;" horiz-adv-x="432" 
d="M406 485h-354l16 -49h262l-307 -405l8 -31h372l-10 48h-295l311 405zM220 589l85 153h-71l-54 -140z" />
    <glyph glyph-name="Zdotaccent" unicode="&#x17b;" horiz-adv-x="559" 
d="M514 50h-420l440 581l-5 49h-477l10 -49h405l-442 -581l6 -50h488zM318 782q14 14 14 34q0 19 -14 33.5t-33 14.5q-20 0 -34 -14.5t-14 -33.5q0 -20 14 -34t34 -14q19 0 33 14z" />
    <glyph glyph-name="zdotaccent" unicode="&#x17c;" horiz-adv-x="432" 
d="M406 485h-354l16 -49h262l-307 -405l8 -31h372l-10 48h-295l311 405zM260 632q14 14 14 34q0 19 -14 33.5t-33 14.5q-20 0 -34 -14.5t-14 -33.5q0 -20 14 -34t34 -14q19 0 33 14z" />
    <glyph glyph-name="Zcaron" unicode="&#x17d;" horiz-adv-x="559" 
d="M514 50h-420l440 581l-5 49h-477l10 -49h405l-442 -581l6 -50h488zM286 783l-74 109l-58 -10l102 -143h60l100 143l-55 10z" />
    <glyph glyph-name="zcaron" unicode="&#x17e;" horiz-adv-x="432" 
d="M406 485h-354l16 -49h262l-307 -405l8 -31h372l-10 48h-295l311 405zM229 633l-74 109l-58 -10l102 -143h60l100 143l-55 10z" />
    <glyph glyph-name="florin" unicode="&#x192;" horiz-adv-x="305" 
d="M49 428h72v-355q0 -82 -70 -82q-9 0 -21.5 3t-18.5 6l-11 -53q36 -12 67 -12q53 0 84.5 38t31.5 101v354h109l-21 47h-88v88q0 82 69 82q9 0 22 -3t19 -6l12 53q-34 13 -66 13q-54 0 -86 -38t-32 -101v-88h-73z" />
    <glyph glyph-name="Scommaaccent" unicode="&#x218;" horiz-adv-x="508" 
d="M142 -1q53 -12 96 -12q72 0 125.5 22t81.5 61.5t28 89.5q0 48 -20 82t-58 60.5t-105 57.5q-72 34 -109 56t-57.5 49t-20.5 65q0 52 42 83t114 31q46 0 77 -9t67 -25l22 47q-34 17 -77.5 28t-90.5 11q-63 0 -111 -22t-74.5 -60t-26.5 -84q0 -125 184 -203
q67 -28 105.5 -51t59 -50.5t20.5 -65.5q0 -54 -46.5 -88t-130.5 -34q-46 0 -90 11.5t-76 27.5l-15 -48q33 -18 86 -30zM205.5 -35q-14.5 -14 -14.5 -34q0 -17 12 -31t31 -16q-1 -24 -15.5 -42.5t-41.5 -36.5l18 -30q39 19 65.5 62t26.5 88q0 24 -13.5 39t-34.5 15
q-19 0 -33.5 -14z" />
    <glyph glyph-name="scommaaccent" unicode="&#x219;" horiz-adv-x="419" 
d="M112.5 -2.5q45.5 -10.5 79.5 -10.5q92 0 142 36.5t50 100.5q0 93 -162 150q-60 20 -92.5 41.5t-33.5 52.5q0 35 33 57.5t84 22.5q39 0 67 -9t61 -25l20 44q-23 17 -68 28.5t-78 11.5q-82 0 -130 -35.5t-48 -98.5q0 -52 43.5 -85t113.5 -56q132 -46 132 -104
q0 -40 -35 -61t-97 -21q-63 0 -133 34l-20 -46q26 -17 71.5 -27.5zM164.5 -35q-14.5 -14 -14.5 -34q0 -17 12 -31t31 -16q-1 -24 -15.5 -42.5t-41.5 -36.5l18 -30q39 19 65.5 62t26.5 88q0 24 -13.5 39t-34.5 15q-19 0 -33.5 -14z" />
    <glyph glyph-name="Tcommaaccent" unicode="&#x21a;" horiz-adv-x="553" 
d="M538 680h-528v-49h235v-631h63v631h235zM246.5 -35q-14.5 -14 -14.5 -34q0 -17 12 -31t31 -16q-1 -24 -15.5 -42.5t-41.5 -36.5l18 -30q39 19 65.5 62t26.5 88q0 24 -13.5 39t-34.5 15q-19 0 -33.5 -14z" />
    <glyph glyph-name="tcommaaccent" unicode="&#x21b;" horiz-adv-x="298" 
d="M152 475v148l-63 -22v-126h-72l1 -47h71v-312q0 -62 32 -95.5t86 -33.5q29 0 46 5.5t20 6.5l-12 51q-21 -9 -41 -9q-35 0 -51.5 22t-16.5 60v305h109l-21 47h-88zM143.5 -35q-14.5 -14 -14.5 -34q0 -17 12 -31t31 -16q-1 -24 -15.5 -42.5t-41.5 -36.5l18 -30
q39 19 65.5 62t26.5 88q0 24 -13.5 39t-34.5 15q-19 0 -33.5 -14z" />
    <glyph glyph-name="circumflex" unicode="&#x2c6;" horiz-adv-x="282" 
d="M140 698l74 -109l58 10l-102 143h-60l-100 -143l55 -10z" />
    <glyph glyph-name="caron" unicode="&#x2c7;" horiz-adv-x="282" 
d="M142 633l-74 109l-58 -10l102 -143h60l100 143l-55 10z" />
    <glyph glyph-name="uni02C9" unicode="&#x2c9;" horiz-adv-x="261" 
d="M10 640h241l-5 49h-236v-49z" />
    <glyph glyph-name="breve" unicode="&#x2d8;" horiz-adv-x="280" 
d="M200 674.5q-23 -25.5 -60 -25.5q-39 0 -61.5 25.5t-22.5 56.5h-46q0 -55 32.5 -92t97.5 -38q65 1 97.5 38t32.5 92h-47q0 -31 -23 -56.5z" />
    <glyph glyph-name="dotaccent" unicode="&#x2d9;" horiz-adv-x="115" 
d="M91 632q14 14 14 34q0 19 -14 33.5t-33 14.5q-20 0 -34 -14.5t-14 -33.5q0 -20 14 -34t34 -14q19 0 33 14z" />
    <glyph glyph-name="ring" unicode="&#x2da;" horiz-adv-x="197" 
d="M36.5 735q-26.5 -24 -26.5 -60q0 -35 26 -58t63 -23t62.5 23t25.5 58q0 36 -26 60t-62 24t-62.5 -24zM68 645q-13 12 -13 30q0 19 13 31.5t31 12.5t31 -12.5t13 -31.5q0 -18 -13 -30t-31 -12t-31 12z" />
    <glyph glyph-name="ogonek" unicode="&#x2db;" horiz-adv-x="204" 
d="M29 -51.5q-19 -32.5 -19 -59.5q0 -42 29.5 -69t74.5 -27q24 0 45.5 8.5t34.5 21.5l-22 38q-26 -21 -55 -21q-22 0 -37 12.5t-15 40.5t17.5 58.5t43.5 48.5l-49 4q-29 -23 -48 -55.5z" />
    <glyph glyph-name="tilde" unicode="&#x2dc;" horiz-adv-x="305" 
d="M231 666.5q-11 -10.5 -25 -10.5q-26 0 -48 24q-23 23 -65 23q-83 0 -83 -91h45q2 22 13.5 33t25.5 11q25 0 52 -24q25 -24 60 -24q84 0 84 91h-46q-2 -22 -13 -32.5z" />
    <glyph glyph-name="hungarumlaut" unicode="&#x2dd;" horiz-adv-x="285" 
d="M50 589l85 153h-71l-54 -140zM190 589l85 153h-71l-54 -140z" />
    <glyph glyph-name="pi" unicode="&#x3c0;" horiz-adv-x="569" 
d="M172 0v435h224v-435h63v435h100v50h-549v-50h99v-435h63z" />
    <glyph glyph-name="tm_Anusvara" unicode="&#xb82;" horiz-adv-x="0" 
d="M78.5 662q32.5 30 32.5 75q0 46 -33 76.5t-78 30.5t-77.5 -30.5t-32.5 -76.5q0 -45 32 -75t78 -30t78.5 30zM-43 695.5q-17 16.5 -17 41.5q0 26 17 43t43 17t42.5 -17t16.5 -43q0 -25 -16.5 -41.5t-42.5 -16.5t-43 16.5z" />
    <glyph glyph-name="tm_Visarga" unicode="&#xb83;" horiz-adv-x="674" 
d="M414.5 345q32.5 30 32.5 75q0 46 -32.5 76.5t-78.5 30.5q-45 0 -77.5 -30.5t-32.5 -76.5q0 -45 32 -75t78 -30t78.5 30zM294.5 378.5q-16.5 16.5 -16.5 41.5q0 26 16.5 43t42.5 17t43 -17t17 -43q0 -25 -17 -41.5t-43 -16.5t-42.5 16.5zM243 16.5q32 30.5 32 75.5
q0 46 -32.5 76t-78.5 30q-45 0 -77 -30t-32 -76q0 -45 32 -75.5t77 -30.5q47 0 79 30.5zM586.5 16.5q32.5 30.5 32.5 75.5q0 46 -32.5 76t-78.5 30q-45 0 -77.5 -30t-32.5 -76q0 -45 32 -75.5t78 -30.5t78.5 30.5zM123 50q-17 17 -17 42q0 26 17 42.5t42 16.5q26 0 43 -17
t17 -42t-17 -42t-43 -17q-25 0 -42 17zM467 50q-17 17 -17 42q0 26 17 42.5t42 16.5q26 0 42.5 -16.5t16.5 -42.5q0 -25 -16.5 -42t-42.5 -17q-25 0 -42 17z" />
    <glyph glyph-name="tm_A" unicode="&#xb85;" horiz-adv-x="1057" 
d="M962 513v-639h-56v206h-182q-46 -104 -149.5 -164t-243.5 -60q-87 0 -154.5 22.5t-104.5 61.5t-37 86q0 46 29.5 72.5t85.5 26.5h528q16 53 16 105q0 72 -28 129.5t-79.5 90t-120.5 32.5q-81 0 -133 -37q14 2 23 2q54 0 89 -33t35 -83q0 -53 -36 -87.5t-92 -34.5
q-55 0 -93 34t-38 86q0 57 33 103t89.5 72.5t122.5 26.5q86 0 151.5 -38.5t101 -107t35.5 -155.5q0 -54 -14 -105h166v388h56zM405 382.5q-21 20.5 -54 20.5t-54.5 -20.5t-21.5 -52.5v-1q0 -33 21 -54t54 -21q34 0 55 21t21 54t-21 53.5zM530.5 -48.5q85.5 46.5 128.5 128.5
h-506q-59 0 -59 -54q0 -30 29.5 -58t84 -45.5t123.5 -17.5q114 0 199.5 46.5z" />
    <glyph glyph-name="tm_Aa" unicode="&#xb86;" horiz-adv-x="1266" 
d="M1209 44q47 -49 47 -126q0 -84 -47.5 -151.5t-131.5 -105.5t-190 -38q-63 0 -113 17t-79 47.5t-29 70.5q0 49 35.5 81.5t93.5 32.5h21v-45h-21q-32 0 -50.5 -19.5t-18.5 -49.5q0 -38 45 -62.5t116 -24.5q89 0 159.5 32t110 88t39.5 127q0 55 -30.5 90.5t-83.5 35.5
q-52 0 -86 -39t-34 -100v-31h-56v206h-182q-46 -104 -149.5 -164t-243.5 -60q-87 0 -154.5 22.5t-104.5 61.5t-37 86q0 46 29.5 72.5t85.5 26.5h528q16 53 16 105q0 72 -28 129.5t-79.5 90t-120.5 32.5q-81 0 -133 -37q14 2 23 2q54 0 89 -33t35 -83q0 -53 -36 -87.5
t-92 -34.5q-55 0 -93 34t-38 86q0 57 33 103t89.5 72.5t122.5 26.5q86 0 151.5 -38.5t101 -107t35.5 -155.5q0 -54 -14 -105h166v388h56v-479q22 28 53 43.5t70 15.5q77 0 124 -49zM405 382.5q-21 20.5 -54 20.5t-54.5 -20.5t-21.5 -52.5v-1q0 -33 21 -54t54 -21q34 0 55 21
t21 54t-21 53.5zM530.5 -48.5q85.5 46.5 128.5 128.5h-506q-59 0 -59 -54q0 -30 29.5 -58t84 -45.5t123.5 -17.5q114 0 199.5 46.5z" />
    <glyph glyph-name="tm_I" unicode="&#xb87;" horiz-adv-x="1036" 
d="M741.5 667q92.5 -44 146 -124.5t53.5 -184.5v-506h-56v504q0 93 -45 162.5t-124.5 106.5t-178.5 37q-108 0 -189 -36t-126.5 -106.5t-45.5 -170.5q0 -123 58 -231q94 34 205 34q75 0 142 -21q63 105 63 189q0 72 -42.5 117t-116.5 45q-83 0 -128 -40q18 5 36 5
q54 0 89 -33t35 -83q0 -53 -36 -87.5t-92 -34.5q-55 0 -93 34t-38 86q0 57 29 103.5t80.5 72.5t117.5 26q67 0 116 -27t75.5 -75t26.5 -109q0 -93 -71 -208q75 -33 120 -87.5t45 -119.5q0 -48 -38.5 -75.5t-104.5 -27.5q-137 0 -260 71q-115 -71 -216 -71q-66 0 -104.5 27.5
t-38.5 75.5q0 58 39 107.5t107 83.5q-64 119 -64 253q0 112 54 193.5t149.5 125t216.5 43.5q112 0 204.5 -44zM442 382.5q-21 20.5 -54 20.5t-54.5 -20.5t-21.5 -53.5t21 -54t54 -21q34 0 55 21t21 54t-21 53.5zM259 75q56 -85 138 -141q90 64 155 154q-58 16 -113 16
q-93 0 -180 -29zM701 -0.5q-37 43.5 -98 70.5q-67 -93 -161 -164q102 -55 212 -55q84 0 84 54q0 51 -37 94.5zM349 -97q-83 60 -142 149q-53 -28 -83 -65.5t-30 -81.5q0 -54 84 -54q80 0 171 52z" />
    <glyph glyph-name="tm_Ii" unicode="&#xb88;" horiz-adv-x="740" 
d="M482 0h-55v468h-277v-468h-55v513h630l5 -45h-248v-468zM318.5 199.5q12.5 12.5 12.5 30.5t-12.5 30t-30.5 12q-19 0 -30.5 -12t-11.5 -30q0 -19 11.5 -31t30.5 -12q18 0 30.5 12.5zM650.5 199.5q12.5 12.5 12.5 30.5t-12.5 30t-30.5 12q-19 0 -30.5 -12t-11.5 -30
q0 -19 11.5 -31t30.5 -12q18 0 30.5 12.5z" />
    <glyph glyph-name="tm_U" unicode="&#xb89;" horiz-adv-x="981" 
d="M971 45v-45h-892v45h232q65 0 117 29t81.5 81t29.5 118q0 59 -27.5 107t-78 75t-117.5 27q-59 0 -107 -21.5t-78 -61.5q27 13 65 13q66 0 109 -40t43 -101q0 -63 -43 -103.5t-109 -40.5q-70 0 -115.5 41.5t-45.5 106.5q0 73 36 131.5t100 91.5t145 33q84 0 148 -33
t99.5 -92t35.5 -133q0 -75 -31.5 -134.5t-90.5 -93.5h494zM121 340.5q-29 -25.5 -29 -65.5q0 -44 29 -72t75 -28q41 0 68.5 27t27.5 69q0 41 -27.5 68t-68.5 27q-46 0 -75 -25.5z" />
    <glyph glyph-name="tm_Uu" unicode="&#xb8a;" horiz-adv-x="1608" 
d="M1598 45v-45h-1519v45h232q65 0 117 29t81.5 81t29.5 118q0 59 -27.5 107t-78 75t-117.5 27q-59 0 -107 -21.5t-78 -61.5q27 13 65 13q66 0 109 -40t43 -101q0 -63 -43 -103.5t-109 -40.5q-70 0 -115.5 41.5t-45.5 106.5q0 73 36 131.5t100 91.5t145 33q84 0 148 -33
t99.5 -92t35.5 -133q0 -76 -31.5 -135t-91.5 -93h1122zM791 116q-51 27 -80 75t-29 109q0 64 31.5 117t87.5 83.5t128 30.5q61 0 110.5 -23t80.5 -65v70h422l5 -45h-114v-361h-56v361h-201v-361h-56v202q0 47 -24.5 86.5t-68.5 63t-98 23.5q-55 0 -98.5 -24t-67.5 -66
t-24 -92q0 -35 12 -65t33 -52q-6 17 -6 36q0 56 36.5 91.5t93.5 35.5q60 0 98.5 -36t38.5 -92t-39 -92.5t-100 -36.5q-64 0 -115 27zM121 340.5q-29 -25.5 -29 -65.5q0 -44 29 -72t75 -28q41 0 68.5 27t27.5 69q0 41 -27.5 68t-68.5 27q-46 0 -75 -25.5zM848 279
q-24 -24 -24 -61t24 -61.5t61 -24.5q38 0 62 24.5t24 61.5t-24.5 61t-61.5 24t-61 -24z" />
    <glyph glyph-name="tm_E" unicode="&#xb8e;" horiz-adv-x="856" 
d="M846 468h-194v-468h-56v468h-213q-135 0 -202 -62.5t-67 -168.5q0 -107 67 -164q-17 31 -17 68q0 46 21 82.5t58 57t83 20.5q48 0 86.5 -20.5t60.5 -57t22 -82.5q0 -45 -22 -81.5t-60.5 -57t-86.5 -20.5q-86 0 -147 32.5t-92.5 90t-31.5 132.5q0 125 80.5 200.5
t238.5 75.5h467zM245 59.5q32 -32.5 81 -32.5q50 0 82.5 32t32.5 82t-32.5 82.5t-82.5 32.5q-49 0 -81 -32.5t-32 -82.5q0 -49 32 -81.5z" />
    <glyph glyph-name="tm_Ee" unicode="&#xb8f;" horiz-adv-x="856" 
d="M846 468h-194v-442q0 -63 -12.5 -93t-55.5 -48l-329 -135l-25 40l315 131q31 13 41 37t10 75v435h-213q-135 0 -202 -62.5t-67 -168.5q0 -107 67 -164q-17 31 -17 68q0 46 21 82.5t58 57t83 20.5q48 0 86.5 -20.5t60.5 -57t22 -82.5q0 -45 -22 -81.5t-60.5 -57
t-86.5 -20.5q-86 0 -147 32.5t-92.5 90t-31.5 132.5q0 125 80.5 200.5t238.5 75.5h467zM245 59.5q32 -32.5 81 -32.5q50 0 82.5 32t32.5 82t-32.5 82.5t-82.5 32.5q-49 0 -81 -32.5t-32 -82.5q0 -49 32 -81.5z" />
    <glyph glyph-name="tm_Ai" unicode="&#xb90;" horiz-adv-x="830" 
d="M723 101q20 -42 29 -75.5t9 -75.5q0 -44 -22.5 -79.5t-62.5 -55.5t-90 -20q-54 0 -97 23.5t-68 65.5q-25 -41 -71.5 -65t-105.5 -24q-54 0 -97 22.5t-67.5 62t-24.5 88.5q0 172 270 208l180 24q112 15 161 56t50 102q0 53 -33 88.5t-83 35.5q-59 0 -98 -40t-39 -99v-69
h-56v69q0 60 -40 99.5t-102 39.5q-78 0 -119 -47q14 2 23 2q44 0 72.5 -27t28.5 -70q0 -41 -29.5 -68t-74.5 -27t-74.5 27t-29.5 70q0 54 26 97t72.5 67.5t104.5 24.5q55 0 98 -25t72 -69q60 94 165 94q50 0 90 -22.5t62.5 -62t22.5 -88.5q0 -172 -270 -208l-180 -24
q-209 -28 -211 -158q0 -54 36.5 -89.5t93.5 -35.5q42 0 76 18.5t53.5 50.5t19.5 71v69h55v-69q0 -60 39 -100t99 -40q50 0 83 30.5t33 76.5q0 31 -9.5 71t-25.5 74zM130 379q-16 -13 -17 -34v-5q0 -22 15.5 -36t38.5 -14q22 0 37 14t16 35q0 23 -14.5 38t-36.5 15
q-23 0 -39 -13z" />
    <glyph glyph-name="tm_O" unicode="&#xb92;" horiz-adv-x="808" 
d="M568 41.5q32 -31.5 93 -31.5h63v-45h-63q-35 0 -62 7v-22q0 -48 -24.5 -86.5t-68 -60.5t-98.5 -22t-98.5 22t-68 60.5t-24.5 86.5v50h56v-50q0 -52 38 -86t97 -34t97.5 34t38.5 86v47q-29 21 -44.5 55.5t-15.5 80.5v136h52q1 -40 24 -67t59 -27t55.5 29.5t19.5 77.5
q0 58 -38 104.5t-104 72.5t-148 26q-84 0 -151 -28t-104.5 -77t-37.5 -111v-1q12 33 41.5 52.5t69.5 19.5q56 0 92 -33t36 -85q0 -53 -36.5 -86.5t-93.5 -33.5q-45 0 -83 21.5t-60 60t-22 85.5q0 76 45 136.5t124.5 94.5t179.5 34t179.5 -32.5t124.5 -90t45 -129.5
q0 -69 -36 -112.5t-98 -43.5q-49 0 -83 31v-24q0 -60 32 -91.5zM166.5 275.5q-21.5 -20.5 -21.5 -53.5q0 -32 20.5 -53t52.5 -22h1v0v0h1q32 0 53.5 21t22.5 54q0 33 -21 53.5t-54 20.5t-54.5 -20.5z" />
    <glyph glyph-name="tm_Oo" unicode="&#xb93;" horiz-adv-x="808" 
d="M568 41.5q32 -31.5 93 -31.5h63v-45h-63q-35 0 -62 7v-22q0 -48 -26 -86.5t-71.5 -60.5t-102.5 -22q-56 0 -100.5 17t-69.5 47t-25 68q0 51 36.5 84.5t92.5 33.5h20v-45h-20q-31 0 -50.5 -20.5t-19.5 -52.5q0 -36 38.5 -59.5t97.5 -23.5q63 0 104 34t41 86v47
q-60 45 -60 136v136h52q1 -40 24 -67t59 -27t55.5 29.5t19.5 77.5q0 58 -38 104.5t-104 72.5t-148 26q-84 0 -151 -28t-104.5 -77t-37.5 -111v-1q12 33 41.5 52.5t69.5 19.5q56 0 92 -33t36 -85q0 -53 -36.5 -86.5t-93.5 -33.5q-45 0 -83 21.5t-60 60t-22 85.5
q0 76 45 136.5t124.5 94.5t179.5 34t179.5 -32.5t124.5 -90t45 -129.5q0 -69 -36 -112.5t-98 -43.5q-49 0 -83 31v-24q0 -60 32 -91.5zM166.5 275.5q-21.5 -20.5 -21.5 -53.5q0 -32 20.5 -53t52.5 -22h1v0v0h1q32 0 53.5 21t22.5 54q0 33 -21 53.5t-54 20.5t-54.5 -20.5z
" />
    <glyph glyph-name="tm_Au" unicode="&#xb94;" horiz-adv-x="2011" 
d="M568 41.5q32 -31.5 93 -31.5h63v-45h-63q-35 0 -62 7v-22q0 -48 -24.5 -86.5t-68 -60.5t-98.5 -22t-98.5 22t-68 60.5t-24.5 86.5v50h56v-50q0 -52 38 -86t97 -34t97.5 34t38.5 86v47q-29 21 -44.5 55.5t-15.5 80.5v136h52q1 -40 24 -67t59 -27t55.5 29.5t19.5 77.5
q0 58 -38 104.5t-104 72.5t-148 26q-84 0 -151 -28t-104.5 -77t-37.5 -111v-1q12 33 41.5 52.5t69.5 19.5q56 0 92 -33t36 -85q0 -53 -36.5 -86.5t-93.5 -33.5q-45 0 -83 21.5t-60 60t-22 85.5q0 76 45 136.5t124.5 94.5t179.5 34t179.5 -32.5t124.5 -90t45 -129.5
q0 -69 -36 -112.5t-98 -43.5q-49 0 -83 31v-24q0 -60 32 -91.5zM166.5 275.5q-21.5 -20.5 -21.5 -53.5q0 -32 20.5 -53t52.5 -22h1v0v0h1q32 0 53.5 21t22.5 54q0 33 -21 53.5t-54 20.5t-54.5 -20.5zM2001 468h-193v-468h-56v468h-263v-468h-56v228q0 73 -33.5 131t-91 90.5
t-126.5 32.5q-79 0 -138 -31.5t-90.5 -87t-31.5 -126.5q0 -107 67 -164q-17 31 -17 68q0 46 21 82.5t58 57t83 20.5q48 0 86.5 -20.5t60.5 -57t22 -82.5q0 -45 -22 -81.5t-60.5 -57t-86.5 -20.5q-86 0 -147 32.5t-92.5 90t-31.5 132.5q0 85 39 152t111.5 104.5t168.5 37.5
q78 0 145 -37t106 -102v121h564zM1053 59.5q32 -32.5 81 -32.5q50 0 82.5 32t32.5 82t-32.5 82.5t-82.5 32.5q-49 0 -81 -32.5t-32 -82.5q0 -49 32 -81.5z" />
    <glyph glyph-name="tm_Ka" unicode="&#xb95;" horiz-adv-x="736" 
d="M649 250.5q52 -42.5 52 -110.5q0 -46 -25 -81.5t-71.5 -56t-109.5 -20.5v45q69 0 107.5 31.5t38.5 81.5q0 49 -35 78.5t-98 29.5h-45v-43q0 -104 -60 -163.5t-166 -59.5q-56 0 -99.5 20t-68 55t-24.5 79q0 55 31.5 94t88.5 54v229h467l5 -45h-174v-175h44q90 0 142 -42.5
zM221 468v-175h13h173v175h-186zM407 248h-171q-63 0 -97.5 -31.5t-34.5 -81.5q0 -45 37 -74.5t96 -29.5q81 0 125.5 46t44.5 128v43z" />
    <glyph glyph-name="tm_Nga" unicode="&#xb99;" horiz-adv-x="954" 
d="M859 513v-513h-518v45h130q75 0 118 41.5t43 108.5q0 55 -28.5 88.5t-81.5 33.5q-55 0 -90 -39.5t-35 -99.5v-27h-56v317h-191v-468h-55v513h491l4 -45h-193v-162q24 28 56.5 43.5t71.5 15.5q77 0 121.5 -47t44.5 -123q0 -47 -20 -86t-57 -64h189v468h56z" />
    <glyph glyph-name="tm_Ca" unicode="&#xb9a;" horiz-adv-x="672" 
d="M637 248h-174v-43q0 -104 -60 -163.5t-166 -59.5q-56 0 -99.5 20t-68 55t-24.5 79q0 55 31.5 94t88.5 54v229h467l5 -45h-174v-175h169zM221 468v-175h13h173v175h-186zM407 248h-171q-63 0 -97.5 -31.5t-34.5 -81.5q0 -45 37 -74.5t96 -29.5q81 0 125.5 46t44.5 128v43z
" />
    <glyph glyph-name="tm_Ja" unicode="&#xb9c;" horiz-adv-x="830" 
d="M736.5 33q38.5 -37 38.5 -97q0 -39 -22 -70.5t-61 -49.5t-88 -18h-122v45h122q51 0 81.5 26t30.5 67q0 39 -20.5 62.5t-65.5 23.5q-41 0 -78 -25t-95 -78q-44 -41 -75 -65.5t-68.5 -41.5t-78.5 -17q-81 0 -130.5 48.5t-49.5 124.5q0 172 270 208l180 24q112 15 161 56
t50 102q0 53 -33 88.5t-83 35.5q-59 0 -98 -40t-39 -99v-69h-56v69q0 60 -40 99.5t-102 39.5q-78 0 -119 -47q14 2 23 2q44 0 72.5 -27t28.5 -70q0 -41 -29.5 -68t-74.5 -27t-74.5 27t-29.5 70q0 54 26 97t72.5 67.5t104.5 24.5q55 0 98 -25t72 -69q60 94 165 94
q50 0 90 -22.5t62.5 -62t22.5 -88.5q0 -172 -270 -208l-180 -24q-209 -28 -211 -158q0 -55 32.5 -90t88.5 -35q44 0 85 27t102 82q45 40 74 63t63.5 39t70.5 16q68 0 106.5 -37zM130 379q-16 -13 -17 -34v-5q0 -22 15.5 -36t38.5 -14q22 0 37 14t16 35q0 23 -14.5 38
t-36.5 15q-23 0 -39 -13z" />
    <glyph glyph-name="tm_Nya" unicode="&#xb9e;" horiz-adv-x="1208" 
d="M1109 294.5q44 -61.5 44 -163.5q0 -124 -65 -211t-182 -131.5t-271 -44.5q-168 0 -294.5 49.5t-196 145.5t-69.5 231q0 95 41 194.5t104 158.5l57 -10q-62 -50 -102.5 -147.5t-40.5 -197.5q0 -120 62 -204.5t175 -127.5t264 -43q137 0 240 38.5t160.5 114.5t57.5 185
q0 81 -27.5 129t-86.5 48q-52 0 -86.5 -39.5t-34.5 -99.5v-169h-55v468h-187q-135 0 -202 -62.5t-67 -168.5q0 -52 17.5 -94.5t50.5 -70.5q-17 31 -17 69q0 46 21 82.5t58 57t83 20.5q48 0 86.5 -20.5t60 -57t21.5 -82.5q0 -45 -21.5 -81.5t-60 -57t-86.5 -20.5
q-86 0 -147.5 32.5t-93 90t-31.5 132.5q0 125 81 200.5t238 75.5h440l5 -45h-194v-170q47 58 124 58q83 0 127 -61.5zM478.5 59.5q32.5 -32.5 81.5 -32.5q50 0 82 32.5t32 81.5q0 50 -32 82.5t-82 32.5t-82 -32.5t-32 -82.5q0 -49 32.5 -81.5z" />
    <glyph glyph-name="tm_Tta" unicode="&#xb9f;" horiz-adv-x="717" 
d="M703 45h-553v473l-55 -5v-513h612z" />
    <glyph glyph-name="tm_Nna" unicode="&#xba3;" horiz-adv-x="1676" 
d="M1666 468h-194v-468h-56v468h-104q-89 0 -160 -37q48 -49 74 -115.5t26 -144.5q0 -85 -41.5 -137t-112.5 -52t-113 52t-42 137q0 79 33 147t92 115q-71 49 -162 49q-96 0 -165 -47q61 -49 94.5 -117.5t33.5 -146.5q0 -85 -42 -137t-113 -52q-70 0 -112.5 52.5
t-42.5 136.5q0 75 26 142.5t74 117.5q-90 51 -213 51q-99 0 -174.5 -33t-116.5 -90.5t-41 -130.5q0 -49 17.5 -89t50.5 -67q-18 30 -18 69q0 46 21 82.5t58 57t83 20.5q48 0 86.5 -20.5t60.5 -57t22 -82.5q0 -45 -22 -81.5t-60.5 -57t-86.5 -20.5q-85 0 -146.5 32t-93 88
t-31.5 126q0 87 48.5 156t137.5 108t205 39q144 0 252 -66q89 66 208 66q120 0 209 -67q89 49 197 49h349zM782 301q-28 59 -80 101q-41 -42 -62 -102t-21 -129q0 -61 26 -100.5t69 -39.5q45 0 70.5 39t25.5 101q0 71 -28 130zM1170 299q-23 59 -64 102q-50 -41 -77 -100
t-27 -130q0 -61 26 -100.5t70 -39.5t69.5 39t25.5 101q0 69 -23 128zM245 59.5q32 -32.5 81 -32.5q50 0 82.5 32t32.5 82t-32.5 82.5t-82.5 32.5q-49 0 -81 -32.5t-32 -82.5q0 -49 32 -81.5z" />
    <glyph glyph-name="tm_Ta" unicode="&#xba4;" horiz-adv-x="746" 
d="M604 265q47 -28 72 -78t25 -114q0 -69 -35.5 -123t-102 -84t-154.5 -30h-153q-57 0 -100 -21.5t-66 -57.5l-45 24q26 44 76.5 72t120.5 28h167q72 0 124 24.5t80 68t28 99.5q0 78 -39 126.5t-107 48.5h-32v-43q0 -104 -60 -163.5t-166 -59.5q-56 0 -99.5 20t-68 55
t-24.5 79q0 55 31.5 94t88.5 54v229h467l5 -45h-174v-175h31q63 0 110 -28zM221 468v-175h13h173v175h-186zM407 248h-171q-63 0 -97.5 -31.5t-34.5 -81.5q0 -45 37 -74.5t96 -29.5q81 0 125.5 46t44.5 128v43z" />
    <glyph glyph-name="tm_Na" unicode="&#xba8;" horiz-adv-x="746" 
d="M647.5 294.5q43.5 -61.5 43.5 -163.5q0 -86 -32.5 -153t-95 -104.5t-149.5 -37.5h-108q-57 0 -100 -21.5t-66 -57.5l-45 24q26 44 76.5 72t120.5 28h122q105 0 161.5 68.5t56.5 181.5q0 81 -28 129t-86 48q-52 0 -86.5 -39.5t-34.5 -99.5v-169h-56v468h-191v-468h-55v513
h491l4 -45h-193v-170q22 28 53 43t70 15q84 0 127.5 -61.5z" />
    <glyph glyph-name="tm_Nnna" unicode="&#xba9;" horiz-adv-x="1292" 
d="M1282 468h-193v-468h-56v468h-105q-100 0 -174 -45q55 -48 85 -113t30 -139q0 -85 -42 -137t-113 -52q-70 0 -112.5 52.5t-42.5 136.5q0 75 29.5 140t83.5 112q-96 59 -226 59q-99 0 -174.5 -33t-116.5 -90.5t-41 -130.5q0 -49 17.5 -89t50.5 -67q-18 30 -18 69
q0 46 21 82.5t58 57t83 20.5q48 0 86.5 -20.5t60.5 -57t22 -82.5q0 -45 -22 -81.5t-60.5 -57t-86.5 -20.5q-85 0 -146.5 32t-93 88t-31.5 126q0 87 48.5 156t137.5 108t205 39q78 0 146 -20t122 -57q92 59 214 59h350zM785 294.5q-25 56.5 -72 98.5q-45 -41 -69.5 -98
t-24.5 -124q0 -61 26 -100.5t69 -39.5q45 0 70.5 39t25.5 101q0 67 -25 123.5zM245 59.5q32 -32.5 81 -32.5q50 0 82.5 32t32.5 82t-32.5 82.5t-82.5 32.5q-49 0 -81 -32.5t-32 -82.5q0 -49 32 -81.5z" />
    <glyph glyph-name="tm_Pa" unicode="&#xbaa;" horiz-adv-x="707" 
d="M612 513v-513h-517v513l55 5v-473h406v468h56z" />
    <glyph glyph-name="tm_Ma" unicode="&#xbae;" horiz-adv-x="808" 
d="M655 493q48 -38 73 -106t25 -156q0 -104 -52.5 -167.5t-148.5 -63.5h-457v513l55 5v-473h225v304q0 88 45.5 135t119.5 47q67 0 115 -38zM657.5 96q36.5 51 36.5 135q0 112 -40 181.5t-110 69.5q-51 0 -82 -33.5t-31 -97.5v-306h121q69 0 105.5 51z" />
    <glyph glyph-name="tm_Ya" unicode="&#xbaf;" horiz-adv-x="909" 
d="M814 513v-513h-428v52q-22 -33 -55 -51.5t-75 -18.5q-78 0 -124.5 50.5t-46.5 151.5v329l55 5v-333q0 -154 116 -154q64 0 97 46t33 122v314h56v-468h316v468h56z" />
    <glyph glyph-name="tm_Ra" unicode="&#xbb0;" horiz-adv-x="672" 
d="M469 468v-442q0 -42 -5 -65.5t-19 -41t-44 -34.5l-239 -135l-25 44l225 127q31 18 41 40.5t10 71.5v435h-263v-468h-55v513h563l4 -45h-193z" />
    <glyph glyph-name="tm_Rra" unicode="&#xbb1;" horiz-adv-x="802" 
d="M696 449.5q51 -81.5 51 -218.5q0 -115 -39.5 -204.5t-115 -140t-179.5 -50.5h-117q-57 0 -100 -21.5t-66 -57.5l-45 24q26 44 76.5 72t120.5 28h131q87 0 149 44.5t94 124t32 181.5q0 251 -142 251q-30 0 -57.5 -15t-45.5 -44.5t-18 -71.5v-351h-56v314q-1 78 -31 123
t-91 45q-54 0 -80.5 -36t-26.5 -118v-328h-55v329q0 102 42.5 152t119.5 50q50 0 87 -25.5t58 -71.5q22 45 61.5 71t89.5 26q102 0 153 -81.5z" />
    <glyph glyph-name="tm_La" unicode="&#xbb2;" horiz-adv-x="1002" 
d="M926 378.5q21 -79.5 21 -143.5q0 -253 -183 -253q-92 0 -137 59t-45 169v49q0 105 -60.5 164t-165.5 59q-72 0 -127 -30.5t-85 -85.5t-30 -126q0 -51 16.5 -93t48.5 -71q-15 29 -15 65q0 46 21 82.5t58 57t83 20.5q48 0 86.5 -20.5t60.5 -57t22 -82.5q0 -45 -22 -81.5
t-60.5 -57t-86.5 -20.5q-85 0 -146.5 33.5t-93 92t-31.5 132.5q0 85 37.5 151t105.5 103t158 37q85 0 149 -33t98.5 -94t34.5 -145v-49q0 -88 30.5 -133.5t95.5 -45.5q126 0 126 202q0 64 -21 144t-61 136l55 14q42 -69 63 -148.5zM245 59.5q32 -32.5 81 -32.5q50 0 82.5 32
t32.5 82t-32.5 82.5t-82.5 32.5q-49 0 -81 -32.5t-32 -82.5q0 -49 32 -81.5z" />
    <glyph glyph-name="tm_Lla" unicode="&#xbb3;" horiz-adv-x="1203" 
d="M1193 468h-193v-468h-56v468h-263v-468h-56v228q0 73 -33.5 131t-91 90.5t-126.5 32.5q-79 0 -138 -31.5t-90.5 -87t-31.5 -126.5q0 -107 67 -164q-17 31 -17 68q0 46 21 82.5t58 57t83 20.5q48 0 86.5 -20.5t60.5 -57t22 -82.5q0 -45 -22 -81.5t-60.5 -57t-86.5 -20.5
q-86 0 -147 32.5t-92.5 90t-31.5 132.5q0 85 39 152t111.5 104.5t168.5 37.5q78 0 145 -37t106 -102v121h564zM245 59.5q32 -32.5 81 -32.5q50 0 82.5 32t32.5 82t-32.5 82.5t-82.5 32.5q-49 0 -81 -32.5t-32 -82.5q0 -49 32 -81.5z" />
    <glyph glyph-name="tm_Llla" unicode="&#xbb4;" horiz-adv-x="808" 
d="M431 0v-45q0 -42 14 -61.5t45 -19.5h177l4 -45h-182q-18 -59 -72 -95t-118 -36q-77 0 -123.5 43t-46.5 110h56q0 -46 30.5 -75t83.5 -29q44 0 80 21.5t55 68.5q-36 16 -47.5 44.5t-11.5 75.5v43h-280v513l55 5v-473h225v304q0 88 45.5 135t119.5 47q67 0 115 -38t73 -106
t25 -156q0 -104 -52.5 -167.5t-148.5 -63.5h-121zM431 45h121q69 0 105.5 51t36.5 135q0 112 -40 181.5t-110 69.5q-51 0 -82 -33.5t-31 -97.5v-306z" />
    <glyph glyph-name="tm_Va" unicode="&#xbb5;" horiz-adv-x="1010" 
d="M915 513v-513h-378l1 45q36 40 57 94t21 116q0 64 -31.5 116t-86.5 81.5t-124 29.5q-81 0 -139.5 -31.5t-89.5 -87t-31 -126.5q0 -107 67 -164q-17 31 -17 68q0 46 21 82.5t58 57t83 20.5q48 0 86.5 -20.5t60.5 -57t22 -82.5q0 -45 -22 -81.5t-60.5 -57t-86.5 -20.5
q-86 0 -147 32.5t-92.5 90t-31.5 132.5q0 86 38.5 152.5t110.5 104t170 37.5q85 0 154 -35.5t108.5 -98.5t39.5 -142q0 -59 -18.5 -113t-51.5 -97h253v468h56zM245 59.5q32 -32.5 81 -32.5q50 0 82.5 32t32.5 82t-32.5 82.5t-82.5 32.5q-49 0 -81 -32.5t-32 -82.5
q0 -49 32 -81.5z" />
    <glyph glyph-name="tm_Sha" unicode="&#xbb6;" horiz-adv-x="1015" 
d="M907.5 449.5q52.5 -63.5 52.5 -167.5q0 -88 -25 -156t-73 -106t-115 -38q-74 0 -119.5 47t-45.5 135v304h-154v-284q0 -101 -46.5 -151.5t-125.5 -50.5q-78 0 -124.5 50.5t-46.5 151.5v329l55 5v-333q0 -154 116 -154q117 0 117 154v328h386q96 0 148.5 -63.5zM861 100.5
q40 69.5 40 181.5q0 84 -36.5 135t-105.5 51h-121v-306q0 -64 31 -97.5t82 -33.5q70 0 110 69.5z" />
    <glyph glyph-name="tm_Ssa" unicode="&#xbb7;" horiz-adv-x="1336" 
d="M1246 0h-206v-243h-56v243h-447l1 45q36 40 57 94t21 116q0 64 -31.5 116t-86.5 81.5t-124 29.5q-81 0 -139.5 -31.5t-89.5 -87t-31 -126.5q0 -107 67 -164q-17 31 -17 68q0 46 21 82.5t58 57t83 20.5q48 0 86.5 -20.5t60.5 -57t22 -82.5q0 -45 -22 -81.5t-60.5 -57
t-86.5 -20.5q-86 0 -147 32.5t-92.5 90t-31.5 132.5q0 86 38.5 152.5t110.5 104t170 37.5q85 0 154 -35.5t108.5 -98.5t39.5 -142q0 -57 -19 -112t-50 -98h377v162q-34 -8 -65 -8q-59 0 -104.5 21.5t-70.5 60t-25 87.5q0 72 45 117.5t118 45.5q74 0 116 -43.5t42 -118.5v-85
q79 52 150 184h56v-468zM984 258v106q0 56 -26 87t-76 31q-47 0 -75.5 -31.5t-28.5 -82.5q0 -53 38.5 -86.5t102.5 -33.5q36 0 65 10zM1190 45v324q-63 -99 -150 -142v-182h150zM245 59.5q32 -32.5 81 -32.5q50 0 82.5 32t32.5 82t-32.5 82.5t-82.5 32.5q-49 0 -81 -32.5
t-32 -82.5q0 -49 32 -81.5z" />
    <glyph glyph-name="tm_Sa" unicode="&#xbb8;" horiz-adv-x="1289" 
d="M1212.5 378.5q21.5 -79.5 21.5 -143.5q0 -121 -44.5 -187t-139.5 -66q-92 0 -137 59t-45 169v128q0 65 -25 103.5t-77 38.5q-62 0 -95 -60.5t-33 -160.5v-259h-56v259q0 105 -60.5 164t-165.5 59q-72 0 -127 -30.5t-85 -85.5t-30 -126q0 -51 16.5 -93t48.5 -71
q-15 29 -15 65q0 46 21 82.5t58 57t83 20.5q48 0 86.5 -20.5t60.5 -57t22 -82.5q0 -45 -22 -81.5t-60.5 -57t-86.5 -20.5q-85 0 -146.5 33.5t-93 92t-31.5 132.5q0 85 37.5 151t105.5 103t158 37q89 0 154.5 -35.5t98.5 -101.5q19 65 59 101t98 36q76 0 117 -53.5t41 -140.5
v-127q0 -88 30.5 -133.5t95.5 -45.5q67 0 96.5 52.5t29.5 149.5q0 64 -21 144t-61 136l55 14q42 -69 63.5 -148.5zM245 59.5q32 -32.5 81 -32.5q50 0 82.5 32t32.5 82t-32.5 82.5t-82.5 32.5q-49 0 -81 -32.5t-32 -82.5q0 -49 32 -81.5z" />
    <glyph glyph-name="tm_Ha" unicode="&#xbb9;" horiz-adv-x="1541" 
d="M1430.5 448.5q55.5 -82.5 55.5 -217.5q0 -115 -40 -204.5t-115.5 -140t-178.5 -50.5h-887q-57 0 -99.5 -21.5t-65.5 -57.5l-45 24q26 44 76.5 72t120.5 28h900q86 0 148 44.5t94 124t32 181.5q0 114 -37 181.5t-113 67.5q-51 0 -82 -32.5t-31 -96.5v-351h-55l-1 314
q0 76 -30.5 122t-90.5 46q-54 0 -80.5 -36t-26.5 -118v-328h-342l1 45q36 40 57 94t21 116q0 64 -31.5 116t-86.5 81.5t-124 29.5q-81 0 -139.5 -31.5t-89.5 -87t-31 -126.5q0 -107 67 -164q-17 31 -17 68q0 46 21 82.5t58 57t83 20.5q48 0 86.5 -20.5t60.5 -57t22 -82.5
q0 -45 -22 -81.5t-60.5 -57t-86.5 -20.5q-86 0 -147 32.5t-92.5 90t-31.5 132.5q0 86 38.5 152.5t110.5 104t170 37.5q85 0 154 -35.5t108.5 -98.5t39.5 -142q0 -58 -19 -113.5t-51 -96.5h217v284q0 102 42.5 152t120.5 50q48 0 83.5 -23t56.5 -64q20 42 58.5 64.5
t87.5 22.5q103 0 158.5 -82.5zM245 59.5q32 -32.5 81 -32.5q50 0 82.5 32t32.5 82t-32.5 82.5t-82.5 32.5q-49 0 -81 -32.5t-32 -82.5q0 -49 32 -81.5z" />
    <glyph glyph-name="tm_VowelAa" unicode="&#xbbe;" horiz-adv-x="652" 
d="M449 468v-468h-56v468h-243v-468h-55v513h543l4 -45h-193z" />
    <glyph glyph-name="tm_VowelI" unicode="&#xbbf;" horiz-adv-x="245" 
d="M11.5 759.5q66.5 -37.5 102.5 -104.5t36 -152v-503h-55v503q0 71 -29 127t-82.5 87.5t-125.5 31.5q-79 0 -124.5 -34t-45.5 -88q0 -114 124 -114h67v-36h-67q-90 0 -136.5 41t-47.5 109q0 49 28 88t80.5 60.5t121.5 21.5q87 0 153.5 -37.5z" />
    <glyph glyph-name="tm_VowelIi" unicode="&#xbc0;" horiz-adv-x="0" 
d="M-55 851.5q48 -26.5 75.5 -69.5t27.5 -92q0 -44 -28.5 -73t-71.5 -29t-72 26.5t-29 66.5t27.5 65.5t70.5 25.5q13 0 25 -3q-21 28 -54.5 44t-75.5 16q-70 0 -115 -44.5t-45 -112.5q0 -70 36 -114.5t96 -44.5v-40q-55 0 -98.5 25.5t-68 71t-24.5 102.5q0 59 28 106
t77.5 73.5t113.5 26.5q57 0 105 -26.5zM-15.5 643.5q14.5 14.5 14.5 36.5q0 21 -14.5 35.5t-36.5 14.5t-36.5 -14.5t-14.5 -35.5q0 -22 14.5 -36.5t36.5 -14.5t36.5 14.5z" />
    <glyph glyph-name="tm_VowelU" unicode="&#xbc1;" horiz-adv-x="469" 
d="M351.5 492.5q38.5 -20.5 60.5 -57t22 -81.5q0 -46 -22 -82.5t-60.5 -57t-87.5 -20.5t-88.5 20.5t-61.5 57t-22 82.5q0 70 50 114h-293v45h415q49 0 87.5 -20.5zM343 271.5q31 32.5 31 82.5t-31 82t-79 32q-50 0 -82.5 -32t-32.5 -82t32.5 -82.5t82.5 -32.5q48 0 79 32.5z
" />
    <glyph glyph-name="tm_VowelUu" unicode="&#xbc2;" horiz-adv-x="652" 
d="M494 579q58 -33 90.5 -92t32.5 -132q0 -77 -38 -139t-106 -96.5t-152 -34.5h-57v45h57q69 0 122.5 29t83.5 80t30 116q0 60 -25 107.5t-69 74t-99 26.5q-94 0 -152 -50h52q49 0 87.5 -20.5t60.5 -57t22 -81.5q0 -46 -22 -82.5t-60.5 -57t-87.5 -20.5t-88.5 22t-61.5 60.5
t-22 86.5q0 56 22 105h-265v45h293q37 47 94.5 73t127.5 26q72 0 130 -33zM343 436q-31 32 -79 32h-89q-26 -46 -26 -105q0 -53 32.5 -88.5t82.5 -35.5q48 0 79 32.5t31 82.5t-31 82z" />
    <glyph glyph-name="tm_VowelE" unicode="&#xbc6;" horiz-adv-x="769" 
d="M596 588.5q78 -86.5 78 -243.5v-345h-56v345q0 136 -62.5 208.5t-181.5 72.5q-80 0 -139 -39.5t-90 -109.5t-31 -159q0 -58 13.5 -108t37.5 -88q-1 6 -1 19q0 46 21 82.5t58 57t83 20.5q48 0 86.5 -20.5t60.5 -57t22 -82.5q0 -45 -22 -81.5t-60.5 -57t-86.5 -20.5
q-78 0 -139.5 43.5t-96.5 120t-35 172.5q0 104 38.5 185t111 126.5t169.5 45.5q144 0 222 -86.5zM245 223.5q-32 -32.5 -32 -82.5q0 -49 32 -81.5t81 -32.5q50 0 82.5 32t32.5 82t-32.5 82.5t-82.5 32.5q-49 0 -81 -32.5z" />
    <glyph glyph-name="tm_VowelEe" unicode="&#xbc7;" horiz-adv-x="663" 
d="M568.5 233q39.5 -39 39.5 -98q0 -43 -26.5 -78t-75 -55t-112.5 -20q-106 0 -182.5 45t-116.5 123.5t-40 178.5q0 99 40 177.5t116.5 123.5t182.5 45q64 0 112.5 -20t75 -55t26.5 -78q0 -59 -39.5 -98t-100.5 -39t-101.5 39t-40.5 98q0 35 17.5 63t47.5 46q-4 -1 -12 -1
q-80 -4 -140 -45t-92.5 -108t-32.5 -148t32.5 -148.5t92.5 -108.5t140 -45q8 0 12 -1q-30 18 -47 46t-17 63q0 59 40 98t101 39t100.5 -39zM531.5 459q24.5 25 24.5 63t-24.5 62.5t-62.5 24.5t-63 -24.5t-25 -62.5t25 -63t63 -25t62.5 25zM406 198q-25 -25 -25 -63t25 -62.5
t63 -24.5t62.5 25t24.5 62q0 38 -24.5 63t-62.5 25t-63 -25z" />
    <glyph glyph-name="tm_VowelAi" unicode="&#xbc8;" horiz-adv-x="1195" 
d="M1025 497.5q57 -33.5 86 -92.5t29 -136q0 -63 -21 -138t-64 -145l-55 14q40 57 61 132.5t21 138.5q0 95 -50 153t-144 58q-82 0 -148 -47q62 -49 95.5 -117t33.5 -147q0 -85 -42 -137t-113 -52q-70 0 -112.5 52.5t-42.5 136.5q0 76 26.5 143t73.5 117q-90 51 -213 51
q-99 0 -174.5 -33t-116.5 -90.5t-41 -130.5q0 -49 17.5 -89t50.5 -67q-18 30 -18 69q0 46 21 82.5t58 57t83 20.5q48 0 86.5 -20.5t60.5 -57t22 -82.5q0 -45 -22 -81.5t-60.5 -57t-86.5 -20.5q-85 0 -146.5 32t-93 88t-31.5 126q0 87 48.5 156t137.5 108t205 39
q143 0 251 -66q40 32 89 49t102 17q80 0 137 -33.5zM782 301q-28 59 -80 101q-40 -43 -61.5 -102t-21.5 -129q0 -61 26 -100.5t69 -39.5q45 0 70.5 39t25.5 101q0 71 -28 130zM245 59.5q32 -32.5 81 -32.5q50 0 82.5 32t32.5 82t-32.5 82.5t-82.5 32.5q-49 0 -81 -32.5
t-32 -82.5q0 -49 32 -81.5z" />
    <glyph glyph-name="tm_VowelO" unicode="&#xbca;" horiz-adv-x="1901" 
d="M596 588.5q78 -86.5 78 -243.5v-345h-56v345q0 136 -62.5 208.5t-181.5 72.5q-80 0 -139 -39.5t-90 -109.5t-31 -159q0 -58 13.5 -108t37.5 -88q-1 6 -1 19q0 46 21 82.5t58 57t83 20.5q48 0 86.5 -20.5t60.5 -57t22 -82.5q0 -45 -22 -81.5t-60.5 -57t-86.5 -20.5
q-78 0 -139.5 43.5t-96.5 120t-35 172.5q0 104 38.5 185t111 126.5t169.5 45.5q144 0 222 -86.5zM245 223.5q-32 -32.5 -32 -82.5q0 -49 32 -81.5t81 -32.5q50 0 82.5 32t32.5 82t-32.5 82.5t-82.5 32.5q-49 0 -81 -32.5zM1687 468v-468h-56v468h-243v-468h-55v513h543
l4 -45h-193zM1025 467q8 8 8 21t-8 21.5t-21 8.5t-21 -8.5t-8 -21.5t8 -21t21 -8t21 8zM894 494q-8 -8 -8 -21t8 -21t21 -8t21 8t8 21t-8 21t-21 8t-21 -8zM1115 452q8 8 8 21t-8 21t-21 8t-21 -8t-8 -21t8 -21t21 -8t21 8zM817.5 443.5q-8.5 -8.5 -8.5 -21.5t8.5 -21
t21.5 -8t21 8t8 21t-8 21.5t-21 8.5t-21.5 -8.5zM1191.5 401q8.5 8 8.5 21t-8.5 21.5t-21.5 8.5t-21 -8.5t-8 -21.5t8 -21t21 -8t21.5 8zM769.5 364.5q-8.5 -8.5 -8.5 -21.5t8.5 -21t21.5 -8t21 8t8 21t-8 21.5t-21 8.5t-21.5 -8.5zM1239 322q8 8 8 21t-8 21.5t-21 8.5
t-21 -8.5t-8 -21.5t8 -21t21 -8t21 8zM755.5 278.5q-8.5 -8.5 -8.5 -21.5t8.5 -20.5t21.5 -7.5t21 7.5t8 20.5t-8 21.5t-21 8.5t-21.5 -8.5zM1253.5 236.5q8.5 7.5 8.5 20.5t-8.5 21.5t-21.5 8.5t-21 -8.5t-8 -21.5t8 -20.5t21 -7.5t21.5 7.5zM769.5 195q-8.5 -8 -8.5 -21
t8.5 -21t21.5 -8t21 8t8 21t-8 21t-21 8t-21.5 -8zM1239 153q8 8 8 21t-8 21t-21 8t-21 -8t-8 -21t8 -21t21 -8t21 8zM816.5 115q-8.5 -8 -8.5 -21t8.5 -21t21.5 -8t21 8t8 21t-8 21t-21 8t-21.5 -8zM1192.5 73q8.5 8 8.5 21t-8.5 21t-21.5 8t-21 -8t-8 -21t8 -21t21 -8
t21.5 8zM894 65.5q-8 -8.5 -8 -21.5t8 -21t21 -8t21 8t8 21t-8 21.5t-21 8.5t-21 -8.5zM1115 23q8 8 8 21t-8 21.5t-21 8.5t-21 -8.5t-8 -21.5t8 -21t21 -8t21 8zM1025 8q8 8 8 21t-8 21.5t-21 8.5t-21 -8.5t-8 -21.5t8 -21t21 -8t21 8z" />
    <glyph glyph-name="tm_VowelOo" unicode="&#xbcb;" horiz-adv-x="1796" 
d="M568.5 233q39.5 -39 39.5 -98q0 -43 -26.5 -78t-75 -55t-112.5 -20q-106 0 -182.5 45t-116.5 123.5t-40 178.5q0 99 40 177.5t116.5 123.5t182.5 45q64 0 112.5 -20t75 -55t26.5 -78q0 -59 -39.5 -98t-100.5 -39t-101.5 39t-40.5 98q0 35 17.5 63t47.5 46q-4 -1 -12 -1
q-80 -4 -140 -45t-92.5 -108t-32.5 -148t32.5 -148.5t92.5 -108.5t140 -45q8 0 12 -1q-30 18 -47 46t-17 63q0 59 40 98t101 39t100.5 -39zM531.5 459q24.5 25 24.5 63t-24.5 62.5t-62.5 24.5t-63 -24.5t-25 -62.5t25 -63t63 -25t62.5 25zM406 198q-25 -25 -25 -63t25 -62.5
t63 -24.5t62.5 25t24.5 62q0 38 -24.5 63t-62.5 25t-63 -25zM1582 468v-468h-56v468h-243v-468h-55v513h543l4 -45h-193zM931 467q8 8 8 21t-8 21.5t-21 8.5t-21 -8.5t-8 -21.5t8 -21t21 -8t21 8zM800 494q-8 -8 -8 -21t8 -21t21 -8t21 8t8 21t-8 21t-21 8t-21 -8zM1021 452
q8 8 8 21t-8 21t-21 8t-21 -8t-8 -21t8 -21t21 -8t21 8zM723.5 443.5q-8.5 -8.5 -8.5 -21.5t8.5 -21t21.5 -8t21 8t8 21t-8 21.5t-21 8.5t-21.5 -8.5zM1097.5 401q8.5 8 8.5 21t-8.5 21.5t-21.5 8.5t-21 -8.5t-8 -21.5t8 -21t21 -8t21.5 8zM675.5 364.5
q-8.5 -8.5 -8.5 -21.5t8.5 -21t21.5 -8t21 8t8 21t-8 21.5t-21 8.5t-21.5 -8.5zM1145 322q8 8 8 21t-8 21.5t-21 8.5t-21 -8.5t-8 -21.5t8 -21t21 -8t21 8zM661.5 278.5q-8.5 -8.5 -8.5 -21.5t8.5 -20.5t21.5 -7.5t21 7.5t8 20.5t-8 21.5t-21 8.5t-21.5 -8.5zM1159.5 236.5
q8.5 7.5 8.5 20.5t-8.5 21.5t-21.5 8.5t-21 -8.5t-8 -21.5t8 -20.5t21 -7.5t21.5 7.5zM675.5 195q-8.5 -8 -8.5 -21t8.5 -21t21.5 -8t21 8t8 21t-8 21t-21 8t-21.5 -8zM1145 153q8 8 8 21t-8 21t-21 8t-21 -8t-8 -21t8 -21t21 -8t21 8zM722.5 115q-8.5 -8 -8.5 -21t8.5 -21
t21.5 -8t21 8t8 21t-8 21t-21 8t-21.5 -8zM1098.5 73q8.5 8 8.5 21t-8.5 21t-21.5 8t-21 -8t-8 -21t8 -21t21 -8t21.5 8zM800 65.5q-8 -8.5 -8 -21.5t8 -21t21 -8t21 8t8 21t-8 21.5t-21 8.5t-21 -8.5zM1021 23q8 8 8 21t-8 21.5t-21 8.5t-21 -8.5t-8 -21.5t8 -21t21 -8
t21 8zM931 8q8 8 8 21t-8 21.5t-21 8.5t-21 -8.5t-8 -21.5t8 -21t21 -8t21 8z" />
    <glyph glyph-name="tm_VowelAu" unicode="&#xbcc;" horiz-adv-x="2513" 
d="M601 588.5q78 -86.5 78 -243.5v-345h-56v345q0 136 -62.5 208.5t-181.5 72.5q-80 0 -139 -39.5t-90 -109.5t-31 -159q0 -58 13.5 -108t37.5 -88q-1 6 -1 19q0 46 21 82.5t58 57t83 20.5q48 0 86.5 -20.5t60.5 -57t22 -82.5q0 -45 -22 -81.5t-60.5 -57t-86.5 -20.5
q-78 0 -139.5 43.5t-96.5 120t-35 172.5q0 104 38.5 185t111 126.5t169.5 45.5q144 0 222 -86.5zM250 223.5q-32 -32.5 -32 -82.5q0 -49 32 -81.5t81 -32.5q50 0 82.5 32t32.5 82t-32.5 82.5t-82.5 32.5q-49 0 -81 -32.5zM2503 468h-193v-468h-56v468h-263v-468h-56v228
q0 73 -33.5 131t-91 90.5t-126.5 32.5q-79 0 -138 -31.5t-90.5 -87t-31.5 -126.5q0 -107 67 -164q-17 31 -17 68q0 46 21 82.5t58 57t83 20.5q48 0 86.5 -20.5t60.5 -57t22 -82.5q0 -45 -22 -81.5t-60.5 -57t-86.5 -20.5q-86 0 -147 32.5t-92.5 90t-31.5 132.5q0 85 39 152
t111.5 104.5t168.5 37.5q78 0 145 -37t106 -102v121h564zM1555 59.5q32 -32.5 81 -32.5q50 0 82.5 32t32.5 82t-32.5 82.5t-82.5 32.5q-49 0 -81 -32.5t-32 -82.5q0 -49 32 -81.5zM1053 467q8 8 8 21t-8 21.5t-21 8.5t-21 -8.5t-8 -21.5t8 -21t21 -8t21 8zM922 494
q-8 -8 -8 -21t8 -21t21 -8t21 8t8 21t-8 21t-21 8t-21 -8zM1143 452q8 8 8 21t-8 21t-21 8t-21 -8t-8 -21t8 -21t21 -8t21 8zM845.5 443.5q-8.5 -8.5 -8.5 -21.5t8.5 -21t21.5 -8t21 8t8 21t-8 21.5t-21 8.5t-21.5 -8.5zM1219.5 401q8.5 8 8.5 21t-8.5 21.5t-21.5 8.5
t-21 -8.5t-8 -21.5t8 -21t21 -8t21.5 8zM797.5 364.5q-8.5 -8.5 -8.5 -21.5t8.5 -21t21.5 -8t21 8t8 21t-8 21.5t-21 8.5t-21.5 -8.5zM1267 322q8 8 8 21t-8 21.5t-21 8.5t-21 -8.5t-8 -21.5t8 -21t21 -8t21 8zM783.5 278.5q-8.5 -8.5 -8.5 -21.5t8.5 -20.5t21.5 -7.5
t21 7.5t8 20.5t-8 21.5t-21 8.5t-21.5 -8.5zM1281.5 236.5q8.5 7.5 8.5 20.5t-8.5 21.5t-21.5 8.5t-21 -8.5t-8 -21.5t8 -20.5t21 -7.5t21.5 7.5zM797.5 195q-8.5 -8 -8.5 -21t8.5 -21t21.5 -8t21 8t8 21t-8 21t-21 8t-21.5 -8zM1267 153q8 8 8 21t-8 21t-21 8t-21 -8
t-8 -21t8 -21t21 -8t21 8zM844.5 115q-8.5 -8 -8.5 -21t8.5 -21t21.5 -8t21 8t8 21t-8 21t-21 8t-21.5 -8zM1220.5 73q8.5 8 8.5 21t-8.5 21t-21.5 8t-21 -8t-8 -21t8 -21t21 -8t21.5 8zM922 65.5q-8 -8.5 -8 -21.5t8 -21t21 -8t21 8t8 21t-8 21.5t-21 8.5t-21 -8.5z
M1143 23q8 8 8 21t-8 21.5t-21 8.5t-21 -8.5t-8 -21.5t8 -21t21 -8t21 8zM1053 8q8 8 8 21t-8 21.5t-21 8.5t-21 -8.5t-8 -21.5t8 -21t21 -8t21 8z" />
    <glyph glyph-name="tm_Virama" unicode="&#xbcd;" horiz-adv-x="0" 
d="M30.5 644q12.5 12 12.5 30t-12.5 30.5t-30.5 12.5q-19 0 -30.5 -12t-11.5 -31q0 -18 11.5 -30t30.5 -12q18 0 30.5 12z" />
    <glyph glyph-name="tm_Om" unicode="&#xbd0;" horiz-adv-x="808" 
d="M568 41.5q32 -31.5 93 -31.5h63v-45h-63q-35 0 -62 7v-22q0 -48 -24.5 -86.5t-68 -60.5t-98.5 -22t-98.5 22t-68 60.5t-24.5 86.5v50h56v-50q0 -52 38 -86t97 -34t97.5 34t38.5 86v47q-29 21 -44.5 55.5t-15.5 80.5v136h52q1 -40 24 -67t59 -27t55.5 29.5t19.5 77.5
q0 58 -38 104.5t-104 72.5t-148 26q-84 0 -151 -28t-104.5 -77t-37.5 -111v-1q12 33 41.5 52.5t69.5 19.5q56 0 92 -33t36 -85q0 -53 -36.5 -86.5t-93.5 -33.5q-45 0 -83 21.5t-60 60t-22 85.5q0 76 45 136.5t124.5 94.5t179.5 34t179.5 -32.5t124.5 -90t45 -129.5
q0 -69 -36 -112.5t-98 -43.5q-49 0 -83 31v-24q0 -60 32 -91.5zM166.5 275.5q-21.5 -20.5 -21.5 -53.5q0 -32 20.5 -53t52.5 -22h1v0v0h1q32 0 53.5 21t22.5 54q0 33 -21 53.5t-54 20.5t-54.5 -20.5zM392.5 36.5q-4.5 4.5 -4.5 11.5t4.5 12t11.5 5t12 -5t5 -12t-5 -11.5
t-12 -4.5t-11.5 4.5zM360 12v-84h32v41q0 20 10.5 33t30.5 13q24 0 37.5 -15.5t13.5 -40.5q0 -24 -14 -39t-39 -15h-96v106zM417 -72h16q11 0 18 8.5t7 22.5q0 15 -5.5 24.5t-16.5 9.5q-19 0 -19 -25v-40z" />
    <glyph glyph-name="tm_AuLengthMark" unicode="&#xbd7;" horiz-adv-x="1203" 
d="M1193 468h-193v-468h-56v468h-263v-468h-56v228q0 73 -33.5 131t-91 90.5t-126.5 32.5q-79 0 -138 -31.5t-90.5 -87t-31.5 -126.5q0 -107 67 -164q-17 31 -17 68q0 46 21 82.5t58 57t83 20.5q48 0 86.5 -20.5t60.5 -57t22 -82.5q0 -45 -22 -81.5t-60.5 -57t-86.5 -20.5
q-86 0 -147 32.5t-92.5 90t-31.5 132.5q0 85 39 152t111.5 104.5t168.5 37.5q78 0 145 -37t106 -102v121h564zM245 59.5q32 -32.5 81 -32.5q50 0 82.5 32t32.5 82t-32.5 82.5t-82.5 32.5q-49 0 -81 -32.5t-32 -82.5q0 -49 32 -81.5z" />
    <glyph glyph-name="tm_Zero" unicode="&#xbe6;" horiz-adv-x="713" 
d="M509.5 495.5q68.5 -35.5 108 -98t40.5 -140.5q-1 -79 -40.5 -141.5t-108 -98t-153.5 -35.5t-153.5 35.5t-108 98t-39.5 141.5q0 78 39.5 140.5t108 98t153.5 35.5t153.5 -35.5zM480 60q55 29 86.5 80.5t31.5 116.5t-31.5 116t-86.5 80t-124 29t-124 -29t-86.5 -80
t-31.5 -116t31.5 -116.5t86.5 -80.5t124 -29t124 29z" />
    <glyph glyph-name="tm_One" unicode="&#xbe7;" horiz-adv-x="736" 
d="M649 250.5q52 -42.5 52 -110.5q0 -46 -25 -81.5t-71.5 -56t-109.5 -20.5v45q69 0 107.5 31.5t38.5 81.5q0 49 -35 78.5t-98 29.5h-45v-43q0 -104 -60 -163.5t-166 -59.5q-56 0 -99.5 20t-68 55t-24.5 79q0 55 31.5 94t88.5 54v229h467l5 -45h-174v-175h44q90 0 142 -42.5
zM221 468v-175h13h173v175h-186zM407 248h-171q-63 0 -97.5 -31.5t-34.5 -81.5q0 -45 37 -74.5t96 -29.5q81 0 125.5 46t44.5 128v43z" />
    <glyph glyph-name="tm_Two" unicode="&#xbe8;" horiz-adv-x="765" 
d="M755 45v-45h-676v45h232q65 0 117 29t81.5 81t29.5 118q0 59 -27.5 107t-78 75t-117.5 27q-59 0 -107 -21.5t-78 -61.5q27 13 65 13q66 0 109 -40t43 -101q0 -63 -43 -103.5t-109 -40.5q-70 0 -115.5 41.5t-45.5 106.5q0 73 36 131.5t100 91.5t145 33q84 0 148 -33
t99.5 -92t35.5 -133q0 -75 -31.5 -134.5t-90.5 -93.5h278zM121 340.5q-29 -25.5 -29 -65.5q0 -44 29 -72t75 -28q41 0 68.5 27t27.5 69q0 41 -27.5 68t-68.5 27q-46 0 -75 -25.5z" />
    <glyph glyph-name="tm_Three" unicode="&#xbe9;" horiz-adv-x="813" 
d="M803 45v-45h-462v45h130q75 0 118 41.5t43 108.5q0 55 -28.5 88.5t-81.5 33.5q-55 0 -90 -39.5t-35 -99.5v-27h-56v317h-191v-468h-55v513h491l4 -45h-193v-162q24 28 56.5 43.5t71.5 15.5q77 0 121.5 -47t44.5 -123q0 -47 -20 -86t-57 -64h189z" />
    <glyph glyph-name="tm_Four" unicode="&#xbea;" horiz-adv-x="802" 
d="M757 248h-294v-43q0 -104 -60 -163.5t-166 -59.5q-56 0 -99.5 20t-68 55t-24.5 79q0 55 31.5 94t88.5 54v229h467l5 -45h-174v-175h242v220h52v-265zM221 468v-175h13h173v175h-186zM407 248h-171q-63 0 -97.5 -31.5t-34.5 -81.5q0 -45 37 -74.5t96 -29.5q81 0 125.5 46
t44.5 128v43z" />
    <glyph glyph-name="tm_Five" unicode="&#xbeb;" horiz-adv-x="1228" 
d="M1077 0v336q0 118 -51.5 209t-151.5 142.5t-240 51.5q-156 0 -269 -62.5t-172 -173.5t-59 -254q0 -139 48.5 -241.5t142 -158.5t226.5 -56q114 0 199.5 41t132 117.5t46.5 179.5q0 81 -27.5 129t-86.5 48q-52 0 -86.5 -39.5t-34.5 -99.5v-169h-55v468h-207v-468h-56v513
h507l5 -45h-194v-170q47 58 124 58q83 0 127 -61.5t44 -163.5q0 -117 -54.5 -204.5t-153.5 -135t-230 -47.5q-150 0 -257 62.5t-163 177t-56 267.5q0 156 66.5 278t193 190.5t299.5 68.5q156 0 268.5 -57.5t171.5 -159.5t59 -233v-338h-56z" />
    <glyph glyph-name="tm_Six" unicode="&#xbec;" horiz-adv-x="1059" 
d="M1049 45v-45h-314v45q61 0 97.5 32t36.5 81q0 45 -28 73.5t-72 28.5q-53 0 -87 -33.5t-34 -86.5v-140h-55v140q0 48 -34 77.5t-96 30.5v-43q0 -104 -60 -163.5t-166 -59.5q-56 0 -99.5 20t-68 55t-24.5 79q0 55 31.5 94t88.5 54v229h467l5 -45h-174v-175q54 -1 94.5 -18
t63.5 -48q22 39 62 61.5t89 22.5q69 0 112.5 -42.5t43.5 -110.5q0 -35 -13.5 -64t-40.5 -49h175zM221 468v-175h13h173v175h-186zM362.5 77q44.5 46 44.5 128v43h-171q-63 0 -97.5 -31.5t-34.5 -81.5q0 -45 37 -74.5t96 -29.5q81 0 125.5 46z" />
    <glyph glyph-name="tm_Seven" unicode="&#xbed;" horiz-adv-x="742" 
d="M652 0h-56v468h-213q-135 0 -202 -62.5t-67 -168.5q0 -107 67 -164q-17 31 -17 68q0 46 21 82.5t58 57t83 20.5q48 0 86.5 -20.5t60.5 -57t22 -82.5q0 -45 -22 -81.5t-60.5 -57t-86.5 -20.5q-86 0 -147 32.5t-92.5 90t-31.5 132.5q0 125 80.5 200.5t238.5 75.5l278 1
v-514zM245 59.5q32 -32.5 81 -32.5q50 0 82.5 32t32.5 82t-32.5 82.5t-82.5 32.5q-49 0 -81 -32.5t-32 -82.5q0 -49 32 -81.5z" />
    <glyph glyph-name="tm_Eight" unicode="&#xbee;" horiz-adv-x="1057" 
d="M962 513v-639h-56v206h-182q-46 -104 -149 -164t-244 -60q-87 0 -154.5 22.5t-104.5 61.5t-37 86q0 46 29.5 72.5t85.5 26.5h168q-44 28 -69 74t-25 104q0 66 30.5 118t85.5 81t126 29q86 0 151.5 -38.5t101 -107t35.5 -155.5q0 -54 -14 -105h166v388h56zM694 230
q0 72 -28 129.5t-79.5 90t-120.5 32.5q-54 0 -95.5 -23t-64 -64t-22.5 -92t24.5 -91.5t68 -63.5t98.5 -23h203q16 48 16 105zM530.5 -48q85.5 47 128.5 128h-506q-59 0 -59 -54q0 -30 29.5 -58t84 -45.5t123.5 -17.5q114 0 199.5 47z" />
    <glyph glyph-name="tm_Nine" unicode="&#xbef;" horiz-adv-x="933" 
d="M853 266q45 -47 45 -121q0 -41 -9 -74t-29 -77l-57 6q16 32 25.5 72.5t9.5 72.5q0 55 -27.5 87.5t-78.5 32.5q-26 0 -54 -10q34 -26 53.5 -65.5t19.5 -86.5q0 -53 -31.5 -87t-80.5 -34q-50 0 -81.5 34t-31.5 87q0 42 14 79t39 65q-6 1 -17 1h-99v-43q0 -104 -60 -163.5
t-166 -59.5q-56 0 -99.5 20t-68 55t-24.5 79q0 55 31.5 94t88.5 54v229h467l5 -45h-174v-175h98q35 0 62 -10q49 30 109 30q76 0 121 -47zM221 468v-175h13h173v175h-186zM407 248h-171q-63 0 -97.5 -31.5t-34.5 -81.5q0 -45 37 -74.5t96 -29.5q81 0 125.5 46t44.5 128v43z
M676 174q-16 32 -43 51q-23 -21 -35.5 -52.5t-12.5 -69.5q0 -31 15 -50.5t39 -19.5q23 0 38 19.5t15 50.5q0 39 -16 71z" />
    <glyph glyph-name="tm_Ten" unicode="&#xbf0;" horiz-adv-x="785" 
d="M708.5 378.5q21.5 -79.5 21.5 -143.5q0 -121 -44.5 -187t-139.5 -66q-109 0 -154 88q-45 -88 -154 -88q-183 0 -183 253q0 64 21 143.5t63 148.5l55 -14q-40 -56 -61 -136t-21 -144q0 -202 126 -202q65 0 95.5 45.5t30.5 133.5v128h56v-128q0 -179 126 -179
q67 0 96.5 52.5t29.5 149.5q0 64 -21 144t-61 136l55 14q42 -69 63.5 -148.5z" />
    <glyph glyph-name="tm_Hundred" unicode="&#xbf1;" horiz-adv-x="964" 
d="M760 468v-468h-55v468h-263v-468h-56v314q0 76 -33 122t-97 46q-116 0 -116 -154v-328h-55v329q0 101 46.5 151.5t124.5 50.5q42 0 75 -18.5t55 -51.5v52h563l5 -45h-194z" />
    <glyph glyph-name="tm_Thousand" unicode="&#xbf2;" horiz-adv-x="1078" 
d="M957 112q40 -23 63 -64t23 -91q0 -57 -27.5 -99.5t-77 -66t-113.5 -23.5h-154q-56 0 -83.5 -12.5t-46.5 -40.5l-42 30q17 33 64.5 50.5t113.5 17.5h148q72 0 115 40.5t43 104.5q0 55 -32.5 93.5t-83.5 38.5h-15v-23q0 -53 -24.5 -92.5t-66.5 -61t-93 -21.5q-79 0 -124 35
t-45 92q0 52 41 84t115 32h141v113h-333v-43q0 -104 -60 -163.5t-166 -59.5q-56 0 -99.5 20t-68 55t-24.5 79q0 55 31.5 94t88.5 54v229h467l5 -45h-174v-175h536l4 -45h-151v-113h14q51 0 91 -23zM221 468v-175h13h173v175h-186zM407 248h-171q-63 0 -97.5 -31.5
t-34.5 -81.5q0 -45 37 -74.5t96 -29.5q81 0 125.5 46t44.5 128v43zM796 90h-139q-49 0 -74 -20t-25 -52q0 -35 28.5 -56t81.5 -21t90.5 35.5t37.5 90.5v23z" />
    <glyph glyph-name="tm_Naal" unicode="&#xbf3;" horiz-adv-x="869" 
d="M859 45v-45h-322l1 45q36 40 57 94t21 116q0 64 -31.5 116t-86.5 81.5t-124 29.5q-81 0 -139.5 -31.5t-89.5 -87t-31 -126.5q0 -107 67 -164q-17 31 -17 68q0 46 21 82.5t58 57t83 20.5q48 0 86.5 -20.5t60.5 -57t22 -82.5q0 -45 -22 -81.5t-60.5 -57t-86.5 -20.5
q-86 0 -147 32.5t-92.5 90t-31.5 132.5q0 86 38.5 152.5t110.5 104t170 37.5q85 0 154 -35.5t108.5 -98.5t39.5 -142q0 -57 -19 -112t-50 -98h252zM245 59.5q32 -32.5 81 -32.5q50 0 82.5 32t32.5 82t-32.5 82.5t-82.5 32.5q-49 0 -81 -32.5t-32 -82.5q0 -49 32 -81.5z" />
    <glyph glyph-name="tm_Maatham" unicode="&#xbf4;" horiz-adv-x="1180" 
d="M1180 609v-45h-278v45q49 0 78 30.5t29 78.5q0 50 -35 80.5t-92 30.5q-37 0 -72 -11q28 -29 44 -67.5t16 -83.5q0 -53 -32.5 -87t-83.5 -34t-84.5 34.5t-33.5 86.5q0 45 20.5 85t56.5 69q-24 8 -51 8q-70 0 -114.5 -44.5t-44.5 -112.5q0 -50 19 -88t53 -56
q85 -15 131.5 -95t46.5 -202q0 -104 -52.5 -167.5t-148.5 -63.5h-457v513l55 5v-473h225v304q0 74 32.5 119.5t88.5 57.5q-52 55 -52 146q0 59 28 106t77.5 73.5t112.5 26.5q56 0 102 -26q55 26 118 26q53 0 95.5 -20.5t66.5 -57t24 -82.5q0 -33 -12 -61t-35 -48h159z
M798 738.5q-13 32.5 -37 54.5q-31 -22 -48 -54.5t-17 -71.5q0 -31 16.5 -51.5t41.5 -20.5t41 20.5t16 51.5q0 39 -13 71.5zM654 412.5q-40 69.5 -110 69.5q-51 0 -82 -33.5t-31 -97.5v-306h121q69 0 105.5 51t36.5 135q0 112 -40 181.5z" />
    <glyph glyph-name="tm_Varudam" unicode="&#xbf5;" horiz-adv-x="1717" 
d="M1618 294.5q44 -61.5 44 -163.5q0 -124 -64.5 -208.5t-181 -126.5t-271.5 -42h-510q-169 0 -296 53.5t-195.5 148t-68.5 214.5q0 95 41 194.5t104 158.5l57 -10q-62 -50 -102.5 -147.5t-40.5 -197.5q0 -107 61 -191t174 -131t266 -47h510q137 -3 240 34t160.5 112.5
t57.5 185.5q0 81 -28 129t-87 48q-52 0 -86 -39.5t-34 -99.5v-169h-56v468h-200v-468h-342l1 45q36 40 57 94t21 116q0 64 -31 116t-86.5 81.5t-124.5 29.5q-80 0 -139 -31.5t-90 -87t-31 -126.5q0 -52 17.5 -94.5t50.5 -70.5q-17 31 -17 69q0 46 21 82.5t58 57t83 20.5
q48 0 86.5 -20.5t60 -57t21.5 -82.5q0 -45 -21.5 -81.5t-60 -57t-86.5 -20.5q-86 0 -147.5 32.5t-93 90t-31.5 132.5q0 86 38.5 152.5t110.5 104t170 37.5q85 0 154 -35.5t108.5 -98.5t39.5 -142q0 -58 -18.5 -112.5t-50.5 -97.5h216v468h501l4 -45h-193v-170q22 28 53 43
t70 15q83 0 127 -61.5zM478.5 59.5q32.5 -32.5 81.5 -32.5q50 0 82 32.5t32 81.5q0 50 -32 82.5t-82 32.5t-82 -32.5t-32 -82.5q0 -49 32.5 -81.5z" />
    <glyph glyph-name="tm_Patru" unicode="&#xbf6;" horiz-adv-x="960" 
d="M865 -133h-255q-9 -59 -50 -104.5t-105.5 -71t-141.5 -25.5q-65 0 -114.5 18t-76.5 50t-27 73q0 47 32.5 76t93.5 29h335v88h-461v513l55 5v-473h406v468h56v-601h197v601h56v-646zM423 -265.5q51 19.5 85.5 54t44.5 78.5h-332q-67 0 -67 -60q0 -40 45 -66t114 -26
q59 0 110 19.5z" />
    <glyph glyph-name="tm_Varavu" unicode="&#xbf7;" horiz-adv-x="1300" 
d="M1290 45v-45h-278v45q50 0 78.5 30.5t28.5 78.5t-36 79.5t-91 31.5q-46 0 -85 -17q31 -26 48 -63.5t17 -81.5q0 -53 -31.5 -87t-81.5 -34q-49 0 -80.5 34t-31.5 87q0 41 17 77t47 65q-14 3 -28 3h-131v-248h-56v468h-213q-135 0 -202 -62.5t-67 -168.5q0 -107 67 -164
q-17 31 -17 68q0 46 21 82.5t58 57t83 20.5q48 0 86.5 -20.5t60.5 -57t22 -82.5q0 -45 -22 -81.5t-60.5 -57t-86.5 -20.5q-86 0 -147 32.5t-92.5 90t-31.5 132.5q0 125 80.5 200.5t238.5 75.5h467l5 -45h-194v-175h130q41 0 75 -15q61 35 135 35q53 0 96 -20.5t67 -56.5
t24 -82q0 -33 -12.5 -61.5t-35.5 -47.5h159zM245 59.5q32 -32.5 81 -32.5q50 0 82.5 32t32.5 82t-32.5 82.5t-82.5 32.5q-49 0 -81 -32.5t-32 -82.5q0 -49 32 -81.5zM898 169.5q-14 30.5 -38 50.5q-25 -22 -39.5 -52t-14.5 -65q0 -31 15 -50.5t38 -19.5q24 0 38.5 19.5
t14.5 50.5q0 36 -14 66.5z" />
    <glyph glyph-name="tm_Merpadi" unicode="&#xbf8;" horiz-adv-x="1817" 
d="M1722 0h-206v-243h-56v243h-433v45q27 53 41 114.5t14 111.5q0 95 -50 153t-144 58q-82 0 -148 -47q62 -49 95.5 -117t33.5 -147q0 -85 -42 -137t-113 -52q-70 0 -112.5 52.5t-42.5 136.5q0 76 26.5 143t73.5 117q-90 51 -213 51q-99 0 -174.5 -33t-116.5 -90.5
t-41 -130.5q0 -49 17.5 -89t50.5 -67q-18 30 -18 69q0 46 21 82.5t58 57t83 20.5q48 0 86.5 -20.5t60.5 -57t22 -82.5q0 -45 -22 -81.5t-60.5 -57t-86.5 -20.5q-85 0 -146.5 32t-93 88t-31.5 126q0 87 48.5 156t137.5 108t205 39q143 0 251 -66q40 32 89 49t102 17
q80 0 137 -33.5t86 -92.5t29 -136q0 -110 -53 -224h373v162q-34 -8 -65 -8q-59 0 -104.5 21.5t-70.5 60t-25 87.5q0 72 45 117.5t118 45.5q74 0 116 -43.5t42 -118.5v-85q79 52 150 184h56v-468zM1460 258v106q0 56 -26 87t-76 31q-47 0 -75.5 -31.5t-28.5 -82.5
q0 -53 38.5 -86.5t102.5 -33.5q36 0 65 10zM782 301q-28 59 -80 101q-40 -43 -61.5 -102t-21.5 -129q0 -61 26 -100.5t69 -39.5q45 0 70.5 39t25.5 101q0 71 -28 130zM1666 45v324q-63 -99 -150 -142v-182h150zM245 59.5q32 -32.5 81 -32.5q50 0 82.5 32t32.5 82t-32.5 82.5
t-82.5 32.5q-49 0 -81 -32.5t-32 -82.5q0 -49 32 -81.5z" />
    <glyph glyph-name="tm_Rupee" unicode="&#xbf9;" horiz-adv-x="1064" 
d="M965 294.5q44 -61.5 44 -163.5q0 -124 -54.5 -211t-154 -131.5t-232.5 -44.5q-240 0 -366.5 139.5t-126.5 395.5q0 171 66.5 308t184.5 214t267 77q105 0 186.5 -28.5t126 -73t44.5 -90.5q0 -43 -27 -70.5t-68 -27.5q-44 0 -72.5 26.5t-28.5 66.5q0 36 23 60.5t61 29.5
q-44 25 -108 40t-137 15q-132 0 -236.5 -70t-163.5 -195t-59 -284q0 -235 110 -359.5t324 -124.5q177 0 279 86t102 252q0 81 -27.5 129t-86.5 48q-52 0 -86.5 -39.5t-34.5 -99.5v-169h-55v468h-227v-468h-56v513h527l5 -45h-194v-170q21 28 53 43t71 15q83 0 127 -61.5z
M891.5 643.5q14.5 14.5 14.5 36.5q0 21 -14.5 35.5t-36.5 14.5t-36.5 -14.5t-14.5 -35.5q0 -22 14.5 -36.5t36.5 -14.5t36.5 14.5z" />
    <glyph glyph-name="tm_Enn" unicode="&#xbfa;" horiz-adv-x="979" 
d="M979 609v-45h-278v45q49 0 78 30.5t29 78.5t-36 79.5t-91 31.5q-37 0 -72 -11q28 -29 44 -67.5t16 -83.5q0 -53 -32.5 -87t-83.5 -34t-84.5 34.5t-33.5 86.5q0 45 20.5 85t56.5 69q-24 8 -51 8q-70 0 -114.5 -44.5t-44.5 -112.5q0 -70 35.5 -114.5t95.5 -44.5h153l4 -45
h-193v-170q22 28 53 43t70 15q84 0 127.5 -61.5t43.5 -163.5q0 -86 -32.5 -153t-95 -104.5t-149.5 -37.5h-108q-57 0 -100 -21.5t-66 -57.5l-45 24q26 44 76.5 72t120.5 28h122q105 0 161.5 68.5t56.5 181.5q0 81 -28 129t-86 48q-52 0 -86.5 -39.5t-34.5 -99.5v-169h-56
v468h-191v-468h-55v513h215q-32 26 -49.5 67.5t-17.5 91.5q0 59 28 106t77.5 73.5t112.5 26.5q56 0 102 -26q55 26 118 26q53 0 95.5 -20.5t66.5 -57t24 -82.5q0 -67 -48 -109h160zM597 739q-13 32 -37 54q-31 -22 -48 -54.5t-17 -71.5q0 -31 16.5 -51.5t41.5 -20.5t41 20.5
t16 51.5q0 40 -13 72z" />
    <glyph glyph-name="uni200C" unicode="&#x200c;" horiz-adv-x="0" 
d="M-30 -68h60v1305h-60v-1305z" />
    <glyph glyph-name="uni200D" unicode="&#x200d;" horiz-adv-x="0" 
d="M0 1246l-73 74l-40 -40l74 -74l-74 -74l39 -39l44 43v-1204h60v1205l45 -44l39 39l-74 74l74 74l-40 40z" />
    <glyph glyph-name="endash" unicode="&#x2013;" horiz-adv-x="439" 
d="M401 298h-371l8 -50h371z" />
    <glyph glyph-name="emdash" unicode="&#x2014;" horiz-adv-x="534" 
d="M496 298h-466l8 -50h466z" />
    <glyph glyph-name="quoteleft" unicode="&#x2018;" horiz-adv-x="160" 
d="M111 512q14 14 14 33t-12 32.5t-32 15.5q2 25 17 43t42 35l-19 31q-37 -19 -64 -62.5t-27 -87.5q0 -25 13 -39.5t34 -14.5q20 0 34 14z" />
    <glyph glyph-name="quoteright" unicode="&#x2019;" horiz-adv-x="160" 
d="M48 687.5q-14 -14.5 -14 -33.5q0 -18 12 -32t30 -16q-2 -25 -16 -43.5t-40 -35.5l18 -29q38 19 65 62t27 87q0 24 -14 39.5t-33 15.5q-21 0 -35 -14.5z" />
    <glyph glyph-name="quotesinglbase" unicode="&#x201a;" horiz-adv-x="160" 
d="M48 80.5q-14 -13.5 -14 -32.5t12 -32.5t30 -14.5q-2 -25 -16 -44t-40 -36l18 -29q38 19 65 61.5t27 87.5q0 24 -13.5 38.5t-33.5 14.5q-21 0 -35 -13.5z" />
    <glyph glyph-name="quotedblleft" unicode="&#x201c;" horiz-adv-x="306" 
d="M111 512q14 14 14 33t-12 32.5t-32 15.5q2 25 17 43t42 35l-19 31q-37 -19 -64 -62.5t-27 -87.5q0 -25 13 -39.5t34 -14.5q20 0 34 14zM257.5 512q14.5 14 14.5 33q0 18 -12 32t-30 16q1 25 15.5 43t40.5 35l-17 31q-39 -19 -65.5 -62t-26.5 -88q0 -24 13.5 -39t32.5 -15
q20 0 34.5 14z" />
    <glyph glyph-name="quotedblright" unicode="&#x201d;" horiz-adv-x="306" 
d="M48 687.5q-14 -14.5 -14 -33.5q0 -18 12 -32t30 -16q-2 -25 -16 -43.5t-40 -35.5l18 -29q38 19 65 62t27 87q0 24 -14 39.5t-33 15.5q-21 0 -35 -14.5zM195 687.5q-14 -14.5 -14 -33.5q0 -18 12 -32t31 -16q-2 -25 -16.5 -43.5t-40.5 -35.5l18 -29q37 19 64 62t27 87
q0 24 -14 39.5t-33 15.5q-20 0 -34 -14.5z" />
    <glyph glyph-name="quotedblbase" unicode="&#x201e;" horiz-adv-x="306" 
d="M48 81.5q-14 -13.5 -14 -33.5q0 -19 12 -32.5t30 -14.5q-2 -25 -16 -43.5t-40 -35.5l18 -30q38 19 65 62t27 87q0 24 -14 39t-33 15q-21 0 -35 -13.5zM195 80.5q-14 -13.5 -14 -32.5q0 -18 12.5 -32t30.5 -15q-2 -25 -16.5 -44t-40.5 -36l18 -29q38 19 64.5 61.5
t26.5 87.5q0 24 -13.5 38.5t-33.5 14.5t-34 -13.5z" />
    <glyph glyph-name="dagger" unicode="&#x2020;" horiz-adv-x="373" 
d="M154 783v-158h-124l19 -48h105l10 -577l46 -4l10 581h123l-19 48h-104v155z" />
    <glyph glyph-name="daggerdbl" unicode="&#x2021;" horiz-adv-x="376" 
d="M222 1l-5 185h129l-19 49h-109l3 299h125l-19 50h-109l5 196l-68 3l5 -199h-130l19 -50h109l-3 -299h-125l19 -49h109l-5 -192z" />
    <glyph glyph-name="bullet" unicode="&#x2022;" horiz-adv-x="224" 
d="M170 269q24 24 24 57q0 34 -24 58.5t-58 24.5t-58 -24.5t-24 -58.5q0 -33 24 -57t58 -24t58 24z" />
    <glyph glyph-name="ellipsis" unicode="&#x2026;" horiz-adv-x="439" 
d="M107 13q13 13 13 32t-13 32t-32 13t-32 -13t-13 -32t13 -32t32 -13t32 13zM254 13q13 13 13 32t-13 32t-32 13t-32.5 -13t-13.5 -32t13.5 -32t32.5 -13t32 13zM396 13q13 13 13 32t-13 32t-32 13t-32.5 -13t-13.5 -32t13.5 -32t32.5 -13t32 13z" />
    <glyph glyph-name="perthousand" unicode="&#x2030;" horiz-adv-x="1208" 
d="M544 710l-308 -710l58 -4l309 710zM111.5 681q-35.5 -21 -56 -59.5t-20.5 -89.5q0 -80 42.5 -124.5t114.5 -44.5q67 0 111 46t44 123q0 80 -42.5 125t-113.5 45q-44 0 -79.5 -21zM257.5 621q26.5 -30 26.5 -89q0 -60 -27.5 -89t-64.5 -29q-40 0 -67 29.5t-27 88.5
q0 60 27.5 89.5t65.5 29.5q40 0 66.5 -30zM569.5 317q-35.5 -21 -56 -59.5t-20.5 -88.5q0 -80 42.5 -124.5t113.5 -44.5q67 0 111 46t44 123q0 79 -42.5 124t-112.5 45q-44 0 -79.5 -21zM937.5 317q-35.5 -21 -55.5 -59.5t-20 -88.5q0 -80 42 -124.5t114 -44.5q67 0 111 46
t44 123q0 80 -42 124.5t-114 44.5q-44 0 -79.5 -21zM714.5 258q26.5 -30 26.5 -89t-27.5 -88.5t-64.5 -29.5q-40 0 -66.5 29.5t-26.5 88.5q0 61 27.5 90t65.5 29q39 0 65.5 -30zM1084 258q27 -30 27 -89t-28 -88.5t-65 -29.5q-40 0 -67 29.5t-27 88.5q0 61 28 90t65 29
q40 0 67 -30z" />
    <glyph glyph-name="guilsinglleft" unicode="&#x2039;" horiz-adv-x="211" 
d="M30 221l140 -138l21 44l-109 118l109 118l-21 45l-140 -139v-48z" />
    <glyph glyph-name="guilsinglright" unicode="&#x203a;" horiz-adv-x="213" 
d="M183 269l-140 139l-23 -45l112 -118l-112 -118l23 -44l140 138v48z" />
    <glyph glyph-name="fraction" unicode="&#x2044;" horiz-adv-x="385" 
d="M318 710l-308 -710l56 -4l309 710z" />
    <glyph glyph-name="Euro" unicode="&#x20ac;" horiz-adv-x="593" 
d="M477.5 49q34.5 8 66.5 22l24 -48q-28 -15 -78.5 -26t-93.5 -11q-118 0 -194.5 65.5t-103.5 171.5h-89l-9 50h88q-4 28 -4 63q0 32 5 69h-80l-9 49h99q30 108 110 174t193 66q37 0 89 -10t77 -27l-20 -46q-37 15 -66.5 22t-78.5 7q-81 -1 -144 -51t-91 -135h262l8 -49
h-282q-6 -33 -6 -68q0 -29 5 -64h275l8 -50h-272q25 -83 84 -132.5t144 -49.5q49 0 83.5 8z" />
    <glyph glyph-name="Turkishlira" unicode="&#x20ba;" horiz-adv-x="481" 
d="M148 0q77 0 149.5 45.5t118 122t45.5 163.5h-63q0 -71 -37.5 -136t-96 -104.5t-116.5 -39.5v338l198 69l-9 45l-189 -67v55l198 70l-9 44l-189 -67v168l-62 -10v-180l-86 -30l8 -45l78 27v-53l-86 -31l8 -45l78 28v-367h62z" />
    <glyph glyph-name="Ruble" unicode="&#x20bd;" horiz-adv-x="551" 
d="M157 264v-61h292l5 -46h-297v-157h-62v157h-53l-5 46h58v65h-53l-5 46h58v366h176q113 0 179 -49.5t66 -155.5q-1 -105 -72 -158t-184 -53h-103zM157 317h105q86 0 138 38t53 119q0 83 -46 118t-134 35h-116v-310z" />
    <glyph glyph-name="litre" unicode="&#x2113;" horiz-adv-x="350" 
d="M78 223v-73q0 -79 28.5 -120.5t102.5 -41.5q61 0 94 32l-21 38q-42 -17 -67 -17q-46 0 -60 29.5t-14 88.5v115q78 73 128.5 154t50.5 146q0 59 -32.5 93.5t-84.5 34.5q-56 0 -90.5 -36t-34.5 -100v-278q-10 -10 -32 -29t-36 -28l14 -46q27 14 54 38zM225 464.5
q-32 -57.5 -84 -114.5v216q0 45 17.5 64t44.5 20q54 0 54 -78q0 -50 -32 -107.5z" />
    <glyph glyph-name="trademark" unicode="&#x2122;" horiz-adv-x="718" 
d="M288 680h-278v-44h114v-330h54v330h113zM519 408l104 153v-255h50v374h-22l-138 -197l-143 197h-20v-374h52v254l105 -154z" />
    <glyph glyph-name="Ohm" unicode="&#x2126;" horiz-adv-x="718" 
d="M589 225q-17 -59 -47 -106.5t-67 -68.5l-5 -50h197l6 50h-120q55 41 87.5 121t32.5 166q0 100 -38 181t-109 128.5t-167 49.5q-96 -2 -167 -49.5t-109 -128.5t-38 -181q0 -85 32.5 -165.5t86.5 -121.5h-119l6 -50h196l-5 50q-37 21 -67 68.5t-47 106.5t-17 113
q0 86 32 155t88.5 108t127.5 39t127 -39t88 -108t32 -155q0 -54 -17 -113z" />
    <glyph glyph-name="estimated" unicode="&#x212e;" horiz-adv-x="493" 
d="M408 427.5q-50 70.5 -153 70.5q-104 0 -161.5 -70t-58.5 -183q0 -118 62 -188t184 -70q52 0 89.5 11.5t80.5 34.5l-21 46q-40 -21 -76 -31.5t-76 -10.5q-93 0 -136 54.5t-44 147.5h360q0 118 -50 188.5zM145 401.5q38 44.5 107 44.5q127 0 143 -164h-295q7 75 45 119.5z
" />
    <glyph glyph-name="partialdiff" unicode="&#x2202;" horiz-adv-x="527" 
d="M404 549q88 -129 88 -309q0 -73 -29 -130.5t-83 -90t-126 -32.5q-68 0 -117.5 33t-75.5 91.5t-26 133.5q1 72 29 129.5t80.5 90.5t122.5 33q69 0 123 -39q-34 77 -105 139.5t-190 109.5l18 42q203 -72 291 -201zM383.5 95q44.5 56 45.5 144q0 79 -14 143
q-27 31 -65.5 47.5t-83.5 16.5q-78 0 -122.5 -56t-45.5 -144q0 -93 42 -150t121 -57q78 0 122.5 56z" />
    <glyph glyph-name="Delta" unicode="&#x2206;" horiz-adv-x="592" 
d="M257 680l-247 -680h572v10l-260 670h-65zM502 50h-415l203 550z" />
    <glyph glyph-name="product" unicode="&#x220f;" horiz-adv-x="605" 
d="M95 0h57v636h300v-636h58v680h-415v-680z" />
    <glyph glyph-name="summation" unicode="&#x2211;" horiz-adv-x="437" 
d="M390 680h-360v-45l205 -290l-205 -295v-50h387l-5 50h-319l192 280v30l-192 275h303z" />
    <glyph glyph-name="minus" unicode="&#x2212;" horiz-adv-x="477" 
d="M437 298h-407l8 -50h409z" />
    <glyph glyph-name="divisionslash" unicode="&#x2215;" horiz-adv-x="385" 
d="M318 710l-308 -710l56 -4l309 710z" />
    <glyph glyph-name="bulletmath" unicode="&#x2219;" horiz-adv-x="224" 
d="M170 269q24 24 24 57q0 34 -24 58.5t-58 24.5t-58 -24.5t-24 -58.5q0 -33 24 -57t58 -24t58 24z" />
    <glyph glyph-name="radical" unicode="&#x221a;" horiz-adv-x="534" 
d="M470 710l-262 -650l-138 261l-60 -4l165 -317l61 -4l288 710z" />
    <glyph glyph-name="infinity" unicode="&#x221e;" horiz-adv-x="814" 
d="M129.5 430q-44.5 -28 -69.5 -76.5t-25 -106.5q0 -90 54 -144.5t144 -54.5q55 0 94 30.5t69 83.5q81 -114 187 -114q58 0 102.5 28t69 75.5t24.5 106.5q0 90 -54 145t-144 55q-55 0 -94.5 -30t-71.5 -82q-36 52 -82.5 82t-101.5 30q-57 0 -101.5 -28zM492 359q35 46 89 46
q64 0 101.5 -42.5t37.5 -102.5q0 -67 -37 -113t-101 -46q-52 0 -92 30t-67 79l13 40q21 63 56 109zM323 145q-34 -44 -90 -44q-63 0 -100.5 42t-37.5 102q0 67 37 113t100 46q52 0 93 -29.5t67 -79.5l-13 -39q-22 -67 -56 -111z" />
    <glyph glyph-name="integral" unicode="&#x222b;" horiz-adv-x="306" 
d="M200.5 706.5q16.5 22.5 51.5 22.5q11 0 42 -10l12 52q-31 12 -67 12q-53 0 -85 -37t-32 -101v-686q0 -81 -69 -81q-10 0 -22.5 2.5t-18.5 5.5l-12 -53q39 -12 66 -12q54 0 86 38t32 101v685q0 39 16.5 61.5z" />
    <glyph glyph-name="approxequal" unicode="&#x2248;" horiz-adv-x="497" 
d="M399.5 354q-19.5 -10 -37.5 -10q-39 0 -101 22q-63 22 -107 22q-48 0 -86 -17t-38 -63l45 -11q2 20 24 30t41 10q45 0 108 -22q66 -23 99 -23q50 0 85 16t35 64l-47 12q-1 -20 -20.5 -30zM399.5 181q-19.5 -10 -37.5 -10q-37 0 -101 23q-63 22 -107 22q-49 0 -86.5 -17
t-37.5 -64l45 -10q2 19 24.5 29.5t40.5 10.5q45 0 108 -22q66 -23 99 -23q120 0 120 79l-47 12q-1 -20 -20.5 -30z" />
    <glyph glyph-name="notequal" unicode="&#x2260;" horiz-adv-x="497" 
d="M333 520l-66 -149h-237l8 -49h206l-58 -132h-156l8 -50h126l-67 -150l53 -5l70 155h247l-8 50h-218l59 132h167l-8 49h-137l64 146z" />
    <glyph glyph-name="lessequal" unicode="&#x2264;" horiz-adv-x="322" 
d="M302 148l-216 140l216 138l-23 44l-249 -160v-48l249 -159zM292 50h-262l9 -50h260z" />
    <glyph glyph-name="greaterequal" unicode="&#x2265;" horiz-adv-x="323" 
d="M293 310l-250 160l-23 -44l216 -138l-216 -140l23 -45l250 159v48zM281 50h-261l9 -50h260z" />
    <glyph glyph-name="lozenge" unicode="&#x25ca;" horiz-adv-x="520" 
d="M272 0l218 291v17l-218 291h-24l-218 -291v-17l218 -291h24zM259 531l173 -232l-173 -230l-170 230z" />
    <glyph glyph-name="uni25CC" unicode="&#x25cc;" horiz-adv-x="605" 
d="M323 467q8 8 8 21t-8 21.5t-21 8.5t-21 -8.5t-8 -21.5t8 -21t21 -8t21 8zM192 494q-8 -8 -8 -21t8 -21t21 -8t21 8t8 21t-8 21t-21 8t-21 -8zM413 452q8 8 8 21t-8 21t-21 8t-21 -8t-8 -21t8 -21t21 -8t21 8zM115.5 443.5q-8.5 -8.5 -8.5 -21.5t8.5 -21t21.5 -8t21 8
t8 21t-8 21.5t-21 8.5t-21.5 -8.5zM489.5 401q8.5 8 8.5 21t-8.5 21.5t-21.5 8.5t-21 -8.5t-8 -21.5t8 -21t21 -8t21.5 8zM67.5 364.5q-8.5 -8.5 -8.5 -21.5t8.5 -21t21.5 -8t21 8t8 21t-8 21.5t-21 8.5t-21.5 -8.5zM537 322q8 8 8 21t-8 21.5t-21 8.5t-21 -8.5t-8 -21.5
t8 -21t21 -8t21 8zM53.5 278.5q-8.5 -8.5 -8.5 -21.5t8.5 -20.5t21.5 -7.5t21 7.5t8 20.5t-8 21.5t-21 8.5t-21.5 -8.5zM551.5 236.5q8.5 7.5 8.5 20.5t-8.5 21.5t-21.5 8.5t-21 -8.5t-8 -21.5t8 -20.5t21 -7.5t21.5 7.5zM67.5 195q-8.5 -8 -8.5 -21t8.5 -21t21.5 -8t21 8
t8 21t-8 21t-21 8t-21.5 -8zM537 153q8 8 8 21t-8 21t-21 8t-21 -8t-8 -21t8 -21t21 -8t21 8zM114.5 115q-8.5 -8 -8.5 -21t8.5 -21t21.5 -8t21 8t8 21t-8 21t-21 8t-21.5 -8zM490.5 73q8.5 8 8.5 21t-8.5 21t-21.5 8t-21 -8t-8 -21t8 -21t21 -8t21.5 8zM192 65.5
q-8 -8.5 -8 -21.5t8 -21t21 -8t21 8t8 21t-8 21.5t-21 8.5t-21 -8.5zM413 23q8 8 8 21t-8 21.5t-21 8.5t-21 -8.5t-8 -21.5t8 -21t21 -8t21 8zM323 8q8 8 8 21t-8 21.5t-21 8.5t-21 -8.5t-8 -21.5t8 -21t21 -8t21 8z" />
    <glyph glyph-name="commaaccent" unicode="&#xf6c3;" horiz-adv-x="0" 
d="M-91.5 -35q-14.5 -14 -14.5 -34q0 -17 12 -31t31 -16q-1 -24 -15.5 -42.5t-41.5 -36.5l18 -30q39 19 65.5 62t26.5 88q0 24 -13.5 39t-34.5 15q-19 0 -33.5 -14z" />
    <glyph glyph-name="fi" unicode="&#xfb01;" horiz-adv-x="467" 
d="M90 428v-428h62v428h109l-21 47h-88v88q0 82 69 82q9 0 22 -3t19 -6l12 53q-34 13 -66 13q-54 0 -86 -38t-32 -101v-88h-73l1 -47h72zM403.5 604.5q14.5 13.5 14.5 33.5t-14.5 33.5t-33.5 13.5q-21 0 -34 -13.5t-13 -33.5t13 -33.5t34 -13.5q19 0 33.5 13.5zM402 0v485
h-63v-485h63z" />
    <glyph glyph-name="fl" unicode="&#xfb02;" horiz-adv-x="486" 
d="M90 428v-428h62v428h109l-21 47h-88v88q0 82 69 82q9 0 22 -3t19 -6l12 53q-34 13 -66 13q-54 0 -86 -38t-32 -101v-88h-73l1 -47h72zM411 0v706l-62 -10v-696h62z" />
    <glyph glyph-name="grave.case" horiz-adv-x="145" 
d="M95 739l40 13l-54 140h-71z" />
    <glyph glyph-name="dieresis.case" horiz-adv-x="263" 
d="M84.5 780.5q12.5 12.5 12.5 31.5q0 17 -12.5 29.5t-31.5 12.5q-17 0 -30 -12.5t-13 -29.5q0 -18 13 -31t30 -13q19 0 31.5 12.5zM241 780.5q12 12.5 12 31.5q0 18 -12 30t-31 12q-18 0 -30.5 -12.5t-12.5 -29.5q0 -19 12.5 -31.5t30.5 -12.5q19 0 31 12.5z" />
    <glyph glyph-name="macron.case" horiz-adv-x="261" 
d="M10 790h241l-6 49h-235v-49z" />
    <glyph glyph-name="acute.case" horiz-adv-x="145" 
d="M50 739l85 153h-71l-54 -140z" />
    <glyph glyph-name="circumflex.case" horiz-adv-x="282" 
d="M140 848l74 -109l58 10l-102 143h-60l-100 -143l55 -10z" />
    <glyph glyph-name="caron.case" horiz-adv-x="282" 
d="M142 783l-74 109l-58 -10l102 -143h60l100 143l-55 10z" />
    <glyph glyph-name="breve.case" horiz-adv-x="280" 
d="M200 824.5q-23 -25.5 -60 -25.5q-39 0 -61.5 25.5t-22.5 56.5h-46q0 -55 32.5 -92t97.5 -38q65 1 97.5 38t32.5 92h-47q0 -31 -23 -56.5z" />
    <glyph glyph-name="dotaccent.case" horiz-adv-x="115" 
d="M91 782q14 14 14 34q0 19 -14 33.5t-33 14.5q-20 0 -34 -14.5t-14 -33.5q0 -20 14 -34t34 -14q19 0 33 14z" />
    <glyph glyph-name="ring.case" horiz-adv-x="197" 
d="M36.5 885q-26.5 -24 -26.5 -60q0 -35 26 -58t63 -23t62.5 23t25.5 58q0 36 -26 60t-62 24t-62.5 -24zM68 795q-13 12 -13 30q0 19 13 31.5t31 12.5t31 -12.5t13 -31.5q0 -18 -13 -30t-31 -12t-31 12z" />
    <glyph glyph-name="tilde.case" horiz-adv-x="300" 
d="M231 816.5q-11 -10.5 -25 -10.5q-26 0 -48 24q-23 23 -65 23q-83 0 -83 -91h45q2 22 13.5 33t25.5 11q25 0 52 -24q25 -24 60 -24q84 0 84 91h-46q-2 -22 -13 -32.5z" />
    <glyph glyph-name="hungarumlaut.case" horiz-adv-x="285" 
d="M50 739l85 153h-71l-54 -140zM190 739l85 153h-71l-54 -140z" />
    <glyph glyph-name="tm_VowelAi.alt" horiz-adv-x="355" 
d="M458 206q0 -64 -26 -115t-72 -80t-104 -29q-47 0 -84.5 18t-59 50t-21.5 71q0 36 20.5 72t65.5 79l74 73q36 34 52 51.5t26 40t10 53.5q0 45 -30 74t-80 29q-72 0 -110 -41q14 2 22 2q46 0 74 -28t27 -71q0 -40 -29.5 -66.5t-73.5 -26.5q-45 0 -74.5 27t-29.5 70
q0 51 24 92.5t68 66t102 24.5q76 0 122.5 -43.5t46.5 -111.5q0 -49 -27.5 -88t-84.5 -94l-75 -72q-34 -32 -47 -57t-13 -52q0 -41 29.5 -67t75.5 -26q45 0 81 22.5t55.5 62t19.5 89.5zM100.5 498q-15.5 -14 -16.5 -36v-6q0 -23 15 -38.5t38 -15.5q24 0 40 15t17 38
q0 25 -15.5 41t-39.5 16q-23 0 -38.5 -14z" />
    <glyph glyph-name="tm_VowelI.alt1" horiz-adv-x="245" 
d="M11.5 759.5q66.5 -37.5 102.5 -104.5t36 -152v-503h-55v503q0 71 -29 127t-82.5 87.5t-125.5 31.5q-79 0 -124.5 -34t-45.5 -88q0 -43 27 -75.5t75 -42.5l-90 -6q-34 22 -52.5 54t-19.5 70q0 49 28 88t80.5 60.5t121.5 21.5q87 0 153.5 -37.5z" />
    <glyph glyph-name="tm_VowelU.alt1" horiz-adv-x="0" 
d="M-95 -187l-55 -10v233l55 5v-228z" />
    <glyph glyph-name="tm_VowelUu.alt1" horiz-adv-x="427" 
d="M223 468v-601h-56v601h-318v45h563l5 -45h-194z" />
    <glyph glyph-name="tm_VowelI.alt2" horiz-adv-x="245" 
d="M-37.5 759.5q90.5 -37.5 139 -104t48.5 -152.5v-503h-55v503q0 71 -41 127t-119.5 87.5t-185.5 31.5q-108 0 -166 -33.5t-58 -88.5q0 -39 22 -68.5t62 -41.5l-28 -31q-53 16 -84 54.5t-32 86.5q0 50 34 88.5t98 60t152 21.5q123 0 213.5 -37.5z" />
    <glyph glyph-name="tm_VowelU.alt2" horiz-adv-x="469" 
d="M351.5 492.5q38.5 -20.5 60.5 -57t22 -81.5q0 -46 -22 -82.5t-60.5 -57t-87.5 -20.5t-88.5 20.5t-61.5 57t-22 82.5q0 70 50 114h-442v45h564q49 0 87.5 -20.5zM343 271.5q31 32.5 31 82.5t-31 82t-79 32q-50 0 -82.5 -32t-32.5 -82t32.5 -82.5t82.5 -32.5q48 0 79 32.5z
" />
    <glyph glyph-name="tm_VowelUu.alt2" horiz-adv-x="652" 
d="M494 579q58 -33 90.5 -92t32.5 -132q0 -77 -38 -139t-106 -96.5t-152 -34.5h-57v45h57q69 0 122.5 29t83.5 80t30 116q0 60 -25 107.5t-69 74t-99 26.5q-94 0 -152 -50h52q49 0 87.5 -20.5t60.5 -57t22 -81.5q0 -46 -22 -82.5t-60.5 -57t-87.5 -20.5t-88.5 22t-61.5 60.5
t-22 86.5q0 56 22 105h-423v45h451q37 47 94.5 73t127.5 26q72 0 130 -33zM343 436q-31 32 -79 32h-89q-26 -46 -26 -105q0 -53 32.5 -88.5t82.5 -35.5q48 0 79 32.5t31 82.5t-31 82z" />
    <glyph glyph-name="tm_VowelI.alt3" horiz-adv-x="245" 
d="M-2 759.5q74 -37.5 113 -104t39 -152.5v-503h-55v503q0 72 -32 127.5t-93.5 87t-147.5 31.5q-79 0 -124.5 -34t-45.5 -88q0 -51 38 -82.5t106 -31.5v-36q-61 0 -107 19t-71.5 53.5t-25.5 77.5q0 49 28 88t80.5 60.5t121.5 21.5q102 0 176 -37.5z" />
    <glyph glyph-name="tm_VowelU.alt3" horiz-adv-x="469" 
d="M351.5 492.5q38.5 -20.5 60.5 -57t22 -81.5q0 -46 -22 -82.5t-60.5 -57t-87.5 -20.5t-88.5 20.5t-61.5 57t-22 82.5q0 70 50 114h-330v45h452q49 0 87.5 -20.5zM343 271.5q31 32.5 31 82.5t-31 82t-79 32q-50 0 -82.5 -32t-32.5 -82t32.5 -82.5t82.5 -32.5q48 0 79 32.5z
" />
    <glyph glyph-name="tm_VowelUu.alt3" horiz-adv-x="652" 
d="M494 579q58 -33 90.5 -92t32.5 -132q0 -77 -38 -139t-106 -96.5t-152 -34.5h-57v45h57q69 0 122.5 29t83.5 80t30 116q0 60 -25 107.5t-69 74t-99 26.5q-94 0 -152 -50h52q49 0 87.5 -20.5t60.5 -57t22 -81.5q0 -46 -22 -82.5t-60.5 -57t-87.5 -20.5t-88.5 22t-61.5 60.5
t-22 86.5q0 56 22 105h-304v45h332q37 47 94.5 73t127.5 26q72 0 130 -33zM343 436q-31 32 -79 32h-89q-26 -46 -26 -105q0 -53 32.5 -88.5t82.5 -35.5q48 0 79 32.5t31 82.5t-31 82z" />
    <glyph glyph-name="tm_VowelI.alt4" horiz-adv-x="245" 
d="M-19.5 759.5q82.5 -37.5 126 -104t43.5 -152.5v-503h-55v503q0 71 -36.5 127t-106.5 87.5t-166 31.5q-104 0 -159.5 -33.5t-55.5 -88.5q0 -51 38 -82.5t106 -31.5v-36q-61 0 -107 19t-71.5 53.5t-25.5 77.5q0 50 32.5 88.5t94.5 60t148 21.5q112 0 194.5 -37.5z" />
    <glyph glyph-name="tm_KU" horiz-adv-x="1028" 
d="M872 263q50 -30 75.5 -81.5t25.5 -113.5q0 -98 -51.5 -171t-149 -113t-231.5 -40q-142 0 -247.5 52t-162 144.5t-56.5 211.5q0 63 19 135t52 135t74 101l57 -10q-41 -33 -73.5 -93t-51 -131.5t-18.5 -138.5q0 -104 49 -185t141 -126.5t217 -45.5q117 0 200.5 33.5
t127.5 95.5t44 146q0 78 -40.5 129t-119.5 51h-18v-43q0 -104 -60 -163.5t-166 -59.5q-56 0 -99.5 20t-68 55t-24.5 79q0 55 31.5 94t88.5 54v229h467l5 -45h-174v-175h17q70 0 120 -30zM493 468v-175h14h172v175h-186zM679 248h-171q-63 0 -97.5 -31.5t-34.5 -81.5
q0 -45 37 -74.5t96 -29.5q81 0 125.5 46t44.5 128v43z" />
    <glyph glyph-name="tm_CU" horiz-adv-x="798" 
d="M650 248v-248h-56v248h-131v-43q0 -104 -60 -163.5t-166 -59.5q-56 0 -99.5 20t-68 55t-24.5 79q0 55 31.5 94t88.5 54v229h467l5 -45h-174v-175h295l5 -45h-113zM221 468v-175h13h173v175h-186zM407 248h-171q-63 0 -97.5 -31.5t-34.5 -81.5q0 -45 37 -74.5t96 -29.5
q81 0 125.5 46t44.5 128v43z" />
    <glyph glyph-name="tm_NyU" horiz-adv-x="1211" 
d="M1116 -133h-281q-71 -95 -191.5 -148t-280.5 -53q-128 0 -200 37.5t-72 109.5q0 46 36.5 72.5t94.5 26.5h573q65 96 65 219q0 81 -27.5 129t-86.5 48q-52 0 -86.5 -39.5t-34.5 -99.5v-169h-56v468h-186q-135 0 -202 -62.5t-67 -168.5q0 -107 67 -164q-17 31 -17 68
q0 46 21 82.5t58 57t83 20.5q48 0 86.5 -20.5t60.5 -57t22 -82.5q0 -45 -22 -81.5t-60.5 -57t-86.5 -20.5q-86 0 -147 32.5t-92.5 90t-31.5 132.5q0 125 80.5 200.5t238.5 75.5h440l5 -45h-194v-170q22 28 53 43t70 15q84 0 127.5 -61.5t43.5 -163.5q0 -121 -55 -219h196
v601h56v-646zM245 59.5q32 -32.5 81 -32.5q50 0 82.5 32t32.5 82t-32.5 82.5t-82.5 32.5q-49 0 -81 -32.5t-32 -82.5q0 -49 32 -81.5zM590.5 -245q101.5 40 168.5 112h-537q-31 0 -51.5 -15t-20.5 -39q0 -49 58 -73.5t155 -24.5q126 0 227.5 40z" />
    <glyph glyph-name="tm_TtU" horiz-adv-x="794" 
d="M658 319q40 -37 60.5 -96.5t20.5 -127.5q0 -103 -39 -182.5t-113.5 -124t-177.5 -44.5q-105 0 -180 50t-114.5 138t-39.5 202q0 64 19 140.5t52 143.5t74 105l55 -10q-40 -32 -72.5 -96.5t-50.5 -141t-18 -143.5q0 -100 32 -176.5t94 -119.5t149 -43q86 0 147 38.5
t92 106.5t31 157q0 84 -30.5 147t-87.5 63q-54 0 -85.5 -37.5t-31.5 -98.5v-169h-55v513h55v-211q21 26 51.5 40t67.5 14q55 0 95 -37z" />
    <glyph glyph-name="tm_NnU" horiz-adv-x="1885" 
d="M1790 -133h-448q-125 -98 -334.5 -149.5t-500.5 -51.5q-209 0 -312.5 40t-103.5 107q0 44 35.5 71.5t99.5 27.5h1086q154 127 154 329q0 115 -49 178t-145 63q-74 0 -134 -37q54 -49 84 -119.5t30 -154.5q0 -85 -41.5 -137t-112.5 -52q-70 0 -112.5 52.5t-42.5 136.5
q0 81 29 151t82 120q-66 40 -148 40q-96 0 -165 -47q61 -49 94.5 -117.5t33.5 -146.5q0 -85 -42 -137t-113 -52q-70 0 -112.5 52.5t-42.5 136.5q0 75 26 142.5t74 117.5q-90 51 -213 51q-99 0 -174.5 -33t-116.5 -90.5t-41 -130.5q0 -49 17.5 -89t50.5 -67q-18 30 -18 69
q0 46 21 82.5t58 57t83 20.5q48 0 86.5 -20.5t60.5 -57t22 -82.5q0 -45 -22 -81.5t-60.5 -57t-86.5 -20.5q-85 0 -146.5 32t-93 88t-31.5 126q0 87 48.5 156t137.5 108t205 39q144 0 252 -66q89 66 208 66q108 0 191 -54q79 54 175 54q122 0 187 -77t65 -215
q0 -195 -132 -327h342v601h56v-646zM1167 307q-26 62 -72 104q-43 -42 -67.5 -104t-24.5 -136q0 -61 26 -100.5t69 -39.5q44 0 69.5 39t25.5 101q0 74 -26 136zM782 301q-28 59 -80 101q-41 -42 -62 -102t-21 -129q0 -61 26 -100.5t69 -39.5q45 0 70.5 39t25.5 101
q0 71 -28 130zM245 59.5q32 -32.5 81 -32.5q50 0 82.5 32t32.5 82t-32.5 82.5t-82.5 32.5q-49 0 -81 -32.5t-32 -82.5q0 -49 32 -81.5zM1249 -133h-1023q-39 0 -57.5 -14.5t-18.5 -39.5q0 -29 42.5 -51t123 -34.5t191.5 -12.5q494 0 742 152z" />
    <glyph glyph-name="tm_TU" horiz-adv-x="992" 
d="M897 -133h-231q-44 -96 -139.5 -148.5t-225.5 -52.5q-125 0 -190.5 40.5t-65.5 106.5q0 44 35.5 71.5t99.5 27.5h441q20 57 20 125q0 94 -41 152.5t-114 58.5h-23v-43q0 -104 -60 -163.5t-166 -59.5q-56 0 -99.5 20t-68 55t-24.5 79q0 55 31.5 94t88.5 54v229h467l5 -45
h-174v-175h22q66 0 115 -33t75 -91t26 -132q0 -68 -18 -125h158v601h56v-646zM221 468v-175h13h173v175h-186zM407 248h-171q-63 0 -97.5 -31.5t-34.5 -81.5q0 -45 37 -74.5t96 -29.5q81 0 125.5 46t44.5 128v43zM489.5 -242q73.5 40 111.5 109h-421q-39 0 -57.5 -14.5
t-18.5 -39.5q0 -43 50.5 -69t146.5 -26q115 0 188.5 40z" />
    <glyph glyph-name="tm_NU" horiz-adv-x="982" 
d="M887 -133h-247q-45 -97 -128.5 -149t-200.5 -52q-68 0 -117 18.5t-74 49.5t-25 70q0 50 35 79t100 29h368q34 92 34 219q0 81 -28 129t-86 48q-52 0 -86.5 -39.5t-34.5 -99.5v-169h-56v468h-191v-468h-55v513h491l4 -45h-193v-171q22 28 53 43.5t70 15.5
q84 0 127.5 -61.5t43.5 -163.5q0 -124 -33 -219h174v601h55v-646zM578 -133h-348q-76 0 -76 -63q0 -38 40.5 -63.5t116.5 -25.5q188 0 267 152z" />
    <glyph glyph-name="tm_NnnU" horiz-adv-x="1501" 
d="M1406 -133h-419q-96 -96 -242.5 -148.5t-327.5 -52.5q-165 0 -245.5 40t-80.5 107q0 45 36 72t109 27h718q63 66 95.5 149.5t32.5 179.5q0 115 -49 178t-145 63q-82 0 -148 -47q62 -49 95.5 -117t33.5 -147q0 -85 -42 -137t-113 -52q-70 0 -112.5 52.5t-42.5 136.5
q0 76 26.5 143t73.5 117q-90 51 -213 51q-99 0 -174.5 -33t-116.5 -90.5t-41 -130.5q0 -49 17.5 -89t50.5 -67q-18 30 -18 69q0 46 21 82.5t58 57t83 20.5q48 0 86.5 -20.5t60.5 -57t22 -82.5q0 -45 -22 -81.5t-60.5 -57t-86.5 -20.5q-85 0 -146.5 32t-93 88t-31.5 126
q0 87 48.5 156t137.5 108t205 39q143 0 251 -66q40 32 89 49t102 17q122 0 187 -77t65 -215q0 -92 -29 -175t-84 -152h323v601h56v-646zM782 301q-28 59 -80 101q-40 -43 -61.5 -102t-21.5 -129q0 -61 26 -100.5t69 -39.5q45 0 70.5 39t25.5 101q0 71 -28 130zM245 59.5
q32 -32.5 81 -32.5q50 0 82.5 32t32.5 82t-32.5 82.5t-82.5 32.5q-49 0 -81 -32.5t-32 -82.5q0 -49 32 -81.5zM692.5 -245.5q124.5 39.5 213.5 112.5h-670q-47 0 -66.5 -14t-19.5 -40q0 -45 66.5 -71.5t200.5 -26.5q151 0 275.5 39.5z" />
    <glyph glyph-name="tm_MU" horiz-adv-x="1090" 
d="M937 492.5q48 -38.5 73 -106t25 -155.5q0 -104 -53 -167.5t-149 -63.5h-120q-4 -77 -39.5 -134.5t-100.5 -89.5t-155 -32q-107 0 -184.5 50t-118 138t-40.5 202q0 98 36 211.5t91 177.5l55 -10q-54 -55 -88.5 -166t-34.5 -215q0 -100 33 -176.5t97 -119.5t154 -43
q113 0 174.5 56.5t64.5 150.5h-281v513l56 5v-473h225v304q0 88 45 135t120 47q67 0 115 -38.5zM939 96q36 51 36 135q0 112 -40 181.5t-110 69.5q-51 0 -81.5 -33.5t-30.5 -97.5v-306h120q70 0 106 51z" />
    <glyph glyph-name="tm_RU" horiz-adv-x="1064" 
d="M965 294.5q44 -61.5 44 -163.5q0 -112 -56.5 -200t-162.5 -137.5t-249 -49.5q-142 0 -247.5 53.5t-162 148t-56.5 215.5q0 96 41.5 200t103.5 162l57 -10q-62 -50 -102.5 -151.5t-40.5 -202.5q0 -106 49 -189t141 -130t217 -47q126 0 218 43t141 120t49 175
q0 81 -27.5 129t-86.5 48q-52 0 -86.5 -39.5t-34.5 -99.5v-169h-55v468h-227v-468h-56v513h527l5 -45h-194v-170q47 58 124 58q83 0 127 -61.5z" />
    <glyph glyph-name="tm_RrU" horiz-adv-x="1038" 
d="M943 -133h-278q-55 -96 -144.5 -148.5t-210.5 -52.5q-98 0 -157 36t-59 101q0 109 165 109h366q63 126 63 319q0 251 -142 251q-30 0 -57.5 -15t-45.5 -44.5t-18 -71.5v-351h-56v314q-1 78 -31 123t-91 45q-54 0 -80.5 -36t-26.5 -118v-328h-55v329q0 102 42.5 152
t119.5 50q50 0 87 -25.5t58 -71.5q22 45 61.5 71t89.5 26q102 0 153 -81.5t51 -218.5q0 -185 -60 -319h200v601h56v-646zM479.5 -245.5q72.5 39.5 120.5 112.5h-341q-56 0 -81 -15.5t-25 -48.5q0 -42 42.5 -65t114.5 -23q97 0 169.5 39.5z" />
    <glyph glyph-name="tm_LU" horiz-adv-x="1242" 
d="M1147 -133h-382q-49 -96 -156 -148.5t-251 -52.5q-130 0 -201 38t-71 99q0 54 38 81.5t107 27.5h491q13 36 16 71q-79 8 -117.5 66t-38.5 161v49q0 105 -60.5 164t-165.5 59q-72 0 -127 -30.5t-85 -85.5t-30 -126q0 -51 16.5 -93t48.5 -71q-15 29 -15 65q0 46 21 82.5
t58 57t83 20.5q48 0 86.5 -20.5t60.5 -57t22 -82.5q0 -45 -22 -81.5t-60.5 -57t-86.5 -20.5q-85 0 -146.5 33.5t-93 92t-31.5 132.5q0 85 37.5 151t105.5 103t158 37q85 0 149 -33t98.5 -94t34.5 -145v-49q0 -88 30.5 -133.5t95.5 -45.5q126 0 126 202q0 64 -21 144t-61 136
l55 14q42 -69 63 -148.5t21 -143.5q0 -228 -149 -251q-4 -37 -15 -72h308v601h56v-646zM245 59.5q32 -32.5 81 -32.5q50 0 82.5 32t32.5 82t-32.5 82.5t-82.5 32.5q-49 0 -81 -32.5t-32 -82.5q0 -49 32 -81.5zM569 -245.5q88 39.5 132 112.5h-470q-42 0 -64 -16t-22 -48
q0 -39 57 -63.5t156 -24.5q123 0 211 39.5z" />
    <glyph glyph-name="tm_LlU" horiz-adv-x="1582" 
d="M1483 294.5q44 -61.5 44 -163.5q0 -124 -64.5 -208.5t-181 -126.5t-271.5 -42h-375q-169 0 -296 53.5t-195.5 148t-68.5 214.5q0 95 41 194.5t104 158.5l57 -10q-62 -50 -102.5 -147.5t-40.5 -197.5q0 -103 61 -187.5t174.5 -133t265.5 -48.5h375q210 0 334 84t124 248
q0 81 -28 129t-87 48q-42 0 -73 -26.5t-42 -70.5v-211h-56v468h-263v-468h-56v228q0 73 -33.5 131t-91 90.5t-126.5 32.5q-79 0 -138 -31.5t-90.5 -87t-31.5 -126.5q0 -107 67 -164q-17 31 -17 68q0 46 21 82.5t58 57t83 20.5q48 0 86.5 -20.5t60.5 -57t22 -82.5
q0 -45 -22 -81.5t-60.5 -57t-86.5 -20.5q-86 0 -147 32.5t-92.5 90t-31.5 132.5q0 85 39 152t111.5 104.5t168.5 37.5q78 0 145 -37t106 -102v121h564l4 -45h-193v-164q46 52 118 52q83 0 127 -61.5zM483 59.5q32 -32.5 81 -32.5q50 0 82.5 32t32.5 82t-32.5 82.5
t-82.5 32.5q-49 0 -81 -32.5t-32 -82.5q0 -49 32 -81.5z" />
    <glyph glyph-name="tm_LllU" horiz-adv-x="1090" 
d="M713 0v-15q0 -42 14 -61.5t44 -19.5h177l5 -45h-173q-39 -54 -114.5 -84.5t-166.5 -30.5q-130 0 -226 50t-147 138.5t-51 201.5q0 98 36 211.5t91 177.5l55 -10q-54 -55 -88.5 -166t-34.5 -215q0 -99 43.5 -176t125.5 -120t196 -43q73 0 125 16t91 58q-36 16 -47 44.5
t-11 75.5v13h-281v513l56 5v-473h225v304q0 88 45 135t120 47q67 0 115 -38.5t73 -106t25 -155.5q0 -104 -53 -167.5t-149 -63.5h-120zM713 45h120q70 0 106 51t36 135q0 112 -40 181.5t-110 69.5q-51 0 -81.5 -33.5t-30.5 -97.5v-306z" />
    <glyph glyph-name="tm_KUu" horiz-adv-x="1064" 
d="M1054 45v-45h-251q16 32 25.5 72.5t9.5 72.5q0 55 -27.5 87.5t-78.5 32.5q-26 0 -54 -10q34 -26 53.5 -65.5t19.5 -86.5q0 -53 -31.5 -87t-80.5 -34q-50 0 -81.5 34t-31.5 87q0 42 14 79t39 65q-6 1 -17 1h-99v-43q0 -104 -60 -163.5t-166 -59.5q-56 0 -99.5 20t-68 55
t-24.5 79q0 55 31.5 94t88.5 54v229h467l5 -45h-174v-175h98q35 0 62 -10q49 30 109 30q76 0 121 -47t45 -121q0 -54 -17 -100h173zM221 468v-175h13h173v175h-186zM407 248h-171q-63 0 -97.5 -31.5t-34.5 -81.5q0 -45 37 -74.5t96 -29.5q81 0 125.5 46t44.5 128v43z
M676 174q-16 32 -43 51q-23 -21 -35.5 -52.5t-12.5 -69.5q0 -31 15 -50.5t39 -19.5q23 0 38 19.5t15 50.5q0 39 -16 71z" />
    <glyph glyph-name="tm_NgUu" horiz-adv-x="1163" 
d="M1106 26q47 -49 47 -126q0 -124 -101 -189.5t-268 -65.5h-504q-99 0 -159.5 30.5t-60.5 89.5q0 50 35 82.5t93 32.5h525v-45h-525q-32 0 -50.5 -20t-18.5 -50q0 -37 44 -56t117 -19h504q141 0 225.5 53t84.5 157q0 55 -31 90.5t-84 35.5q-52 0 -86 -39t-34 -100v-78h-56
v191h-462v45h130q75 0 118 41.5t43 108.5q0 55 -28.5 88.5t-81.5 33.5q-55 0 -90 -39.5t-35 -99.5v-27h-56v317h-191v-468h-55v513h491l4 -45h-193v-162q24 28 56.5 43.5t71.5 15.5q77 0 121.5 -47t44.5 -123q0 -47 -20 -86t-57 -64h189v468h56v-497q22 28 53 43.5t70 15.5
q77 0 124 -49z" />
    <glyph glyph-name="tm_CUu" horiz-adv-x="1216" 
d="M1092 159.5q32 -20.5 50.5 -57t18.5 -81.5q0 -80 -61 -143t-174.5 -98.5t-266.5 -35.5q-176 0 -308.5 54.5t-204 151.5t-71.5 220q0 95 41 194.5t104 158.5l57 -10q-62 -50 -102.5 -147.5t-40.5 -197.5q0 -108 64 -193.5t183 -133.5t278 -48q136 0 236.5 29.5t154 81.5
t53.5 119q0 47 -23.5 78.5t-59.5 31.5q-44 0 -73 -30t-29 -76v-27h-56v248h-131v-43q0 -104 -60.5 -163.5t-165.5 -59.5q-56 0 -100 20t-68.5 55t-24.5 79q0 54 32 93.5t89 55.5v228h467l4 -45h-173v-175h295l4 -45h-112v-111q38 43 102 43q40 0 72 -20.5zM489 468v-175h13
h173v175h-186zM675 248h-171q-63 0 -97.5 -31t-34.5 -82q0 -45 37 -74.5t96 -29.5q81 0 125.5 46t44.5 128v43z" />
    <glyph glyph-name="tm_TtUu" horiz-adv-x="852" 
d="M628.5 566.5q27.5 25.5 70.5 25.5q18 0 39 -7q-26 71 -94.5 112.5t-167.5 41.5q-110 0 -187 -65.5t-116 -178t-39 -252.5q0 -137 35 -238.5t103 -156.5t164 -55q86 0 147 38.5t92 106.5t31 157q0 84 -30.5 147t-87.5 63q-54 0 -85.5 -37.5t-31.5 -98.5v-169h-55v513h55
v-211q21 26 51.5 40t67.5 14q55 0 95 -37t60.5 -96.5t20.5 -127.5q0 -103 -39 -182.5t-113.5 -124t-177.5 -44.5q-113 0 -194.5 61.5t-124 174.5t-42.5 265q0 153 47 276.5t137.5 195t216.5 71.5q93 0 166 -35.5t114 -98.5t41 -142q0 -45 -27 -74.5t-68 -29.5
q-43 0 -72 26.5t-29 66.5t27.5 65.5zM738.5 535.5q-14.5 14.5 -36.5 14.5t-36.5 -14.5t-14.5 -35.5q0 -22 14.5 -36.5t36.5 -14.5t36.5 14.5t14.5 36.5q0 21 -14.5 35.5z" />
    <glyph glyph-name="tm_PUu" horiz-adv-x="916" 
d="M859 26q47 -49 47 -126q0 -124 -101 -189.5t-268 -65.5h-257q-99 0 -159.5 30.5t-60.5 89.5q0 50 35 82.5t93 32.5h278v-45h-278q-32 0 -50.5 -20t-18.5 -50q0 -37 44 -56t117 -19h257q141 0 225.5 53t84.5 157q0 55 -31 90.5t-84 35.5q-52 0 -86 -39t-34 -100v-78h-56
v191h-461v513l55 5v-473h406v468h56v-497q22 28 53 43.5t70 15.5q77 0 124 -49z" />
    <glyph glyph-name="tm_MUu" horiz-adv-x="1235" 
d="M1081.5 492.5q48.5 -38.5 73.5 -106t25 -155.5q0 -104 -53 -167.5t-149 -63.5h-122q-9 -75 -55 -133t-123 -90.5t-176 -32.5q-131 0 -227.5 53t-148 149t-51.5 223q0 99 34.5 182t94.5 131.5t134 48.5q49 0 81 -31.5t32 -80.5q0 -47 -32 -77.5t-81 -30.5t-80 30t-31 77
q0 9 2 23q-45 -40 -70 -111.5t-25 -160.5q0 -113 44 -198t127 -131.5t197 -46.5q84 0 148.5 26t103 73t46.5 108h-279v513l56 5v-473h225v304q0 88 45 135t119 47q67 0 115.5 -38.5zM382.5 465q-17.5 18 -44.5 18q-28 0 -46.5 -18t-18.5 -46q0 -27 18.5 -45t46.5 -18
q27 0 44.5 18t17.5 45q0 28 -17.5 46zM1084 96q36 51 36 135q0 112 -40 181.5t-110 69.5q-51 0 -81.5 -33.5t-30.5 -97.5v-306h120q70 0 106 51z" />
    <glyph glyph-name="tm_YUu" horiz-adv-x="1118" 
d="M1061 26q47 -49 47 -126q0 -124 -101 -189.5t-268 -65.5h-459q-99 0 -159.5 30.5t-60.5 89.5q0 50 35 82.5t93 32.5h480v-45h-480q-32 0 -50.5 -20t-18.5 -50q0 -37 44 -56t117 -19h459q141 0 225.5 53t84.5 157q0 55 -31 90.5t-84 35.5q-52 0 -86 -39t-34 -100v-78h-56
v191h-372v52q-22 -33 -55 -51.5t-75 -18.5q-78 0 -124.5 50.5t-46.5 151.5v329l55 5v-333q0 -154 116 -154q64 0 97 46t33 122v314h56v-468h316v468h56v-497q22 28 53 43.5t70 15.5q77 0 124 -49z" />
    <glyph glyph-name="tm_RUu" horiz-adv-x="1209" 
d="M1110 294.5q44 -61.5 44 -163.5q0 -112 -63 -200t-181 -137.5t-275 -49.5q-165 0 -292 57t-197.5 158.5t-70.5 229.5q0 90 34.5 168.5t94.5 126t134 47.5q49 0 81 -31.5t32 -80.5q0 -47 -32 -77.5t-81 -30.5t-80 30t-31 77q0 14 3 24q-45 -39 -70.5 -106t-25.5 -147
q0 -114 62.5 -204t176.5 -141t262 -51q140 0 244 43t159.5 120t55.5 175q0 81 -27.5 129t-86.5 48q-52 0 -86.5 -39.5t-34.5 -99.5v-169h-55v468h-227v-468h-56v513h527l5 -45h-194v-171q22 28 53.5 43.5t70.5 15.5q83 0 127 -61.5zM382.5 465q-17.5 18 -44.5 18
q-28 0 -46.5 -18t-18.5 -46q0 -27 18.5 -45t46.5 -18q27 0 44.5 18t17.5 45q0 28 -17.5 46z" />
    <glyph glyph-name="tm_LlUu" horiz-adv-x="1762" 
d="M1663 294.5q44 -61.5 44 -163.5q0 -124 -64.5 -208.5t-181 -126.5t-271.5 -42h-555q-169 0 -296 50.5t-195.5 140.5t-68.5 204q0 109 34 196t94 136.5t135 49.5q49 0 81 -31.5t32 -80.5q0 -47 -32 -77.5t-81 -30.5t-80 30t-31 77q0 8 2 22q-45 -41 -70 -116.5t-25 -174.5
q0 -102 61 -181t174 -124t266 -45h555q210 0 334 84t124 248q0 81 -28 129t-87 48q-42 0 -73 -26.5t-42 -70.5v-211h-56v468h-263v-468h-56v228q0 73 -33.5 131t-91 90.5t-126.5 32.5q-79 0 -138 -31.5t-90.5 -87t-31.5 -126.5q0 -107 67 -164q-17 31 -17 68q0 46 21 82.5
t58 57t83 20.5q48 0 86.5 -20.5t60.5 -57t22 -82.5q0 -45 -22 -81.5t-60.5 -57t-86.5 -20.5q-86 0 -147 32.5t-92.5 90t-31.5 132.5q0 85 39 152t111.5 104.5t168.5 37.5q78 0 145 -37t106 -102v121h564l4 -45h-193v-164q46 52 118 52q83 0 127 -61.5zM382.5 465
q-17.5 18 -44.5 18q-28 0 -46.5 -18t-18.5 -46q0 -27 18.5 -45t46.5 -18q27 0 44.5 18t17.5 45q0 28 -17.5 46zM663 59.5q32 -32.5 81 -32.5q50 0 82.5 32t32.5 82t-32.5 82.5t-82.5 32.5q-49 0 -81 -32.5t-32 -82.5q0 -49 32 -81.5z" />
    <glyph glyph-name="tm_LllUu" horiz-adv-x="1235" 
d="M858 0v-15q0 -42 14 -61.5t44 -19.5h177l5 -45h-173q-50 -51 -144 -83t-218 -32q-140 0 -251 56t-174 155.5t-63 223.5q0 95 34.5 175.5t94.5 128.5t134 48q49 0 81 -31.5t32 -80.5q0 -47 -32 -77.5t-81 -30.5t-80 30t-31 77q0 12 3 24q-46 -40 -71 -109t-25 -154
q0 -111 55 -199t153 -137.5t221 -49.5q199 0 297 74q-36 16 -47 44.5t-11 75.5v13h-281v513l56 5v-473h225v304q0 88 45 135t119 47q67 0 115.5 -38.5t73.5 -106t25 -155.5q0 -104 -53 -167.5t-149 -63.5h-120zM382.5 465q-17.5 18 -44.5 18q-28 0 -46.5 -18t-18.5 -46
q0 -27 18.5 -45t46.5 -18q27 0 44.5 18t17.5 45q0 28 -17.5 46zM858 45h120q70 0 106 51t36 135q0 112 -40 181.5t-110 69.5q-51 0 -81.5 -33.5t-30.5 -97.5v-306z" />
    <glyph glyph-name="tm_VUu" horiz-adv-x="1219" 
d="M1162 26q47 -49 47 -126q0 -124 -101 -189.5t-268 -65.5h-560q-99 0 -159.5 30.5t-60.5 89.5q0 50 35 82.5t93 32.5h581v-45h-581q-32 0 -50.5 -20t-18.5 -50q0 -37 44 -56t117 -19h560q141 0 225.5 53t84.5 157q0 55 -31 90.5t-84 35.5q-52 0 -86 -39t-34 -100v-78h-56
v191h-322l1 45q36 40 57 94t21 116q0 64 -31.5 116t-86.5 81.5t-124 29.5q-81 0 -139.5 -31.5t-89.5 -87t-31 -126.5q0 -107 67 -164q-17 31 -17 68q0 46 21 82.5t58 57t83 20.5q48 0 86.5 -20.5t60.5 -57t22 -82.5q0 -45 -22 -81.5t-60.5 -57t-86.5 -20.5q-86 0 -147 32.5
t-92.5 90t-31.5 132.5q0 86 38.5 152.5t110.5 104t170 37.5q85 0 154 -35.5t108.5 -98.5t39.5 -142q0 -59 -18.5 -113t-51.5 -97h253v468h56v-497q22 28 53 43.5t70 15.5q77 0 124 -49zM245 59.5q32 -32.5 81 -32.5q50 0 82.5 32t32.5 82t-32.5 82.5t-82.5 32.5
q-49 0 -81 -32.5t-32 -82.5q0 -49 32 -81.5z" />
    <glyph glyph-name="tm_KSsa" horiz-adv-x="1512" 
d="M1422 0h-206v-243h-55v243h-358q16 32 25.5 72.5t9.5 72.5q0 55 -27.5 87.5t-78.5 32.5q-26 0 -54 -10q34 -26 53.5 -65.5t19.5 -86.5q0 -53 -31.5 -87t-80.5 -34q-50 0 -81.5 34t-31.5 87q0 42 14 79t39 65q-6 1 -17 1h-99v-43q0 -104 -60 -163.5t-166 -59.5
q-56 0 -99.5 20t-68 55t-24.5 79q0 55 31.5 94t88.5 54v229h467l5 -45h-174v-175h98q35 0 62 -10q49 30 109 30q76 0 121 -47t45 -121q0 -52 -17 -100h280v162q-34 -8 -66 -8q-59 0 -104.5 21.5t-70.5 60t-25 87.5q0 72 45 117.5t118 45.5q74 0 116 -43.5t42 -118.5v-85
q44 29 80.5 76t70.5 108h55v-468zM1161 258v106q0 55 -26.5 86.5t-76.5 31.5q-47 0 -75.5 -31.5t-28.5 -82.5q0 -53 38.5 -86.5t102.5 -33.5q31 0 66 10zM221 468v-175h13h173v175h-186zM1367 45v325q-65 -101 -151 -143v-182h151zM407 248h-171q-63 0 -97.5 -31.5
t-34.5 -81.5q0 -45 37 -74.5t96 -29.5q81 0 125.5 46t44.5 128v43zM676 174q-16 32 -43 51q-23 -21 -35.5 -52.5t-12.5 -69.5q0 -31 15 -50.5t39 -19.5q23 0 38 19.5t15 50.5q0 39 -16 71z" />
    <glyph glyph-name="tm_TtI" horiz-adv-x="807" 
d="M648 0v-243h-56v243h-497v513l55 5v-473h241q-51 36 -79.5 98.5t-29.5 140.5q0 111 50 179t140 68q85 0 130.5 -60t45.5 -158v-268h145l4 -45h-149zM592 45v268q0 77 -30 123t-90 46q-62 0 -96.5 -54.5t-34.5 -143.5q0 -68 24 -122.5t66.5 -85.5t95.5 -31h65z" />
    <glyph glyph-name="tm_TtIi" horiz-adv-x="771" 
d="M761 0h-666v513l55 5v-473h205q-33 27 -52 68t-19 91q0 59 28 106t77.5 73.5t112.5 26.5q57 0 105 -26.5t75.5 -69.5t27.5 -92q0 -44 -28.5 -73t-71.5 -29t-72 26t-29 65q0 41 28 67t71 26q13 0 25 -3q-22 28 -55 44t-76 16q-70 0 -114.5 -44.5t-44.5 -112.5
q0 -70 35.5 -114.5t95.5 -44.5h283zM647 175.5q15 14.5 15 36.5q0 21 -15 35.5t-37 14.5t-36 -14.5t-14 -35.5q0 -22 14 -36.5t36 -14.5t37 14.5z" />
    <glyph glyph-name="tm_Shree" horiz-adv-x="1752" 
d="M1653.5 294.5q43.5 -61.5 43.5 -163.5q0 -124 -64.5 -208.5t-181 -126.5t-271.5 -42h-545q-169 0 -296 53.5t-195.5 148t-68.5 214.5q0 95 41 194.5t104 158.5l57 -10q-62 -50 -102.5 -147.5t-40.5 -197.5q0 -104 61 -188t174.5 -132.5t265.5 -48.5h545q210 0 334 84
t124 248q0 81 -28 129t-86 48q-52 0 -86.5 -39.5t-34.5 -99.5v-169h-56v468h-227v-468h-55v314q0 76 -33 122t-97 46q-116 0 -116 -154v-328h-464v513l56 5v-473h352v284q0 101 46.5 151.5t125.5 50.5q43 0 75.5 -18.5t54.5 -52.5v53h242q-33 27 -52 68t-19 91q0 59 28 106
t77.5 73.5t112.5 26.5q57 0 105 -26.5t75.5 -69.5t27.5 -92q0 -44 -28.5 -73t-71.5 -29t-72 26t-29 65q0 41 28 67t71 26q13 0 25 -3q-22 28 -55 44t-76 16q-70 0 -114.5 -44.5t-44.5 -112.5q0 -70 35.5 -114.5t95.5 -44.5h166l4 -45h-193v-171q22 28 53 43.5t70 15.5
q84 0 127.5 -61.5zM1599 643.5q15 14.5 15 36.5q0 21 -15 35.5t-37 14.5t-36 -14.5t-14 -35.5q0 -22 14 -36.5t36 -14.5t37 14.5z" />
    </font>
</defs>
</svg>
