<?xml version="1.0" standalone="no"?>
<!DOCTYPE svg PUBLIC "-//W3C//DTD SVG 1.1//EN" "http://www.w3.org/Graphics/SVG/1.1/DTD/svg11.dtd" >
<svg xmlns="http://www.w3.org/2000/svg" xmlns:xlink="http://www.w3.org/1999/xlink" version="1.1">
<metadata>
Created by FontForge 20170731 at Wed Mar 22 18:01:20 2017
 By Aleksey,,,
Copyright 2014 Pria Ravichandran (pria.ravichandran@gmail.com)
</metadata>
<defs>
<font id="Catamaran-Medium" horiz-adv-x="541" >
  <font-face 
    font-family="Catamaran Medium"
    font-weight="500"
    font-stretch="normal"
    units-per-em="1000"
    panose-1="0 0 6 0 0 0 0 0 0 0"
    ascent="770"
    descent="-230"
    x-height="485"
    cap-height="680"
    bbox="-544 -377 2532 1320"
    underline-thickness="50"
    underline-position="-175"
    unicode-range="U+000D-FB02"
  />
<missing-glyph horiz-adv-x="671" 
d="M94 696v-696h482v696h-482zM478 619l1 -543h-288v543h287z" />
    <glyph glyph-name=".notdef" horiz-adv-x="671" 
d="M94 696v-696h482v696h-482zM478 619l1 -543h-288v543h287z" />
    <glyph glyph-name="uni0000" horiz-adv-x="0" 
 />
    <glyph glyph-name="uni0000" horiz-adv-x="0" 
 />
    <glyph glyph-name="nonmarkingreturn" unicode="&#xd;" horiz-adv-x="0" 
 />
    <glyph glyph-name="space" unicode=" " horiz-adv-x="230" 
 />
    <glyph glyph-name="exclam" unicode="!" horiz-adv-x="181" 
d="M55 230l73 -34l15 506h-105zM48 102.5q-18 -17.5 -18 -42.5t18 -42.5t43 -17.5t42.5 17.5t17.5 42.5t-17.5 42.5t-42.5 17.5t-43 -17.5z" />
    <glyph glyph-name="quotedbl" unicode="&#x22;" horiz-adv-x="350" 
d="M50.5 702.5q-18.5 -19.5 -18.5 -41.5t15.5 -40.5t33.5 -19.5q-3 -27 -18 -45.5t-43 -40.5l23 -45q47 25 79.5 77t32.5 103q0 31 -18.5 51.5t-43.5 20.5q-24 0 -42.5 -19.5zM216.5 702.5q-18.5 -19.5 -18.5 -41.5t15.5 -40.5t34.5 -19.5q-5 -27 -20 -46t-43 -40l24 -45
q47 25 79 77t32 103q0 32 -18 52t-43 20q-24 0 -42.5 -19.5z" />
    <glyph glyph-name="numbersign" unicode="#" horiz-adv-x="540" 
d="M393 511l-28 -122h-128l29 120l-81 2l-29 -122h-126l9 -73h99l-28 -122h-80l9 -73h54l-28 -123l80 -5l30 128h128l-28 -123l80 -5l29 128h126l-8 73h-101l29 122h80l-8 73h-55l28 120zM348 316l-29 -122h-127l29 122h127z" />
    <glyph glyph-name="dollar" unicode="$" horiz-adv-x="518" 
d="M363 682q45 -14 80 -31l-32 -76q-35 17 -66.5 26.5t-74.5 9.5q-60 0 -97 -23t-37 -66q0 -33 19 -57.5t54 -44.5t103 -51q91 -41 133.5 -85t42.5 -114q0 -57 -32.5 -100t-92.5 -64v-125h-68v109q-24 -3 -46 -3h-16v-106h-67v115q-70 15 -114 41l22 76q32 -17 79 -30
t89 -13q71 0 110 26.5t39 71.5q0 32 -19.5 56.5t-55.5 45t-100 48.5q-63 28 -100.5 54.5t-56.5 62t-19 85.5q0 55 33 98t93 63v113l67 10v-108h17q23 0 45 -2v100l68 10v-122z" />
    <glyph glyph-name="percent" unicode="%" horiz-adv-x="885" 
d="M545 710l-303 -710l95 -4l303 710zM51.5 441.5q21.5 -38.5 58 -58.5t81.5 -20q43 0 80 21t59 59.5t22 88.5q0 79 -46 124.5t-115 45.5q-43 0 -80 -21t-59 -60t-22 -89q0 -52 21.5 -90.5zM138 604.5q22 24.5 53 24.5q32 0 53.5 -24.5t21.5 -72.5t-22 -72.5t-53 -24.5
q-33 0 -54 24.5t-21 73.5q0 47 22 71.5zM581 45.5q46 -45.5 115 -45.5q42 0 78.5 21t58.5 59.5t22 88.5q0 79 -45 124t-114 45q-44 0 -80.5 -21t-58.5 -59.5t-22 -88.5q0 -78 46 -123.5zM642.5 241.5q22.5 24.5 53.5 24.5t52.5 -25.5t21.5 -71.5q0 -48 -22 -73t-52 -25
q-33 0 -54.5 25t-21.5 74q0 47 22.5 71.5z" />
    <glyph glyph-name="ampersand" unicode="&#x26;" horiz-adv-x="673" 
d="M396 684q-40 12 -86 12q-60 0 -104.5 -25t-68 -67t-23.5 -92q0 -55 30 -99q-47 -34 -75 -87t-29 -113q0 -72 34.5 -122.5t93 -76t132.5 -26.5q133 0 210 77l79 -73l54 69l-81 73q42 82 48 196l-82 32q-6 -96 -38 -164l-185 172q-52 47 -73 78t-21 70t27.5 67t72.5 28
q37 0 62.5 -8t45.5 -17.5t27 -12.5l33 76q-43 21 -83 33zM300 72q-67 0 -114 36.5t-47 106.5q1 42 18 77.5t46 57.5q17 -19 43 -44l196 -179q-55 -55 -142 -55z" />
    <glyph glyph-name="quotesingle" unicode="'" horiz-adv-x="185" 
d="M50.5 702.5q-18.5 -19.5 -18.5 -41.5t15.5 -40.5t33.5 -19.5q-3 -27 -18 -45.5t-43 -40.5l23 -45q47 25 79.5 77t32.5 103q0 31 -18.5 51.5t-43.5 20.5q-24 0 -42.5 -19.5z" />
    <glyph glyph-name="parenleft" unicode="(" horiz-adv-x="279" 
d="M196 80.5q-25 59.5 -40 125.5t-15 115q0 74 33 175.5t75 154.5l-76 27q-61 -81 -92 -174.5t-31 -183.5q0 -92 31.5 -186.5t91.5 -171.5l76 28q-28 31 -53 90.5z" />
    <glyph glyph-name="parenright" unicode=")" horiz-adv-x="279" 
d="M82.5 559.5q24.5 -59.5 39.5 -125t15 -114.5q0 -74 -32.5 -176.5t-74.5 -154.5l76 -27q60 83 91.5 176.5t31.5 181.5q0 91 -32 185.5t-91 172.5l-76 -28q28 -31 52.5 -90.5z" />
    <glyph glyph-name="asterisk" unicode="*" horiz-adv-x="363" 
d="M219 770h-75l-2 -107l-111 24l-21 -65l112 -22l-78 -111l57 -43l81 108l80 -108l57 43l-78 111l112 22l-21 65l-112 -24z" />
    <glyph glyph-name="plus" unicode="+" horiz-adv-x="537" 
d="M497 311h-182v220l-89 3v-223h-196l8 -75h188v-228l89 -4v232h192z" />
    <glyph glyph-name="comma" unicode="," horiz-adv-x="185" 
d="M51 102q-18 -18 -18 -42q0 -22 15.5 -40.5t33.5 -19.5q-3 -27 -18 -45.5t-44 -40.5l23 -45q48 25 80 76.5t32 102.5q0 32 -17.5 52t-44.5 20q-24 0 -42 -18z" />
    <glyph glyph-name="hyphen" unicode="-" horiz-adv-x="324" 
d="M285 311h-255l9 -76h255z" />
    <glyph glyph-name="period" unicode="." horiz-adv-x="180" 
d="M133 17.5q17 17.5 17 42.5t-17 42.5t-42 17.5q-26 0 -43.5 -17.5t-17.5 -42.5t17.5 -42.5t43.5 -17.5q25 0 42 17.5z" />
    <glyph glyph-name="slash" unicode="/" horiz-adv-x="419" 
d="M313 710l-303 -710l95 -4l304 710z" />
    <glyph glyph-name="zero" unicode="0" horiz-adv-x="597" 
d="M64.5 132.5q34.5 -68.5 96 -107t138.5 -38.5t138 38.5t95.5 107.5t34.5 155q0 83 -34.5 149.5t-95.5 104t-138 37.5t-138.5 -37.5t-96 -104.5t-34.5 -151q0 -85 34.5 -153.5zM144.5 396.5q22.5 47.5 63 74t91.5 26.5t91.5 -27.5t63 -76t22.5 -109.5q0 -62 -22.5 -111
t-63 -76.5t-91.5 -27.5t-91.5 28.5t-63 78.5t-22.5 113q0 60 22.5 107.5z" />
    <glyph glyph-name="one" unicode="1" horiz-adv-x="325" 
d="M255 0v566h-64l-181 -88l44 -76l105 56v-458h96z" />
    <glyph glyph-name="two" unicode="2" horiz-adv-x="481" 
d="M118.5 564.5q-41.5 -14.5 -80.5 -37.5l23 -77q43 24 76 37.5t81 13.5q58 0 91 -23.5t33 -72.5q0 -37 -26 -73t-80 -84l-211 -185v-63h436l-18 74h-289l127 106q85 71 117 124.5t32 113.5q0 77 -56.5 119t-154.5 42q-59 0 -100.5 -14.5z" />
    <glyph glyph-name="three" unicode="3" horiz-adv-x="470" 
d="M15 514l46 -64q30 21 70 36t84 15q52 0 84 -27t32 -65q0 -47 -42 -75.5t-114 -28.5h-50l14 -73h30q89 0 131.5 -32t42.5 -88q0 -49 -41 -79.5t-96 -30.5q-46 0 -82 11t-75 34l-49 -66q46 -24 99 -40.5t105 -16.5q69 0 121.5 24.5t81 68t28.5 96.5q0 60 -32.5 103.5
t-77.5 53.5q40 15 69 54t29 87q0 45 -23.5 83.5t-69.5 61.5t-112 23q-103 0 -203 -65z" />
    <glyph glyph-name="four" unicode="4" horiz-adv-x="536" 
d="M516 145h-105v426h-69l-332 -426l13 -79h292v-135h96v135h94zM315 409v-264h-202z" />
    <glyph glyph-name="five" unicode="5" horiz-adv-x="501" 
d="M198.5 251q27.5 15 61.5 15q53 0 86 -34t33 -94q0 -61 -39.5 -97.5t-103.5 -36.5q-48 0 -83.5 10.5t-74.5 33.5l-48 -67q45 -24 98 -40.5t104 -16.5q74 0 128 28t82.5 76.5t28.5 109.5q-1 89 -55.5 147t-160.5 58q-50 0 -94 -26l8 170h254l11 79h-350l-16 -348h89
q14 18 41.5 33z" />
    <glyph glyph-name="six" unicode="6" horiz-adv-x="520" 
d="M385 362q50 -25 77.5 -69.5t27.5 -102.5t-27.5 -104.5t-77 -72.5t-111.5 -26q-71 0 -126 30.5t-86.5 90t-31.5 144.5q0 110 57.5 193t144 130.5t173.5 58.5l18 -76q-98 -19 -180.5 -72t-109.5 -145q32 22 65 34t73 12q64 0 114 -25zM364 100.5q37 33.5 37 84.5
q0 57 -36 91t-97 34q-70 0 -146 -65q4 -85 45.5 -131.5t102.5 -46.5q57 0 94 33.5z" />
    <glyph glyph-name="seven" unicode="7" horiz-adv-x="451" 
d="M218 -69l213 594l-30 41h-391l12 -79h300l-194 -529z" />
    <glyph glyph-name="eight" unicode="8" horiz-adv-x="515" 
d="M150.5 620q-45.5 -23 -69.5 -62t-24 -84t27 -80.5t70 -54.5q-32 -8 -60.5 -33.5t-46 -60t-17.5 -68.5q0 -53 27 -96t78.5 -68.5t122.5 -25.5q70 0 121.5 25.5t78.5 69t27 95.5q0 37 -17.5 71t-46 58t-60.5 33q42 19 70 55.5t28 79.5q0 45 -24 84t-69.5 62t-107.5 23
t-107.5 -23zM338.5 538.5q30.5 -26.5 30.5 -65.5q0 -38 -29 -65.5t-82 -35.5q-53 8 -82.5 35.5t-29.5 65.5t30 65t80 27q52 0 82.5 -26.5zM359.5 258q35.5 -35 35.5 -83q0 -49 -40.5 -79.5t-96.5 -30.5q-58 0 -98 30t-40 80q0 48 35.5 83t102.5 44q66 -9 101.5 -44z" />
    <glyph glyph-name="nine" unicode="9" horiz-adv-x="520" 
d="M372 548.5q55 -30.5 86.5 -90t31.5 -144.5q0 -110 -57.5 -193t-144 -130.5t-173.5 -58.5l-18 76q98 19 180.5 72t109.5 145q-32 -22 -65 -34t-73 -12q-64 0 -114 25t-77.5 69.5t-27.5 102.5t27.5 104.5t77 72.5t111.5 26q71 0 126 -30.5zM155 290q36 -34 97 -34
q70 0 146 65q-4 85 -45.5 131.5t-102.5 46.5q-57 0 -94 -33.5t-37 -84.5q0 -57 36 -91z" />
    <glyph glyph-name="colon" unicode=":" horiz-adv-x="180" 
d="M132.5 358.5q17.5 17.5 17.5 42.5t-17.5 43t-42.5 18t-42.5 -18t-17.5 -43t17.5 -42.5t42.5 -17.5t42.5 17.5zM132.5 35.5q17.5 17.5 17.5 42.5q0 26 -17.5 43.5t-42.5 17.5t-42.5 -17.5t-17.5 -43.5q0 -25 17.5 -42.5t42.5 -17.5t42.5 17.5z" />
    <glyph glyph-name="semicolon" unicode=";" horiz-adv-x="186" 
d="M52 444q-18 -18 -18 -43t18 -42.5t44 -17.5q25 0 42.5 17.5t17.5 42.5t-17.5 43t-42.5 18q-26 0 -44 -18zM51 120.5q-18 -18.5 -18 -42.5q0 -23 15.5 -41t33.5 -19q-3 -27 -18 -45.5t-44 -40.5l23 -45q48 25 80 76.5t32 102.5q0 33 -17.5 53t-44.5 20q-24 0 -42 -18.5z
" />
    <glyph glyph-name="less" unicode="&#x3c;" horiz-adv-x="335" 
d="M315 95l-192 150l192 149l-23 76l-262 -199v-53l262 -199z" />
    <glyph glyph-name="equal" unicode="=" horiz-adv-x="506" 
d="M468 389h-438l9 -73h437zM468 194h-438l9 -73h437z" />
    <glyph glyph-name="greater" unicode="&#x3e;" horiz-adv-x="335" 
d="M305 271l-262 199l-23 -76l192 -149l-192 -150l23 -76l262 199v53z" />
    <glyph glyph-name="question" unicode="?" horiz-adv-x="419" 
d="M99 686.5q-42 -14.5 -89 -43.5l12 -85q46 31 87 46.5t83 15.5q50 0 77.5 -23t27.5 -69q0 -48 -47 -89t-123 -66l8 -186l69 -28l12 165q78 37 125.5 93.5t47.5 112.5q0 78 -49 124.5t-145 46.5q-54 0 -96 -14.5zM122.5 102.5q-17.5 -17.5 -17.5 -42.5t17.5 -42.5
t42.5 -17.5t43 17.5t18 42.5t-18 42.5t-43 17.5t-42.5 -17.5z" />
    <glyph glyph-name="at" unicode="@" horiz-adv-x="764" 
d="M519 421h-76q-59 0 -111 -25.5t-84 -72t-32 -106.5q0 -71 43 -112.5t127 -41.5q45 0 91 29q30 -30 80 -30q80 0 128.5 62.5t48.5 180.5q0 84 -40 150.5t-111.5 104.5t-161.5 38q-117 0 -206 -51t-137 -138t-48 -190q0 -94 46 -167t121 -113.5t158 -40.5q119 0 200 42
l-24 72q-35 -18 -79 -26.5t-86 -8.5q-68 0 -124.5 29.5t-90 84.5t-33.5 128q0 90 42 159t111 106.5t148 37.5q69 0 122 -28.5t82.5 -79t29.5 -115.5q0 -73 -25.5 -117.5t-63.5 -44.5q-16 0 -29.5 11.5t-10.5 33.5l23 204zM323 160.5q-20 23.5 -20 56.5q0 64 42.5 99.5
t103.5 35.5h16l-21 -165q-4 -24 -19.5 -37t-39.5 -13q-42 0 -62 23.5z" />
    <glyph glyph-name="A" unicode="A" horiz-adv-x="625" 
d="M266 680l-256 -680h94l68 182h277l71 -190l95 14l-262 674h-87zM420 259h-221l109 292z" />
    <glyph glyph-name="B" unicode="B" horiz-adv-x="603" 
d="M505.5 48.5q67.5 48.5 67.5 145.5q0 63 -32.5 106t-89.5 65q87 56 87 131q0 184 -234 184h-214v-680h235q113 0 180.5 48.5zM403 576.5q36 -22.5 36 -81.5q0 -54 -44 -79t-116 -26h-93v209h110q71 0 107 -22.5zM437 282q38 -30 38 -90q0 -58 -42 -85.5t-112 -27.5h-135
v233h145q68 0 106 -30z" />
    <glyph glyph-name="C" unicode="C" horiz-adv-x="559" 
d="M451 683.5q-52 10.5 -88 10.5q-97 0 -170.5 -46.5t-113 -128t-39.5 -183.5q0 -98 36.5 -177.5t108 -126t172.5 -46.5q43 0 96 11.5t86 28.5l-37 72q-65 -30 -149 -30q-65 0 -113.5 36t-74 97.5t-25.5 135.5q0 80 29 143t79.5 97.5t112.5 34.5q44 0 72 -6t73 -22l30 69
q-33 20 -85 30.5z" />
    <glyph glyph-name="D" unicode="D" horiz-adv-x="678" 
d="M497.5 44q69.5 44 105 122t35.5 178q0 151 -76 243.5t-227 92.5h-245v-680h241q97 0 166.5 44zM490.5 529.5q50.5 -68.5 50.5 -186.5q0 -126 -57 -194.5t-153 -68.5h-145v518h153q101 0 151.5 -68.5z" />
    <glyph glyph-name="E" unicode="E" horiz-adv-x="542" 
d="M522 0l-13 75h-323v234h244l-13 74h-231v223h300l-13 74h-383v-680h432z" />
    <glyph glyph-name="F" unicode="F" horiz-adv-x="491" 
d="M407 378h-221v228h285l-14 74h-367v-680h96v305h233z" />
    <glyph glyph-name="G" unicode="G" horiz-adv-x="628" 
d="M489 284v-199q-55 -17 -111 -17q-68 0 -122 33t-85 94t-31 142q0 86 35 148.5t92.5 94.5t125.5 32q44 0 71.5 -6t72.5 -22l30 69q-33 20 -85.5 30.5t-90.5 10.5q-99 0 -179 -45.5t-126 -127t-46 -185.5q0 -99 42 -178.5t119 -125.5t179 -46q53 0 107 13.5t90 34.5l1 323
h-229l-8 -73h148z" />
    <glyph glyph-name="H" unicode="H" horiz-adv-x="674" 
d="M584 0v680h-96v-300h-302v305l-96 -5v-680h96v303h302v-303h96z" />
    <glyph glyph-name="I" unicode="I" horiz-adv-x="276" 
d="M186 0v680h-96v-680h96z" />
    <glyph glyph-name="J" unicode="J" horiz-adv-x="268" 
d="M85.5 20q-6.5 -18 -23 -29t-52.5 -24l38 -69q55 17 85 36.5t42.5 48t12.5 72.5v625h-96v-607q0 -35 -6.5 -53z" />
    <glyph glyph-name="K" unicode="K" horiz-adv-x="625" 
d="M498 0l-239 313l-73 -78v-235h-96v680h96v-315l310 330l68 -56l-241 -257l292 -382h-117z" />
    <glyph glyph-name="L" unicode="L" horiz-adv-x="515" 
d="M493 75h-307v605h-96v-680h415z" />
    <glyph glyph-name="M" unicode="M" horiz-adv-x="765" 
d="M409 223l169 249v-472h97v680h-60l-227 -336l-239 336h-59v-680h96v481l188 -263z" />
    <glyph glyph-name="N" unicode="N" horiz-adv-x="715" 
d="M186 0v507l353 -507h86v680h-97v-503l-353 503h-85v-680h96z" />
    <glyph glyph-name="O" unicode="O" horiz-adv-x="729" 
d="M198 647q-74 -47 -116 -128t-42 -182t41.5 -181t115 -125t165.5 -45q94 1 168.5 48t116.5 128t42 182t-41.5 181t-115.5 125.5t-167 45.5q-93 -2 -167 -49zM169 479.5q29 62.5 81 98t117 35.5q63 0 113 -34.5t78.5 -96t28.5 -138.5q0 -79 -29 -142t-80.5 -98.5
t-116.5 -35.5q-63 0 -113.5 34.5t-79 96.5t-28.5 139q0 79 29 141.5z" />
    <glyph glyph-name="P" unicode="P" horiz-adv-x="572" 
d="M186 250h89q74 0 134.5 23.5t96.5 72.5t36 122q0 108 -70.5 160t-186.5 52h-195v-680h96v250zM402 568.5q40 -30.5 40 -104.5q-3 -68 -46.5 -101t-116.5 -33h-93v269h98q78 0 118 -30.5z" />
    <glyph glyph-name="Q" unicode="Q" horiz-adv-x="729" 
d="M666.5 207q-22.5 -64 -64.5 -112l73 -71l-56 -49l-74 69q-80 -57 -183 -58q-92 0 -165.5 45t-115 125t-41.5 181t42 182t116 128t167 49q93 0 167 -45.5t115.5 -125.5t41.5 -181q0 -73 -22.5 -137zM480 105l-88 82l66 50l77 -75q52 74 52 182q0 77 -28.5 138.5t-78.5 96
t-113 34.5q-65 0 -117 -35.5t-81 -98t-29 -141.5q0 -77 28.5 -139t79 -96.5t113.5 -34.5q67 0 119 37z" />
    <glyph glyph-name="R" unicode="R" horiz-adv-x="604" 
d="M90 0h96v272h89q46 0 63 3l152 -275h104l-171 300q54 23 86 68.5t33 109.5q0 102 -71 152t-186 50h-195v-680zM401.5 570.5q40.5 -28.5 40.5 -96.5q-1 -65 -45.5 -94.5t-117.5 -29.5h-93v249h98q77 0 117.5 -28.5z" />
    <glyph glyph-name="S" unicode="S" horiz-adv-x="518" 
d="M135.5 3q63.5 -16 107.5 -16q77 0 132 23t84 64.5t29 95.5q0 70 -42.5 114t-133.5 85q-68 31 -103 51t-54 44.5t-19 57.5q0 43 37 66t97 23q43 0 74.5 -9.5t66.5 -26.5l32 76q-38 19 -85.5 32t-94.5 13q-68 0 -118.5 -23t-77.5 -63t-27 -90t19 -85.5t56.5 -62
t100.5 -54.5q64 -28 100 -48.5t55.5 -45t19.5 -56.5q0 -45 -39 -71.5t-110 -26.5q-42 0 -89 13t-79 30l-22 -76q20 -18 83.5 -34z" />
    <glyph glyph-name="T" unicode="T" horiz-adv-x="572" 
d="M549 680h-539v-76h221v-604h97v604h234z" />
    <glyph glyph-name="U" unicode="U" horiz-adv-x="690" 
d="M80 680v-437q0 -73 32.5 -131t92.5 -90.5t140 -32.5t140 33t92.5 90.5t32.5 130.5v437h-97v-428q0 -84 -45 -134t-123 -50q-76 0 -122.5 49.5t-46.5 134.5v428h-96z" />
    <glyph glyph-name="V" unicode="V" horiz-adv-x="625" 
d="M105 688l-95 -14l262 -674h87l256 680h-94l-204 -551z" />
    <glyph glyph-name="W" unicode="W" horiz-adv-x="893" 
d="M883 680l-196 -680h-87l-153 542l-148 -542h-87l-202 674l95 14l152 -559l144 551h94l150 -551l144 551h94z" />
    <glyph glyph-name="X" unicode="X" horiz-adv-x="604" 
d="M110 0l193 276l175 -276h103l-217 335l230 345h-101l-178 -278l-199 298l-78 -40l215 -316l-243 -344h100z" />
    <glyph glyph-name="Y" unicode="Y" horiz-adv-x="579" 
d="M331 0l1 271l237 409h-102l-184 -314l-180 331l-93 -34l225 -393v-270h96z" />
    <glyph glyph-name="Z" unicode="Z" horiz-adv-x="564" 
d="M531 75h-406l419 529l-10 76h-486l13 -76h374l-415 -529l11 -75h510z" />
    <glyph glyph-name="bracketleft" unicode="[" horiz-adv-x="318" 
d="M100 -88h208l-14 73h-101v637h101l14 74h-208v-784z" />
    <glyph glyph-name="backslash" unicode="\" horiz-adv-x="419" 
d="M409 0l-303 710l-96 -4l303 -710z" />
    <glyph glyph-name="bracketright" unicode="]" horiz-adv-x="317" 
d="M217 696h-207l13 -74h100v-637h-100l-13 -73h207v784z" />
    <glyph glyph-name="asciicircum" unicode="^" horiz-adv-x="432" 
d="M216 301l109 -158h97l-171 247h-69l-172 -247h97z" />
    <glyph glyph-name="underscore" unicode="_" horiz-adv-x="440" 
d="M401 75h-371l9 -75h371z" />
    <glyph glyph-name="grave" unicode="`" horiz-adv-x="176" 
d="M100 589l66 17l-54 141h-102z" />
    <glyph glyph-name="a" unicode="a" horiz-adv-x="493" 
d="M243 412q54 0 75.5 -31.5t21.5 -90.5h-115q-81 0 -129.5 -39.5t-48.5 -110.5q0 -69 43 -110.5t126 -41.5q37 0 76 17t66 41l12 -46h67v329q0 46 -25.5 85t-70.5 61.5t-100 22.5q-34 0 -86.5 -12.5t-78.5 -30.5l27 -76q74 33 140 33zM157 201q24 25 66 25h118v-98
q-26 -29 -59 -46.5t-68 -17.5q-39 0 -60 22.5t-21 53.5q0 36 24 61z" />
    <glyph glyph-name="b" unicode="b" horiz-adv-x="537" 
d="M394.5 466q54.5 -32 83.5 -90.5t29 -136.5q0 -75 -30 -132t-85 -88.5t-127 -31.5q-25 0 -58.5 10.5t-63.5 31.5l-19 -29h-54v695l96 11v-238q27 14 53.5 22t46.5 8q74 0 128.5 -32zM371 116.5q38 47.5 38 121.5q0 80 -37.5 129t-105.5 49q-59 0 -100 -35v-279
q42 -33 100 -33q67 0 105 47.5z" />
    <glyph glyph-name="c" unicode="c" horiz-adv-x="464" 
d="M342 77q-30 -8 -71 -8q-67 0 -105 48.5t-38 126.5q1 74 40.5 123t105.5 49q38 0 66.5 -8t69.5 -25l28 68q-30 20 -80 33.5t-83 13.5q-74 0 -129.5 -32t-85.5 -90t-30 -133q0 -76 29.5 -134t84 -90t127.5 -32q34 0 84.5 13t80.5 33l-29 69q-35 -17 -65 -25z" />
    <glyph glyph-name="d" unicode="d" horiz-adv-x="544" 
d="M474 705v-705h-55l-19 37q-30 -24 -66.5 -37t-62.5 -13q-74 0 -128.5 32t-83.5 90.5t-29 136.5q0 75 30 132t85 88.5t127 31.5q21 0 49.5 -8t55.5 -23v228zM165.5 118q37.5 -49 105.5 -49q33 0 58 10t48 31v268q-23 20 -48.5 29t-57.5 9q-67 0 -105 -47.5t-38 -121.5
q0 -80 37.5 -129z" />
    <glyph glyph-name="e" unicode="e" horiz-adv-x="504" 
d="M474 247q0 110 -53.5 180.5t-158.5 70.5q-71 0 -123.5 -32t-80.5 -90t-28 -133q0 -117 68 -186t195 -69q88 0 176 53l-30 70q-51 -24 -79.5 -33.5t-66.5 -9.5q-78 0 -117.5 41t-45.5 112h344v26zM171.5 381.5q32.5 34.5 87.5 34.5q103 0 122 -130h-249q7 61 39.5 95.5z
" />
    <glyph glyph-name="f" unicode="f" horiz-adv-x="324" 
d="M89 406v-406h96v406h121l-31 73h-90v54q0 39 16.5 61.5t50.5 22.5q19 0 48 -11l24 74q-13 9 -36.5 15.5t-44.5 6.5q-72 0 -113 -43.5t-41 -116.5v-63h-74l1 -73h73z" />
    <glyph glyph-name="g" unicode="g" horiz-adv-x="540" 
d="M474 485v-528q0 -54 -27.5 -96.5t-79.5 -66.5t-125 -24q-35 0 -88 13.5t-84 34.5l29 69q50 -22 75.5 -30.5t64.5 -8.5q62 0 100 28.5t38 81.5v63q-27 -16 -56 -25t-50 -9q-74 0 -128.5 32t-83.5 90.5t-29 136.5q0 75 30 132t85 88.5t127 31.5q26 0 62 -12t66 -35l19 34
h55zM329 79q25 10 48 31v268q-23 20 -48.5 29t-57.5 9q-67 0 -105 -47.5t-38 -121.5q0 -80 37.5 -129t105.5 -49q33 0 58 10z" />
    <glyph glyph-name="h" unicode="h" horiz-adv-x="551" 
d="M456.5 452q38.5 -49 38.5 -132v-320h-96v311q0 53 -17.5 80.5t-62.5 27.5q-34 0 -74 -21.5t-79 -55.5v-342h-96v695l96 11v-275q38 32 83.5 51t89.5 19q79 0 117.5 -49z" />
    <glyph glyph-name="i" unicode="i" horiz-adv-x="217" 
d="M150 589.5q18 17.5 18 42.5t-18 42.5t-43 17.5t-42 -17.5t-17 -42.5t17 -42.5t42 -17.5t43 17.5zM157 0v485h-97v-485h97z" />
    <glyph glyph-name="j" unicode="j" horiz-adv-x="240" 
d="M80.5 589.5q-17.5 17.5 -17.5 42.5t17.5 42.5t42.5 17.5t43 -17.5t18 -42.5t-18 -42.5t-43 -17.5t-42.5 17.5zM172 2q0 -66 -8 -101.5t-36.5 -61t-90.5 -45.5l-37 71q34 12 50 27t20.5 36t4.5 59v498h97v-483z" />
    <glyph glyph-name="k" unicode="k" horiz-adv-x="487" 
d="M166 0v174l62 60l147 -234h112l-193 296l144 138l-56 64l-216 -211v419l-96 -11v-695h96z" />
    <glyph glyph-name="l" unicode="l" horiz-adv-x="236" 
d="M166 0v706l-96 -11v-695h96z" />
    <glyph glyph-name="m" unicode="m" horiz-adv-x="842" 
d="M748 451.5q38 -49.5 38 -131.5v-320h-96v311q0 52 -17.5 80t-58.5 28q-29 0 -66 -19.5t-74 -51.5q1 -9 1 -28v-320h-96v311q0 52 -17.5 80t-58.5 28q-31 0 -69.5 -21.5t-77.5 -55.5v-342h-96v485h67l17 -64q38 35 86.5 57.5t92.5 22.5q48 0 81.5 -21t50.5 -59
q38 35 86.5 57.5t92.5 22.5q76 0 114 -49.5z" />
    <glyph glyph-name="n" unicode="n" 
d="M156 342q39 34 79 55.5t74 21.5q45 0 62.5 -27.5t17.5 -80.5v-311h96v320q0 83 -38.5 132t-117.5 49q-48 0 -97 -22.5t-88 -57.5l-17 64h-67v-485h96v342z" />
    <glyph glyph-name="o" unicode="o" horiz-adv-x="545" 
d="M485 109q-30 -58 -85.5 -90t-129.5 -32q-73 0 -127.5 32t-83.5 90t-29 134q0 75 30 133t85 90t129 32q73 0 127.5 -32t84 -90t29.5 -134q0 -75 -30 -133zM376.5 118q39.5 49 40.5 123q0 78 -38 126.5t-105 48.5q-66 0 -105.5 -49t-40.5 -123q0 -78 38 -126.5t105 -48.5
q66 0 105.5 49z" />
    <glyph glyph-name="p" unicode="p" horiz-adv-x="533" 
d="M390.5 466q54.5 -32 83.5 -90.5t29 -136.5q0 -75 -30 -132t-85 -88.5t-127 -31.5q-20 0 -46.5 7t-52.5 21v-223l-96 -11v704h54l21 -30q30 20 63.5 31.5t57.5 11.5q74 0 128.5 -32zM367 116.5q38 47.5 38 121.5q0 80 -37.5 129t-105.5 49q-59 0 -100 -35v-279
q42 -33 100 -33q67 0 105 47.5z" />
    <glyph glyph-name="q" unicode="q" horiz-adv-x="540" 
d="M474 485v-694l-97 -10v240q-27 -16 -56 -25t-50 -9q-74 0 -128.5 32t-83.5 90.5t-29 136.5q0 75 30 132t85 88.5t127 31.5q26 0 61 -11.5t65 -33.5l21 32h55zM329 79q25 10 48 31v268q-23 20 -48.5 29t-57.5 9q-67 0 -105 -47.5t-38 -121.5q0 -80 37.5 -129t105.5 -49
q33 0 58 10z" />
    <glyph glyph-name="r" unicode="r" horiz-adv-x="338" 
d="M156 321q38 36 86 61.5t86 25.5l-21 77q-35 0 -81.5 -25t-80.5 -54l-31 79h-54v-485h96v321z" />
    <glyph glyph-name="s" unicode="s" horiz-adv-x="421" 
d="M110.5 -1q48.5 -12 83.5 -12q95 0 146 38t51 107q0 98 -164 157q-48 16 -73.5 33t-26.5 37q0 26 24.5 43.5t62.5 17.5q35 0 64 -8.5t64 -24.5l30 65q-29 20 -75.5 33t-80.5 13q-85 0 -134.5 -37.5t-49.5 -103.5q0 -94 159 -146q108 -34 108 -84q0 -28 -28.5 -45
t-76.5 -17q-62 0 -130 33l-30 -67q28 -20 76.5 -32z" />
    <glyph glyph-name="t" unicode="t" horiz-adv-x="341" 
d="M180 479v143l-96 -22v-121h-69l1 -73h68v-271q0 -73 41.5 -112.5t113.5 -39.5q20 0 43.5 6.5t38.5 14.5l-25 73q-29 -11 -47 -11q-35 0 -52 22.5t-17 61.5v256h118l-30 73h-88z" />
    <glyph glyph-name="u" unicode="u" 
d="M385 143q-39 -34 -79 -55.5t-74 -21.5q-45 0 -62.5 27.5t-17.5 80.5v311h-96v-320q0 -83 38.5 -132t117.5 -49q48 0 97 22.5t88 57.5l17 -64h67v485h-96v-342z" />
    <glyph glyph-name="v" unicode="v" horiz-adv-x="473" 
d="M279 0l184 485h-99l-128 -350l-134 368l-92 -34l180 -469h89z" />
    <glyph glyph-name="w" unicode="w" horiz-adv-x="702" 
d="M541 0l151 485h-99l-95 -342l-100 342h-101l-95 -342l-100 359l-92 -34l147 -468h88l101 345l107 -345h88z" />
    <glyph glyph-name="x" unicode="x" horiz-adv-x="470" 
d="M117 0l111 174l111 -174h106l-152 232l167 253h-105l-117 -179l-124 196l-86 -34l145 -221l-163 -247h107z" />
    <glyph glyph-name="y" unicode="y" horiz-adv-x="473" 
d="M122 -108.5q-26 -17.5 -74 -38.5l32 -74q58 13 104 48.5t64 84.5l215 573h-99l-128 -348l-135 366l-91 -34l177 -456l-28 -74q-11 -30 -37 -47.5z" />
    <glyph glyph-name="z" unicode="z" horiz-adv-x="434" 
d="M409 485h-371l21 -78h231l-272 -357l12 -50h386l-10 76h-268l276 356z" />
    <glyph glyph-name="braceleft" unicode="{" horiz-adv-x="279" 
d="M199.5 349q11.5 25 11.5 64q0 17 -5 33.5t-14 40.5q-6 15 -11 31t-5 29q0 15 13.5 27t40.5 12h30l9 73h-27q-71 0 -108.5 -26.5t-37.5 -79.5q0 -30 14 -72q5 -16 9 -34t4 -38q0 -30 -15 -50t-39 -20h-39v-63h39q22 0 41 -18.5t19 -43.5q0 -14 -4.5 -30.5t-8 -26
t-4.5 -12.5q-9 -25 -13.5 -40t-4.5 -31q0 -58 36 -87t112 -29h27l-9 72h-30q-26 0 -40 12t-14 28q0 13 4.5 29t8 25t4.5 12q9 21 13.5 37t4.5 31q0 74 -49 106q26 14 37.5 39z" />
    <glyph glyph-name="bar" unicode="|" horiz-adv-x="275" 
d="M90 711v-711l95 -7v711z" />
    <glyph glyph-name="braceright" unicode="}" horiz-adv-x="278" 
d="M67 204q0 -15 4.5 -31t13.5 -37q1 -3 6.5 -17.5t8 -26.5t2.5 -22q0 -16 -14 -28t-40 -12h-30l-9 -72h27q76 0 112 29t36 87q0 16 -4.5 31t-13.5 40q-1 3 -6.5 18t-8 27.5t-2.5 23.5q0 25 19 43.5t41 18.5h39v63h-39q-24 0 -39 20t-15 50q0 20 3.5 35.5t10.5 36.5
q5 16 9 34.5t4 37.5q0 53 -37.5 79.5t-108.5 26.5h-27l9 -73h30q27 0 40.5 -12t13.5 -27q0 -13 -5 -29t-11 -31q-9 -24 -14 -40.5t-5 -33.5q0 -39 11.5 -64t37.5 -39q-49 -32 -49 -106z" />
    <glyph glyph-name="asciitilde" unicode="~" horiz-adv-x="431" 
d="M111 188q4 39 36 39q20 0 34.5 -5t32.5 -14q21 -10 37.5 -15t39.5 -5q49 0 79.5 31t30.5 99h-82q-1 -22 -12.5 -31.5t-24.5 -9.5q-17 0 -30 4.5t-33 13.5q-22 11 -39 16.5t-40 5.5q-49 0 -79.5 -31t-30.5 -98h81z" />
    <glyph glyph-name="uni00A0" unicode="&#xa0;" horiz-adv-x="236" 
 />
    <glyph glyph-name="exclamdown" unicode="&#xa1;" horiz-adv-x="181" 
d="M133.5 598q17.5 18 17.5 43t-17.5 43t-42.5 18t-43 -18t-18 -43t18 -43t43 -18t42.5 18zM128 471l-74 34l-16 -505h105z" />
    <glyph glyph-name="cent" unicode="&#xa2;" horiz-adv-x="464" 
d="M436 33q-19 -13 -48.5 -23t-59.5 -16v-107h-88v102q-98 10 -154 78.5t-56 175.5q1 105 56.5 173.5t152.5 79.5v102l88 10v-116q73 -15 111 -41l-28 -68q-41 17 -69.5 25t-66.5 8q-66 0 -105.5 -49t-40.5 -123q0 -78 38 -126.5t105 -48.5q41 0 71 8t65 25z" />
    <glyph glyph-name="sterling" unicode="&#xa3;" horiz-adv-x="468" 
d="M458 0l-13 75h-252q28 35 28 137v98h159l-32 73h-127v132q0 39 16 62t51 23q18 0 47 -11l25 72q-13 9 -37 16t-45 7q-76 0 -115 -47t-39 -130v-124h-74l1 -73h73v-150q0 -40 -17.5 -62.5t-54.5 -22.5l9 -75h397z" />
    <glyph glyph-name="currency" unicode="&#xa4;" horiz-adv-x="682" 
d="M652 -4l-100 103q41 63 42 142q-1 82 -41 144l99 102l-57 69l-105 -106q-64 47 -146 48q-81 -1 -150 -50l-107 108l-57 -69l102 -104q-19 -28 -30 -64.5t-11 -75.5q0 -79 39 -144l-100 -103l57 -68l105 107q64 -47 146 -48q88 0 151 48l106 -107zM474 156.5
q-21 -37.5 -56.5 -59.5t-78.5 -22q-66 1 -107.5 49t-41.5 120q0 45 20.5 83t55.5 59.5t78 21.5t77.5 -22t54 -60.5t19.5 -85.5q0 -46 -21 -83.5z" />
    <glyph glyph-name="yen" unicode="&#xa5;" horiz-adv-x="579" 
d="M513 238h-181v-94h172l9 -72h-182v-72h-96v72h-160l-9 72h169v94h-160l-9 73h146l-202 352l93 34l180 -331l184 314h102l-214 -369h149z" />
    <glyph glyph-name="brokenbar" unicode="&#xa6;" horiz-adv-x="275" 
d="M90 711v-298l95 -7v298zM90 294v-294l95 -7v295z" />
    <glyph glyph-name="section" unicode="&#xa7;" horiz-adv-x="583" 
d="M534.5 176q-18.5 -35 -53.5 -59q7 -22 7 -53q0 -54 -29 -95.5t-84 -64.5t-132 -23q-44 0 -107.5 16t-83.5 34l22 76q32 -17 79 -30t89 -13q71 0 110 26.5t39 71.5q0 32 -19.5 56.5t-55.5 45t-100 48.5q-63 28 -100.5 54.5t-56.5 62t-19 85.5q0 41 18.5 75.5t53.5 59.5
q-7 22 -7 55q0 50 27 90t77.5 63t118.5 23q47 0 94.5 -13t85.5 -32l-32 -76q-35 17 -66.5 26.5t-74.5 9.5q-60 0 -97 -23t-37 -66q0 -33 19 -57.5t54 -44.5t103 -51q91 -41 133.5 -85t42.5 -114q0 -43 -18.5 -78zM432 192q24 24 24 60q0 32 -19.5 56.5t-55.5 45t-100 48.5
q-85 38 -120 71q-25 -22 -25 -57q0 -33 19 -57.5t54 -44.5t103 -51q77 -34 120 -71z" />
    <glyph glyph-name="dieresis" unicode="&#xa8;" horiz-adv-x="302" 
d="M102.5 626q15.5 16 15.5 38t-15.5 38t-38.5 16q-22 0 -38 -16t-16 -38t16 -38t38 -16q23 0 38.5 16zM276.5 626q15.5 16 15.5 38t-15.5 38t-38.5 16q-22 0 -38 -16t-16 -38t16 -38t38 -16q23 0 38.5 16z" />
    <glyph glyph-name="copyright" unicode="&#xa9;" horiz-adv-x="807" 
d="M731 523.5q-46 84.5 -131 133.5t-197 49t-196.5 -49t-130.5 -133.5t-46 -187.5t46 -187t130.5 -133t196.5 -49t197 49t131 133t46 187t-46 187.5zM138 495q37 70 105.5 110t159.5 40q92 0 160.5 -40t105.5 -110t37 -158t-37 -158t-105.5 -110t-160.5 -40q-91 0 -159.5 40
t-105.5 110t-37 158t37 158zM495 116q43 12 72 32l-28 70q-35 -18 -58.5 -25.5t-60.5 -7.5q-125 0 -125 155q0 68 33 109t94 41q38 0 60.5 -7t59.5 -25l27 71q-29 20 -71.5 31.5t-75.5 11.5q-68 0 -119 -29t-78.5 -82t-27.5 -122q0 -107 58.5 -171t163.5 -64q33 0 76 12z
" />
    <glyph glyph-name="ordfeminine" unicode="&#xaa;" horiz-adv-x="330" 
d="M114.5 626.5q21.5 5.5 45.5 5.5q31 0 46.5 -18t15.5 -47h-70q-54 0 -88 -27t-34 -74q0 -46 31.5 -74.5t84.5 -28.5q24 0 48.5 11.5t42.5 27.5l17 -31h46v210q0 32 -18.5 60t-50.5 44.5t-72 16.5q-23 0 -57.5 -8.5t-51.5 -20.5l17 -62q26 10 47.5 15.5zM121.5 497.5
q15.5 10.5 42.5 10.5h60v-40q-35 -37 -76 -37q-20 0 -31 11t-11 27q0 18 15.5 28.5z" />
    <glyph glyph-name="guillemotleft" unicode="&#xab;" horiz-adv-x="382" 
d="M30 222l150 -139l22 64l-99 98l99 98l-22 64l-150 -139v-46zM190 222l151 -139l21 64l-99 98l99 98l-21 64l-151 -139v-46z" />
    <glyph glyph-name="logicalnot" unicode="&#xac;" horiz-adv-x="514" 
d="M476 406h-466l8 -76h382v-213l84 -5v244z" />
    <glyph glyph-name="softhyphen" unicode="&#xad;" horiz-adv-x="120" 
 />
    <glyph glyph-name="registered" unicode="&#xae;" horiz-adv-x="719" 
d="M648.5 653.5q-40.5 74.5 -115 117.5t-173.5 43t-174 -43t-115.5 -117.5t-40.5 -166.5q0 -91 40.5 -165t115.5 -117t174 -43t173.5 43t115 117t40.5 165q0 92 -40.5 166.5zM128 626.5q32 60.5 91.5 94.5t140.5 34q80 0 139.5 -34t91.5 -95t32 -138q0 -76 -32 -136.5
t-91.5 -95.5t-139.5 -35q-81 0 -140.5 35t-91.5 95.5t-32 136.5q0 78 32 138.5zM436 470q29 13 46.5 38t17.5 61q0 56 -38.5 83.5t-102.5 27.5h-124v-376h71v150l63 1l76 -151h80zM406.5 612q20.5 -10 20.5 -46q0 -32 -23 -43.5t-66 -11.5h-32v111h34q46 0 66.5 -10z" />
    <glyph glyph-name="macron" unicode="&#xaf;" horiz-adv-x="271" 
d="M10 626h251l-9 76h-242v-76z" />
    <glyph glyph-name="degree" unicode="&#xb0;" horiz-adv-x="246" 
d="M43.5 681q-33.5 -32 -33.5 -77t33.5 -76t79.5 -31t79.5 31t33.5 76t-33.5 77t-79.5 32t-79.5 -32zM87.5 568q-14.5 15 -14.5 36q0 20 14.5 34.5t35.5 14.5t35.5 -14.5t14.5 -35.5q0 -20 -14.5 -35t-35.5 -15t-35.5 15z" />
    <glyph glyph-name="plusminus" unicode="&#xb1;" horiz-adv-x="480" 
d="M442 368h-159v163l-84 3v-166h-169l9 -68h160v-171l84 -5v176h167zM444 69h-413l8 -69h411z" />
    <glyph glyph-name="twosuperior" unicode="&#xb2;" horiz-adv-x="362" 
d="M94 759.5q-34 -11.5 -53.5 -22t-24.5 -12.5l33 -64q32 17 60.5 28t59.5 11q34 0 53 -17.5t19 -41.5q0 -30 -16 -57.5t-54 -60.5l-146 -124v-63h317l-10 67h-196l86 72q57 49 82 87t25 79q0 32 -16.5 62t-51.5 49t-88 19q-45 0 -79 -11.5z" />
    <glyph glyph-name="threesuperior" unicode="&#xb3;" horiz-adv-x="362" 
d="M85 758q-36 -13 -73 -36l34 -60q25 17 50.5 27.5t58.5 10.5q37 0 56.5 -16t19.5 -40q0 -33 -24 -53t-75 -20h-37l10 -67h22q59 0 86 -21t27 -63q0 -33 -26 -52.5t-66 -19.5q-32 0 -55.5 8t-55.5 26l-37 -60q84 -44 153 -44q52 0 91.5 19t61 51.5t21.5 72.5q0 46 -24 78.5
t-58 39.5q30 10 52 40t22 66q0 54 -40 90t-115 36q-43 0 -79 -13z" />
    <glyph glyph-name="acute" unicode="&#xb4;" horiz-adv-x="176" 
d="M76 589l90 158h-102l-54 -141z" />
    <glyph glyph-name="mu" unicode="&#xb5;" horiz-adv-x="551" 
d="M491 485v-485h-67l-17 64q-39 -35 -88 -57.5t-97 -22.5q-34 0 -60 9v-201l-96 -11v704h96v-311q0 -53 17.5 -80.5t62.5 -27.5q34 0 74 21.5t79 55.5v342h96z" />
    <glyph glyph-name="paragraph" unicode="&#xb6;" horiz-adv-x="861" 
d="M424 604h214v-604h97v604h96v76h-545q-116 0 -186 -52t-70 -160q0 -73 36 -122t96.5 -72.5t134.5 -23.5h31v-250h96v604z" />
    <glyph glyph-name="periodcentered" unicode="&#xb7;" horiz-adv-x="180" 
d="M133 219q17 18 17 43t-17 42.5t-42 17.5q-26 0 -43.5 -17.5t-17.5 -42.5t17.5 -43t43.5 -18q25 0 42 18z" />
    <glyph glyph-name="cedilla" unicode="&#xb8;" horiz-adv-x="223" 
d="M115 -95.5q25 -13.5 25 -31.5q0 -14 -14 -21.5t-32 -7.5q-13 0 -30.5 5.5t-31.5 11.5l-22 -59q15 -10 40 -16.5t44 -6.5q49 0 84 25t35 71q0 27 -21.5 51t-53.5 32l22 55h-73l-36 -91q39 -4 64 -17.5z" />
    <glyph glyph-name="onesuperior" unicode="&#xb9;" horiz-adv-x="278" 
d="M208 336v428h-57l-141 -67l34 -60l77 39v-340h87z" />
    <glyph glyph-name="ordmasculine" unicode="&#xba;" horiz-adv-x="384" 
d="M74.5 655.5q-44.5 -46.5 -44.5 -123.5q0 -78 43 -123.5t116 -45.5t119 46t46 122q0 79 -44 125t-119 46q-72 0 -116.5 -46.5zM247.5 606.5q20.5 -25.5 20.5 -75.5q0 -49 -22 -74t-56 -25t-54.5 25.5t-20.5 74.5q0 50 22.5 75t54.5 25q35 0 55.5 -25.5z" />
    <glyph glyph-name="guillemotright" unicode="&#xbb;" horiz-adv-x="383" 
d="M192 268l-149 139l-23 -64l99 -98l-99 -98l23 -64l149 139v46zM353 268l-150 139l-22 -64l99 -98l-99 -98l22 -64l150 139v46z" />
    <glyph glyph-name="onequarter" unicode="&#xbc;" horiz-adv-x="820" 
d="M208 336v428h-57l-141 -67l34 -60l77 39v-340h87zM571 700l-516 -834h100l517 834h-101zM716 -78h77l7 70h-84v329h-59l-250 -329l8 -70h216v-86h85v86zM631 171v-179h-135z" />
    <glyph glyph-name="onehalf" unicode="&#xbd;" horiz-adv-x="844" 
d="M208 336v428h-57l-141 -67l34 -60l77 39v-340h87zM561 700l-516 -834h100l517 834h-101zM576 313.5q-34 -11.5 -53.5 -22t-24.5 -12.5l33 -64q32 17 60.5 28t59.5 11q34 0 53 -17.5t19 -41.5q0 -30 -16 -57.5t-54 -60.5l-146 -124v-63h317l-10 67h-196l86 72q57 49 82 87
t25 79q0 32 -16.5 62t-51.5 49t-88 19q-45 0 -79 -11.5z" />
    <glyph glyph-name="threequarters" unicode="&#xbe;" horiz-adv-x="830" 
d="M85 758q-36 -13 -73 -36l34 -60q25 17 50.5 27.5t58.5 10.5q38 0 57 -17t19 -39q0 -37 -29.5 -55t-69.5 -18h-37l10 -67h22q59 0 86 -21t27 -63q0 -33 -26 -52.5t-66 -19.5q-32 0 -55.5 8t-55.5 26l-37 -60q84 -44 153 -44q52 0 91.5 19t61 51.5t21.5 72.5q0 46 -24 78.5
t-58 39.5q30 10 52 40t22 66q0 54 -40 90t-115 36q-43 0 -79 -13zM625 700l-516 -834h100l517 834h-101zM726 321h-59l-250 -329l8 -70h216v-86h85v86h77l7 70h-84v329zM506 -8l135 179v-179h-135z" />
    <glyph glyph-name="questiondown" unicode="&#xbf;" horiz-adv-x="419" 
d="M297 539q18 18 18 43t-18 43t-43 18t-43 -18t-18 -43t18 -43t43 -18t43 18zM321 -44.5q43 14.5 88 43.5l-12 86q-46 -32 -87 -47.5t-83 -15.5q-50 0 -77.5 23t-27.5 68q0 49 46.5 90t124.5 67l-9 185l-69 29l-12 -165q-77 -37 -125 -94t-48 -113q0 -78 49 -124.5
t145 -46.5q54 0 97 14.5z" />
    <glyph glyph-name="Agrave" unicode="&#xc0;" horiz-adv-x="625" 
d="M266 680l-256 -680h94l68 182h277l71 -190l95 14l-262 674h-87zM420 259h-221l109 292zM301 739l66 17l-54 141h-102z" />
    <glyph glyph-name="Aacute" unicode="&#xc1;" horiz-adv-x="625" 
d="M266 680l-256 -680h94l68 182h277l71 -190l95 14l-262 674h-87zM420 259h-221l109 292zM331 739l90 158h-102l-54 -141z" />
    <glyph glyph-name="Acircumflex" unicode="&#xc2;" horiz-adv-x="625" 
d="M266 680l-256 -680h94l68 182h277l71 -190l95 14l-262 674h-87zM420 259h-221l109 292zM306 826l75 -87l86 10l-129 148h-66l-128 -148l87 -10z" />
    <glyph glyph-name="Atilde" unicode="&#xc3;" horiz-adv-x="625" 
d="M266 680l-256 -680h94l68 182h277l71 -190l95 14l-262 674h-87zM420 259h-221l109 292zM380.5 830q-9.5 -10 -22.5 -10q-17 0 -28.5 5t-24.5 15q-15 10 -27 15.5t-32 5.5q-43 0 -69 -24.5t-26 -80.5h65q1 15 11.5 26t22.5 11q17 0 28 -5t24 -15q14 -11 26 -16.5t31 -5.5
q42 0 68.5 25t26.5 81h-63q-1 -17 -10.5 -27z" />
    <glyph glyph-name="Adieresis" unicode="&#xc4;" horiz-adv-x="625" 
d="M266 680l-256 -680h94l68 182h277l71 -190l95 14l-262 674h-87zM420 259h-221l109 292zM255.5 776q15.5 16 15.5 38t-15.5 38t-38.5 16q-22 0 -38 -16t-16 -38t16 -38t38 -16q23 0 38.5 16zM429.5 776q15.5 16 15.5 38t-15.5 38t-38.5 16q-22 0 -38 -16t-16 -38t16 -38
t38 -16q23 0 38.5 16z" />
    <glyph glyph-name="Aring" unicode="&#xc5;" horiz-adv-x="625" 
d="M266 680l-256 -680h94l68 182h277l71 -190l95 14l-262 674h-87zM420 259h-221l109 292zM237 899q-29 -27 -29 -66q0 -38 28.5 -63.5t69.5 -25.5q40 0 68.5 25.5t28.5 63.5q0 39 -28.5 66t-68.5 27t-69 -27zM276.5 804.5q-12.5 12.5 -12.5 28.5q0 18 12.5 30t29.5 12
t29 -12t12 -30q0 -16 -12 -28.5t-29 -12.5t-29.5 12.5z" />
    <glyph glyph-name="AE" unicode="&#xc6;" horiz-adv-x="907" 
d="M100 -10l118 192h237v-182h432l-12 75h-323v234h244l-13 74h-231v223h300l-12 74h-396l-434 -676zM455 548v-289h-186z" />
    <glyph glyph-name="Ccedilla" unicode="&#xc7;" horiz-adv-x="559" 
d="M428.5 -74q21.5 -24 21.5 -51q0 -46 -35 -71t-84 -25q-19 0 -44 6.5t-40 16.5l22 59q14 -6 31.5 -11.5t30.5 -5.5q18 0 32 7.5t14 21.5q0 18 -25 31.5t-64 17.5l26 66q-88 10 -149.5 58.5t-93 123.5t-31.5 166q0 102 39.5 183.5t113 128t170.5 46.5q36 0 88 -10.5
t85 -30.5l-30 -69q-45 16 -73 22t-72 6q-62 0 -112.5 -34.5t-79.5 -97.5t-29 -143q0 -74 25.5 -135.5t74 -97.5t113.5 -36q84 0 149 30l37 -72q-28 -14 -70 -24.5t-82 -14.5l-12 -29q32 -8 53.5 -32z" />
    <glyph glyph-name="Egrave" unicode="&#xc8;" horiz-adv-x="542" 
d="M522 0l-13 75h-323v234h244l-13 74h-231v223h300l-13 74h-383v-680h432zM288 739l66 17l-54 141h-102z" />
    <glyph glyph-name="Eacute" unicode="&#xc9;" horiz-adv-x="542" 
d="M522 0l-13 75h-323v234h244l-13 74h-231v223h300l-13 74h-383v-680h432zM318 739l90 158h-102l-54 -141z" />
    <glyph glyph-name="Ecircumflex" unicode="&#xca;" horiz-adv-x="542" 
d="M522 0l-13 75h-323v234h244l-13 74h-231v223h300l-13 74h-383v-680h432zM293 826l75 -87l86 10l-129 148h-66l-128 -148l87 -10z" />
    <glyph glyph-name="Edieresis" unicode="&#xcb;" horiz-adv-x="542" 
d="M522 0l-13 75h-323v234h244l-13 74h-231v223h300l-13 74h-383v-680h432zM242.5 776q15.5 16 15.5 38t-15.5 38t-38.5 16q-22 0 -38 -16t-16 -38t16 -38t38 -16q23 0 38.5 16zM416.5 776q15.5 16 15.5 38t-15.5 38t-38.5 16q-22 0 -38 -16t-16 -38t16 -38t38 -16
q23 0 38.5 16z" />
    <glyph glyph-name="Igrave" unicode="&#xcc;" horiz-adv-x="276" 
d="M186 0v680h-96v-680h96zM133 739l66 17l-54 141h-102z" />
    <glyph glyph-name="Iacute" unicode="&#xcd;" horiz-adv-x="276" 
d="M186 0v680h-96v-680h96zM163 739l90 158h-102l-54 -141z" />
    <glyph glyph-name="Icircumflex" unicode="&#xce;" horiz-adv-x="276" 
d="M186 0v680h-96v-680h96zM138 826l75 -87l86 10l-129 148h-66l-128 -148l87 -10z" />
    <glyph glyph-name="Idieresis" unicode="&#xcf;" horiz-adv-x="276" 
d="M186 0v680h-96v-680h96zM87.5 776q15.5 16 15.5 38t-15.5 38t-38.5 16q-22 0 -38 -16t-16 -38t16 -38t38 -16q23 0 38.5 16zM261.5 776q15.5 16 15.5 38t-15.5 38t-38.5 16q-22 0 -38 -16t-16 -38t16 -38t38 -16q23 0 38.5 16z" />
    <glyph glyph-name="Eth" unicode="&#xd0;" horiz-adv-x="678" 
d="M562 587.5q76 -92.5 76 -243.5q0 -100 -35.5 -178t-105 -122t-166.5 -44h-241v300h-61l-10 75h71v305h245q151 0 227 -92.5zM484 148.5q57 68.5 57 194.5q0 118 -50.5 186.5t-151.5 68.5h-153v-223h91l9 -75h-100v-220h145q96 0 153 68.5z" />
    <glyph glyph-name="Ntilde" unicode="&#xd1;" horiz-adv-x="715" 
d="M186 0v507l353 -507h86v680h-97v-503l-353 503h-85v-680h96zM434.5 830q-9.5 -10 -22.5 -10q-17 0 -28.5 5t-24.5 15q-15 10 -27 15.5t-32 5.5q-43 0 -69 -24.5t-26 -80.5h65q1 15 11.5 26t22.5 11q17 0 28 -5t24 -15q14 -11 26 -16.5t31 -5.5q42 0 68.5 25t26.5 81h-63
q-1 -17 -10.5 -27z" />
    <glyph glyph-name="Ograve" unicode="&#xd2;" horiz-adv-x="729" 
d="M198 647q-74 -47 -116 -128t-42 -182t41.5 -181t115 -125t165.5 -45q94 1 168.5 48t116.5 128t42 182t-41.5 181t-115.5 125.5t-167 45.5q-93 -2 -167 -49zM169 479.5q29 62.5 81 98t117 35.5q63 0 113 -34.5t78.5 -96t28.5 -138.5q0 -79 -29 -142t-80.5 -98.5
t-116.5 -35.5q-63 0 -113.5 34.5t-79 96.5t-28.5 139q0 79 29 141.5zM357 739l66 17l-54 141h-102z" />
    <glyph glyph-name="Oacute" unicode="&#xd3;" horiz-adv-x="729" 
d="M198 647q-74 -47 -116 -128t-42 -182t41.5 -181t115 -125t165.5 -45q94 1 168.5 48t116.5 128t42 182t-41.5 181t-115.5 125.5t-167 45.5q-93 -2 -167 -49zM169 479.5q29 62.5 81 98t117 35.5q63 0 113 -34.5t78.5 -96t28.5 -138.5q0 -79 -29 -142t-80.5 -98.5
t-116.5 -35.5q-63 0 -113.5 34.5t-79 96.5t-28.5 139q0 79 29 141.5zM387 739l90 158h-102l-54 -141z" />
    <glyph glyph-name="Ocircumflex" unicode="&#xd4;" horiz-adv-x="729" 
d="M198 647q-74 -47 -116 -128t-42 -182t41.5 -181t115 -125t165.5 -45q94 1 168.5 48t116.5 128t42 182t-41.5 181t-115.5 125.5t-167 45.5q-93 -2 -167 -49zM169 479.5q29 62.5 81 98t117 35.5q63 0 113 -34.5t78.5 -96t28.5 -138.5q0 -79 -29 -142t-80.5 -98.5
t-116.5 -35.5q-63 0 -113.5 34.5t-79 96.5t-28.5 139q0 79 29 141.5zM362 826l75 -87l86 10l-129 148h-66l-128 -148l87 -10z" />
    <glyph glyph-name="Otilde" unicode="&#xd5;" horiz-adv-x="729" 
d="M198 647q-74 -47 -116 -128t-42 -182t41.5 -181t115 -125t165.5 -45q94 1 168.5 48t116.5 128t42 182t-41.5 181t-115.5 125.5t-167 45.5q-93 -2 -167 -49zM169 479.5q29 62.5 81 98t117 35.5q63 0 113 -34.5t78.5 -96t28.5 -138.5q0 -79 -29 -142t-80.5 -98.5
t-116.5 -35.5q-63 0 -113.5 34.5t-79 96.5t-28.5 139q0 79 29 141.5zM436.5 830q-9.5 -10 -22.5 -10q-17 0 -28.5 5t-24.5 15q-15 10 -27 15.5t-32 5.5q-43 0 -69 -24.5t-26 -80.5h65q1 15 11.5 26t22.5 11q17 0 28 -5t24 -15q14 -11 26 -16.5t31 -5.5q42 0 68.5 25t26.5 81
h-63q-1 -17 -10.5 -27z" />
    <glyph glyph-name="Odieresis" unicode="&#xd6;" horiz-adv-x="729" 
d="M198 647q-74 -47 -116 -128t-42 -182t41.5 -181t115 -125t165.5 -45q94 1 168.5 48t116.5 128t42 182t-41.5 181t-115.5 125.5t-167 45.5q-93 -2 -167 -49zM169 479.5q29 62.5 81 98t117 35.5q63 0 113 -34.5t78.5 -96t28.5 -138.5q0 -79 -29 -142t-80.5 -98.5
t-116.5 -35.5q-63 0 -113.5 34.5t-79 96.5t-28.5 139q0 79 29 141.5zM311.5 776q15.5 16 15.5 38t-15.5 38t-38.5 16q-22 0 -38 -16t-16 -38t16 -38t38 -16q23 0 38.5 16zM485.5 776q15.5 16 15.5 38t-15.5 38t-38.5 16q-22 0 -38 -16t-16 -38t16 -38t38 -16q23 0 38.5 16z
" />
    <glyph glyph-name="multiply" unicode="&#xd7;" horiz-adv-x="528" 
d="M310 251l172 -221h-98l-121 155l-135 -155h-98l188 223l-172 221h98l121 -155l135 155h98z" />
    <glyph glyph-name="Oslash" unicode="&#xd8;" horiz-adv-x="729" 
d="M532 650.5q74 -45.5 115.5 -125.5t41.5 -181t-42 -182t-116.5 -128t-168.5 -48q-92 0 -165.5 45t-115 125t-41.5 181t42 182t116 128t167 49q93 0 167 -45.5zM250 577.5q-52 -35.5 -81 -98t-29 -141.5q0 -69 22.5 -125t62.5 -93l206 483q-29 10 -64 10q-65 0 -117 -35.5z
M477.5 103.5q51.5 35.5 80.5 98.5t29 142q0 64 -20 118t-56 91l-207 -477q29 -8 57 -8q65 0 116.5 35.5z" />
    <glyph glyph-name="Ugrave" unicode="&#xd9;" horiz-adv-x="690" 
d="M80 680v-437q0 -73 32.5 -131t92.5 -90.5t140 -32.5t140 33t92.5 90.5t32.5 130.5v437h-97v-428q0 -84 -45 -134t-123 -50q-76 0 -122.5 49.5t-46.5 134.5v428h-96zM338 739l66 17l-54 141h-102z" />
    <glyph glyph-name="Uacute" unicode="&#xda;" horiz-adv-x="690" 
d="M80 680v-437q0 -73 32.5 -131t92.5 -90.5t140 -32.5t140 33t92.5 90.5t32.5 130.5v437h-97v-428q0 -84 -45 -134t-123 -50q-76 0 -122.5 49.5t-46.5 134.5v428h-96zM368 739l90 158h-102l-54 -141z" />
    <glyph glyph-name="Ucircumflex" unicode="&#xdb;" horiz-adv-x="690" 
d="M80 680v-437q0 -73 32.5 -131t92.5 -90.5t140 -32.5t140 33t92.5 90.5t32.5 130.5v437h-97v-428q0 -84 -45 -134t-123 -50q-76 0 -122.5 49.5t-46.5 134.5v428h-96zM343 826l75 -87l86 10l-129 148h-66l-128 -148l87 -10z" />
    <glyph glyph-name="Udieresis" unicode="&#xdc;" horiz-adv-x="690" 
d="M80 680v-437q0 -73 32.5 -131t92.5 -90.5t140 -32.5t140 33t92.5 90.5t32.5 130.5v437h-97v-428q0 -84 -45 -134t-123 -50q-76 0 -122.5 49.5t-46.5 134.5v428h-96zM292.5 776q15.5 16 15.5 38t-15.5 38t-38.5 16q-22 0 -38 -16t-16 -38t16 -38t38 -16q23 0 38.5 16z
M466.5 776q15.5 16 15.5 38t-15.5 38t-38.5 16q-22 0 -38 -16t-16 -38t16 -38t38 -16q23 0 38.5 16z" />
    <glyph glyph-name="Yacute" unicode="&#xdd;" horiz-adv-x="579" 
d="M331 0l1 271l237 409h-102l-184 -314l-180 331l-93 -34l225 -393v-270h96zM306 739l90 158h-102l-54 -141z" />
    <glyph glyph-name="Thorn" unicode="&#xde;" horiz-adv-x="572" 
d="M471.5 548q70.5 -52 70.5 -160q0 -73 -36 -122t-96.5 -72.5t-134.5 -23.5h-89v-170h-96v680h96v-80h99q116 0 186.5 -52zM395.5 283q43.5 33 46.5 101q0 74 -40 104.5t-118 30.5h-98v-269h93q73 0 116.5 33z" />
    <glyph glyph-name="germandbls" unicode="&#xdf;" horiz-adv-x="592" 
d="M166 0v472q0 61 35 98.5t95 37.5q52 0 86 -28t34 -80t-35.5 -81t-105.5 -29h-31v-77h70q64 0 103.5 -31.5t39.5 -89.5q0 -57 -42.5 -85t-110.5 -28h-71v-79h75q113 0 181 48t68 143q0 63 -35.5 109t-89.5 64q38 19 60.5 57t22.5 84q0 89 -62 137.5t-159 48.5
q-102 0 -163 -58.5t-61 -159.5v-473h96z" />
    <glyph glyph-name="agrave" unicode="&#xe0;" horiz-adv-x="493" 
d="M243 412q54 0 75.5 -31.5t21.5 -90.5h-115q-81 0 -129.5 -39.5t-48.5 -110.5q0 -69 43 -110.5t126 -41.5q37 0 76 17t66 41l12 -46h67v329q0 46 -25.5 85t-70.5 61.5t-100 22.5q-34 0 -86.5 -12.5t-78.5 -30.5l27 -76q74 33 140 33zM157 201q24 25 66 25h118v-98
q-26 -29 -59 -46.5t-68 -17.5q-39 0 -60 22.5t-21 53.5q0 36 24 61zM229 589l66 17l-54 141h-102z" />
    <glyph glyph-name="aacute" unicode="&#xe1;" horiz-adv-x="493" 
d="M243 412q54 0 75.5 -31.5t21.5 -90.5h-115q-81 0 -129.5 -39.5t-48.5 -110.5q0 -69 43 -110.5t126 -41.5q37 0 76 17t66 41l12 -46h67v329q0 46 -25.5 85t-70.5 61.5t-100 22.5q-34 0 -86.5 -12.5t-78.5 -30.5l27 -76q74 33 140 33zM157 201q24 25 66 25h118v-98
q-26 -29 -59 -46.5t-68 -17.5q-39 0 -60 22.5t-21 53.5q0 36 24 61zM241 589l90 158h-102l-54 -141z" />
    <glyph glyph-name="acircumflex" unicode="&#xe2;" horiz-adv-x="493" 
d="M243 412q54 0 75.5 -31.5t21.5 -90.5h-115q-81 0 -129.5 -39.5t-48.5 -110.5q0 -69 43 -110.5t126 -41.5q37 0 76 17t66 41l12 -46h67v329q0 46 -25.5 85t-70.5 61.5t-100 22.5q-34 0 -86.5 -12.5t-78.5 -30.5l27 -76q74 33 140 33zM157 201q24 25 66 25h118v-98
q-26 -29 -59 -46.5t-68 -17.5q-39 0 -60 22.5t-21 53.5q0 36 24 61zM237 676l75 -87l86 10l-129 148h-66l-128 -148l87 -10z" />
    <glyph glyph-name="atilde" unicode="&#xe3;" horiz-adv-x="493" 
d="M243 412q54 0 75.5 -31.5t21.5 -90.5h-115q-81 0 -129.5 -39.5t-48.5 -110.5q0 -69 43 -110.5t126 -41.5q37 0 76 17t66 41l12 -46h67v329q0 46 -25.5 85t-70.5 61.5t-100 22.5q-34 0 -86.5 -12.5t-78.5 -30.5l27 -76q74 33 140 33zM157 201q24 25 66 25h118v-98
q-26 -29 -59 -46.5t-68 -17.5q-39 0 -60 22.5t-21 53.5q0 36 24 61zM318.5 680q-9.5 -10 -22.5 -10t-22.5 4.5t-24.5 13.5q-17 11 -30.5 17t-34.5 6q-43 0 -69 -24.5t-26 -80.5h65q1 15 11.5 26t22.5 11q13 0 23 -4.5t23 -14.5q17 -11 30 -17t33 -6q42 0 68.5 25t26.5 81
h-63q-1 -17 -10.5 -27z" />
    <glyph glyph-name="adieresis" unicode="&#xe4;" horiz-adv-x="493" 
d="M243 412q54 0 75.5 -31.5t21.5 -90.5h-115q-81 0 -129.5 -39.5t-48.5 -110.5q0 -69 43 -110.5t126 -41.5q37 0 76 17t66 41l12 -46h67v329q0 46 -25.5 85t-70.5 61.5t-100 22.5q-34 0 -86.5 -12.5t-78.5 -30.5l27 -76q74 33 140 33zM157 201q24 25 66 25h118v-98
q-26 -29 -59 -46.5t-68 -17.5q-39 0 -60 22.5t-21 53.5q0 36 24 61zM178.5 626q15.5 16 15.5 38t-15.5 38t-38.5 16q-22 0 -38 -16t-16 -38t16 -38t38 -16q23 0 38.5 16zM352.5 626q15.5 16 15.5 38t-15.5 38t-38.5 16q-22 0 -38 -16t-16 -38t16 -38t38 -16q23 0 38.5 16z
" />
    <glyph glyph-name="aring" unicode="&#xe5;" horiz-adv-x="493" 
d="M243 412q54 0 75.5 -31.5t21.5 -90.5h-115q-81 0 -129.5 -39.5t-48.5 -110.5q0 -69 43 -110.5t126 -41.5q37 0 76 17t66 41l12 -46h67v329q0 46 -25.5 85t-70.5 61.5t-100 22.5q-34 0 -86.5 -12.5t-78.5 -30.5l27 -76q74 33 140 33zM157 201q24 25 66 25h118v-98
q-26 -29 -59 -46.5t-68 -17.5q-39 0 -60 22.5t-21 53.5q0 36 24 61zM169 749q-29 -27 -29 -66q0 -38 28.5 -63.5t69.5 -25.5q40 0 68.5 25.5t28.5 63.5q0 39 -28.5 66t-68.5 27t-69 -27zM208.5 654.5q-12.5 12.5 -12.5 28.5q0 18 12.5 30t29.5 12t29 -12t12 -30
q0 -16 -12 -28.5t-29 -12.5t-29.5 12.5z" />
    <glyph glyph-name="ae" unicode="&#xe6;" horiz-adv-x="812" 
d="M782 221h-344q6 -71 45.5 -112t117.5 -41q38 0 66.5 9.5t79.5 33.5l30 -70q-88 -53 -176 -53q-136 0 -205 80q-74 -80 -180 -80q-83 0 -126 41.5t-43 110.5q0 71 48.5 110.5t129.5 39.5h115q0 58 -21.5 90t-75.5 32q-66 0 -140 -33l-27 76q26 18 78.5 30.5t86.5 12.5
q49 0 90.5 -19t68.5 -51q31 34 74 52t96 18q107 0 159.5 -72.5t52.5 -185.5v-19zM689 286q-19 130 -122 130q-55 0 -87.5 -34.5t-39.5 -95.5h249zM297.5 83q32.5 19 58.5 53q-15 40 -18 90h-115q-42 0 -66 -25t-24 -61q0 -31 21 -53.5t60 -22.5q51 0 83.5 19z" />
    <glyph glyph-name="ccedilla" unicode="&#xe7;" horiz-adv-x="464" 
d="M374.5 5.5q-37.5 -11.5 -73.5 -16.5l-12 -31q32 -8 53.5 -32t21.5 -51q0 -46 -35 -71t-84 -25q-19 0 -44 6.5t-40 16.5l22 59q14 -6 31.5 -11.5t30.5 -5.5q18 0 32 7.5t14 21.5q0 18 -25 31.5t-64 17.5l27 68q-93 13 -146 81.5t-53 171.5q0 75 30 133t85.5 90t129.5 32
q33 0 83 -13.5t80 -33.5l-28 -68q-41 17 -69.5 25t-66.5 8q-66 0 -105.5 -49t-40.5 -123q0 -78 38 -126.5t105 -48.5q41 0 71 8t65 25l29 -69q-24 -16 -61.5 -27.5z" />
    <glyph glyph-name="egrave" unicode="&#xe8;" horiz-adv-x="504" 
d="M474 247q0 110 -53.5 180.5t-158.5 70.5q-71 0 -123.5 -32t-80.5 -90t-28 -133q0 -117 68 -186t195 -69q88 0 176 53l-30 70q-51 -24 -79.5 -33.5t-66.5 -9.5q-78 0 -117.5 41t-45.5 112h344v26zM171.5 381.5q32.5 34.5 87.5 34.5q103 0 122 -130h-249q7 61 39.5 95.5z
M251 589l66 17l-54 141h-102z" />
    <glyph glyph-name="eacute" unicode="&#xe9;" horiz-adv-x="504" 
d="M474 247q0 110 -53.5 180.5t-158.5 70.5q-71 0 -123.5 -32t-80.5 -90t-28 -133q0 -117 68 -186t195 -69q88 0 176 53l-30 70q-51 -24 -79.5 -33.5t-66.5 -9.5q-78 0 -117.5 41t-45.5 112h344v26zM171.5 381.5q32.5 34.5 87.5 34.5q103 0 122 -130h-249q7 61 39.5 95.5z
M263 589l90 158h-102l-54 -141z" />
    <glyph glyph-name="ecircumflex" unicode="&#xea;" horiz-adv-x="504" 
d="M474 247q0 110 -53.5 180.5t-158.5 70.5q-71 0 -123.5 -32t-80.5 -90t-28 -133q0 -117 68 -186t195 -69q88 0 176 53l-30 70q-51 -24 -79.5 -33.5t-66.5 -9.5q-78 0 -117.5 41t-45.5 112h344v26zM171.5 381.5q32.5 34.5 87.5 34.5q103 0 122 -130h-249q7 61 39.5 95.5z
M259 676l75 -87l86 10l-129 148h-66l-128 -148l87 -10z" />
    <glyph glyph-name="edieresis" unicode="&#xeb;" horiz-adv-x="504" 
d="M474 247q0 110 -53.5 180.5t-158.5 70.5q-71 0 -123.5 -32t-80.5 -90t-28 -133q0 -117 68 -186t195 -69q88 0 176 53l-30 70q-51 -24 -79.5 -33.5t-66.5 -9.5q-78 0 -117.5 41t-45.5 112h344v26zM171.5 381.5q32.5 34.5 87.5 34.5q103 0 122 -130h-249q7 61 39.5 95.5z
M200.5 626q15.5 16 15.5 38t-15.5 38t-38.5 16q-22 0 -38 -16t-16 -38t16 -38t38 -16q23 0 38.5 16zM374.5 626q15.5 16 15.5 38t-15.5 38t-38.5 16q-22 0 -38 -16t-16 -38t16 -38t38 -16q23 0 38.5 16z" />
    <glyph glyph-name="igrave" unicode="&#xec;" horiz-adv-x="217" 
d="M157 0v485h-97v-485h97zM98 589l66 17l-54 141h-102z" />
    <glyph glyph-name="iacute" unicode="&#xed;" horiz-adv-x="217" 
d="M157 0v485h-97v-485h97zM110 589l90 158h-102l-54 -141z" />
    <glyph glyph-name="icircumflex" unicode="&#xee;" horiz-adv-x="217" 
d="M157 0v485h-97v-485h97zM106 676l75 -87l86 10l-129 148h-66l-128 -148l87 -10z" />
    <glyph glyph-name="idieresis" unicode="&#xef;" horiz-adv-x="217" 
d="M157 0v485h-97v-485h97zM47.5 626q15.5 16 15.5 38t-15.5 38t-38.5 16q-22 0 -38 -16t-16 -38t16 -38t38 -16q23 0 38.5 16zM221.5 626q15.5 16 15.5 38t-15.5 38t-38.5 16q-22 0 -38 -16t-16 -38t16 -38t38 -16q23 0 38.5 16z" />
    <glyph glyph-name="eth" unicode="&#xf0;" horiz-adv-x="545" 
d="M464 468.5q51 -100.5 51 -217.5q0 -77 -28 -136.5t-83 -93.5t-134 -34q-73 0 -127.5 32t-83.5 90t-29 134q0 75 30 133t85 90t129 32q37 0 81 -18q-43 68 -119 122l-125 -63l-34 64l86 43q-30 16 -75 34l28 70q70 -24 133 -62l109 54l33 -61l-75 -38q97 -74 148 -174.5z
M376.5 118q39.5 49 40.5 123q0 67 -13 123q-25 25 -55.5 38.5t-74.5 13.5q-66 0 -105.5 -49t-40.5 -123q0 -78 38 -126.5t105 -48.5q66 0 105.5 49z" />
    <glyph glyph-name="ntilde" unicode="&#xf1;" 
d="M156 342q39 34 79 55.5t74 21.5q45 0 62.5 -27.5t17.5 -80.5v-311h96v320q0 83 -38.5 132t-117.5 49q-48 0 -97 -22.5t-88 -57.5l-17 64h-67v-485h96v342zM360.5 680q-9.5 -10 -22.5 -10t-22.5 4.5t-24.5 13.5q-17 11 -30.5 17t-34.5 6q-43 0 -69 -24.5t-26 -80.5h65
q1 15 11.5 26t22.5 11q13 0 23 -4.5t23 -14.5q17 -11 30 -17t33 -6q42 0 68.5 25t26.5 81h-63q-1 -17 -10.5 -27z" />
    <glyph glyph-name="ograve" unicode="&#xf2;" horiz-adv-x="545" 
d="M485 109q-30 -58 -85.5 -90t-129.5 -32q-73 0 -127.5 32t-83.5 90t-29 134q0 75 30 133t85 90t129 32q73 0 127.5 -32t84 -90t29.5 -134q0 -75 -30 -133zM376.5 118q39.5 49 40.5 123q0 78 -38 126.5t-105 48.5q-66 0 -105.5 -49t-40.5 -123q0 -78 38 -126.5t105 -48.5
q66 0 105.5 49zM263 589l66 17l-54 141h-102z" />
    <glyph glyph-name="oacute" unicode="&#xf3;" horiz-adv-x="545" 
d="M485 109q-30 -58 -85.5 -90t-129.5 -32q-73 0 -127.5 32t-83.5 90t-29 134q0 75 30 133t85 90t129 32q73 0 127.5 -32t84 -90t29.5 -134q0 -75 -30 -133zM376.5 118q39.5 49 40.5 123q0 78 -38 126.5t-105 48.5q-66 0 -105.5 -49t-40.5 -123q0 -78 38 -126.5t105 -48.5
q66 0 105.5 49zM275 589l90 158h-102l-54 -141z" />
    <glyph glyph-name="ocircumflex" unicode="&#xf4;" horiz-adv-x="545" 
d="M485 109q-30 -58 -85.5 -90t-129.5 -32q-73 0 -127.5 32t-83.5 90t-29 134q0 75 30 133t85 90t129 32q73 0 127.5 -32t84 -90t29.5 -134q0 -75 -30 -133zM376.5 118q39.5 49 40.5 123q0 78 -38 126.5t-105 48.5q-66 0 -105.5 -49t-40.5 -123q0 -78 38 -126.5t105 -48.5
q66 0 105.5 49zM271 676l75 -87l86 10l-129 148h-66l-128 -148l87 -10z" />
    <glyph glyph-name="otilde" unicode="&#xf5;" horiz-adv-x="545" 
d="M485 109q-30 -58 -85.5 -90t-129.5 -32q-73 0 -127.5 32t-83.5 90t-29 134q0 75 30 133t85 90t129 32q73 0 127.5 -32t84 -90t29.5 -134q0 -75 -30 -133zM376.5 118q39.5 49 40.5 123q0 78 -38 126.5t-105 48.5q-66 0 -105.5 -49t-40.5 -123q0 -78 38 -126.5t105 -48.5
q66 0 105.5 49zM352.5 680q-9.5 -10 -22.5 -10t-22.5 4.5t-24.5 13.5q-17 11 -30.5 17t-34.5 6q-43 0 -69 -24.5t-26 -80.5h65q1 15 11.5 26t22.5 11q13 0 23 -4.5t23 -14.5q17 -11 30 -17t33 -6q42 0 68.5 25t26.5 81h-63q-1 -17 -10.5 -27z" />
    <glyph glyph-name="odieresis" unicode="&#xf6;" horiz-adv-x="545" 
d="M485 109q-30 -58 -85.5 -90t-129.5 -32q-73 0 -127.5 32t-83.5 90t-29 134q0 75 30 133t85 90t129 32q73 0 127.5 -32t84 -90t29.5 -134q0 -75 -30 -133zM376.5 118q39.5 49 40.5 123q0 78 -38 126.5t-105 48.5q-66 0 -105.5 -49t-40.5 -123q0 -78 38 -126.5t105 -48.5
q66 0 105.5 49zM212.5 626q15.5 16 15.5 38t-15.5 38t-38.5 16q-22 0 -38 -16t-16 -38t16 -38t38 -16q23 0 38.5 16zM386.5 626q15.5 16 15.5 38t-15.5 38t-38.5 16q-22 0 -38 -16t-16 -38t16 -38t38 -16q23 0 38.5 16z" />
    <glyph glyph-name="divide" unicode="&#xf7;" horiz-adv-x="503" 
d="M298 379.5q19 19.5 19 46.5q0 28 -19 47.5t-47 19.5t-47.5 -19.5t-19.5 -47.5q0 -27 19.5 -46.5t47.5 -19.5t47 19.5zM464 311h-434l9 -76h434zM299.5 60q19.5 20 19.5 47q0 28 -19.5 47.5t-47.5 19.5t-47.5 -19.5t-19.5 -47.5q0 -27 19.5 -47t47.5 -20t47.5 20z" />
    <glyph glyph-name="oslash" unicode="&#xf8;" horiz-adv-x="559" 
d="M401.5 466q54.5 -32 84 -90t29.5 -134q0 -75 -30 -133t-85.5 -90t-129.5 -32q-73 0 -127.5 32t-83.5 90t-29 134q0 75 30 133t85 90t129 32q73 0 127.5 -32zM168.5 367q-39.5 -49 -40.5 -123q0 -80 39 -128l156 292q-24 8 -49 8q-66 0 -105.5 -49zM376.5 118
q39.5 49 40.5 123q0 66 -27 111l-150 -280q14 -3 31 -3q66 0 105.5 49z" />
    <glyph glyph-name="ugrave" unicode="&#xf9;" 
d="M385 143q-39 -34 -79 -55.5t-74 -21.5q-45 0 -62.5 27.5t-17.5 80.5v311h-96v-320q0 -83 38.5 -132t117.5 -49q48 0 97 22.5t88 57.5l17 -64h67v485h-96v-342zM257 589l66 17l-54 141h-102z" />
    <glyph glyph-name="uacute" unicode="&#xfa;" 
d="M385 143q-39 -34 -79 -55.5t-74 -21.5q-45 0 -62.5 27.5t-17.5 80.5v311h-96v-320q0 -83 38.5 -132t117.5 -49q48 0 97 22.5t88 57.5l17 -64h67v485h-96v-342zM269 589l90 158h-102l-54 -141z" />
    <glyph glyph-name="ucircumflex" unicode="&#xfb;" 
d="M385 143q-39 -34 -79 -55.5t-74 -21.5q-45 0 -62.5 27.5t-17.5 80.5v311h-96v-320q0 -83 38.5 -132t117.5 -49q48 0 97 22.5t88 57.5l17 -64h67v485h-96v-342zM265 676l75 -87l86 10l-129 148h-66l-128 -148l87 -10z" />
    <glyph glyph-name="udieresis" unicode="&#xfc;" 
d="M385 143q-39 -34 -79 -55.5t-74 -21.5q-45 0 -62.5 27.5t-17.5 80.5v311h-96v-320q0 -83 38.5 -132t117.5 -49q48 0 97 22.5t88 57.5l17 -64h67v485h-96v-342zM206.5 626q15.5 16 15.5 38t-15.5 38t-38.5 16q-22 0 -38 -16t-16 -38t16 -38t38 -16q23 0 38.5 16z
M380.5 626q15.5 16 15.5 38t-15.5 38t-38.5 16q-22 0 -38 -16t-16 -38t16 -38t38 -16q23 0 38.5 16z" />
    <glyph glyph-name="yacute" unicode="&#xfd;" horiz-adv-x="473" 
d="M122 -108.5q-26 -17.5 -74 -38.5l32 -74q58 13 104 48.5t64 84.5l215 573h-99l-128 -348l-135 366l-91 -34l177 -456l-28 -74q-11 -30 -37 -47.5zM232 589l90 158h-102l-54 -141z" />
    <glyph glyph-name="thorn" unicode="&#xfe;" horiz-adv-x="533" 
d="M390.5 466q54.5 -32 83.5 -90.5t29 -136.5q0 -75 -30 -132t-85 -88.5t-127 -31.5q-20 0 -46.5 7t-52.5 21v-223l-96 -11v914l96 11v-238q27 14 53.5 22t46.5 8q74 0 128.5 -32zM367 116.5q38 47.5 38 121.5q0 80 -37.5 129t-105.5 49q-59 0 -100 -35v-279q42 -33 100 -33
q67 0 105 47.5z" />
    <glyph glyph-name="ydieresis" unicode="&#xff;" horiz-adv-x="473" 
d="M122 -108.5q-26 -17.5 -74 -38.5l32 -74q58 13 104 48.5t64 84.5l215 573h-99l-128 -348l-135 366l-91 -34l177 -456l-28 -74q-11 -30 -37 -47.5zM169.5 626q15.5 16 15.5 38t-15.5 38t-38.5 16q-22 0 -38 -16t-16 -38t16 -38t38 -16q23 0 38.5 16zM343.5 626
q15.5 16 15.5 38t-15.5 38t-38.5 16q-22 0 -38 -16t-16 -38t16 -38t38 -16q23 0 38.5 16z" />
    <glyph glyph-name="Amacron" unicode="&#x100;" horiz-adv-x="625" 
d="M266 680l-256 -680h94l68 182h277l71 -190l95 14l-262 674h-87zM420 259h-221l109 292zM175 776h251l-10 76h-241v-76z" />
    <glyph glyph-name="amacron" unicode="&#x101;" horiz-adv-x="493" 
d="M243 412q54 0 75.5 -31.5t21.5 -90.5h-115q-81 0 -129.5 -39.5t-48.5 -110.5q0 -69 43 -110.5t126 -41.5q37 0 76 17t66 41l12 -46h67v329q0 46 -25.5 85t-70.5 61.5t-100 22.5q-34 0 -86.5 -12.5t-78.5 -30.5l27 -76q74 33 140 33zM157 201q24 25 66 25h118v-98
q-26 -29 -59 -46.5t-68 -17.5q-39 0 -60 22.5t-21 53.5q0 36 24 61zM109 626h251l-9 76h-242v-76z" />
    <glyph glyph-name="Abreve" unicode="&#x102;" horiz-adv-x="625" 
d="M266 680l-256 -680h94l68 182h277l71 -190l95 14l-262 674h-87zM420 259h-221l109 292zM362 838.5q-19 -23.5 -53 -23.5t-52.5 23.5t-18.5 53.5h-67q0 -62 35 -104t103 -43q68 1 103.5 43t35.5 104h-67q0 -30 -19 -53.5z" />
    <glyph glyph-name="abreve" unicode="&#x103;" horiz-adv-x="493" 
d="M243 412q54 0 75.5 -31.5t21.5 -90.5h-115q-81 0 -129.5 -39.5t-48.5 -110.5q0 -69 43 -110.5t126 -41.5q37 0 76 17t66 41l12 -46h67v329q0 46 -25.5 85t-70.5 61.5t-100 22.5q-34 0 -86.5 -12.5t-78.5 -30.5l27 -76q74 33 140 33zM157 201q24 25 66 25h118v-98
q-26 -29 -59 -46.5t-68 -17.5q-39 0 -60 22.5t-21 53.5q0 36 24 61zM291 688.5q-19 -23.5 -53 -23.5t-52.5 23.5t-18.5 53.5h-67q0 -62 35 -104t103 -43q68 1 103.5 43t35.5 104h-67q0 -30 -19 -53.5z" />
    <glyph glyph-name="Aogonek" unicode="&#x104;" horiz-adv-x="625" 
d="M676 -174q-37 -31 -91 -31q-48 0 -79 29.5t-31 74.5q0 24 12 53t30 49l-68 181h-277l-68 -182h-94l256 680h87l262 -674q-21 -16 -39.5 -47t-18.5 -52q0 -20 11 -30.5t30 -10.5q24 0 48 19zM199 259h221l-112 292z" />
    <glyph glyph-name="aogonek" unicode="&#x105;" horiz-adv-x="493" 
d="M498 -180q-37 -31 -91 -31q-48 0 -79 29.5t-31 74.5q0 27 16.5 62.5t49.5 73.5l-5 17q-27 -24 -66 -41t-76 -17q-83 0 -126 41.5t-43 110.5q0 71 48.5 110.5t129.5 39.5h115q0 59 -21.5 90.5t-75.5 31.5q-66 0 -140 -33l-27 76q26 18 78.5 30.5t86.5 12.5q55 0 100 -22.5
t70.5 -61.5t25.5 -85v-329q-21 -16 -39.5 -47t-18.5 -52q0 -20 11 -30.5t30 -10.5q24 0 48 19zM341 226h-118q-42 0 -66 -25t-24 -61q0 -31 21 -53.5t60 -22.5q35 0 68 17.5t59 46.5v98z" />
    <glyph glyph-name="Cacute" unicode="&#x106;" horiz-adv-x="559" 
d="M451 683.5q-52 10.5 -88 10.5q-97 0 -170.5 -46.5t-113 -128t-39.5 -183.5q0 -98 36.5 -177.5t108 -126t172.5 -46.5q43 0 96 11.5t86 28.5l-37 72q-65 -30 -149 -30q-65 0 -113.5 36t-74 97.5t-25.5 135.5q0 80 29 143t79.5 97.5t112.5 34.5q44 0 72 -6t73 -22l30 69
q-33 20 -85 30.5zM386 739l90 158h-102l-54 -141z" />
    <glyph glyph-name="cacute" unicode="&#x107;" horiz-adv-x="464" 
d="M342 77q-30 -8 -71 -8q-67 0 -105 48.5t-38 126.5q1 74 40.5 123t105.5 49q38 0 66.5 -8t69.5 -25l28 68q-30 20 -80 33.5t-83 13.5q-74 0 -129.5 -32t-85.5 -90t-30 -133q0 -76 29.5 -134t84 -90t127.5 -32q34 0 84.5 13t80.5 33l-29 69q-35 -17 -65 -25zM248 589
l90 158h-102l-54 -141z" />
    <glyph glyph-name="Ccaron" unicode="&#x10c;" horiz-adv-x="559" 
d="M451 683.5q-52 10.5 -88 10.5q-97 0 -170.5 -46.5t-113 -128t-39.5 -183.5q0 -98 36.5 -177.5t108 -126t172.5 -46.5q43 0 96 11.5t86 28.5l-37 72q-65 -30 -149 -30q-65 0 -113.5 36t-74 97.5t-25.5 135.5q0 80 29 143t79.5 97.5t112.5 34.5q44 0 72 -6t73 -22l30 69
q-33 20 -85 30.5zM363 810l-75 87l-86 -10l129 -148h66l128 148l-87 10z" />
    <glyph glyph-name="ccaron" unicode="&#x10d;" horiz-adv-x="464" 
d="M342 77q-30 -8 -71 -8q-67 0 -105 48.5t-38 126.5q1 74 40.5 123t105.5 49q38 0 66.5 -8t69.5 -25l28 68q-30 20 -80 33.5t-83 13.5q-74 0 -129.5 -32t-85.5 -90t-30 -133q0 -76 29.5 -134t84 -90t127.5 -32q34 0 84.5 13t80.5 33l-29 69q-35 -17 -65 -25zM248 660
l-75 87l-86 -10l129 -148h66l128 148l-87 10z" />
    <glyph glyph-name="Dcaron" unicode="&#x10e;" horiz-adv-x="678" 
d="M497.5 44q69.5 44 105 122t35.5 178q0 151 -76 243.5t-227 92.5h-245v-680h241q97 0 166.5 44zM490.5 529.5q50.5 -68.5 50.5 -186.5q0 -126 -57 -194.5t-153 -68.5h-145v518h153q101 0 151.5 -68.5zM325 810l-75 87l-86 -10l129 -148h66l128 148l-87 10z" />
    <glyph glyph-name="dcaron" unicode="&#x10f;" horiz-adv-x="706" 
d="M657.5 701.5q18.5 -20.5 18.5 -51.5q0 -51 -32.5 -103t-79.5 -77l-23 45q28 22 43 40.5t18 45.5q-18 1 -33.5 19.5t-15.5 40.5t18.5 41.5t42.5 19.5q25 0 43.5 -20.5zM377 695l97 10v-705h-55l-19 37q-30 -24 -66.5 -37t-62.5 -13q-74 0 -128.5 32t-83.5 90.5t-29 136.5
q0 75 30 132t85 88.5t127 31.5q21 0 49.5 -8t55.5 -23v228zM165.5 118q37.5 -49 105.5 -49q33 0 58 10t48 31v268q-23 20 -48.5 29t-57.5 9q-67 0 -105 -47.5t-38 -121.5q0 -80 37.5 -129z" />
    <glyph glyph-name="Dcroat" unicode="&#x110;" horiz-adv-x="678" 
d="M562 587.5q76 -92.5 76 -243.5q0 -100 -35.5 -178t-105 -122t-166.5 -44h-241v300h-61l-10 75h71v305h245q151 0 227 -92.5zM484 148.5q57 68.5 57 194.5q0 118 -50.5 186.5t-151.5 68.5h-153v-223h91l9 -75h-100v-220h145q96 0 153 68.5z" />
    <glyph glyph-name="dcroat" unicode="&#x111;" horiz-adv-x="544" 
d="M549 555h-75v-555h-55l-19 37q-30 -24 -66.5 -37t-62.5 -13q-74 0 -128.5 32t-83.5 90.5t-29 136.5q0 75 30 132t85 88.5t127 31.5q21 0 49.5 -8t55.5 -23v88h-82l-10 70h92v70l97 10v-80h66zM165.5 118q37.5 -49 105.5 -49q33 0 58 10t48 31v268q-23 20 -48.5 29
t-57.5 9q-67 0 -105 -47.5t-38 -121.5q0 -80 37.5 -129z" />
    <glyph glyph-name="Emacron" unicode="&#x112;" horiz-adv-x="542" 
d="M522 0l-13 75h-323v234h244l-13 74h-231v223h300l-13 74h-383v-680h432zM162 776h251l-10 76h-241v-76z" />
    <glyph glyph-name="emacron" unicode="&#x113;" horiz-adv-x="504" 
d="M474 247q0 110 -53.5 180.5t-158.5 70.5q-71 0 -123.5 -32t-80.5 -90t-28 -133q0 -117 68 -186t195 -69q88 0 176 53l-30 70q-51 -24 -79.5 -33.5t-66.5 -9.5q-78 0 -117.5 41t-45.5 112h344v26zM171.5 381.5q32.5 34.5 87.5 34.5q103 0 122 -130h-249q7 61 39.5 95.5z
M131 626h251l-9 76h-242v-76z" />
    <glyph glyph-name="Edotaccent" unicode="&#x116;" horiz-adv-x="542" 
d="M522 0l-13 75h-323v234h244l-13 74h-231v223h300l-13 74h-383v-680h432zM336 773.5q17 17.5 17 42.5t-17 43t-42 18t-43 -18t-18 -43t18 -42.5t43 -17.5t42 17.5z" />
    <glyph glyph-name="edotaccent" unicode="&#x117;" horiz-adv-x="504" 
d="M474 247q0 110 -53.5 180.5t-158.5 70.5q-71 0 -123.5 -32t-80.5 -90t-28 -133q0 -117 68 -186t195 -69q88 0 176 53l-30 70q-51 -24 -79.5 -33.5t-66.5 -9.5q-78 0 -117.5 41t-45.5 112h344v26zM171.5 381.5q32.5 34.5 87.5 34.5q103 0 122 -130h-249q7 61 39.5 95.5z
M302 623.5q17 17.5 17 42.5t-17 43t-42 18t-43 -18t-18 -43t18 -42.5t43 -17.5t42 17.5z" />
    <glyph glyph-name="Eogonek" unicode="&#x118;" horiz-adv-x="542" 
d="M523 -176q-37 -31 -91 -31q-48 0 -79 29.5t-31 74.5q0 24 12.5 54t30.5 49h-275v680h383l13 -74h-300v-223h231l13 -74h-244v-234h323l13 -75h-65q-20 -18 -36.5 -46.5t-16.5 -48.5t11 -30.5t30 -10.5q24 0 48 19z" />
    <glyph glyph-name="eogonek" unicode="&#x119;" horiz-adv-x="504" 
d="M474 221h-344q6 -71 45.5 -112t117.5 -41q38 0 66.5 9.5t79.5 33.5l30 -70q-41 -24 -79 -37q-21 -16 -39.5 -47t-18.5 -52q0 -20 11 -30.5t30 -10.5q24 0 48 19l30 -59q-37 -31 -91 -31q-48 0 -79 29.5t-31 74.5q0 21 9.5 46t23.5 45q-122 3 -187.5 72t-65.5 183
q0 75 28 133t80.5 90t123.5 32q105 0 158.5 -70.5t53.5 -180.5v-26zM381 286q-19 130 -122 130q-55 0 -87.5 -34.5t-39.5 -95.5h249z" />
    <glyph glyph-name="Ecaron" unicode="&#x11a;" horiz-adv-x="542" 
d="M522 0l-13 75h-323v234h244l-13 74h-231v223h300l-13 74h-383v-680h432zM295 810l-75 87l-86 -10l129 -148h66l128 148l-87 10z" />
    <glyph glyph-name="ecaron" unicode="&#x11b;" horiz-adv-x="504" 
d="M474 247q0 110 -53.5 180.5t-158.5 70.5q-71 0 -123.5 -32t-80.5 -90t-28 -133q0 -117 68 -186t195 -69q88 0 176 53l-30 70q-51 -24 -79.5 -33.5t-66.5 -9.5q-78 0 -117.5 41t-45.5 112h344v26zM171.5 381.5q32.5 34.5 87.5 34.5q103 0 122 -130h-249q7 61 39.5 95.5z
M263 660l-75 87l-86 -10l129 -148h66l128 148l-87 10z" />
    <glyph glyph-name="Gbreve" unicode="&#x11e;" horiz-adv-x="628" 
d="M489 284v-199q-55 -17 -111 -17q-68 0 -122 33t-85 94t-31 142q0 86 35 148.5t92.5 94.5t125.5 32q44 0 71.5 -6t72.5 -22l30 69q-33 20 -85.5 30.5t-90.5 10.5q-99 0 -179 -45.5t-126 -127t-46 -185.5q0 -99 42 -178.5t119 -125.5t179 -46q53 0 107 13.5t90 34.5l1 323
h-229l-8 -73h148zM418 838.5q-19 -23.5 -53 -23.5t-52.5 23.5t-18.5 53.5h-67q0 -62 35 -104t103 -43q68 1 103.5 43t35.5 104h-67q0 -30 -19 -53.5z" />
    <glyph glyph-name="gbreve" unicode="&#x11f;" horiz-adv-x="540" 
d="M474 485v-528q0 -54 -27.5 -96.5t-79.5 -66.5t-125 -24q-35 0 -88 13.5t-84 34.5l29 69q50 -22 75.5 -30.5t64.5 -8.5q62 0 100 28.5t38 81.5v63q-27 -16 -56 -25t-50 -9q-74 0 -128.5 32t-83.5 90.5t-29 136.5q0 75 30 132t85 88.5t127 31.5q26 0 62 -12t66 -35l19 34
h55zM329 79q25 10 48 31v268q-23 20 -48.5 29t-57.5 9q-67 0 -105 -47.5t-38 -121.5q0 -80 37.5 -129t105.5 -49q33 0 58 10zM311 688.5q-19 -23.5 -53 -23.5t-52.5 23.5t-18.5 53.5h-67q0 -62 35 -104t103 -43q68 1 103.5 43t35.5 104h-67q0 -30 -19 -53.5z" />
    <glyph glyph-name="Gcommaaccent" unicode="&#x122;" horiz-adv-x="628" 
d="M489 284v-199q-55 -17 -111 -17q-68 0 -122 33t-85 94t-31 142q0 86 35 148.5t92.5 94.5t125.5 32q44 0 71.5 -6t72.5 -22l30 69q-33 20 -85.5 30.5t-90.5 10.5q-99 0 -179 -45.5t-126 -127t-46 -185.5q0 -99 42 -178.5t119 -125.5t179 -46q53 0 107 13.5t90 34.5l1 323
h-229l-8 -73h148zM338.5 -39.5q-18.5 -18.5 -18.5 -42.5q0 -22 15.5 -40.5t33.5 -19.5q-3 -22 -18.5 -39t-35.5 -28l23 -46q44 22 74 67t30 95q0 32 -17.5 52t-43.5 20q-24 0 -42.5 -18.5z" />
    <glyph glyph-name="gcommaaccent" unicode="&#x123;" horiz-adv-x="540" 
d="M222 573.5q-18 20.5 -18 52.5q0 49 30 93.5t73 67.5l24 -46q-48 -25 -55 -67q18 -1 34 -19.5t16 -39.5q0 -24 -18.5 -43t-42.5 -19q-25 0 -43 20.5zM474 485v-528q0 -54 -27.5 -96.5t-79.5 -66.5t-125 -24q-35 0 -88 13.5t-84 34.5l29 69q50 -22 75.5 -30.5t64.5 -8.5
q62 0 100 28.5t38 81.5v63q-27 -16 -56 -25t-50 -9q-74 0 -128.5 32t-83.5 90.5t-29 136.5q0 75 30 132t85 88.5t127 31.5q26 0 62 -12t66 -35l19 34h55zM329 79q25 10 48 31v268q-23 20 -48.5 29t-57.5 9q-67 0 -105 -47.5t-38 -121.5q0 -80 37.5 -129t105.5 -49
q33 0 58 10z" />
    <glyph glyph-name="Imacron" unicode="&#x12a;" horiz-adv-x="276" 
d="M186 0v680h-96v-680h96zM7 776h251l-10 76h-241v-76z" />
    <glyph glyph-name="imacron" unicode="&#x12b;" horiz-adv-x="217" 
d="M157 0v485h-97v-485h97zM-22 626h251l-9 76h-242v-76z" />
    <glyph glyph-name="Iogonek" unicode="&#x12e;" horiz-adv-x="276" 
d="M247 -180q-37 -31 -91 -31q-48 0 -79 29.5t-31 74.5q0 27 12.5 58t31.5 49v680h96v-680q-21 -16 -39.5 -47t-18.5 -52q0 -20 11 -30.5t30 -10.5q24 0 48 19z" />
    <glyph glyph-name="iogonek" unicode="&#x12f;" horiz-adv-x="217" 
d="M64 623.5q-18 17.5 -18 42.5t18 43t43 18t42 -18t17 -43t-17 -42.5t-42 -17.5t-43 17.5zM218 -180q-37 -31 -91 -31q-48 0 -79 29.5t-31 74.5q0 27 12.5 58t30.5 49v485h97v-485q-21 -16 -39.5 -47t-18.5 -52q0 -20 11 -30.5t30 -10.5q24 0 48 19z" />
    <glyph glyph-name="Idotaccent" unicode="&#x130;" horiz-adv-x="276" 
d="M186 0v680h-96v-680h96zM181 773.5q17 17.5 17 42.5t-17 43t-42 18t-43 -18t-18 -43t18 -42.5t43 -17.5t42 17.5z" />
    <glyph glyph-name="dotlessi" unicode="&#x131;" horiz-adv-x="217" 
d="M157 0v485h-97v-485h97z" />
    <glyph glyph-name="Kcommaaccent" unicode="&#x136;" horiz-adv-x="625" 
d="M498 0l-239 313l-73 -78v-235h-96v680h96v-315l310 330l68 -56l-241 -257l292 -382h-117zM296.5 -39.5q-18.5 -18.5 -18.5 -42.5q0 -22 15.5 -40.5t33.5 -19.5q-3 -22 -18.5 -39t-35.5 -28l23 -46q44 22 74 67t30 95q0 32 -17.5 52t-43.5 20q-24 0 -42.5 -18.5z" />
    <glyph glyph-name="kcommaaccent" unicode="&#x137;" horiz-adv-x="487" 
d="M166 0v174l62 60l147 -234h112l-193 296l144 138l-56 64l-216 -211v419l-96 -11v-695h96zM230.5 -39.5q-18.5 -18.5 -18.5 -42.5q0 -22 15.5 -40.5t33.5 -19.5q-3 -22 -18.5 -39t-35.5 -28l23 -46q44 22 74 67t30 95q0 32 -17.5 52t-43.5 20q-24 0 -42.5 -18.5z" />
    <glyph glyph-name="Lacute" unicode="&#x139;" horiz-adv-x="515" 
d="M493 75h-307v605h-96v-680h415zM209 739l90 158h-102l-54 -141z" />
    <glyph glyph-name="lacute" unicode="&#x13a;" horiz-adv-x="236" 
d="M154 739l90 158h-102l-54 -141zM166 0v685l-96 -12v-673h96z" />
    <glyph glyph-name="Lcommaaccent" unicode="&#x13b;" horiz-adv-x="515" 
d="M493 75h-307v605h-96v-680h415zM299.5 -39.5q-18.5 -18.5 -18.5 -42.5q0 -22 15.5 -40.5t33.5 -19.5q-3 -22 -18.5 -39t-35.5 -28l23 -46q44 22 74 67t30 95q0 32 -17.5 52t-43.5 20q-24 0 -42.5 -18.5z" />
    <glyph glyph-name="lcommaaccent" unicode="&#x13c;" horiz-adv-x="236" 
d="M166 0v706l-96 -11v-695h96zM79.5 -39.5q-18.5 -18.5 -18.5 -42.5q0 -22 15.5 -40.5t33.5 -19.5q-3 -22 -18.5 -39t-35.5 -28l23 -46q44 22 74 67t30 95q0 32 -17.5 52t-43.5 20q-24 0 -42.5 -18.5z" />
    <glyph glyph-name="Lcaron" unicode="&#x13d;" horiz-adv-x="515" 
d="M493 75h-307v605h-96v-680h415zM374.5 702.5q-18.5 -19.5 -18.5 -41.5t15.5 -40.5t33.5 -19.5q-3 -27 -18 -45.5t-43 -40.5l23 -45q47 25 79.5 77t32.5 103q0 31 -18.5 51.5t-43.5 20.5q-24 0 -42.5 -19.5z" />
    <glyph glyph-name="lcaron" unicode="&#x13e;" horiz-adv-x="398" 
d="M263.5 702.5q-18.5 -19.5 -18.5 -41.5t15.5 -40.5t33.5 -19.5q-3 -27 -18 -45.5t-43 -40.5l23 -45q47 25 79.5 77t32.5 103q0 31 -18.5 51.5t-43.5 20.5q-24 0 -42.5 -19.5zM166 0v706l-96 -11v-695h96z" />
    <glyph glyph-name="Lslash" unicode="&#x141;" horiz-adv-x="515" 
d="M90 0v228l-35 -28l-40 65l75 61v354h96v-277l111 90l40 -64l-151 -123v-231h307l12 -75h-415z" />
    <glyph glyph-name="lslash" unicode="&#x142;" horiz-adv-x="321" 
d="M281 514l-72 -60v252l-96 -11v-317l-113 -92l40 -65l73 60v-281h96v358l112 92z" />
    <glyph glyph-name="Nacute" unicode="&#x143;" horiz-adv-x="715" 
d="M186 0v507l353 -507h86v680h-97v-503l-353 503h-85v-680h96zM385 739l90 158h-102l-54 -141z" />
    <glyph glyph-name="nacute" unicode="&#x144;" 
d="M156 342q39 34 79 55.5t74 21.5q45 0 62.5 -27.5t17.5 -80.5v-311h96v320q0 83 -38.5 132t-117.5 49q-48 0 -97 -22.5t-88 -57.5l-17 64h-67v-485h96v342zM283 589l90 158h-102l-54 -141z" />
    <glyph glyph-name="Ncommaaccent" unicode="&#x145;" horiz-adv-x="715" 
d="M186 0v507l353 -507h86v680h-97v-503l-353 503h-85v-680h96zM319.5 -39.5q-18.5 -18.5 -18.5 -42.5q0 -22 15.5 -40.5t33.5 -19.5q-3 -22 -18.5 -39t-35.5 -28l23 -46q44 22 74 67t30 95q0 32 -17.5 52t-43.5 20q-24 0 -42.5 -18.5z" />
    <glyph glyph-name="ncommaaccent" unicode="&#x146;" 
d="M156 342q39 34 79 55.5t74 21.5q45 0 62.5 -27.5t17.5 -80.5v-311h96v320q0 83 -38.5 132t-117.5 49q-48 0 -97 -22.5t-88 -57.5l-17 64h-67v-485h96v342zM240.5 -39.5q-18.5 -18.5 -18.5 -42.5q0 -22 15.5 -40.5t33.5 -19.5q-3 -22 -18.5 -39t-35.5 -28l23 -46
q44 22 74 67t30 95q0 32 -17.5 52t-43.5 20q-24 0 -42.5 -18.5z" />
    <glyph glyph-name="Ncaron" unicode="&#x147;" horiz-adv-x="715" 
d="M186 0v507l353 -507h86v680h-97v-503l-353 503h-85v-680h96zM362 810l-75 87l-86 -10l129 -148h66l128 148l-87 10z" />
    <glyph glyph-name="ncaron" unicode="&#x148;" 
d="M156 342q39 34 79 55.5t74 21.5q45 0 62.5 -27.5t17.5 -80.5v-311h96v320q0 83 -38.5 132t-117.5 49q-48 0 -97 -22.5t-88 -57.5l-17 64h-67v-485h96v342zM283 660l-75 87l-86 -10l129 -148h66l128 148l-87 10z" />
    <glyph glyph-name="Omacron" unicode="&#x14c;" horiz-adv-x="729" 
d="M198 647q-74 -47 -116 -128t-42 -182t41.5 -181t115 -125t165.5 -45q94 1 168.5 48t116.5 128t42 182t-41.5 181t-115.5 125.5t-167 45.5q-93 -2 -167 -49zM169 479.5q29 62.5 81 98t117 35.5q63 0 113 -34.5t78.5 -96t28.5 -138.5q0 -79 -29 -142t-80.5 -98.5
t-116.5 -35.5q-63 0 -113.5 34.5t-79 96.5t-28.5 139q0 79 29 141.5zM231 776h251l-10 76h-241v-76z" />
    <glyph glyph-name="omacron" unicode="&#x14d;" horiz-adv-x="545" 
d="M485 109q-30 -58 -85.5 -90t-129.5 -32q-73 0 -127.5 32t-83.5 90t-29 134q0 75 30 133t85 90t129 32q73 0 127.5 -32t84 -90t29.5 -134q0 -75 -30 -133zM376.5 118q39.5 49 40.5 123q0 78 -38 126.5t-105 48.5q-66 0 -105.5 -49t-40.5 -123q0 -78 38 -126.5t105 -48.5
q66 0 105.5 49zM143 626h251l-9 76h-242v-76z" />
    <glyph glyph-name="Ohungarumlaut" unicode="&#x150;" horiz-adv-x="729" 
d="M198 647q-74 -47 -116 -128t-42 -182t41.5 -181t115 -125t165.5 -45q94 1 168.5 48t116.5 128t42 182t-41.5 181t-115.5 125.5t-167 45.5q-93 -2 -167 -49zM169 479.5q29 62.5 81 98t117 35.5q63 0 113 -34.5t78.5 -96t28.5 -138.5q0 -79 -29 -142t-80.5 -98.5
t-116.5 -35.5q-63 0 -113.5 34.5t-79 96.5t-28.5 139q0 79 29 141.5zM299 739l90 158h-102l-54 -141zM465 739l90 158h-102l-54 -141z" />
    <glyph glyph-name="ohungarumlaut" unicode="&#x151;" horiz-adv-x="545" 
d="M485 109q-30 -58 -85.5 -90t-129.5 -32q-73 0 -127.5 32t-83.5 90t-29 134q0 75 30 133t85 90t129 32q73 0 127.5 -32t84 -90t29.5 -134q0 -75 -30 -133zM376.5 118q39.5 49 40.5 123q0 78 -38 126.5t-105 48.5q-66 0 -105.5 -49t-40.5 -123q0 -78 38 -126.5t105 -48.5
q66 0 105.5 49zM211 589l90 158h-102l-54 -141zM377 589l90 158h-102l-54 -141z" />
    <glyph glyph-name="OE" unicode="&#x152;" horiz-adv-x="952" 
d="M500 0v10q-34 -11 -72.5 -17.5t-70.5 -6.5q-101 0 -172.5 46.5t-108 126t-36.5 177.5q0 102 39.5 183.5t113 128t170.5 46.5q27 0 66 -6t71 -18v10h383l13 -74h-300v-223h231l13 -74h-244v-234h323l13 -75h-432zM500 97v489q-41 14 -69 20t-70 6q-62 0 -112.5 -34.5
t-79.5 -97.5t-29 -143q0 -74 25.5 -135.5t74 -97.5t113.5 -36q80 0 147 29z" />
    <glyph glyph-name="oe" unicode="&#x153;" horiz-adv-x="811" 
d="M781 221h-344q6 -71 45.5 -112t117.5 -41q38 0 66.5 9.5t79.5 33.5l30 -70q-88 -53 -176 -53q-99 0 -165 44q-30 -20 -80 -32.5t-84 -12.5q-73 0 -127.5 32t-84 90t-29.5 134q0 75 30 133t85.5 90t129.5 32q31 0 77.5 -12t77.5 -30q58 42 139 42q105 0 158.5 -70.5
t53.5 -180.5v-26zM166 117.5q38 -48.5 105 -48.5q56 0 108 20q-42 63 -42 154q0 88 39 154q-52 19 -102 19q-66 0 -105.5 -49t-40.5 -123q0 -78 38 -126.5zM688 286q-19 130 -122 130q-55 0 -87.5 -34.5t-39.5 -95.5h249z" />
    <glyph glyph-name="Racute" unicode="&#x154;" horiz-adv-x="604" 
d="M90 0h96v272h89q46 0 63 3l152 -275h104l-171 300q54 23 86 68.5t33 109.5q0 102 -71 152t-186 50h-195v-680zM401.5 570.5q40.5 -28.5 40.5 -96.5q-1 -65 -45.5 -94.5t-117.5 -29.5h-93v249h98q77 0 117.5 -28.5zM310 739l90 158h-102l-54 -141z" />
    <glyph glyph-name="racute" unicode="&#x155;" horiz-adv-x="338" 
d="M156 321q38 36 86 61.5t86 25.5l-21 77q-35 0 -81.5 -25t-80.5 -54l-31 79h-54v-485h96v321zM173 589l90 158h-102l-54 -141z" />
    <glyph glyph-name="Rcommaaccent" unicode="&#x156;" horiz-adv-x="604" 
d="M90 0h96v272h89q46 0 63 3l152 -275h104l-171 300q54 23 86 68.5t33 109.5q0 102 -71 152t-186 50h-195v-680zM401.5 570.5q40.5 -28.5 40.5 -96.5q-1 -65 -45.5 -94.5t-117.5 -29.5h-93v249h98q77 0 117.5 -28.5zM283.5 -39.5q-18.5 -18.5 -18.5 -42.5q0 -22 15.5 -40.5
t33.5 -19.5q-3 -22 -18.5 -39t-35.5 -28l23 -46q44 22 74 67t30 95q0 32 -17.5 52t-43.5 20q-24 0 -42.5 -18.5z" />
    <glyph glyph-name="rcommaaccent" unicode="&#x157;" horiz-adv-x="338" 
d="M156 321q38 36 86 61.5t86 25.5l-21 77q-35 0 -81.5 -25t-80.5 -54l-31 79h-54v-485h96v321zM69.5 -39.5q-18.5 -18.5 -18.5 -42.5q0 -22 15.5 -40.5t33.5 -19.5q-3 -22 -18.5 -39t-35.5 -28l23 -46q44 22 74 67t30 95q0 32 -17.5 52t-43.5 20q-24 0 -42.5 -18.5z" />
    <glyph glyph-name="Rcaron" unicode="&#x158;" horiz-adv-x="604" 
d="M90 0h96v272h89q46 0 63 3l152 -275h104l-171 300q54 23 86 68.5t33 109.5q0 102 -71 152t-186 50h-195v-680zM401.5 570.5q40.5 -28.5 40.5 -96.5q-1 -65 -45.5 -94.5t-117.5 -29.5h-93v249h98q77 0 117.5 -28.5zM287 810l-75 87l-86 -10l129 -148h66l128 148l-87 10z
" />
    <glyph glyph-name="rcaron" unicode="&#x159;" horiz-adv-x="338" 
d="M156 321q38 36 86 61.5t86 25.5l-21 77q-35 0 -81.5 -25t-80.5 -54l-31 79h-54v-485h96v321zM173 660l-75 87l-86 -10l129 -148h66l128 148l-87 10z" />
    <glyph glyph-name="Sacute" unicode="&#x15a;" horiz-adv-x="518" 
d="M135.5 3q63.5 -16 107.5 -16q77 0 132 23t84 64.5t29 95.5q0 70 -42.5 114t-133.5 85q-68 31 -103 51t-54 44.5t-19 57.5q0 43 37 66t97 23q43 0 74.5 -9.5t66.5 -26.5l32 76q-38 19 -85.5 32t-94.5 13q-68 0 -118.5 -23t-77.5 -63t-27 -90t19 -85.5t56.5 -62
t100.5 -54.5q64 -28 100 -48.5t55.5 -45t19.5 -56.5q0 -45 -39 -71.5t-110 -26.5q-42 0 -89 13t-79 30l-22 -76q20 -18 83.5 -34zM286 739l90 158h-102l-54 -141z" />
    <glyph glyph-name="sacute" unicode="&#x15b;" horiz-adv-x="421" 
d="M110.5 -1q48.5 -12 83.5 -12q95 0 146 38t51 107q0 98 -164 157q-48 16 -73.5 33t-26.5 37q0 26 24.5 43.5t62.5 17.5q35 0 64 -8.5t64 -24.5l30 65q-29 20 -75.5 33t-80.5 13q-85 0 -134.5 -37.5t-49.5 -103.5q0 -94 159 -146q108 -34 108 -84q0 -28 -28.5 -45
t-76.5 -17q-62 0 -130 33l-30 -67q28 -20 76.5 -32zM215 589l90 158h-102l-54 -141z" />
    <glyph glyph-name="Scedilla" unicode="&#x15e;" horiz-adv-x="518" 
d="M432 44q-56 -49 -158 -56l-12 -30q32 -8 53.5 -32t21.5 -51q0 -46 -35 -71t-84 -25q-19 0 -44 6.5t-40 16.5l22 59q14 -6 31.5 -11.5t30.5 -5.5q18 0 32 7.5t14 21.5q0 18 -25 31.5t-64 17.5l27 68q-45 6 -90 19.5t-60 27.5l22 76q32 -17 79 -30t89 -13q71 0 110 26.5
t39 71.5q0 32 -19.5 56.5t-55.5 45t-100 48.5q-63 28 -100.5 54.5t-56.5 62t-19 85.5t27 90t77.5 63t118.5 23q47 0 94.5 -13t85.5 -32l-32 -76q-35 17 -66.5 26.5t-74.5 9.5q-60 0 -97 -23t-37 -66q0 -33 19 -57.5t54 -44.5t103 -51q91 -41 133.5 -85t42.5 -114
q0 -77 -56 -126z" />
    <glyph glyph-name="scedilla" unicode="&#x15f;" horiz-adv-x="421" 
d="M348 31.5q-43 -37.5 -124 -43.5l-12 -30q32 -8 53.5 -32t21.5 -51q0 -46 -35 -71t-84 -25q-19 0 -44 6.5t-40 16.5l22 59q14 -6 31.5 -11.5t30.5 -5.5q18 0 32 7.5t14 21.5q0 18 -25 31.5t-64 17.5l27 69q-34 5 -66 15t-52 25l30 67q68 -33 130 -33q48 0 76.5 17t28.5 45
q0 50 -108 84q-159 52 -159 146q0 66 49.5 103.5t134.5 37.5q34 0 80.5 -13t75.5 -33l-30 -65q-35 16 -64 24.5t-64 8.5q-38 0 -62.5 -17.5t-24.5 -43.5q1 -20 26.5 -37t73.5 -33q164 -59 164 -157q0 -63 -43 -100.5z" />
    <glyph glyph-name="Scaron" unicode="&#x160;" horiz-adv-x="518" 
d="M135.5 3q63.5 -16 107.5 -16q77 0 132 23t84 64.5t29 95.5q0 70 -42.5 114t-133.5 85q-68 31 -103 51t-54 44.5t-19 57.5q0 43 37 66t97 23q43 0 74.5 -9.5t66.5 -26.5l32 76q-38 19 -85.5 32t-94.5 13q-68 0 -118.5 -23t-77.5 -63t-27 -90t19 -85.5t56.5 -62
t100.5 -54.5q64 -28 100 -48.5t55.5 -45t19.5 -56.5q0 -45 -39 -71.5t-110 -26.5q-42 0 -89 13t-79 30l-22 -76q20 -18 83.5 -34zM263 810l-75 87l-86 -10l129 -148h66l128 148l-87 10z" />
    <glyph glyph-name="scaron" unicode="&#x161;" horiz-adv-x="421" 
d="M110.5 -1q48.5 -12 83.5 -12q95 0 146 38t51 107q0 98 -164 157q-48 16 -73.5 33t-26.5 37q0 26 24.5 43.5t62.5 17.5q35 0 64 -8.5t64 -24.5l30 65q-29 20 -75.5 33t-80.5 13q-85 0 -134.5 -37.5t-49.5 -103.5q0 -94 159 -146q108 -34 108 -84q0 -28 -28.5 -45
t-76.5 -17q-62 0 -130 33l-30 -67q28 -20 76.5 -32zM215 660l-75 87l-86 -10l129 -148h66l128 148l-87 10z" />
    <glyph glyph-name="Tcedilla" unicode="&#x162;" horiz-adv-x="572" 
d="M355.5 -74q21.5 -24 21.5 -51q0 -46 -35 -71t-84 -25q-19 0 -44 6.5t-40 16.5l22 59q14 -6 31.5 -11.5t30.5 -5.5q18 0 32 7.5t14 21.5q0 18 -25 31.5t-64 17.5l31 78h-15v604h-221v76h539l13 -76h-234v-604h-9l-17 -42q32 -8 53.5 -32z" />
    <glyph glyph-name="tcedilla" unicode="&#x163;" horiz-adv-x="341" 
d="M281.5 -74q21.5 -24 21.5 -51q0 -46 -35 -71t-84 -25q-19 0 -44 6.5t-40 16.5l22 59q14 -6 31.5 -11.5t30.5 -5.5q18 0 32 7.5t14 21.5q0 18 -25 31.5t-64 17.5l29 73q-41 15 -63.5 51t-22.5 89v271h-68l-1 73h69v121l96 22v-143h88l30 -73h-118v-256q0 -39 17 -61.5
t52 -22.5q18 0 47 11l25 -73q-15 -8 -38.5 -14.5t-43.5 -6.5h-1l-10 -25q32 -8 53.5 -32z" />
    <glyph glyph-name="Tcaron" unicode="&#x164;" horiz-adv-x="572" 
d="M549 680h-539v-76h221v-604h97v604h234zM281 810l-75 87l-86 -10l129 -148h66l128 148l-87 10z" />
    <glyph glyph-name="tcaron" unicode="&#x165;" horiz-adv-x="473" 
d="M338.5 702.5q-18.5 -19.5 -18.5 -41.5t15.5 -40.5t33.5 -19.5q-3 -27 -18 -45.5t-43 -40.5l23 -45q47 25 79.5 77t32.5 103q0 31 -18.5 51.5t-43.5 20.5q-24 0 -42.5 -19.5zM180 479v143l-96 -22v-121h-69l1 -73h68v-271q0 -73 41.5 -112.5t113.5 -39.5q20 0 43.5 6.5
t38.5 14.5l-25 73q-29 -11 -47 -11q-35 0 -52 22.5t-17 61.5v256h118l-30 73h-88z" />
    <glyph glyph-name="Umacron" unicode="&#x16a;" horiz-adv-x="690" 
d="M80 680v-437q0 -73 32.5 -131t92.5 -90.5t140 -32.5t140 33t92.5 90.5t32.5 130.5v437h-97v-428q0 -84 -45 -134t-123 -50q-76 0 -122.5 49.5t-46.5 134.5v428h-96zM212 776h251l-10 76h-241v-76z" />
    <glyph glyph-name="umacron" unicode="&#x16b;" 
d="M385 143q-39 -34 -79 -55.5t-74 -21.5q-45 0 -62.5 27.5t-17.5 80.5v311h-96v-320q0 -83 38.5 -132t117.5 -49q48 0 97 22.5t88 57.5l17 -64h67v485h-96v-342zM137 626h251l-9 76h-242v-76z" />
    <glyph glyph-name="Uring" unicode="&#x16e;" horiz-adv-x="690" 
d="M80 680v-437q0 -73 32.5 -131t92.5 -90.5t140 -32.5t140 33t92.5 90.5t32.5 130.5v437h-97v-428q0 -84 -45 -134t-123 -50q-76 0 -122.5 49.5t-46.5 134.5v428h-96zM274 899q-29 -27 -29 -66q0 -38 28.5 -63.5t69.5 -25.5q40 0 68.5 25.5t28.5 63.5q0 39 -28.5 66
t-68.5 27t-69 -27zM313.5 804.5q-12.5 12.5 -12.5 28.5q0 18 12.5 30t29.5 12t29 -12t12 -30q0 -16 -12 -28.5t-29 -12.5t-29.5 12.5z" />
    <glyph glyph-name="uring" unicode="&#x16f;" 
d="M385 143q-39 -34 -79 -55.5t-74 -21.5q-45 0 -62.5 27.5t-17.5 80.5v311h-96v-320q0 -83 38.5 -132t117.5 -49q48 0 97 22.5t88 57.5l17 -64h67v485h-96v-342zM197 749q-29 -27 -29 -66q0 -38 28.5 -63.5t69.5 -25.5q40 0 68.5 25.5t28.5 63.5q0 39 -28.5 66t-68.5 27
t-69 -27zM236.5 654.5q-12.5 12.5 -12.5 28.5q0 18 12.5 30t29.5 12t29 -12t12 -30q0 -16 -12 -28.5t-29 -12.5t-29.5 12.5z" />
    <glyph glyph-name="Uhungarumlaut" unicode="&#x170;" horiz-adv-x="690" 
d="M80 680v-437q0 -73 32.5 -131t92.5 -90.5t140 -32.5t140 33t92.5 90.5t32.5 130.5v437h-97v-428q0 -84 -45 -134t-123 -50q-76 0 -122.5 49.5t-46.5 134.5v428h-96zM280 739l90 158h-102l-54 -141zM446 739l90 158h-102l-54 -141z" />
    <glyph glyph-name="uhungarumlaut" unicode="&#x171;" 
d="M385 143q-39 -34 -79 -55.5t-74 -21.5q-45 0 -62.5 27.5t-17.5 80.5v311h-96v-320q0 -83 38.5 -132t117.5 -49q48 0 97 22.5t88 57.5l17 -64h67v485h-96v-342zM205 589l90 158h-102l-54 -141zM371 589l90 158h-102l-54 -141z" />
    <glyph glyph-name="Uogonek" unicode="&#x172;" horiz-adv-x="690" 
d="M610 680v-437q0 -67 -27.5 -121.5t-79.5 -89t-121 -41.5q-18 -19 -31 -44t-13 -42q0 -20 11 -30.5t30 -10.5q24 0 48 19l30 -59q-37 -31 -91 -31q-48 0 -79 29.5t-31 74.5q0 22 10.5 49t26.5 47q-98 15 -155.5 83t-57.5 167v437h96v-428q0 -85 46.5 -134.5t122.5 -49.5
q78 0 123 50t45 134v428h97z" />
    <glyph glyph-name="uogonek" unicode="&#x173;" 
d="M542 -180q-37 -31 -91 -31q-48 0 -79 29.5t-31 74.5q0 27 16 62t49 73l-9 36q-39 -35 -88 -57.5t-97 -22.5q-79 0 -117.5 49t-38.5 132v320h96v-311q0 -53 17.5 -80.5t62.5 -27.5q34 0 74 21.5t79 55.5v342h96v-485q-21 -16 -39.5 -47t-18.5 -52q0 -20 11 -30.5t30 -10.5
q24 0 48 19z" />
    <glyph glyph-name="Ydieresis" unicode="&#x178;" horiz-adv-x="579" 
d="M331 0l1 271l237 409h-102l-184 -314l-180 331l-93 -34l225 -393v-270h96zM230.5 776q15.5 16 15.5 38t-15.5 38t-38.5 16q-22 0 -38 -16t-16 -38t16 -38t38 -16q23 0 38.5 16zM404.5 776q15.5 16 15.5 38t-15.5 38t-38.5 16q-22 0 -38 -16t-16 -38t16 -38t38 -16
q23 0 38.5 16z" />
    <glyph glyph-name="Zacute" unicode="&#x179;" horiz-adv-x="564" 
d="M531 75h-406l419 529l-10 76h-486l13 -76h374l-415 -529l11 -75h510zM332 739l90 158h-102l-54 -141z" />
    <glyph glyph-name="zacute" unicode="&#x17a;" horiz-adv-x="434" 
d="M409 485h-371l21 -78h231l-272 -357l12 -50h386l-10 76h-268l276 356zM225 589l90 158h-102l-54 -141z" />
    <glyph glyph-name="Zdotaccent" unicode="&#x17b;" horiz-adv-x="564" 
d="M531 75h-406l419 529l-10 76h-486l13 -76h374l-415 -529l11 -75h510zM350 773.5q17 17.5 17 42.5t-17 43t-42 18t-43 -18t-18 -43t18 -42.5t43 -17.5t42 17.5z" />
    <glyph glyph-name="zdotaccent" unicode="&#x17c;" horiz-adv-x="434" 
d="M409 485h-371l21 -78h231l-272 -357l12 -50h386l-10 76h-268l276 356zM264 623.5q17 17.5 17 42.5t-17 43t-42 18t-43 -18t-18 -43t18 -42.5t43 -17.5t42 17.5z" />
    <glyph glyph-name="Zcaron" unicode="&#x17d;" horiz-adv-x="564" 
d="M531 75h-406l419 529l-10 76h-486l13 -76h374l-415 -529l11 -75h510zM309 810l-75 87l-86 -10l129 -148h66l128 148l-87 10z" />
    <glyph glyph-name="zcaron" unicode="&#x17e;" horiz-adv-x="434" 
d="M409 485h-371l21 -78h231l-272 -357l12 -50h386l-10 76h-268l276 356zM225 660l-75 87l-86 -10l129 -148h66l128 148l-87 10z" />
    <glyph glyph-name="florin" unicode="&#x192;" horiz-adv-x="374" 
d="M66 401h73v-328q0 -84 -67 -84q-19 0 -48 11l-24 -73q13 -8 37.5 -14.5t45.5 -6.5q71 0 111.5 42.5t40.5 115.5v337h121l-31 74h-90v58q0 39 16.5 61.5t50.5 22.5q19 0 48 -11l24 74q-13 9 -36.5 15.5t-44.5 6.5q-72 0 -113 -43.5t-41 -116.5v-67h-74z" />
    <glyph glyph-name="Scommaaccent" unicode="&#x218;" horiz-adv-x="518" 
d="M135.5 3q63.5 -16 107.5 -16q77 0 132 23t84 64.5t29 95.5q0 70 -42.5 114t-133.5 85q-68 31 -103 51t-54 44.5t-19 57.5q0 43 37 66t97 23q43 0 74.5 -9.5t66.5 -26.5l32 76q-38 19 -85.5 32t-94.5 13q-68 0 -118.5 -23t-77.5 -63t-27 -90t19 -85.5t56.5 -62
t100.5 -54.5q64 -28 100 -48.5t55.5 -45t19.5 -56.5q0 -45 -39 -71.5t-110 -26.5q-42 0 -89 13t-79 30l-22 -76q20 -18 83.5 -34zM202.5 -39.5q-18.5 -18.5 -18.5 -42.5q0 -22 15.5 -40.5t33.5 -19.5q-3 -22 -18.5 -39t-35.5 -28l23 -46q44 22 74 67t30 95q0 32 -17.5 52
t-43.5 20q-24 0 -42.5 -18.5z" />
    <glyph glyph-name="scommaaccent" unicode="&#x219;" horiz-adv-x="421" 
d="M110.5 -1q48.5 -12 83.5 -12q95 0 146 38t51 107q0 98 -164 157q-48 16 -73.5 33t-26.5 37q0 26 24.5 43.5t62.5 17.5q35 0 64 -8.5t64 -24.5l30 65q-29 20 -75.5 33t-80.5 13q-85 0 -134.5 -37.5t-49.5 -103.5q0 -94 159 -146q108 -34 108 -84q0 -28 -28.5 -45
t-76.5 -17q-62 0 -130 33l-30 -67q28 -20 76.5 -32zM152.5 -39.5q-18.5 -18.5 -18.5 -42.5q0 -22 15.5 -40.5t33.5 -19.5q-3 -22 -18.5 -39t-35.5 -28l23 -46q44 22 74 67t30 95q0 32 -17.5 52t-43.5 20q-24 0 -42.5 -18.5z" />
    <glyph glyph-name="Tcommaaccent" unicode="&#x21a;" horiz-adv-x="572" 
d="M549 680h-539v-76h221v-604h97v604h234zM242.5 -39.5q-18.5 -18.5 -18.5 -42.5q0 -22 15.5 -40.5t33.5 -19.5q-3 -22 -18.5 -39t-35.5 -28l23 -46q44 22 74 67t30 95q0 32 -17.5 52t-43.5 20q-24 0 -42.5 -18.5z" />
    <glyph glyph-name="tcommaaccent" unicode="&#x21b;" horiz-adv-x="341" 
d="M180 479v143l-96 -22v-121h-69l1 -73h68v-271q0 -73 41.5 -112.5t113.5 -39.5q20 0 43.5 6.5t38.5 14.5l-25 73q-29 -11 -47 -11q-35 0 -52 22.5t-17 61.5v256h118l-30 73h-88zM168.5 -39.5q-18.5 -18.5 -18.5 -42.5q0 -22 15.5 -40.5t33.5 -19.5q-3 -22 -18.5 -39
t-35.5 -28l23 -46q44 22 74 67t30 95q0 32 -17.5 52t-43.5 20q-24 0 -42.5 -18.5z" />
    <glyph glyph-name="circumflex" unicode="&#x2c6;" horiz-adv-x="343" 
d="M172 676l75 -87l86 10l-129 148h-66l-128 -148l87 -10z" />
    <glyph glyph-name="caron" unicode="&#x2c7;" horiz-adv-x="343" 
d="M171 660l-75 87l-86 -10l129 -148h66l128 148l-87 10z" />
    <glyph glyph-name="uni02C9" unicode="&#x2c9;" horiz-adv-x="271" 
d="M10 626h251l-10 76h-241v-76z" />
    <glyph glyph-name="breve" unicode="&#x2d8;" horiz-adv-x="297" 
d="M201 688.5q-19 -23.5 -53 -23.5t-52.5 23.5t-18.5 53.5h-67q0 -62 35 -104t103 -43q68 1 103.5 43t35.5 104h-67q0 -30 -19 -53.5z" />
    <glyph glyph-name="dotaccent" unicode="&#x2d9;" horiz-adv-x="140" 
d="M113 623.5q17 17.5 17 42.5t-17 43t-42 18t-43 -18t-18 -43t18 -42.5t43 -17.5t42 17.5z" />
    <glyph glyph-name="ring" unicode="&#x2da;" horiz-adv-x="215" 
d="M39 749q-29 -27 -29 -66q0 -38 28.5 -63.5t69.5 -25.5q40 0 68.5 25.5t28.5 63.5q0 39 -28.5 66t-68.5 27t-69 -27zM78.5 654.5q-12.5 12.5 -12.5 28.5q0 18 12.5 30t29.5 12t29 -12t12 -30q0 -16 -12 -28.5t-29 -12.5t-29.5 12.5z" />
    <glyph glyph-name="ogonek" unicode="&#x2db;" horiz-adv-x="221" 
d="M24 -45.5q-14 -31.5 -14 -57.5q0 -45 31 -74.5t79 -29.5q54 0 91 31l-30 59q-24 -19 -48 -19q-19 0 -30 10.5t-11 30.5q0 21 18.5 52t39.5 47h-93q-19 -18 -33 -49.5z" />
    <glyph glyph-name="tilde" unicode="&#x2dc;" horiz-adv-x="323" 
d="M239.5 680q-9.5 -10 -22.5 -10t-22.5 4.5t-24.5 13.5q-17 11 -30.5 17t-34.5 6q-43 0 -69 -24.5t-26 -80.5h65q1 15 11.5 26t22.5 11q13 0 23 -4.5t23 -14.5q17 -11 30 -17t33 -6q42 0 68.5 25t26.5 81h-63q-1 -17 -10.5 -27z" />
    <glyph glyph-name="hungarumlaut" unicode="&#x2dd;" horiz-adv-x="342" 
d="M76 589l90 158h-102l-54 -141zM242 589l90 158h-102l-54 -141z" />
    <glyph glyph-name="pi" unicode="&#x3c0;" horiz-adv-x="619" 
d="M203 0v409h212v-409h96v409h98v76h-599v-76h97v-409h96z" />
    <glyph glyph-name="tm_Anusvara" unicode="&#xb82;" horiz-adv-x="0" 
d="M86 658.5q36 32.5 36 81.5q0 50 -36 82.5t-86 32.5q-49 0 -85.5 -32.5t-36.5 -82.5q0 -49 36.5 -81.5t85.5 -32.5q50 0 86 32.5zM-38 702.5q-15 14.5 -15 37.5t15 38.5t38 15.5q24 0 39.5 -15.5t15.5 -38.5t-15.5 -37.5t-39.5 -14.5q-23 0 -38 14.5z" />
    <glyph glyph-name="tm_Visarga" unicode="&#xb83;" horiz-adv-x="686" 
d="M428.5 330.5q36.5 32.5 36.5 80.5q0 50 -36 83t-86 33t-86 -33t-36 -83q0 -48 36.5 -80.5t85.5 -32.5t85.5 32.5zM304.5 374.5q-15.5 14.5 -15.5 36.5q0 24 15.5 39t38.5 15t38.5 -15t15.5 -39q0 -22 -15.5 -36.5t-38.5 -14.5t-38.5 14.5zM257.5 18.5
q36.5 32.5 36.5 81.5q0 50 -36.5 82.5t-85.5 32.5t-85.5 -32.5t-36.5 -82.5q0 -49 36.5 -81.5t85.5 -32.5t85.5 32.5zM599.5 18.5q36.5 32.5 36.5 81.5q0 50 -36.5 82.5t-85.5 32.5t-85.5 -32.5t-36.5 -82.5q0 -49 36.5 -81.5t85.5 -32.5t85.5 32.5zM133.5 63.5
q-15.5 14.5 -15.5 36.5q0 23 15.5 38.5t38.5 15.5t38.5 -15.5t15.5 -38.5q0 -22 -15.5 -36.5t-38.5 -14.5t-38.5 14.5zM475.5 63.5q-15.5 14.5 -15.5 36.5q0 23 15.5 38.5t38.5 15.5t38.5 -15.5t15.5 -38.5q0 -22 -15.5 -36.5t-38.5 -14.5t-38.5 14.5z" />
    <glyph glyph-name="tm_A" unicode="&#xb85;" horiz-adv-x="1078" 
d="M988 513v-639h-87v184h-193q-49 -94 -148.5 -148t-233.5 -54q-85 0 -152.5 22t-105.5 60.5t-38 87.5q0 45 32.5 72t91.5 27h486q18 48 18 105q0 65 -24 116.5t-68.5 80.5t-104.5 29q-39 0 -75 -13q41 -10 65.5 -40.5t24.5 -73.5q-1 -53 -37 -86.5t-91 -33.5q-58 0 -95 34
t-37 86q0 58 31.5 104t87.5 72t126 26q87 0 152 -38.5t100.5 -107t35.5 -155.5q0 -54 -14 -105h166v388h87zM381 295q14 14 14 34t-13.5 33.5t-34.5 13.5q-22 0 -36 -13.5t-14 -33.5t14 -34t35 -14t35 14zM490 -35.5q72 33.5 115 93.5h-451q-16 0 -24.5 -9t-8.5 -23
q0 -27 26.5 -48.5t73 -34t105.5 -12.5q92 0 164 33.5z" />
    <glyph glyph-name="tm_Aa" unicode="&#xb86;" horiz-adv-x="1281" 
d="M1223 53q48 -49 48 -128q0 -87 -48.5 -155.5t-136 -107.5t-200.5 -39q-70 0 -124 20.5t-84.5 56t-30.5 79.5q0 52 38.5 84t99.5 32h21v-68h-21q-21 0 -34 -13t-13 -35q0 -34 41 -57.5t107 -23.5q86 0 153 29t104 81t37 117q0 43 -24.5 72.5t-66.5 29.5q-45 0 -73 -29
t-28 -75v-49h-87v184h-193q-49 -94 -148.5 -148t-233.5 -54q-85 0 -152.5 22t-105.5 60.5t-38 87.5q0 45 32.5 72t91.5 27h486q18 48 18 105q0 65 -24 116.5t-68.5 80.5t-104.5 29q-39 0 -75 -13q41 -10 65.5 -40.5t24.5 -73.5q-1 -53 -37 -86.5t-91 -33.5q-58 0 -95 34
t-37 86q0 58 31.5 104t87.5 72t126 26q87 0 152 -38.5t100.5 -107t35.5 -155.5q0 -54 -14 -105h166v388h87v-447q45 36 109 36q78 0 126 -49zM381 295q14 14 14 34t-13.5 33.5t-34.5 13.5q-22 0 -36 -13.5t-14 -33.5t14 -34t35 -14t35 14zM490 -35.5q72 33.5 115 93.5h-451
q-16 0 -24.5 -9t-8.5 -23q0 -27 26.5 -48.5t73 -34t105.5 -12.5q92 0 164 33.5z" />
    <glyph glyph-name="tm_I" unicode="&#xb87;" horiz-adv-x="1047" 
d="M755 662q95 -49 148.5 -135.5t53.5 -195.5v-479h-86v477q0 88 -42.5 158t-118 109.5t-170.5 39.5q-99 0 -178.5 -39t-124 -108.5t-44.5 -157.5q0 -105 51 -202q80 23 169 23q90 0 174 -27q42 82 42 177q0 69 -37 111.5t-100 42.5q-37 0 -70 -11q45 -8 72 -39.5t27 -76.5
q-1 -53 -37 -86.5t-91 -33.5q-58 0 -95 34t-37 86q0 58 28.5 104t80.5 72t122 26q68 0 119.5 -29.5t80 -81.5t28.5 -118q0 -114 -53 -212q54 -32 84.5 -74.5t30.5 -92.5q0 -53 -42.5 -87t-109.5 -34q-107 0 -215 53q-114 -53 -233 -53q-66 0 -109 34t-43 87t35.5 97.5
t97.5 76.5q-61 114 -61 234q0 109 56.5 195.5t156.5 135.5t225 49q120 0 215 -49zM433.5 370q-16.5 16 -41.5 16q-26 0 -43 -16t-17 -41t16.5 -41.5t42.5 -16.5t42.5 16.5t16.5 41.5t-16.5 41zM287 62q50 -69 128 -119q78 47 130 115q-63 19 -132 19q-67 0 -126 -15z
M334 -95q-75 54 -128 127q-85 -46 -85 -109q0 -20 17.5 -33t43.5 -13q76 0 152 28zM674.5 -22.5q-17.5 25.5 -49.5 45.5q-52 -70 -128 -121q69 -25 133 -25q26 0 44 13.5t18 32.5q0 29 -17.5 54.5z" />
    <glyph glyph-name="tm_Ii" unicode="&#xb88;" horiz-adv-x="765" 
d="M431 0v446h-255v-446h-86v513h653l12 -67h-237v-446h-87zM342 181q16 16 16 38t-16.5 38t-38.5 16t-37.5 -16t-15.5 -38t15.5 -38t37.5 -16q23 0 39 16zM683 181q16 16 16 38t-16.5 38t-38.5 16t-37.5 -16t-15.5 -38t15.5 -38t37.5 -16q23 0 39 16z" />
    <glyph glyph-name="tm_U" unicode="&#xb89;" horiz-adv-x="991" 
d="M981 68v-68h-904v68h223q63 0 113 26.5t78.5 73t28.5 105.5q0 52 -25.5 94t-70.5 65.5t-101 23.5q-93 0 -151 -50q6 1 18 1q68 0 112 -39.5t44 -100.5t-44 -101.5t-112 -40.5q-45 0 -81.5 19t-57.5 53t-21 76q0 74 38 132.5t104.5 92t150.5 33.5q82 0 148 -33.5t103 -92
t37 -132.5q0 -64 -27.5 -117t-77.5 -88h475zM242.5 321.5q-21.5 21.5 -54.5 21.5t-54.5 -21t-21.5 -53v-1q0 -33 21 -54.5t55 -21.5q33 0 54.5 21.5t21.5 54.5q0 32 -21.5 53.5z" />
    <glyph glyph-name="tm_Uu" unicode="&#xb8a;" horiz-adv-x="1671" 
d="M1661 68v-68h-1584v68h223q63 0 113 26.5t78.5 73t28.5 105.5q0 52 -25.5 94t-70.5 65.5t-101 23.5q-93 0 -151 -50q6 1 18 1q68 0 112 -39.5t44 -100.5t-44 -101.5t-112 -40.5q-45 0 -81.5 19t-57.5 53t-21 76q0 74 38 132.5t104.5 92t150.5 33.5q82 0 148 -33.5
t103 -92t37 -132.5q0 -64 -27.5 -117t-77.5 -88h1155zM798.5 132q-52.5 25 -82 69.5t-29.5 100.5q0 64 33.5 115.5t93 80.5t134.5 29q58 0 106.5 -22t82.5 -62v70h470l12 -67h-144v-324h-86v324h-166v-324h-86v155q0 50 -24.5 90t-67.5 62.5t-97 22.5q-49 0 -88.5 -19.5
t-62 -53.5t-22.5 -77q0 -41 16 -70v1q0 57 36.5 92t93.5 35q60 0 99.5 -35.5t39.5 -91.5q0 -35 -19 -64t-51.5 -45.5t-72.5 -16.5q-66 0 -118.5 25zM242.5 321.5q-21.5 21.5 -54.5 21.5t-54.5 -21t-21.5 -53v-1q0 -33 21 -54.5t55 -21.5q33 0 54.5 21.5t21.5 54.5
q0 32 -21.5 53.5zM875.5 277.5q-17.5 -16.5 -17.5 -44.5q0 -26 17.5 -43.5t45.5 -17.5q27 0 44.5 17.5t17.5 43.5q0 28 -17.5 44.5t-44.5 16.5q-28 0 -45.5 -16.5z" />
    <glyph glyph-name="tm_E" unicode="&#xb8e;" horiz-adv-x="876" 
d="M866 446h-183v-446h-87v446h-201q-127 0 -190.5 -56t-63.5 -153q0 -73 37 -120q-3 12 -3 26q0 70 46.5 114.5t117.5 44.5q50 0 90 -20.5t62.5 -57t22.5 -82.5q0 -45 -23.5 -81.5t-64.5 -57.5t-93 -21q-84 0 -148.5 34t-99.5 92t-35 129q0 81 38.5 143.5t114 97.5
t183.5 35h469zM272.5 208q-26.5 -26 -26.5 -66t26 -66t67 -26t67 26t26 66t-26.5 66t-66.5 26t-66.5 -26z" />
    <glyph glyph-name="tm_Ee" unicode="&#xb8f;" horiz-adv-x="876" 
d="M866 446h-183v-438q0 -61 -12.5 -94t-56.5 -47l-359 -117l-32 65l322 108q33 11 42 34t9 76v413h-201q-127 0 -190.5 -56t-63.5 -153q0 -73 37 -120q-3 12 -3 26q0 70 46.5 114.5t117.5 44.5q50 0 90 -20.5t62.5 -57t22.5 -82.5q0 -45 -23.5 -81.5t-64.5 -57.5t-93 -21
q-84 0 -148.5 34t-99.5 92t-35 129q0 81 38.5 143.5t114 97.5t183.5 35h469zM272.5 208q-26.5 -26 -26.5 -66t26 -66t67 -26t67 26t26 66t-26.5 66t-66.5 26t-66.5 -26z" />
    <glyph glyph-name="tm_Ai" unicode="&#xb90;" horiz-adv-x="821" 
d="M719 101q20 -38 29 -69.5t9 -63.5q0 -49 -24 -88.5t-66 -62t-95 -22.5t-92 19.5t-63 53.5q-55 -73 -160 -73q-59 0 -106.5 23.5t-74 65t-26.5 93.5q0 89 64 140.5t206 70.5l181 24q83 12 130.5 50.5t48.5 92.5q0 46 -25.5 73.5t-68.5 27.5q-48 0 -80 -32t-32 -81v-69h-86
v69q0 49 -36 81t-91 32q-45 0 -79 -23q47 -3 76.5 -30.5t29.5 -70.5q0 -49 -32 -80.5t-82 -31.5q-51 0 -84 33t-33 84q0 52 26.5 96.5t73 71t104.5 26.5q54 0 96.5 -21.5t71.5 -59.5q60 81 157 81q83 0 134 -48.5t51 -127.5q0 -82 -70.5 -140.5t-199.5 -75.5l-181 -25
q-97 -13 -138 -45.5t-41 -93.5q0 -46 33 -76t83 -30t82.5 32.5t32.5 81.5v69h87v-69q0 -49 32 -81.5t81 -32.5q48 0 71 29t23 75q0 22 -9 56.5t-26 65.5zM211.5 362.5q-13.5 13.5 -34.5 13.5q-22 0 -36 -13.5t-14 -34.5t14 -35t36 -14q21 0 34.5 14t13.5 35t-13.5 34.5z" />
    <glyph glyph-name="tm_O" unicode="&#xb92;" horiz-adv-x="819" 
d="M657 32h74v-67h-74q-29 0 -49 4v-19q0 -49 -23.5 -87.5t-67 -60t-100.5 -21.5q-60 0 -105.5 21.5t-70 60t-24.5 87.5v50h86v-50q0 -42 30.5 -68t83.5 -26q52 0 82.5 26t30.5 68v49q-34 22 -52 57t-18 77v136h78q1 -37 21.5 -60.5t55.5 -23.5q32 0 50 24.5t18 66.5
q0 52 -35.5 94t-98.5 65.5t-141 23.5q-106 0 -182.5 -40t-98.5 -104q30 25 73 25q54 0 89 -33t35 -85q0 -53 -36.5 -86.5t-93.5 -33.5q-68 0 -108.5 46.5t-40.5 120.5q0 76 46 136.5t128.5 94.5t188.5 34q105 0 188.5 -33t130.5 -92t47 -133t-44.5 -120t-114.5 -46
q-44 0 -77 21q2 -99 119 -99zM159.5 255.5q-13.5 -13.5 -13.5 -33.5q0 -21 13.5 -34.5t34.5 -13.5t34.5 13.5t14.5 34.5q0 20 -13.5 33.5t-34.5 13.5q-22 0 -35.5 -13.5z" />
    <glyph glyph-name="tm_Oo" unicode="&#xb93;" horiz-adv-x="819" 
d="M657 32h74v-67h-74q-28 0 -55 5v-20q0 -48 -26 -86.5t-72 -60.5t-104 -22q-57 0 -102 18.5t-70.5 50.5t-25.5 73q0 53 38.5 87t98.5 34h21v-67h-21q-22 0 -36.5 -15.5t-14.5 -38.5q0 -29 31.5 -48t80.5 -19q54 0 89 26.5t35 67.5v53q-31 23 -47.5 56.5t-16.5 73.5v136h78
q1 -37 21.5 -60.5t55.5 -23.5q32 0 50 24.5t18 66.5q0 52 -35.5 94t-98.5 65.5t-141 23.5q-106 0 -182.5 -40t-98.5 -104q30 25 73 25q54 0 89 -33t35 -85q0 -53 -36.5 -86.5t-93.5 -33.5q-68 0 -108.5 46.5t-40.5 120.5q0 76 46 136.5t128.5 94.5t188.5 34q105 0 188.5 -33
t130.5 -92t47 -133t-44.5 -120t-114.5 -46q-44 0 -77 21q2 -99 119 -99zM159.5 255.5q-13.5 -13.5 -13.5 -33.5q0 -21 13.5 -34.5t34.5 -13.5t34.5 13.5t14.5 34.5q0 20 -13.5 33.5t-34.5 13.5q-22 0 -35.5 -13.5z" />
    <glyph glyph-name="tm_Au" unicode="&#xb94;" horiz-adv-x="2050" 
d="M657 32h74v-67h-74q-29 0 -49 4v-19q0 -49 -23.5 -87.5t-67 -60t-100.5 -21.5q-60 0 -105.5 21.5t-70 60t-24.5 87.5v50h86v-50q0 -42 30.5 -68t83.5 -26q52 0 82.5 26t30.5 68v49q-34 22 -52 57t-18 77v136h78q1 -37 21.5 -60.5t55.5 -23.5q32 0 50 24.5t18 66.5
q0 52 -35.5 94t-98.5 65.5t-141 23.5q-106 0 -182.5 -40t-98.5 -104q30 25 73 25q54 0 89 -33t35 -85q0 -53 -36.5 -86.5t-93.5 -33.5q-68 0 -108.5 46.5t-40.5 120.5q0 76 46 136.5t128.5 94.5t188.5 34q105 0 188.5 -33t130.5 -92t47 -133t-44.5 -120t-114.5 -46
q-44 0 -77 21q2 -99 119 -99zM159.5 255.5q-13.5 -13.5 -13.5 -33.5q0 -21 13.5 -34.5t34.5 -13.5t34.5 13.5t14.5 34.5q0 20 -13.5 33.5t-34.5 13.5q-22 0 -35.5 -13.5zM2040 446h-184v-446h-86v446h-237v-446h-86v228q0 65 -31.5 117t-87.5 81.5t-126 29.5q-74 0 -129 -28
t-84 -77.5t-29 -113.5q0 -73 37 -120q-3 12 -3 26q0 70 46.5 114.5t117.5 44.5q50 0 90 -20.5t62.5 -57t22.5 -82.5q0 -45 -23.5 -81.5t-64.5 -57.5t-93 -21q-84 0 -148.5 34t-99.5 92t-35 129q0 85 41 152t116.5 104.5t175.5 37.5q75 0 138.5 -28.5t106.5 -78.5v89h581z
M1091.5 208q-26.5 -26 -26.5 -66t26 -66t67 -26t67 26t26 66t-26.5 66t-66.5 26t-66.5 -26z" />
    <glyph glyph-name="tm_Ka" unicode="&#xb95;" horiz-adv-x="766" 
d="M679 258q57 -45 57 -118q0 -70 -60.5 -114t-167.5 -44v68q68 0 102.5 24.5t34.5 65.5q0 43 -31 69.5t-93 26.5h-31v-31q0 -64 -30 -115t-85 -79.5t-129 -28.5q-61 0 -107.5 21t-72.5 57.5t-26 83.5q0 53 32 91t90 55v223h490l12 -67h-174v-143h30q102 0 159 -45zM248 446
v-143h13h143v143h-156zM404 236h-141q-63 0 -97.5 -24t-34.5 -68q0 -38 31.5 -62.5t83.5 -24.5q74 0 116 41t42 107v31z" />
    <glyph glyph-name="tm_Nga" unicode="&#xb99;" horiz-adv-x="1006" 
d="M916 513v-513h-569v68h142q70 0 103.5 34.5t33.5 93.5q0 43 -25 72.5t-66 29.5q-46 0 -74 -29t-28 -75v-41h-86v293h-171v-446h-86v513h515l12 -67h-184v-108q48 35 110 35q78 0 125.5 -49.5t47.5 -127.5q0 -80 -51 -128h165v445h86z" />
    <glyph glyph-name="tm_Ca" unicode="&#xb9a;" horiz-adv-x="694" 
d="M664 236h-174v-31q0 -64 -30 -115t-85 -79.5t-129 -28.5q-61 0 -107.5 21t-72.5 57.5t-26 83.5q0 53 32 91t90 55v223h490l12 -67h-174v-143h162zM248 446v-143h13h143v143h-156zM404 236h-141q-63 0 -97.5 -24t-34.5 -68q0 -38 31.5 -62.5t83.5 -24.5q74 0 116 41
t42 107v31z" />
    <glyph glyph-name="tm_Ja" unicode="&#xb9c;" horiz-adv-x="821" 
d="M727.5 47.5q43.5 -40.5 43.5 -106.5q0 -40 -23.5 -72.5t-64.5 -51.5t-93 -19h-101v68h101q39 0 64.5 22t25.5 53q0 33 -18 53t-46 20q-43 0 -76 -24t-80 -74q-36 -39 -63.5 -63t-65 -41t-83.5 -17q-59 0 -104 23.5t-69.5 64.5t-24.5 94q0 89 64 140.5t206 70.5l181 24
q83 12 130.5 50.5t48.5 92.5q0 46 -25.5 73.5t-68.5 27.5q-48 0 -80 -32t-32 -81v-69h-86v69q0 49 -36 81t-91 32q-45 0 -79 -23q47 -3 76.5 -30.5t29.5 -70.5q0 -49 -32 -80.5t-82 -31.5q-51 0 -84 33t-33 84q0 52 26.5 96.5t73 71t104.5 26.5q54 0 96.5 -21.5t71.5 -59.5
q60 81 157 81q83 0 134 -48.5t51 -127.5q0 -82 -70.5 -140.5t-199.5 -75.5l-181 -25q-97 -13 -138 -45.5t-41 -93.5q0 -47 29 -76.5t78 -29.5q43 0 77 24.5t82 74.5q38 40 65.5 63.5t63.5 40t80 16.5q68 0 111.5 -40.5zM211.5 362.5q-13.5 13.5 -34.5 13.5q-22 0 -36 -13.5
t-14 -34.5t14 -35t36 -14q21 0 34.5 14t13.5 35t-13.5 34.5z" />
    <glyph glyph-name="tm_Nya" unicode="&#xb9e;" horiz-adv-x="1259" 
d="M1120.5 322.5q43.5 -29.5 66 -79t22.5 -110.5q0 -116 -66.5 -204t-190 -136.5t-289.5 -48.5q-180 0 -314 55.5t-206.5 156.5t-72.5 234q0 93 40.5 183t105.5 150l88 -10q-64 -54 -103.5 -141t-39.5 -184q0 -111 61 -194t174 -129t267 -46q140 0 243 38.5t158 109.5
t55 166q0 63 -24.5 103.5t-79.5 40.5q-47 0 -77 -34.5t-30 -87.5v-155h-86v446h-175q-127 0 -190.5 -56t-63.5 -153q0 -73 37 -120q-3 12 -3 26q0 70 46.5 114.5t117.5 44.5q50 0 90 -20.5t62.5 -57t22.5 -82.5q0 -45 -23.5 -81.5t-64.5 -57.5t-93 -21q-84 0 -148.5 34
t-99.5 92t-35 129q0 81 38.5 143.5t114 97.5t183.5 35h442l12 -67h-184v-137q21 21 49 32t59 11q61 0 104.5 -29.5zM524.5 208q-26.5 -26 -26.5 -66t26 -66t67 -26t67 26t26 66t-26.5 66t-66.5 26t-66.5 -26z" />
    <glyph glyph-name="tm_Tta" unicode="&#xb9f;" horiz-adv-x="722" 
d="M701 68h-525v450l-86 -5v-513h622z" />
    <glyph glyph-name="tm_Nna" unicode="&#xba3;" horiz-adv-x="1719" 
d="M1709 446h-184v-446h-86v446h-91q-71 0 -129 -26q46 -47 71 -109.5t25 -134.5q0 -87 -46 -140.5t-126 -53.5t-126.5 54t-46.5 140q0 72 30 135.5t84 109.5q-65 35 -142 35q-80 0 -145 -37q56 -48 86.5 -110.5t30.5 -132.5q0 -86 -46.5 -140t-126.5 -54t-126.5 54
t-46.5 140q0 70 23.5 131t67.5 108q-87 41 -195 41q-96 0 -169.5 -29.5t-113.5 -81t-40 -117.5q0 -72 38 -118q-4 13 -4 33q0 70 46.5 114.5t117.5 44.5q50 0 90 -20.5t62.5 -57t22.5 -82.5q0 -45 -23.5 -81.5t-64.5 -57.5t-93 -21q-85 0 -149 32t-99 88t-35 126
q0 87 51.5 156t146 108t216.5 39q146 0 260 -62q93 62 218 62q122 0 217 -61q86 43 189 43h349zM1204.5 285q-20.5 51 -57.5 89q-41 -36 -63.5 -87.5t-22.5 -110.5q0 -55 20.5 -87t61.5 -32t61.5 32t20.5 87q0 58 -20.5 109zM799.5 282q-23.5 49 -67.5 86q-35 -37 -54 -86
t-19 -106q0 -55 20.5 -87t61.5 -32t61.5 32t20.5 87q0 57 -23.5 106zM272.5 208q-26.5 -26 -26.5 -66t26 -66t67 -26t67 26t26 66t-26.5 66t-66.5 26t-66.5 -26z" />
    <glyph glyph-name="tm_Ta" unicode="&#xba4;" horiz-adv-x="785" 
d="M631.5 274q53.5 -29 83.5 -80.5t30 -116.5q0 -73 -35.5 -131t-98.5 -90.5t-144 -32.5h-201q-64 0 -98.5 -16t-57.5 -51l-70 39q22 44 81.5 69.5t145.5 25.5h200q55 0 97.5 24t66 66.5t23.5 96.5q0 69 -40 114t-102 45h-22v-31q0 -64 -30 -115t-85 -79.5t-129 -28.5
q-61 0 -107.5 21t-72.5 57.5t-26 83.5q0 53 32 91t90 55v223h490l12 -67h-174v-143h21q67 0 120.5 -29zM248 446v-143h13h143v143h-156zM404 236h-141q-63 0 -97.5 -24t-34.5 -68q0 -38 31.5 -62.5t83.5 -24.5q74 0 116 41t42 107v31z" />
    <glyph glyph-name="tm_Na" unicode="&#xba8;" horiz-adv-x="784" 
d="M642 321.5q44 -30.5 68 -85t24 -123.5q0 -84 -31 -149.5t-88 -102.5t-134 -37h-163q-65 0 -100 -16t-58 -51l-70 39q22 44 81.5 69.5t145.5 25.5h164q76 0 119.5 62t43.5 160q0 74 -27 119t-77 45q-47 0 -77 -34.5t-30 -87.5v-155h-86v446h-171v-446h-86v513h515l12 -67
h-184v-137q21 21 49 32t59 11q57 0 101 -30.5z" />
    <glyph glyph-name="tm_Nnna" unicode="&#xba9;" horiz-adv-x="1317" 
d="M1307 446h-183v-446h-87v446h-91q-77 0 -143 -33q53 -47 82 -108t29 -129q0 -86 -46.5 -140t-126.5 -54t-126.5 54t-46.5 140q0 67 26.5 127.5t75.5 106.5q-90 46 -206 46q-96 0 -169.5 -29.5t-113.5 -81t-40 -117.5q0 -72 38 -118q-4 13 -4 33q0 70 46.5 114.5
t117.5 44.5q50 0 90 -20.5t62.5 -57t22.5 -82.5q0 -45 -23.5 -81.5t-64.5 -57.5t-93 -21q-85 0 -149 32t-99 88t-35 126q0 87 51.5 156t146 108t216.5 39q156 0 275 -70q91 52 207 52h350zM800.5 279.5q-22.5 48.5 -64.5 85.5q-37 -36 -57 -84.5t-20 -104.5q0 -55 20.5 -87
t61.5 -32t61.5 32t20.5 87t-22.5 103.5zM272.5 208q-26.5 -26 -26.5 -66t26 -66t67 -26t67 26t26 66t-26.5 66t-66.5 26t-66.5 -26z" />
    <glyph glyph-name="tm_Pa" unicode="&#xbaa;" horiz-adv-x="728" 
d="M638 513v-513h-548v513l86 5v-450h376v445h86z" />
    <glyph glyph-name="tm_Ma" unicode="&#xbae;" horiz-adv-x="850" 
d="M692.5 492.5q52.5 -38.5 80 -106t27.5 -155.5q0 -106 -54.5 -168.5t-166.5 -62.5h-489v513l86 5v-450h201v251q0 104 50.5 158t139.5 54q73 0 125.5 -38.5zM679.5 111q29.5 43 29.5 120q0 102 -36 163.5t-106 61.5q-103 0 -103 -136v-252h115q71 0 100.5 43z" />
    <glyph glyph-name="tm_Ya" unicode="&#xbaf;" horiz-adv-x="940" 
d="M850 513v-513h-449v34q-52 -52 -125 -52q-91 0 -143.5 54.5t-52.5 157.5v319l86 5v-325q0 -136 110 -136q60 0 92.5 41.5t32.5 108.5v306h87v-445h276v445h86z" />
    <glyph glyph-name="tm_Ra" unicode="&#xbb0;" horiz-adv-x="693" 
d="M500 446v-438q0 -40 -4.5 -64.5t-19 -44t-45.5 -32.5l-269 -117l-32 71l232 102q33 14 42 36t9 74v413h-237v-446h-86v513h581l12 -67h-183z" />
    <glyph glyph-name="tm_Rra" unicode="&#xbb1;" horiz-adv-x="846" 
d="M736.5 448.5q59.5 -82.5 59.5 -217.5q0 -120 -38 -211.5t-113.5 -143.5t-182.5 -52h-154q-65 0 -100 -16t-58 -51l-70 39q22 44 81.5 69.5t145.5 25.5h155q121 0 182 92.5t61 247.5q0 103 -33.5 164t-103.5 61q-50 0 -79.5 -33t-29.5 -103v-320h-86v311q0 65 -27.5 105
t-79.5 40q-100 0 -100 -136v-320h-86v319q0 98 47.5 155t138.5 57q45 0 82.5 -21.5t62.5 -59.5q26 38 66.5 59.5t90.5 21.5q109 0 168.5 -82.5z" />
    <glyph glyph-name="tm_La" unicode="&#xbb2;" horiz-adv-x="1040" 
d="M968.5 377.5q21.5 -80.5 21.5 -144.5q0 -116 -53 -183.5t-152 -67.5q-92 0 -142.5 59t-50.5 168v46q0 94 -58.5 147t-159.5 53q-72 0 -125 -28t-80.5 -77.5t-27.5 -112.5q0 -75 39 -123q-3 14 -3 29q0 45 21 81t58 56.5t83 20.5q50 0 90 -20.5t62.5 -57t22.5 -81.5
t-23.5 -81.5t-64.5 -57.5t-93 -21q-84 0 -148.5 34t-99.5 92t-35 129q0 81 39 148t113 106.5t172 39.5q92 0 160.5 -34t106 -96t37.5 -146v-46q0 -76 27 -113t83 -37q57 0 84 45.5t27 128.5q0 64 -21 144t-61 136l88 14q42 -69 63.5 -149.5zM272.5 208q-26.5 -26 -26.5 -66
t26 -66t67 -26t67 26t26 66t-26.5 66t-66.5 26t-66.5 -26z" />
    <glyph glyph-name="tm_Lla" unicode="&#xbb3;" horiz-adv-x="1231" 
d="M1221 446h-184v-446h-86v446h-237v-446h-86v228q0 65 -31.5 117t-87.5 81.5t-126 29.5q-74 0 -129 -28t-84 -77.5t-29 -113.5q0 -73 37 -120q-3 12 -3 26q0 70 46.5 114.5t117.5 44.5q50 0 90 -20.5t62.5 -57t22.5 -82.5q0 -45 -23.5 -81.5t-64.5 -57.5t-93 -21
q-84 0 -148.5 34t-99.5 92t-35 129q0 85 41 152t116.5 104.5t175.5 37.5q75 0 138.5 -28.5t106.5 -78.5v89h581zM272.5 208q-26.5 -26 -26.5 -66t26 -66t67 -26t67 26t26 66t-26.5 66t-66.5 26t-66.5 -26z" />
    <glyph glyph-name="tm_Llla" unicode="&#xbb4;" horiz-adv-x="850" 
d="M464 0v-31q0 -39 17 -56t50 -17h149l11 -67h-166q-26 -59 -83.5 -95t-131.5 -36q-60 0 -106.5 22.5t-72 63.5t-25.5 94h87q0 -47 33 -76t84 -29q47 0 81 21t51 54q-30 15 -47.5 44t-17.5 68v40h-287v513l86 5v-450h201v251q0 104 50.5 158t139.5 54q73 0 125.5 -38.5
t80 -106t27.5 -155.5q0 -106 -54.5 -168.5t-166.5 -62.5h-115zM464 68h115q71 0 100.5 43t29.5 120q0 102 -36 163.5t-106 61.5q-103 0 -103 -136v-252z" />
    <glyph glyph-name="tm_Va" unicode="&#xbb5;" horiz-adv-x="1055" 
d="M965 513v-513h-398v68q61 84 61 187q0 59 -28 104.5t-81.5 71t-126.5 25.5q-76 0 -133 -28t-87.5 -77.5t-30.5 -113.5q0 -73 37 -120q-3 12 -3 26q0 70 46.5 114.5t117.5 44.5q50 0 90 -20.5t62.5 -57t22.5 -82.5q0 -45 -23.5 -81.5t-64.5 -57.5t-93 -21q-84 0 -148.5 34
t-99.5 92t-35 129q0 85 42.5 152t120 104.5t179.5 37.5q98 0 172 -35.5t114.5 -98t40.5 -142.5q0 -51 -14.5 -99.5t-39.5 -87.5h214v445h86zM272.5 208q-26.5 -26 -26.5 -66t26 -66t67 -26t67 26t26 66t-26.5 66t-66.5 26t-66.5 -26z" />
    <glyph glyph-name="tm_Sha" unicode="&#xbb6;" horiz-adv-x="1082" 
d="M977.5 450.5q54.5 -62.5 54.5 -168.5q0 -88 -27.5 -155.5t-80 -106t-125.5 -38.5q-89 0 -139.5 54t-50.5 158v252h-138v-252q0 -103 -53.5 -157.5t-142.5 -54.5q-88 0 -141.5 54.5t-53.5 157.5v319l86 5v-325q0 -70 29.5 -103t79.5 -33t79.5 33t29.5 103v320h427
q112 0 166.5 -62.5zM905 118.5q36 61.5 36 163.5q0 78 -29.5 121t-100.5 43h-115v-253q0 -136 103 -136q70 0 106 61.5z" />
    <glyph glyph-name="tm_Ssa" unicode="&#xbb7;" horiz-adv-x="1405" 
d="M1325 0h-206v-243h-86v243h-466v68q61 84 61 187q0 58 -28.5 104t-82 71.5t-125.5 25.5q-76 0 -133 -28t-87.5 -77.5t-30.5 -113.5q0 -73 37 -120q-3 12 -3 26q0 70 46.5 114.5t117.5 44.5q50 0 90 -20.5t62.5 -57t22.5 -82.5q0 -45 -23.5 -81.5t-64.5 -57.5t-93 -21
q-84 0 -148.5 34t-99.5 92t-35 129q0 85 42.5 152t120 104.5t179.5 37.5q98 0 172 -35.5t114.5 -98t40.5 -142.5q0 -50 -14 -98.5t-39 -88.5h367v135q-25 -4 -61 -4q-59 0 -105.5 22.5t-73 61t-26.5 86.5q0 73 47.5 117.5t129.5 44.5q79 0 127 -45.5t48 -116.5v-52
q77 49 120 129h86v-446zM1033 281v83q0 41 -24 66.5t-65 25.5q-42 0 -64 -23.5t-22 -63.5t32 -67.5t82 -27.5q26 0 61 7zM1239 68v240q-53 -56 -120 -82v-158h120zM272.5 208q-26.5 -26 -26.5 -66t26 -66t67 -26t67 26t26 66t-26.5 66t-66.5 26t-66.5 -26z" />
    <glyph glyph-name="tm_Sa" unicode="&#xbb8;" horiz-adv-x="1333" 
d="M1261.5 378q21.5 -80 21.5 -145q0 -116 -53 -183.5t-151 -67.5q-93 0 -143.5 59t-50.5 168v116q0 62 -20.5 96t-69.5 34q-54 0 -85.5 -55.5t-31.5 -144.5v-255h-86v255q0 94 -58.5 147t-159.5 53q-72 0 -125 -28t-80.5 -77.5t-27.5 -112.5q0 -75 39 -123q-3 14 -3 29
q0 45 21 81t58 56.5t83 20.5q50 0 90 -20.5t62.5 -57t22.5 -81.5t-23.5 -81.5t-64.5 -57.5t-93 -21q-84 0 -148.5 34t-99.5 92t-35 129q0 81 39 148t113 106.5t172 39.5q87 0 153.5 -30.5t104.5 -86.5q23 56 64 86.5t99 30.5q87 0 132 -55t45 -147v-120q0 -76 27 -113
t82 -37q111 0 111 174q0 64 -21 144t-61 136l88 14q42 -69 63.5 -149zM272.5 208q-26.5 -26 -26.5 -66t26 -66t67 -26t67 26t26 66t-26.5 66t-66.5 26t-66.5 -26z" />
    <glyph glyph-name="tm_Ha" unicode="&#xbb9;" horiz-adv-x="1617" 
d="M1508 448.5q59 -82.5 59 -217.5q0 -120 -38 -211.5t-113 -143.5t-182 -52h-956q-65 0 -100 -16t-58 -51l-70 39q22 44 81.5 69.5t145.5 25.5h957q121 0 182 92.5t61 247.5q0 103 -33.5 164t-103.5 61q-50 0 -79.5 -33t-29.5 -103v-320h-87v311q0 65 -27.5 105t-78.5 40
q-100 0 -100 -136v-320h-371v68q61 84 61 187q0 58 -28.5 104t-82 71.5t-125.5 25.5q-76 0 -133 -28t-87.5 -77.5t-30.5 -113.5q0 -73 37 -120q-3 12 -3 26q0 70 46.5 114.5t117.5 44.5q50 0 90 -20.5t62.5 -57t22.5 -82.5q0 -45 -23.5 -81.5t-64.5 -57.5t-93 -21
q-84 0 -148.5 34t-99.5 92t-35 129q0 85 42.5 152t120 104.5t179.5 37.5q98 0 172 -35.5t114.5 -98t40.5 -142.5q0 -101 -53 -187h186v251q0 98 47.5 155t138.5 57q45 0 83 -21.5t62 -59.5q26 38 66.5 59.5t90.5 21.5q109 0 168 -82.5zM272.5 208q-26.5 -26 -26.5 -66
t26 -66t67 -26t67 26t26 66t-26.5 66t-66.5 26t-66.5 -26z" />
    <glyph glyph-name="tm_VowelAa" unicode="&#xbbe;" horiz-adv-x="673" 
d="M480 446v-446h-87v446h-217v-446h-86v513h561l12 -67h-183z" />
    <glyph glyph-name="tm_VowelI" unicode="&#xbbf;" horiz-adv-x="266" 
d="M27 759.5q71 -37.5 110 -104.5t39 -152v-503h-86v503q0 64 -27.5 114t-79 78t-121.5 28t-109 -29t-39 -76t29 -76t84 -29h20v-63h-20q-91 0 -145 47t-55 121q0 52 28.5 92.5t82 63.5t124.5 23q94 0 165 -37.5z" />
    <glyph glyph-name="tm_VowelIi" unicode="&#xbc0;" horiz-adv-x="0" 
d="M-39 852q52 -26 83 -69t31 -91q0 -53 -33.5 -87.5t-83.5 -34.5q-52 0 -85.5 31.5t-33.5 79.5q0 42 25.5 71t67.5 36q-35 15 -82 15q-68 0 -111.5 -40.5t-43.5 -103.5q0 -64 36 -105t91 -41v-66q-62 0 -112 27.5t-78 75.5t-28 109q0 63 32 113t88 78t126 28q59 0 111 -26z
M-8 646.5q13 13.5 13 33.5t-13 33t-34 13q-20 0 -33.5 -13t-13.5 -33t13.5 -33.5t33.5 -13.5q21 0 34 13.5z" />
    <glyph glyph-name="tm_VowelU" unicode="&#xbc1;" horiz-adv-x="473" 
d="M354.5 492.5q41.5 -20.5 65 -57t23.5 -82.5t-22.5 -82.5t-63 -57t-90.5 -20.5q-49 0 -88 20.5t-61 56.5t-22 82q0 54 31 94h-303v67h437q52 0 93.5 -20.5zM333.5 287q26.5 26 26.5 66q0 41 -26 67t-67 26q-40 0 -66 -26t-26 -67q0 -40 26 -66t66 -26t66.5 26z" />
    <glyph glyph-name="tm_VowelUu" unicode="&#xbc2;" horiz-adv-x="679" 
d="M514 578q63 -34 99 -94t36 -135q0 -78 -40 -140.5t-111.5 -97.5t-161.5 -35h-58v67h58q63 0 113.5 26.5t79.5 73.5t29 106q0 54 -24.5 98t-67 69t-93.5 25q-62 0 -109 -28q51 0 92 -21t64 -57.5t23 -81.5q0 -69 -47 -111.5t-121 -42.5q-48 0 -86.5 21.5t-60.5 59.5
t-22 85q0 45 13 81h-295v67h330q35 47 92 73t127 26q78 0 141 -34zM333.5 420.5q-26.5 25.5 -77.5 25.5h-56q-19 -38 -19 -80q0 -43 26.5 -71.5t67.5 -28.5q38 0 61.5 23.5t23.5 63.5q0 42 -26.5 67.5z" />
    <glyph glyph-name="tm_VowelE" unicode="&#xbc6;" horiz-adv-x="804" 
d="M562 634.5q73 -40.5 112.5 -115.5t39.5 -174v-345h-86v345q0 117 -63.5 186t-172.5 69q-76 0 -133 -36t-87.5 -100t-30.5 -146q0 -102 34 -169q2 67 48 110t116 43q50 0 90 -20.5t62.5 -57t22.5 -82.5q0 -45 -23.5 -81.5t-64.5 -57.5t-93 -21q-81 0 -145.5 42.5t-101 119
t-36.5 174.5q0 103 42.5 184t120 127t179.5 46q97 0 170 -40.5zM272.5 208q-26.5 -26 -26.5 -66t26 -66t67 -26t67 26t26 66t-26.5 66t-66.5 26t-66.5 -26z" />
    <glyph glyph-name="tm_VowelEe" unicode="&#xbc7;" horiz-adv-x="680" 
d="M585 246q45 -40 45 -102q0 -73 -60 -117.5t-172 -44.5q-103 0 -182 44.5t-122.5 123.5t-43.5 179q0 99 43.5 178t122.5 123.5t182 44.5q112 0 172 -44.5t60 -117.5q0 -62 -45 -102t-113 -40q-64 0 -105.5 40t-41.5 102q0 27 10.5 50t29.5 40q-68 -4 -118.5 -40t-78 -97
t-27.5 -137q0 -77 27.5 -138t78 -97t118.5 -40q-19 17 -29.5 40t-10.5 50q0 62 41.5 102t105.5 40q68 0 113 -40zM528 461.5q21 20.5 21 51.5q0 32 -20.5 52.5t-52.5 20.5t-52.5 -20.5t-20.5 -52.5q0 -31 20.5 -51.5t52.5 -20.5q31 0 52 20.5zM423.5 195.5
q-20.5 -20.5 -20.5 -51.5q0 -32 20.5 -52.5t52.5 -20.5t52.5 21t20.5 52t-21 51.5t-52 20.5q-32 0 -52.5 -20.5z" />
    <glyph glyph-name="tm_VowelAi" unicode="&#xbc8;" horiz-adv-x="1246" 
d="M1068.5 498q62.5 -33 95 -92t32.5 -135q0 -63 -21 -139.5t-64 -145.5l-88 14q40 57 61 132.5t21 138.5q0 83 -47.5 134t-138.5 51q-68 0 -127 -32q58 -49 90 -112.5t32 -135.5q0 -86 -46.5 -140t-126.5 -54t-126.5 54t-46.5 140q0 69 24.5 130t68.5 108q-87 42 -197 42
q-96 0 -169.5 -29.5t-113.5 -81t-40 -117.5q0 -72 38 -118q-4 13 -4 33q0 70 46.5 114.5t117.5 44.5q50 0 90 -20.5t62.5 -57t22.5 -82.5q0 -45 -23.5 -81.5t-64.5 -57.5t-93 -21q-85 0 -149 32t-99 88t-35 126q0 87 51.5 156t146 108t216.5 39q146 0 260 -62q44 30 93.5 46
t101.5 16q87 0 149.5 -33zM798.5 284q-24.5 50 -70.5 88q-33 -38 -51 -88t-18 -108q0 -55 20.5 -87t61.5 -32t61.5 32t20.5 87q0 58 -24.5 108zM272.5 208q-26.5 -26 -26.5 -66t26 -66t67 -26t67 26t26 66t-26.5 66t-66.5 26t-66.5 -26z" />
    <glyph glyph-name="tm_VowelO" unicode="&#xbca;" horiz-adv-x="1973" 
d="M562 634.5q73 -40.5 112.5 -115.5t39.5 -174v-345h-86v345q0 117 -63.5 186t-172.5 69q-76 0 -133 -36t-87.5 -100t-30.5 -146q0 -102 34 -169q2 67 48 110t116 43q50 0 90 -20.5t62.5 -57t22.5 -82.5q0 -45 -23.5 -81.5t-64.5 -57.5t-93 -21q-81 0 -145.5 42.5t-101 119
t-36.5 174.5q0 103 42.5 184t120 127t179.5 46q97 0 170 -40.5zM272.5 208q-26.5 -26 -26.5 -66t26 -66t67 -26t67 26t26 66t-26.5 66t-66.5 26t-66.5 -26zM1760 446v-446h-87v446h-217v-446h-86v513h561l12 -67h-183zM1056 467q8 8 8 21t-8 21.5t-21 8.5t-21 -8.5t-8 -21.5
t8 -21t21 -8t21 8zM925 494q-8 -8 -8 -21t8 -21t21 -8t21 8t8 21t-8 21t-21 8t-21 -8zM1146 452q8 8 8 21t-8 21t-21 8t-21 -8t-8 -21t8 -21t21 -8t21 8zM848.5 443.5q-8.5 -8.5 -8.5 -21.5t8.5 -21t21.5 -8t21 8t8 21t-8 21.5t-21 8.5t-21.5 -8.5zM1222.5 401q8.5 8 8.5 21
t-8.5 21.5t-21.5 8.5t-21 -8.5t-8 -21.5t8 -21t21 -8t21.5 8zM800.5 364.5q-8.5 -8.5 -8.5 -21.5t8.5 -21t21.5 -8t21 8t8 21t-8 21.5t-21 8.5t-21.5 -8.5zM1270 322q8 8 8 21t-8 21.5t-21 8.5t-21 -8.5t-8 -21.5t8 -21t21 -8t21 8zM786.5 278.5q-8.5 -8.5 -8.5 -21.5
t8.5 -20.5t21.5 -7.5t21 7.5t8 20.5t-8 21.5t-21 8.5t-21.5 -8.5zM1284.5 236.5q8.5 7.5 8.5 20.5t-8.5 21.5t-21.5 8.5t-21 -8.5t-8 -21.5t8 -20.5t21 -7.5t21.5 7.5zM800.5 195q-8.5 -8 -8.5 -21t8.5 -21t21.5 -8t21 8t8 21t-8 21t-21 8t-21.5 -8zM1270 153q8 8 8 21
t-8 21t-21 8t-21 -8t-8 -21t8 -21t21 -8t21 8zM847.5 115q-8.5 -8 -8.5 -21t8.5 -21t21.5 -8t21 8t8 21t-8 21t-21 8t-21.5 -8zM1223.5 73q8.5 8 8.5 21t-8.5 21t-21.5 8t-21 -8t-8 -21t8 -21t21 -8t21.5 8zM925 65.5q-8 -8.5 -8 -21.5t8 -21t21 -8t21 8t8 21t-8 21.5
t-21 8.5t-21 -8.5zM1146 23q8 8 8 21t-8 21.5t-21 8.5t-21 -8.5t-8 -21.5t8 -21t21 -8t21 8zM1056 8q8 8 8 21t-8 21.5t-21 8.5t-21 -8.5t-8 -21.5t8 -21t21 -8t21 8z" />
    <glyph glyph-name="tm_VowelOo" unicode="&#xbcb;" horiz-adv-x="1887" 
d="M585 246q45 -40 45 -102q0 -73 -60 -117.5t-172 -44.5q-103 0 -182 44.5t-122.5 123.5t-43.5 179q0 99 43.5 178t122.5 123.5t182 44.5q112 0 172 -44.5t60 -117.5q0 -62 -45 -102t-113 -40q-64 0 -105.5 40t-41.5 102q0 27 10.5 50t29.5 40q-68 -4 -118.5 -40t-78 -97
t-27.5 -137q0 -77 27.5 -138t78 -97t118.5 -40q-19 17 -29.5 40t-10.5 50q0 62 41.5 102t105.5 40q68 0 113 -40zM528 461.5q21 20.5 21 51.5q0 32 -20.5 52.5t-52.5 20.5t-52.5 -20.5t-20.5 -52.5q0 -31 20.5 -51.5t52.5 -20.5q31 0 52 20.5zM423.5 195.5
q-20.5 -20.5 -20.5 -51.5q0 -32 20.5 -52.5t52.5 -20.5t52.5 21t20.5 52t-21 51.5t-52 20.5q-32 0 -52.5 -20.5zM1674 446v-446h-87v446h-217v-446h-86v513h561l12 -67h-183zM959 467q8 8 8 21t-8 21.5t-21 8.5t-21 -8.5t-8 -21.5t8 -21t21 -8t21 8zM828 494q-8 -8 -8 -21
t8 -21t21 -8t21 8t8 21t-8 21t-21 8t-21 -8zM1049 452q8 8 8 21t-8 21t-21 8t-21 -8t-8 -21t8 -21t21 -8t21 8zM751.5 443.5q-8.5 -8.5 -8.5 -21.5t8.5 -21t21.5 -8t21 8t8 21t-8 21.5t-21 8.5t-21.5 -8.5zM1125.5 401q8.5 8 8.5 21t-8.5 21.5t-21.5 8.5t-21 -8.5t-8 -21.5
t8 -21t21 -8t21.5 8zM703.5 364.5q-8.5 -8.5 -8.5 -21.5t8.5 -21t21.5 -8t21 8t8 21t-8 21.5t-21 8.5t-21.5 -8.5zM1173 322q8 8 8 21t-8 21.5t-21 8.5t-21 -8.5t-8 -21.5t8 -21t21 -8t21 8zM689.5 278.5q-8.5 -8.5 -8.5 -21.5t8.5 -20.5t21.5 -7.5t21 7.5t8 20.5t-8 21.5
t-21 8.5t-21.5 -8.5zM1187.5 236.5q8.5 7.5 8.5 20.5t-8.5 21.5t-21.5 8.5t-21 -8.5t-8 -21.5t8 -20.5t21 -7.5t21.5 7.5zM703.5 195q-8.5 -8 -8.5 -21t8.5 -21t21.5 -8t21 8t8 21t-8 21t-21 8t-21.5 -8zM1173 153q8 8 8 21t-8 21t-21 8t-21 -8t-8 -21t8 -21t21 -8t21 8z
M750.5 115q-8.5 -8 -8.5 -21t8.5 -21t21.5 -8t21 8t8 21t-8 21t-21 8t-21.5 -8zM1126.5 73q8.5 8 8.5 21t-8.5 21t-21.5 8t-21 -8t-8 -21t8 -21t21 -8t21.5 8zM828 65.5q-8 -8.5 -8 -21.5t8 -21t21 -8t21 8t8 21t-8 21.5t-21 8.5t-21 -8.5zM1049 23q8 8 8 21t-8 21.5
t-21 8.5t-21 -8.5t-8 -21.5t8 -21t21 -8t21 8zM959 8q8 8 8 21t-8 21.5t-21 8.5t-21 -8.5t-8 -21.5t8 -21t21 -8t21 8z" />
    <glyph glyph-name="tm_VowelAu" unicode="&#xbcc;" horiz-adv-x="2542" 
d="M567 634.5q73 -40.5 112.5 -115.5t39.5 -174v-345h-86v345q0 117 -63.5 186t-172.5 69q-76 0 -133 -36t-87.5 -100t-30.5 -146q0 -102 34 -169q2 67 48 110t116 43q50 0 90 -20.5t62.5 -57t22.5 -82.5q0 -45 -23.5 -81.5t-64.5 -57.5t-93 -21q-81 0 -145.5 42.5t-101 119
t-36.5 174.5q0 103 42.5 184t120 127t179.5 46q97 0 170 -40.5zM277.5 208q-26.5 -26 -26.5 -66t26 -66t67 -26t67 26t26 66t-26.5 66t-66.5 26t-66.5 -26zM2532 446h-184v-446h-86v446h-237v-446h-86v228q0 65 -31.5 117t-87.5 81.5t-126 29.5q-74 0 -129 -28t-84 -77.5
t-29 -113.5q0 -73 37 -120q-3 12 -3 26q0 70 46.5 114.5t117.5 44.5q50 0 90 -20.5t62.5 -57t22.5 -82.5q0 -45 -23.5 -81.5t-64.5 -57.5t-93 -21q-84 0 -148.5 34t-99.5 92t-35 129q0 85 41 152t116.5 104.5t175.5 37.5q76 0 139 -28t106 -79v89h581zM1583.5 208
q-26.5 -26 -26.5 -66t26 -66t67 -26t67 26t26 66t-26.5 66t-66.5 26t-66.5 -26zM1065 467q8 8 8 21t-8 21.5t-21 8.5t-21 -8.5t-8 -21.5t8 -21t21 -8t21 8zM934 494q-8 -8 -8 -21t8 -21t21 -8t21 8t8 21t-8 21t-21 8t-21 -8zM1155 452q8 8 8 21t-8 21t-21 8t-21 -8t-8 -21
t8 -21t21 -8t21 8zM857.5 443.5q-8.5 -8.5 -8.5 -21.5t8.5 -21t21.5 -8t21 8t8 21t-8 21.5t-21 8.5t-21.5 -8.5zM1231.5 401q8.5 8 8.5 21t-8.5 21.5t-21.5 8.5t-21 -8.5t-8 -21.5t8 -21t21 -8t21.5 8zM809.5 364.5q-8.5 -8.5 -8.5 -21.5t8.5 -21t21.5 -8t21 8t8 21t-8 21.5
t-21 8.5t-21.5 -8.5zM1279 322q8 8 8 21t-8 21.5t-21 8.5t-21 -8.5t-8 -21.5t8 -21t21 -8t21 8zM795.5 278.5q-8.5 -8.5 -8.5 -21.5t8.5 -20.5t21.5 -7.5t21 7.5t8 20.5t-8 21.5t-21 8.5t-21.5 -8.5zM1293.5 236.5q8.5 7.5 8.5 20.5t-8.5 21.5t-21.5 8.5t-21 -8.5t-8 -21.5
t8 -20.5t21 -7.5t21.5 7.5zM809.5 195q-8.5 -8 -8.5 -21t8.5 -21t21.5 -8t21 8t8 21t-8 21t-21 8t-21.5 -8zM1279 153q8 8 8 21t-8 21t-21 8t-21 -8t-8 -21t8 -21t21 -8t21 8zM856.5 115q-8.5 -8 -8.5 -21t8.5 -21t21.5 -8t21 8t8 21t-8 21t-21 8t-21.5 -8zM1232.5 73
q8.5 8 8.5 21t-8.5 21t-21.5 8t-21 -8t-8 -21t8 -21t21 -8t21.5 8zM934 65.5q-8 -8.5 -8 -21.5t8 -21t21 -8t21 8t8 21t-8 21.5t-21 8.5t-21 -8.5zM1155 23q8 8 8 21t-8 21.5t-21 8.5t-21 -8.5t-8 -21.5t8 -21t21 -8t21 8zM1065 8q8 8 8 21t-8 21.5t-21 8.5t-21 -8.5
t-8 -21.5t8 -21t21 -8t21 8z" />
    <glyph glyph-name="tm_Virama" unicode="&#xbcd;" horiz-adv-x="0" 
d="M38.5 643q16.5 17 16.5 37q0 22 -16 38t-39 16q-22 0 -37.5 -15.5t-15.5 -38.5t15.5 -38.5t37.5 -15.5t38.5 17z" />
    <glyph glyph-name="tm_Om" unicode="&#xbd0;" horiz-adv-x="829" 
d="M657 32h74v-67h-74q-29 0 -49 4v-19q0 -49 -23.5 -87.5t-67 -60t-100.5 -21.5q-60 0 -105.5 21.5t-70 60t-24.5 87.5v50h86v-50q0 -42 30.5 -68t83.5 -26q52 0 82.5 26t30.5 68v49q-34 22 -52 57t-18 77v136h78q1 -37 21.5 -60.5t55.5 -23.5q32 0 50 24.5t18 66.5
q0 52 -35.5 94t-98.5 65.5t-141 23.5q-106 0 -182.5 -40t-98.5 -104q30 25 73 25q54 0 89 -33t35 -85q0 -53 -36.5 -86.5t-93.5 -33.5q-68 0 -108.5 46.5t-40.5 120.5q0 76 46 136.5t128.5 94.5t188.5 34q105 0 188.5 -33t130.5 -92t47 -133t-44.5 -120t-114.5 -46
q-44 0 -77 21q2 -99 119 -99zM159.5 255.5q-13.5 -13.5 -13.5 -33.5q0 -21 13.5 -34.5t34.5 -13.5t34.5 13.5t14.5 34.5q0 20 -13.5 33.5t-34.5 13.5q-22 0 -35.5 -13.5zM413 33q-4 4 -4 10q0 7 4 11.5t10 4.5t10 -4.5t4 -11.5q0 -6 -4 -10t-10 -4t-10 4zM383 12v-75h28v37
q0 17 10 28.5t27 11.5q21 0 33 -13.5t12 -36.5q0 -21 -12.5 -34.5t-34.5 -13.5h-85v95zM434 -63h14q10 0 16.5 7.5t6.5 19.5q0 14 -5 22.5t-15 8.5q-17 0 -17 -22v-36z" />
    <glyph glyph-name="tm_AuLengthMark" unicode="&#xbd7;" horiz-adv-x="1231" 
d="M1221 446h-184v-446h-86v446h-237v-446h-86v228q0 65 -31.5 117t-87.5 81.5t-126 29.5q-74 0 -129 -28t-84 -77.5t-29 -113.5q0 -73 37 -120q-3 12 -3 26q0 70 46.5 114.5t117.5 44.5q50 0 90 -20.5t62.5 -57t22.5 -82.5q0 -45 -23.5 -81.5t-64.5 -57.5t-93 -21
q-84 0 -148.5 34t-99.5 92t-35 129q0 85 41 152t116.5 104.5t175.5 37.5q76 0 139 -28t106 -79v89h581zM272.5 208q-26.5 -26 -26.5 -66t26 -66t67 -26t67 26t26 66t-26.5 66t-66.5 26t-66.5 -26z" />
    <glyph glyph-name="tm_Zero" unicode="&#xbe6;" horiz-adv-x="708" 
d="M509.5 495.5q69.5 -35.5 109 -98t39.5 -140.5q0 -79 -39.5 -141.5t-109 -98t-155.5 -35.5t-155 35.5t-108.5 98t-40.5 141.5q1 78 40.5 140.5t108.5 98t155 35.5t155.5 -35.5zM463.5 82.5q48.5 25.5 76.5 71t28 103.5q0 57 -28 102.5t-76.5 71t-109.5 25.5
q-60 0 -108.5 -25.5t-76.5 -71t-28 -102.5q0 -58 28 -103.5t76.5 -71t108.5 -25.5q61 0 109.5 25.5z" />
    <glyph glyph-name="tm_One" unicode="&#xbe7;" horiz-adv-x="766" 
d="M679 258q57 -45 57 -118q0 -70 -60.5 -114t-167.5 -44v68q68 0 102.5 24.5t34.5 65.5q0 43 -31 69.5t-93 26.5h-31v-31q0 -64 -30 -115t-85 -79.5t-129 -28.5q-61 0 -107.5 21t-72.5 57.5t-26 83.5q0 53 32 91t90 55v223h490l12 -67h-174v-143h30q102 0 159 -45zM248 446
v-143h13h143v143h-156zM404 236h-141q-63 0 -97.5 -24t-34.5 -68q0 -38 31.5 -62.5t83.5 -24.5q74 0 116 41t42 107v31z" />
    <glyph glyph-name="tm_Two" unicode="&#xbe8;" horiz-adv-x="791" 
d="M781 68v-68h-704v68h223q63 0 113 26.5t78.5 73t28.5 105.5q0 52 -25.5 94t-70.5 65.5t-101 23.5q-93 0 -151 -50q6 1 18 1q68 0 112 -39.5t44 -100.5t-44 -101.5t-112 -40.5q-45 0 -81.5 19t-57.5 53t-21 76q0 74 38 132.5t104.5 92t150.5 33.5q82 0 148 -33.5t103 -92
t37 -132.5q0 -64 -27.5 -117t-77.5 -88h275zM242.5 321.5q-21.5 21.5 -54.5 21.5t-54.5 -21t-21.5 -53v-1q0 -33 21 -54.5t55 -21.5q33 0 54.5 21.5t21.5 54.5q0 32 -21.5 53.5z" />
    <glyph glyph-name="tm_Three" unicode="&#xbe9;" horiz-adv-x="840" 
d="M830 68v-68h-483v68h142q70 0 103.5 34.5t33.5 93.5q0 43 -25 72.5t-66 29.5q-46 0 -74 -29t-28 -75v-41h-86v293h-171v-446h-86v513h515l12 -67h-184v-108q48 35 110 35q78 0 125.5 -49.5t47.5 -127.5q0 -80 -51 -128h165z" />
    <glyph glyph-name="tm_Four" unicode="&#xbea;" horiz-adv-x="852" 
d="M812 236h-322v-31q0 -64 -30 -115t-85 -79.5t-129 -28.5q-61 0 -107.5 21t-72.5 57.5t-26 83.5q0 53 32 91t90 55v223h490l12 -67h-174v-143h245v210h77v-277zM248 446v-143h13h143v143h-156zM404 236h-141q-63 0 -97.5 -24t-34.5 -68q0 -38 31.5 -62.5t83.5 -24.5
q74 0 116 41t42 107v31z" />
    <glyph glyph-name="tm_Five" unicode="&#xbeb;" horiz-adv-x="1313" 
d="M1137 0v336q0 110 -58.5 195.5t-168 133.5t-256.5 48q-150 0 -261.5 -61t-171.5 -168.5t-60 -245.5q0 -126 53.5 -221t151 -146.5t225.5 -51.5q106 0 188 35.5t128 102.5t46 156q0 74 -27 119t-77 45q-47 0 -77 -34.5t-30 -87.5v-155h-86v446h-181v-446h-86v513h525
l12 -67h-184v-137q46 43 108 43q57 0 101 -30.5t68.5 -85t24.5 -123.5q0 -111 -58 -194.5t-160.5 -129t-234.5 -45.5q-154 0 -272.5 61.5t-183.5 174t-65 260.5q0 159 71.5 283.5t204 194.5t308.5 70q172 0 301 -57.5t198.5 -160t69.5 -232.5v-338h-86z" />
    <glyph glyph-name="tm_Six" unicode="&#xbec;" horiz-adv-x="1102" 
d="M1092 68v-68h-305v68q53 0 81.5 25t28.5 67q0 37 -26 60.5t-67 23.5q-48 0 -78.5 -32t-30.5 -81v-131h-86v131q0 102 -119 105v-31q0 -64 -30 -115t-85 -79.5t-129 -28.5q-61 0 -107.5 21t-72.5 57.5t-26 83.5q0 53 32 91t90 55v223h490l12 -67h-174v-143q111 -1 164 -59
q26 35 67 55t91 20q51 0 91 -20.5t62.5 -56.5t22.5 -82q0 -53 -36 -92h140zM248 446v-143h13h143v143h-156zM362 98q42 41 42 107v31h-141q-63 0 -97.5 -24t-34.5 -68q0 -38 31.5 -62.5t83.5 -24.5q74 0 116 41z" />
    <glyph glyph-name="tm_Seven" unicode="&#xbed;" horiz-adv-x="778" 
d="M688 0h-87v446h-201q-127 0 -190.5 -56t-63.5 -153q0 -73 37 -120q-3 12 -3 26q0 70 46.5 114.5t117.5 44.5q50 0 90 -20.5t62.5 -57t22.5 -82.5q0 -45 -23.5 -81.5t-64.5 -57.5t-93 -21q-84 0 -148.5 34t-99.5 92t-35 129q0 81 38.5 143.5t114 97.5t183.5 35h297v-513z
M277.5 208q-26.5 -26 -26.5 -66t26 -66t67 -26t67 26t26 66t-26.5 66t-66.5 26t-66.5 -26z" />
    <glyph glyph-name="tm_Eight" unicode="&#xbee;" horiz-adv-x="1078" 
d="M988 513v-639h-87v184h-193q-49 -94 -148.5 -148t-233.5 -54q-85 0 -152.5 22t-105.5 60.5t-38 87.5q0 45 32.5 72t91.5 27h123q-34 31 -52.5 74t-18.5 94q0 68 34 122.5t94 85t136 30.5q84 0 147 -38.5t97.5 -107t34.5 -155.5q0 -54 -14 -105h166v388h87zM658 230
q0 100 -50.5 163t-137.5 63q-49 0 -88.5 -21t-62 -58t-22.5 -84q0 -76 41.5 -122t106.5 -46h195q18 48 18 105zM490 -35.5q72 33.5 115 93.5h-451q-16 0 -24.5 -9t-8.5 -23q0 -27 26.5 -48.5t73 -34t105.5 -12.5q92 0 164 33.5z" />
    <glyph glyph-name="tm_Nine" unicode="&#xbef;" horiz-adv-x="1002" 
d="M880 294q43 -22 67.5 -61t24.5 -88q0 -42 -9 -75t-28 -76l-89 6q16 33 26 73t10 72q0 44 -27.5 70t-71.5 26q-16 0 -24 -1q50 -55 50 -130q0 -55 -37.5 -91.5t-93.5 -36.5t-93.5 36.5t-37.5 91.5q0 73 45 126h-7h-95v-31q0 -64 -30 -115t-85 -79.5t-129 -28.5
q-61 0 -107.5 21t-72.5 57.5t-26 83.5q0 53 32 91t90 55v223h490l12 -67h-174v-143h113q37 0 67 -10q51 23 113 23q54 0 97 -22zM248 446v-143h13h143v143h-156zM404 236h-141q-63 0 -97.5 -24t-34.5 -68q0 -38 31.5 -62.5t83.5 -24.5q74 0 116 41t42 107v31zM714 165
q-13 25 -37 43q-22 -18 -35 -43t-13 -55q0 -25 13.5 -41.5t35.5 -16.5q21 0 35 16.5t14 41.5q0 30 -13 55z" />
    <glyph glyph-name="tm_Ten" unicode="&#xbf0;" horiz-adv-x="809" 
d="M737.5 377.5q21.5 -80.5 21.5 -144.5q0 -116 -53 -183.5t-151 -67.5q-99 0 -150 68q-51 -68 -151 -68q-98 0 -151 67.5t-53 183.5q0 65 21.5 145t63.5 149l88 -14q-40 -56 -61 -136t-21 -144q0 -174 111 -174q55 0 82 37t27 113v129h87v-129q0 -76 27 -113t83 -37
q57 0 83.5 45.5t26.5 128.5q0 64 -21 144t-61 136l89 14q41 -69 62.5 -149.5z" />
    <glyph glyph-name="tm_Hundred" unicode="&#xbf1;" horiz-adv-x="1004" 
d="M811 446v-446h-87v446h-236v-446h-87v306q0 67 -32.5 108.5t-92.5 41.5q-110 0 -110 -136v-320h-86v319q0 103 52.5 157.5t143.5 54.5q75 0 125 -52v34h582l11 -67h-183z" />
    <glyph glyph-name="tm_Thousand" unicode="&#xbf2;" horiz-adv-x="1101" 
d="M982 125q42 -24 65.5 -66.5t23.5 -95.5q0 -59 -27.5 -105.5t-77 -73t-113.5 -26.5h-145q-108 0 -137 -43l-71 39q18 36 64.5 53.5t136.5 17.5h152q57 0 93.5 39.5t36.5 98.5q0 50 -27 84t-70 34h-15v-15q0 -83 -54 -129t-141 -46q-49 0 -88 17t-61 47t-22 67
q0 56 47 91.5t120 35.5h112v87h-294v-31q0 -64 -30 -115t-85 -79.5t-129 -28.5q-61 0 -107.5 21t-72.5 57.5t-26 83.5q0 53 32 91t90 55v223h490l12 -67h-174v-143h543l4 -67h-166v-87h14q55 0 97 -24zM248 446v-143h13h143v143h-156zM404 236h-141q-63 0 -97.5 -24
t-34.5 -68q0 -38 31.5 -62.5t83.5 -24.5q74 0 116 41t42 107v31zM784 81h-110q-36 0 -57 -16t-21 -43q0 -24 21.5 -40t58.5 -16q48 0 78 26t30 74v15z" />
    <glyph glyph-name="tm_Naal" unicode="&#xbf3;" horiz-adv-x="889" 
d="M879 68v-68h-312v68q61 84 61 187q0 58 -28.5 104t-82 71.5t-125.5 25.5q-76 0 -133 -28t-87.5 -77.5t-30.5 -113.5q0 -73 37 -120q-3 12 -3 26q0 70 46.5 114.5t117.5 44.5q50 0 90 -20.5t62.5 -57t22.5 -82.5q0 -45 -23.5 -81.5t-64.5 -57.5t-93 -21q-84 0 -148.5 34
t-99.5 92t-35 129q0 85 42.5 152t120 104.5t179.5 37.5q98 0 172 -35.5t114.5 -98t40.5 -142.5q0 -50 -14 -98.5t-39 -88.5h213zM272.5 208q-26.5 -26 -26.5 -66t26 -66t67 -26t67 26t26 66t-26.5 66t-66.5 26t-66.5 -26z" />
    <glyph glyph-name="tm_Maatham" unicode="&#xbf4;" horiz-adv-x="1235" 
d="M1235 629v-67h-269v67q32 0 53 23.5t21 60.5q0 39 -31 64.5t-82 25.5q-24 0 -51 -5q24 -27 37.5 -59.5t13.5 -67.5q0 -58 -37 -92.5t-93 -34.5q-57 0 -94.5 34.5t-37.5 92.5q0 36 14.5 69.5t41.5 60.5q-20 2 -32 2q-67 0 -106.5 -40t-39.5 -104q0 -45 18.5 -80t50.5 -52
q89 -17 138.5 -97t49.5 -199q0 -106 -54.5 -168.5t-166.5 -62.5h-489v513l86 5v-450h201v251q0 82 32 133.5t91 69.5q-48 58 -48 137q0 63 29.5 113t83.5 78t124 28q59 0 112 -24q58 24 126 24q59 0 105 -21.5t72 -59t26 -84.5t-29 -84h134zM801 769q-26 -18 -40 -43
t-14 -55q0 -25 14 -41t36 -16q20 0 34 16t14 41q0 62 -44 98zM673 394.5q-36 61.5 -106 61.5q-103 0 -103 -136v-252h115q71 0 100.5 43t29.5 120q0 102 -36 163.5z" />
    <glyph glyph-name="tm_Varudam" unicode="&#xbf5;" horiz-adv-x="1797" 
d="M1654 321.5q44 -30.5 68.5 -85t24.5 -123.5q0 -121 -65 -206t-187.5 -129t-294.5 -44h-537q-185 0 -318 51.5t-204 149.5t-71 235q0 95 41 195t105 158l88 -10q-62 -53 -102.5 -149.5t-40.5 -195.5q0 -115 61 -197.5t174 -126t267 -43.5h537q141 0 243.5 36.5t157.5 107
t55 168.5q0 74 -27 119t-77 45q-47 0 -77 -34.5t-30 -87.5v-155h-86v446h-177v-446h-363v68q61 84 61 187q0 59 -28 104.5t-81.5 71t-126.5 25.5q-76 0 -133 -28t-87.5 -77.5t-30.5 -113.5q0 -73 37 -120q-3 12 -3 26q0 70 46.5 114.5t117.5 44.5q50 0 90 -20.5t62.5 -57
t22.5 -82.5q0 -45 -23.5 -81.5t-64.5 -57.5t-93 -21q-84 0 -148.5 34t-99.5 92t-35 129q0 85 42.5 152t120 104.5t179.5 37.5q98 0 172 -35.5t114.5 -98t40.5 -142.5q0 -50 -14 -98.5t-39 -88.5h177v445h522l12 -67h-184v-137q46 43 108 43q57 0 101 -30.5zM524.5 208
q-26.5 -26 -26.5 -66t26 -66t67 -26t67 26t26 66t-26.5 66t-66.5 26t-66.5 -26z" />
    <glyph glyph-name="tm_Patru" unicode="&#xbf6;" horiz-adv-x="999" 
d="M909 -160h-277q-20 -83 -103.5 -133.5t-210.5 -50.5q-108 0 -168 37t-60 96q0 52 42.5 85t112.5 33h307v93h-462v513l86 5v-450h376v445h86v-606h185v606h86v-673zM464 -239.5q59 29.5 79 79.5h-298q-31 0 -47.5 -14t-16.5 -37q0 -26 36 -42t101 -16q87 0 146 29.5z" />
    <glyph glyph-name="tm_Varavu" unicode="&#xbf7;" horiz-adv-x="1365" 
d="M1355 68v-68h-269v68q32 0 53 23.5t21 59.5q0 40 -32.5 65t-91.5 25q-26 0 -54 -5q47 -52 47 -126q0 -55 -37 -91.5t-93 -36.5t-94 36.5t-38 91.5q0 70 55 125q-5 1 -16 1h-123v-236h-87v446h-201q-127 0 -190.5 -56t-63.5 -153q0 -73 37 -120q-3 12 -3 26
q0 70 46.5 114.5t117.5 44.5q50 0 90 -20.5t62.5 -57t22.5 -82.5q0 -45 -23.5 -81.5t-64.5 -57.5t-93 -21q-84 0 -148.5 34t-99.5 92t-35 129q0 81 38.5 143.5t114 97.5t183.5 35h469l11 -67h-183v-143h140q40 0 79 -13q63 26 134 26q66 0 114.5 -21t74.5 -58.5t26 -85.5
q0 -47 -30 -83h134zM272.5 208q-26.5 -26 -26.5 -66t26 -66t67 -26t67 26t26 66t-26.5 66t-66.5 26t-66.5 -26zM935 163q-12 24 -33 41q-25 -18 -39 -42t-14 -52q0 -25 14 -41.5t36 -16.5q21 0 34.5 16.5t13.5 41.5q0 29 -12 53z" />
    <glyph glyph-name="tm_Merpadi" unicode="&#xbf8;" horiz-adv-x="1909" 
d="M1819 0h-206v-243h-86v243h-466v68q21 50 32.5 104.5t11.5 98.5q0 83 -47.5 134t-138.5 51q-68 0 -127 -32q58 -49 90 -112.5t32 -135.5q0 -86 -46.5 -140t-126.5 -54t-126.5 54t-46.5 140q0 69 24.5 130t68.5 108q-87 42 -197 42q-96 0 -169.5 -29.5t-113.5 -81
t-40 -117.5q0 -72 38 -118q-4 13 -4 33q0 70 46.5 114.5t117.5 44.5q50 0 90 -20.5t62.5 -57t22.5 -82.5q0 -45 -23.5 -81.5t-64.5 -57.5t-93 -21q-85 0 -149 32t-99 88t-35 126q0 87 51.5 156t146 108t216.5 39q146 0 260 -62q44 30 93.5 46t101.5 16q87 0 149.5 -33
t95 -92t32.5 -135q0 -45 -11 -98t-33 -105h375v135q-25 -4 -61 -4q-59 0 -105.5 22.5t-73 61t-26.5 86.5q0 73 47.5 117.5t129.5 44.5q79 0 127 -45.5t48 -116.5v-52q77 49 120 129h86v-446zM1527 281v83q0 41 -24 66.5t-65 25.5q-42 0 -64 -23.5t-22 -63.5t32 -67.5
t82 -27.5q26 0 61 7zM798.5 284q-24.5 50 -70.5 88q-33 -38 -51 -88t-18 -108q0 -55 20.5 -87t61.5 -32t61.5 32t20.5 87q0 58 -24.5 108zM1733 68v240q-53 -56 -120 -82v-158h120zM272.5 208q-26.5 -26 -26.5 -66t26 -66t67 -26t67 26t26 66t-26.5 66t-66.5 26t-66.5 -26z
" />
    <glyph glyph-name="tm_Rupee" unicode="&#xbf9;" horiz-adv-x="1114" 
d="M971 321.5q44 -30.5 68.5 -85t24.5 -123.5q0 -107 -56.5 -191t-162 -131t-247.5 -47q-160 0 -279.5 68t-184 188.5t-64.5 274.5q0 174 70 311t197 214.5t294 77.5q111 0 197 -26.5t134 -72.5t48 -105q0 -49 -33.5 -81t-83.5 -32q-52 0 -85.5 31t-33.5 79q0 35 18 61.5
t49 39.5q-86 31 -210 31q-141 0 -247.5 -68t-164.5 -188t-58 -273q0 -132 52.5 -235.5t151.5 -161.5t233 -58q116 0 201 37.5t129.5 104t44.5 152.5q0 74 -27 119t-77 45q-47 0 -77 -34.5t-30 -87.5v-155h-86v446h-201v-446h-86v513h545l12 -67h-184v-137q45 43 108 43
q57 0 101 -30.5zM929.5 634.5q14.5 14.5 14.5 36.5q0 21 -14.5 35.5t-36.5 14.5t-36.5 -14.5t-14.5 -35.5q0 -22 14.5 -36.5t36.5 -14.5t36.5 14.5z" />
    <glyph glyph-name="tm_Enn" unicode="&#xbfa;" horiz-adv-x="1006" 
d="M1006 629v-67h-269v67q32 0 53 23.5t21 60.5q0 39 -31 64.5t-82 25.5q-24 0 -51 -5q24 -27 37.5 -59.5t13.5 -67.5q0 -59 -36.5 -93t-93.5 -34t-94 34t-37 93q0 36 14.5 69.5t41.5 60.5q-20 2 -33 2q-67 0 -106.5 -40t-39.5 -104t36 -105t91 -41h164l12 -67h-184v-137
q21 21 49 32t59 11q57 0 101 -30.5t68 -85t24 -123.5q0 -84 -31 -149.5t-88 -102.5t-134 -37h-163q-65 0 -100 -16t-58 -51l-70 39q22 44 81.5 69.5t145.5 25.5h164q76 0 119.5 62t43.5 160q0 74 -27 119t-77 45q-47 0 -77 -34.5t-30 -87.5v-155h-86v446h-171v-446h-86v513
h189q-27 28 -41.5 65.5t-14.5 80.5q0 63 29.5 113t83.5 78t124 28q60 0 112 -25q58 25 126 25q59 0 105.5 -21.5t72.5 -59t26 -84.5q0 -46 -30 -84h134zM573 769q-26 -17 -40.5 -42.5t-14.5 -55.5q0 -25 14 -41t36 -16q21 0 35 16t14 41q0 63 -44 98z" />
    <glyph glyph-name="uni200C" unicode="&#x200c;" horiz-adv-x="0" 
d="M-30 -68h60v1305h-60v-1305z" />
    <glyph glyph-name="uni200D" unicode="&#x200d;" horiz-adv-x="0" 
d="M0 1246l-73 74l-40 -40l74 -74l-74 -74l39 -39l44 43v-1204h60v1205l45 -44l39 39l-74 74l74 74l-40 40z" />
    <glyph glyph-name="endash" unicode="&#x2013;" horiz-adv-x="440" 
d="M401 311h-371l9 -76h371z" />
    <glyph glyph-name="emdash" unicode="&#x2014;" 
d="M503 311h-473l9 -76h472z" />
    <glyph glyph-name="quoteleft" unicode="&#x2018;" horiz-adv-x="185" 
d="M133 488.5q18 18.5 18 42.5q0 22 -15 40.5t-34 19.5q3 27 18 44.5t45 40.5l-24 46q-47 -25 -79 -77t-32 -103q0 -31 17.5 -51.5t43.5 -20.5q24 0 42 18.5z" />
    <glyph glyph-name="quoteright" unicode="&#x2019;" horiz-adv-x="185" 
d="M50.5 702.5q-18.5 -19.5 -18.5 -41.5t15.5 -40.5t33.5 -19.5q-3 -27 -18 -45.5t-43 -40.5l23 -45q47 25 79.5 77t32.5 103q0 31 -18.5 51.5t-43.5 20.5q-24 0 -42.5 -19.5z" />
    <glyph glyph-name="quotesinglbase" unicode="&#x201a;" horiz-adv-x="185" 
d="M50.5 102q-18.5 -18 -18.5 -42q0 -22 15.5 -40.5t33.5 -19.5q-3 -27 -18 -45.5t-43 -40.5l23 -45q47 25 79.5 77t32.5 102q0 32 -18 52t-44 20q-24 0 -42.5 -18z" />
    <glyph glyph-name="quotedblleft" unicode="&#x201c;" horiz-adv-x="351" 
d="M133 488.5q18 18.5 18 42.5q0 22 -15 40.5t-34 19.5q3 27 18 44.5t45 40.5l-24 46q-47 -25 -79 -77t-32 -103q0 -31 17.5 -51.5t43.5 -20.5q24 0 42 18.5zM299.5 489q18.5 19 18.5 42q0 21 -15.5 40t-33.5 20q3 27 18 45t44 40l-24 46q-47 -25 -79 -77t-32 -103
q0 -31 17.5 -51.5t42.5 -20.5t43.5 19z" />
    <glyph glyph-name="quotedblright" unicode="&#x201d;" horiz-adv-x="350" 
d="M50.5 702.5q-18.5 -19.5 -18.5 -41.5t15.5 -40.5t33.5 -19.5q-3 -27 -18 -45.5t-43 -40.5l23 -45q47 25 79.5 77t32.5 103q0 31 -18.5 51.5t-43.5 20.5q-24 0 -42.5 -19.5zM216.5 702.5q-18.5 -19.5 -18.5 -41.5t15.5 -40.5t34.5 -19.5q-5 -27 -20 -46t-43 -40l24 -45
q47 25 79 77t32 103q0 32 -18 52t-43 20q-24 0 -42.5 -19.5z" />
    <glyph glyph-name="quotedblbase" unicode="&#x201e;" horiz-adv-x="350" 
d="M50.5 102q-18.5 -18 -18.5 -42q0 -22 15.5 -40.5t33.5 -19.5q-3 -27 -17.5 -45t-43.5 -40l23 -46q47 25 79.5 77t32.5 102q0 32 -18 52t-44 20q-24 0 -42.5 -18zM216.5 102q-18.5 -18 -18.5 -42q0 -22 15.5 -40.5t34.5 -19.5q-5 -27 -20 -46t-43 -40l24 -45
q47 25 79 76.5t32 102.5q0 32 -17.5 52t-43.5 20q-24 0 -42.5 -18z" />
    <glyph glyph-name="dagger" unicode="&#x2020;" horiz-adv-x="410" 
d="M155 783v-158h-125l19 -85h106l10 -540l82 -4l11 544h122l-19 85h-103v155z" />
    <glyph glyph-name="daggerdbl" unicode="&#x2021;" horiz-adv-x="417" 
d="M263 1l-5 169h129l-18 85h-109l2 263h125l-18 86h-109l5 176l-110 3l5 -179h-130l19 -86h109l-3 -263h-125l19 -85h109l-5 -176z" />
    <glyph glyph-name="bullet" unicode="&#x2022;" horiz-adv-x="250" 
d="M192.5 261.5q27.5 27.5 27.5 66.5t-27.5 67t-67.5 28t-67.5 -28t-27.5 -67t27.5 -66.5t67.5 -27.5t67.5 27.5z" />
    <glyph glyph-name="ellipsis" unicode="&#x2026;" horiz-adv-x="489" 
d="M126 16q16 16 16 39q0 24 -16 40.5t-40 16.5q-23 0 -39.5 -16.5t-16.5 -40.5q0 -23 16.5 -39t39.5 -16q24 0 40 16zM285.5 16q16.5 16 16.5 39q0 24 -16.5 40.5t-38.5 16.5q-24 0 -40.5 -16.5t-16.5 -40.5q0 -23 16.5 -39t40.5 -16q22 0 38.5 16zM442.5 16
q16.5 16 16.5 39q0 24 -16.5 40.5t-39.5 16.5t-39.5 -16.5t-16.5 -40.5q0 -23 16.5 -39t39.5 -16t39.5 16z" />
    <glyph glyph-name="perthousand" unicode="&#x2030;" horiz-adv-x="1258" 
d="M546 710l-303 -710l95 -4l303 710zM111 681q-37 -21 -59 -60t-22 -89q0 -52 21.5 -90.5t58 -58.5t81.5 -20q43 0 80 21t59 59.5t22 88.5q0 79 -46 124.5t-115 45.5q-43 0 -80 -21zM244.5 604.5q21.5 -24.5 21.5 -72.5t-22 -72.5t-53 -24.5q-33 0 -54 24.5t-21 73.5
q0 47 22 71.5t53 24.5q32 0 53.5 -24.5zM615.5 317q-36.5 -21 -58.5 -59.5t-22 -88.5q0 -78 46 -123.5t115 -45.5q42 0 78.5 21t58.5 59.5t22 88.5q0 79 -45 124t-114 45q-44 0 -80.5 -21zM986.5 317q-36.5 -21 -58.5 -59.5t-22 -88.5q0 -79 45.5 -124t116.5 -45q42 0 79 21
t59 59.5t22 88.5q0 52 -21.5 90.5t-58 58.5t-81.5 20q-44 0 -80.5 -21zM748.5 240.5q21.5 -25.5 21.5 -71.5q0 -48 -22 -73t-52 -25q-33 0 -54.5 25t-21.5 74q0 47 22.5 71.5t53.5 24.5t52.5 -25.5zM1120.5 240.5q21.5 -25.5 21.5 -71.5q0 -48 -22 -73t-52 -25
q-33 0 -55 25.5t-22 73.5q0 47 23 71.5t53 24.5q32 0 53.5 -25.5z" />
    <glyph glyph-name="guilsinglleft" unicode="&#x2039;" horiz-adv-x="222" 
d="M30 221l150 -138l22 67l-95 95l95 94l-22 69l-150 -139v-48z" />
    <glyph glyph-name="guilsinglright" unicode="&#x203a;" horiz-adv-x="222" 
d="M192 269l-150 139l-22 -69l95 -94l-95 -95l22 -67l150 138v48z" />
    <glyph glyph-name="fraction" unicode="&#x2044;" horiz-adv-x="419" 
d="M313 710l-303 -710l95 -4l304 710z" />
    <glyph glyph-name="Euro" unicode="&#x20ac;" horiz-adv-x="603" 
d="M583 26q-33 -17 -86 -28.5t-96 -11.5q-117 0 -194 61.5t-106 164.5h-90l-11 73h87q-3 26 -3 51q0 29 3 56h-76l-11 72h102q32 105 111.5 167.5t193.5 62.5q36 0 88 -10.5t85 -30.5l-30 -69q-45 16 -73 22t-72 6q-66 0 -119 -39.5t-80 -108.5h232l9 -72h-259
q-4 -24 -4 -55q0 -26 3 -52h251l9 -73h-242q25 -66 74.5 -105t117.5 -39q84 0 149 30z" />
    <glyph glyph-name="Turkishlira" unicode="&#x20ba;" horiz-adv-x="513" 
d="M160 0q89 0 165.5 39.5t122 113t45.5 170.5h-98q0 -64 -29.5 -118t-79 -86t-104.5 -32v279l183 65l-14 72l-169 -59v48l183 64l-14 72l-169 -59v137l-96 -11v-161l-86 -30l13 -73l73 26v-47l-86 -31l13 -72l73 25v-332h74z" />
    <glyph glyph-name="Ruble" unicode="&#x20bd;" horiz-adv-x="572" 
d="M186 250v-49h289l8 -74h-297v-127h-96v127h-53l-8 74h61v52h-53l-8 74h61v353h195q116 0 186.5 -52t70.5 -160q0 -73 -36 -122t-96.5 -72.5t-134.5 -23.5h-89zM186 330h93q73 0 116.5 33t46.5 101q0 74 -40 104.5t-118 30.5h-98v-269z" />
    <glyph glyph-name="litre" unicode="&#x2113;" horiz-adv-x="382" 
d="M78 198v-40q0 -81 34 -125t114 -44q29 0 57.5 10.5t51.5 31.5l-33 60q-33 -20 -66 -20q-36 0 -48.5 25t-12.5 73v104q78 70 127.5 148t49.5 143q0 63 -37 100.5t-95 37.5q-62 0 -102 -39t-40 -106v-255q-22 -18 -68 -51l23 -82q26 13 45 29zM175 391v163q0 63 43 65
q17 0 28 -14t11 -45q0 -72 -82 -169z" />
    <glyph glyph-name="trademark" unicode="&#x2122;" horiz-adv-x="742" 
d="M312 680h-302v-58h116v-317h72v317h122zM549 408l81 111v-214h72v375h-33l-131 -180l-140 180h-33v-375h73v219l91 -120z" />
    <glyph glyph-name="Ohm" unicode="&#x2126;" horiz-adv-x="713" 
d="M536.5 181q-32.5 -76 -85.5 -104l-2 -77h218l6 77h-103q47 41 73.5 114.5t26.5 150.5q0 103 -37.5 182.5t-108 124.5t-168.5 47q-97 -2 -167.5 -47t-108 -124.5t-37.5 -182.5q0 -77 26.5 -150.5t73.5 -114.5h-103l6 -77h218l-3 77q-53 28 -85.5 104t-32.5 160
q0 80 27.5 142t75.5 96t110 34t110.5 -34t75.5 -96t27 -142q0 -84 -32.5 -160z" />
    <glyph glyph-name="estimated" unicode="&#x212e;" horiz-adv-x="504" 
d="M474 247q0 110 -53.5 180.5t-158.5 70.5q-71 0 -123.5 -32t-80.5 -90t-28 -133q0 -117 68 -186t195 -69q88 0 176 53l-30 70q-51 -24 -79.5 -33.5t-66.5 -9.5q-78 0 -117.5 41t-45.5 112h344v26zM171.5 381.5q32.5 34.5 87.5 34.5q103 0 122 -130h-249q7 61 39.5 95.5z
" />
    <glyph glyph-name="partialdiff" unicode="&#x2202;" horiz-adv-x="545" 
d="M411 551q104 -131 104 -300q0 -77 -28 -136.5t-83 -93.5t-134 -34q-73 0 -127.5 32t-83.5 90t-29 134q0 75 30 133t85 90t129 32q37 0 81 -18q-76 123 -267 200l28 70q191 -68 295 -199zM376.5 118q39.5 49 40.5 123q0 67 -13 123q-25 25 -55.5 38.5t-74.5 13.5
q-66 0 -105.5 -49t-40.5 -123q0 -78 38 -126.5t105 -48.5q66 0 105.5 49z" />
    <glyph glyph-name="Delta" unicode="&#x2206;" horiz-adv-x="625" 
d="M266 680l-256 -680h605v14l-262 666h-87zM490 77h-358l176 474z" />
    <glyph glyph-name="product" unicode="&#x220f;" horiz-adv-x="637" 
d="M90 0h93v607h270v-607h94v680h-457v-680z" />
    <glyph glyph-name="summation" unicode="&#x2211;" horiz-adv-x="466" 
d="M399 680h-367v-74l185 -262l-187 -269v-75h416l-13 75h-301l171 252v36l-169 243h278z" />
    <glyph glyph-name="minus" unicode="&#x2212;" horiz-adv-x="478" 
d="M437 311h-407l8 -76h410z" />
    <glyph glyph-name="divisionslash" unicode="&#x2215;" horiz-adv-x="419" 
d="M313 710l-303 -710l95 -4l304 710z" />
    <glyph glyph-name="bulletmath" unicode="&#x2219;" horiz-adv-x="250" 
d="M192.5 261.5q27.5 27.5 27.5 66.5t-27.5 67t-67.5 28t-67.5 -28t-27.5 -67t27.5 -66.5t67.5 -27.5t67.5 27.5z" />
    <glyph glyph-name="radical" unicode="&#x221a;" horiz-adv-x="582" 
d="M478 710l-252 -611l-119 222l-97 -4l167 -317l102 -4l293 710z" />
    <glyph glyph-name="infinity" unicode="&#x221e;" horiz-adv-x="820" 
d="M131.5 434q-47.5 -29 -74.5 -78.5t-27 -109.5t26.5 -106.5t74.5 -72.5t109 -26q95 0 161 97q36 -46 82 -71t99 -25q60 0 107.5 28.5t74 78t26.5 109.5t-26.5 106.5t-74.5 72.5t-109 26q-51 0 -92 -26.5t-70 -69.5q-35 45 -81.5 70.5t-98.5 25.5q-59 0 -106.5 -29z
M499 341.5q34 42.5 81 42.5q55 0 89 -36t34 -88q0 -57 -33.5 -97.5t-88.5 -40.5q-44 0 -81 25t-60 66l8 28q17 58 51 100.5zM322 162.5q-33 -42.5 -82 -42.5q-55 0 -89 36t-34 88q0 58 34 98t90 40q44 -1 80.5 -25.5t58.5 -65.5l-8 -27q-17 -59 -50 -101.5z" />
    <glyph glyph-name="integral" unicode="&#x222b;" horiz-adv-x="364" 
d="M293 700q16 0 45 -11l26 73q-13 9 -36 15t-44 6q-72 0 -111.5 -42t-39.5 -117v-635q0 -40 -14.5 -62t-49.5 -22q-19 0 -45 10l-24 -73q13 -9 35.5 -15t43.5 -6q71 0 110.5 42.5t39.5 117.5v635q0 84 64 84z" />
    <glyph glyph-name="approxequal" unicode="&#x2248;" horiz-adv-x="514" 
d="M394 380q-15 -10 -31 -11q-43 0 -103 22q-62 21 -99 21q-53 0 -92 -21.5t-39 -82.5l72 -16q1 22 17.5 32t33.5 10q48 0 107 -21q56 -22 94 -22q52 0 91 22.5t39 81.5l-73 17q-2 -22 -17 -32zM394 193q-15 -10 -31 -11q-43 0 -103 22t-99 22q-53 0 -92 -22t-39 -83l72 -15
q1 21 18 31t33 10q48 0 107 -21q56 -22 94 -22q52 0 91 22.5t39 81.5l-73 17q-2 -22 -17 -32z" />
    <glyph glyph-name="notequal" unicode="&#x2260;" horiz-adv-x="507" 
d="M326 520l-58 -131h-238l10 -73h196l-55 -122h-151l10 -73h109l-58 -131l84 -5l62 136h240l-9 73h-199l54 122h154l-9 73h-113l57 128z" />
    <glyph glyph-name="lessequal" unicode="&#x2264;" horiz-adv-x="345" 
d="M325 185l-193 115l193 115l-22 77l-273 -161v-64l273 -159zM317 70h-286l7 -70h285z" />
    <glyph glyph-name="greaterequal" unicode="&#x2265;" horiz-adv-x="346" 
d="M316 331l-273 161l-23 -77l194 -115l-194 -115l23 -77l273 159v64zM306 70h-285l7 -70h285z" />
    <glyph glyph-name="lozenge" unicode="&#x25ca;" horiz-adv-x="550" 
d="M294 0l226 286v27l-226 286h-38l-226 -286v-27l226 -286h38zM274 494l152 -195l-152 -193l-150 193z" />
    <glyph glyph-name="uni25CC" unicode="&#x25cc;" horiz-adv-x="605" 
d="M323 467q8 8 8 21t-8 21.5t-21 8.5t-21 -8.5t-8 -21.5t8 -21t21 -8t21 8zM192 494q-8 -8 -8 -21t8 -21t21 -8t21 8t8 21t-8 21t-21 8t-21 -8zM413 452q8 8 8 21t-8 21t-21 8t-21 -8t-8 -21t8 -21t21 -8t21 8zM115.5 443.5q-8.5 -8.5 -8.5 -21.5t8.5 -21t21.5 -8t21 8
t8 21t-8 21.5t-21 8.5t-21.5 -8.5zM489.5 401q8.5 8 8.5 21t-8.5 21.5t-21.5 8.5t-21 -8.5t-8 -21.5t8 -21t21 -8t21.5 8zM67.5 364.5q-8.5 -8.5 -8.5 -21.5t8.5 -21t21.5 -8t21 8t8 21t-8 21.5t-21 8.5t-21.5 -8.5zM537 322q8 8 8 21t-8 21.5t-21 8.5t-21 -8.5t-8 -21.5
t8 -21t21 -8t21 8zM53.5 278.5q-8.5 -8.5 -8.5 -21.5t8.5 -20.5t21.5 -7.5t21 7.5t8 20.5t-8 21.5t-21 8.5t-21.5 -8.5zM551.5 236.5q8.5 7.5 8.5 20.5t-8.5 21.5t-21.5 8.5t-21 -8.5t-8 -21.5t8 -20.5t21 -7.5t21.5 7.5zM67.5 195q-8.5 -8 -8.5 -21t8.5 -21t21.5 -8t21 8
t8 21t-8 21t-21 8t-21.5 -8zM537 153q8 8 8 21t-8 21t-21 8t-21 -8t-8 -21t8 -21t21 -8t21 8zM114.5 115q-8.5 -8 -8.5 -21t8.5 -21t21.5 -8t21 8t8 21t-8 21t-21 8t-21.5 -8zM490.5 73q8.5 8 8.5 21t-8.5 21t-21.5 8t-21 -8t-8 -21t8 -21t21 -8t21.5 8zM192 65.5
q-8 -8.5 -8 -21.5t8 -21t21 -8t21 8t8 21t-8 21.5t-21 8.5t-21 -8.5zM413 23q8 8 8 21t-8 21.5t-21 8.5t-21 -8.5t-8 -21.5t8 -21t21 -8t21 8zM323 8q8 8 8 21t-8 21.5t-21 8.5t-21 -8.5t-8 -21.5t8 -21t21 -8t21 8z" />
    <glyph glyph-name="commaaccent" unicode="&#xf6c3;" horiz-adv-x="0" 
d="M-113.5 -39.5q-18.5 -18.5 -18.5 -42.5q0 -22 15.5 -40.5t33.5 -19.5q-3 -22 -18.5 -39t-35.5 -28l23 -46q44 22 74 67t30 95q0 32 -17.5 52t-43.5 20q-24 0 -42.5 -18.5z" />
    <glyph glyph-name="fi" unicode="&#xfb01;" 
d="M89 406v-406h96v406h121l-31 73h-90v54q0 39 16.5 61.5t50.5 22.5q19 0 48 -11l24 74q-13 9 -36.5 15.5t-44.5 6.5q-72 0 -113 -43.5t-41 -116.5v-63h-74l1 -73h73zM474 589.5q18 17.5 18 42.5t-18 42.5t-43 17.5t-42 -17.5t-17 -42.5t17 -42.5t42 -17.5t43 17.5zM481 0
v485h-97v-485h97z" />
    <glyph glyph-name="fl" unicode="&#xfb02;" horiz-adv-x="560" 
d="M89 406v-406h96v406h121l-31 73h-90v54q0 39 16.5 61.5t50.5 22.5q19 0 48 -11l24 74q-13 9 -36.5 15.5t-44.5 6.5q-72 0 -113 -43.5t-41 -116.5v-63h-74l1 -73h73zM490 0v706l-96 -11v-695h96z" />
    <glyph glyph-name="grave.case" horiz-adv-x="176" 
d="M100 739l66 17l-54 141h-102z" />
    <glyph glyph-name="dieresis.case" horiz-adv-x="302" 
d="M102.5 776q15.5 16 15.5 38t-15.5 38t-38.5 16q-22 0 -38 -16t-16 -38t16 -38t38 -16q23 0 38.5 16zM276.5 776q15.5 16 15.5 38t-15.5 38t-38.5 16q-22 0 -38 -16t-16 -38t16 -38t38 -16q23 0 38.5 16z" />
    <glyph glyph-name="macron.case" horiz-adv-x="271" 
d="M10 776h251l-10 76h-241v-76z" />
    <glyph glyph-name="acute.case" horiz-adv-x="176" 
d="M76 739l90 158h-102l-54 -141z" />
    <glyph glyph-name="circumflex.case" horiz-adv-x="343" 
d="M172 826l75 -87l86 10l-129 148h-66l-128 -148l87 -10z" />
    <glyph glyph-name="caron.case" horiz-adv-x="343" 
d="M171 810l-75 87l-86 -10l129 -148h66l128 148l-87 10z" />
    <glyph glyph-name="breve.case" horiz-adv-x="297" 
d="M201 838.5q-19 -23.5 -53 -23.5t-52.5 23.5t-18.5 53.5h-67q0 -62 35 -104t103 -43q68 1 103.5 43t35.5 104h-67q0 -30 -19 -53.5z" />
    <glyph glyph-name="dotaccent.case" horiz-adv-x="140" 
d="M113 773.5q17 17.5 17 42.5t-17 43t-42 18t-43 -18t-18 -43t18 -42.5t43 -17.5t42 17.5z" />
    <glyph glyph-name="ring.case" horiz-adv-x="215" 
d="M39 899q-29 -27 -29 -66q0 -38 28.5 -63.5t69.5 -25.5q40 0 68.5 25.5t28.5 63.5q0 39 -28.5 66t-68.5 27t-69 -27zM78.5 804.5q-12.5 12.5 -12.5 28.5q0 18 12.5 30t29.5 12t29 -12t12 -30q0 -16 -12 -28.5t-29 -12.5t-29.5 12.5z" />
    <glyph glyph-name="tilde.case" horiz-adv-x="323" 
d="M239.5 830q-9.5 -10 -22.5 -10q-17 0 -28.5 5t-24.5 15q-15 10 -27 15.5t-32 5.5q-43 0 -69 -24.5t-26 -80.5h65q1 15 11.5 26t22.5 11q17 0 28 -5t24 -15q14 -11 26 -16.5t31 -5.5q42 0 68.5 25t26.5 81h-63q-1 -17 -10.5 -27z" />
    <glyph glyph-name="hungarumlaut.case" horiz-adv-x="342" 
d="M76 739l90 158h-102l-54 -141zM242 739l90 158h-102l-54 -141z" />
    <glyph glyph-name="tm_VowelAi.alt" horiz-adv-x="365" 
d="M494 228q0 -70 -28 -126t-77.5 -88t-111.5 -32q-79 0 -126 41.5t-47 107.5q0 29 12 54t31.5 47.5t57.5 61.5l17 17l49 50q32 32 49.5 59.5t17.5 59.5q0 37 -28 62t-70 25q-47 0 -81 -24q41 -5 66.5 -32t25.5 -65q0 -46 -29.5 -75.5t-74.5 -29.5q-50 0 -83.5 31.5
t-33.5 80.5q0 51 28 94.5t76 69t106 25.5q54 0 97 -21.5t67 -59t24 -84.5q0 -45 -27 -88.5t-73 -88.5l-50 -50q-48 -47 -66 -71t-18 -51q0 -32 22 -51.5t61 -19.5q40 0 72.5 22t50 61t16.5 88h78zM168 467.5q-10 9.5 -24 9.5t-24 -9.5t-10 -23.5q0 -15 10 -24.5t24 -9.5
t24 9.5t10 24.5q0 14 -10 23.5z" />
    <glyph glyph-name="tm_VowelI.alt1" horiz-adv-x="266" 
d="M27 759.5q71 -37.5 110 -104.5t39 -152v-503h-86v503q0 64 -27.5 114t-79 78t-121.5 28t-109 -29t-39 -76q0 -39 20 -70t56 -39l-75 -43q-41 21 -64 62.5t-24 89.5q0 52 28.5 92.5t82 63.5t124.5 23q94 0 165 -37.5z" />
    <glyph glyph-name="tm_VowelU.alt1" horiz-adv-x="0" 
d="M-90 -187l-86 -10v231l86 3v-224z" />
    <glyph glyph-name="tm_VowelUu.alt1" horiz-adv-x="426" 
d="M232 446v-606h-86v606h-323v67h581l12 -67h-184z" />
    <glyph glyph-name="tm_VowelI.alt2" horiz-adv-x="266" 
d="M-25 759.5q96 -37.5 148.5 -104.5t52.5 -152v-503h-86v503q0 64 -41.5 114t-118 78t-176.5 28q-106 0 -158.5 -32t-52.5 -82q0 -35 17 -61t49 -37l-62 -47q-43 21 -66.5 59t-24.5 86q0 53 33.5 95.5t100.5 67.5t164 25q125 0 221 -37.5z" />
    <glyph glyph-name="tm_VowelU.alt2" horiz-adv-x="473" 
d="M354.5 492.5q41.5 -20.5 65 -57t23.5 -82.5t-22.5 -82.5t-63 -57t-90.5 -20.5q-49 0 -88 20.5t-61 56.5t-22 82q0 54 31 94h-401v67h535q52 0 93.5 -20.5zM333.5 287q26.5 26 26.5 66q0 41 -26 67t-67 26q-40 0 -66 -26t-26 -67q0 -40 26 -66t66 -26t66.5 26z" />
    <glyph glyph-name="tm_VowelUu.alt2" horiz-adv-x="679" 
d="M514 578q63 -34 99 -94t36 -135q0 -78 -40 -140.5t-111.5 -97.5t-161.5 -35h-58v67h58q63 0 113.5 26.5t79.5 73.5t29 106q0 54 -24.5 98t-67 69t-93.5 25q-62 0 -109 -28q51 0 92 -21t64 -57.5t23 -81.5q0 -69 -47 -111.5t-121 -42.5q-48 0 -86.5 21.5t-60.5 59.5
t-22 85q0 45 13 81h-395v67h430q35 47 92 73t127 26q78 0 141 -34zM333.5 420.5q-26.5 25.5 -77.5 25.5h-56q-19 -38 -19 -80q0 -43 26.5 -71.5t67.5 -28.5q38 0 61.5 23.5t23.5 63.5q0 42 -26.5 67.5z" />
    <glyph glyph-name="tm_VowelI.alt3" horiz-adv-x="248" 
d="M9 759.5q81 -37.5 124 -104t43 -152.5v-503h-86v503q0 65 -31.5 114.5t-93 77.5t-148.5 28q-70 0 -109 -29t-39 -76t29 -76t84 -29v-63q-91 0 -145 47t-55 121q0 52 28.5 92.5t82 63.5t124.5 23q111 0 192 -37.5z" />
    <glyph glyph-name="tm_VowelU.alt3" horiz-adv-x="473" 
d="M354.5 492.5q41.5 -20.5 65 -57t23.5 -82.5t-22.5 -82.5t-63 -57t-90.5 -20.5q-49 0 -88 20.5t-61 56.5t-22 82q0 54 31 94h-329v67h463q52 0 93.5 -20.5zM333.5 287q26.5 26 26.5 66q0 41 -26 67t-67 26q-40 0 -66 -26t-26 -67q0 -40 26 -66t66 -26t66.5 26z" />
    <glyph glyph-name="tm_VowelUu.alt3" horiz-adv-x="679" 
d="M514 578q63 -34 99 -94t36 -135q0 -78 -40 -140.5t-111.5 -97.5t-161.5 -35h-58v67h58q63 0 113.5 26.5t79.5 73.5t29 106q0 54 -24.5 98t-67 69t-93.5 25q-62 0 -109 -28q51 0 92 -21t64 -57.5t23 -81.5q0 -69 -47 -111.5t-121 -42.5q-48 0 -86.5 21.5t-60.5 59.5
t-22 85q0 45 13 81h-319v67h354q35 47 92 73t127 26q78 0 141 -34zM333.5 420.5q-26.5 25.5 -77.5 25.5h-56q-19 -38 -19 -80q0 -43 26.5 -71.5t67.5 -28.5q38 0 61.5 23.5t23.5 63.5q0 42 -26.5 67.5z" />
    <glyph glyph-name="tm_VowelI.alt4" horiz-adv-x="266" 
d="M9 759.5q81 -37.5 124 -104t43 -152.5v-503h-86v503q0 65 -31.5 114.5t-93 77.5t-148.5 28q-102 0 -156.5 -31t-54.5 -83q0 -46 28.5 -71t84.5 -25v-63q-92 0 -145.5 43t-54.5 116q0 55 35 97.5t102.5 66.5t160.5 24q111 0 192 -37.5z" />
    <glyph glyph-name="tm_KU" horiz-adv-x="1096" 
d="M929 271q58 -32 87.5 -85t29.5 -117q0 -100 -55 -173.5t-159.5 -112.5t-250.5 -39q-162 0 -277 54.5t-174.5 150.5t-59.5 221q0 95 41 195t105 158l88 -10q-62 -53 -102.5 -149.5t-40.5 -195.5q0 -103 47.5 -181.5t142 -122.5t230.5 -44q180 0 277 65.5t97 183.5
q0 70 -41.5 118.5t-124.5 48.5h-10v-31q0 -64 -29.5 -115t-85 -79.5t-129.5 -28.5q-61 0 -107.5 21t-72.5 57.5t-26 83.5q0 53 32 91t90 55v223h490l12 -67h-174v-143h9q83 0 141 -32zM537 446v-143h14h142v143h-156zM693 236h-141q-63 0 -97.5 -24t-34.5 -68
q0 -38 31.5 -62.5t83.5 -24.5q74 0 116 41t42 107v31z" />
    <glyph glyph-name="tm_CU" horiz-adv-x="820" 
d="M683 236v-236h-87v236h-106v-31q0 -64 -30 -115t-85 -79.5t-129 -28.5q-61 0 -107.5 21t-72.5 57.5t-26 83.5q0 53 32 91t90 55v223h490l12 -67h-174v-143h295l5 -67h-107zM248 446v-143h13h143v143h-156zM404 236h-141q-63 0 -97.5 -24t-34.5 -68q0 -38 31.5 -62.5
t83.5 -24.5q74 0 116 41t42 107v31z" />
    <glyph glyph-name="tm_NyU" horiz-adv-x="1256" 
d="M1166 -160h-315q-80 -87 -211 -135.5t-299 -48.5q-129 0 -196.5 35.5t-67.5 101.5q0 51 42.5 82.5t121.5 31.5h555q70 90 70 206q0 74 -27 119t-76 45q-47 0 -77 -34.5t-30 -87.5v-155h-87v446h-174q-127 0 -190.5 -56t-63.5 -153q0 -73 37 -120q-3 12 -3 26
q0 70 46.5 114.5t117.5 44.5q50 0 90 -20.5t62.5 -57t22.5 -82.5q0 -45 -23.5 -81.5t-64.5 -57.5t-93 -21q-84 0 -148.5 34t-99.5 92t-35 129q0 81 38.5 143.5t114 97.5t183.5 35h442l11 -67h-183v-137q45 43 108 43q57 0 101 -30.5t68 -85t24 -123.5q0 -114 -56 -206h179
v606h86v-673zM272.5 208q-26.5 -26 -26.5 -66t26 -66t67 -26t67 26t26 66t-26.5 66t-66.5 26t-66.5 -26zM559.5 -241q98.5 28 167.5 81h-486q-73 0 -73 -47q0 -32 46.5 -47t126.5 -15q120 0 218.5 28z" />
    <glyph glyph-name="tm_TtU" horiz-adv-x="844" 
d="M704 319q44 -33 67 -91t23 -133q0 -102 -42.5 -182t-123.5 -124.5t-193 -44.5q-114 0 -196 50t-125.5 138t-43.5 202q0 64 17 138.5t48.5 141.5t71.5 109l88 -10q-59 -58 -96.5 -167.5t-37.5 -213.5q0 -92 31.5 -162.5t93.5 -110.5t149 -40q85 0 145.5 35t91.5 97.5
t31 143.5q0 83 -26.5 132.5t-77.5 49.5q-47 0 -77 -34.5t-30 -87.5v-155h-86v513h86v-204q46 43 108 43q60 0 104 -33z" />
    <glyph glyph-name="tm_NnU" horiz-adv-x="1959" 
d="M1869 -160h-514q-139 -88 -349 -136t-481 -48q-234 0 -341 41t-107 112q0 44 37.5 71t106.5 27h1098q93 64 140.5 148.5t47.5 185.5q0 104 -46.5 159.5t-139.5 55.5q-60 0 -113 -25q51 -48 79 -113.5t28 -141.5q0 -87 -46 -140.5t-126 -53.5t-126.5 54t-46.5 140
q0 73 27.5 137t76.5 113q-62 30 -132 30q-80 0 -145 -37q56 -48 86.5 -110.5t30.5 -132.5q0 -86 -46.5 -140t-126.5 -54t-126.5 54t-46.5 140q0 70 23.5 131t67.5 108q-87 41 -195 41q-96 0 -169.5 -29.5t-113.5 -81t-40 -117.5q0 -72 38 -118q-4 13 -4 33q0 70 46.5 114.5
t117.5 44.5q50 0 90 -20.5t62.5 -57t22.5 -82.5q0 -45 -23.5 -81.5t-64.5 -57.5t-93 -21q-85 0 -149 32t-99 88t-35 126q0 87 51.5 156t146 108t216.5 39q146 0 260 -62q93 62 218 62q113 0 201 -51q83 51 178 51q133 0 205 -76.5t72 -213.5q0 -95 -39 -179.5t-116 -154.5
h339v606h87v-673zM1202.5 291q-22.5 53 -63.5 91q-37 -38 -57.5 -91t-20.5 -115q0 -55 20.5 -87t61.5 -32t61.5 32t20.5 87q0 62 -22.5 115zM799.5 282q-23.5 49 -67.5 86q-35 -37 -54 -86t-19 -106q0 -55 20.5 -87t61.5 -32t61.5 32t20.5 87q0 57 -23.5 106zM272.5 208
q-26.5 -26 -26.5 -66t26 -66t67 -26t67 26t26 66t-26.5 66t-66.5 26t-66.5 -26zM1197 -160h-976q-23 0 -38 -8.5t-15 -22.5q0 -36 93.5 -58t263.5 -22q419 0 672 111z" />
    <glyph glyph-name="tm_TU" horiz-adv-x="1044" 
d="M954 -160h-263q-55 -88 -159 -136t-246 -48q-119 0 -182.5 39.5t-63.5 103.5q0 49 37.5 78.5t106.5 29.5h443q27 60 27 134q0 87 -40.5 141t-112.5 54h-11v-31q0 -64 -30 -115t-85 -79.5t-129 -28.5q-61 0 -107.5 21t-72.5 57.5t-26 83.5q0 53 32 91t90 55v223h490
l12 -67h-174v-143h10q74 0 129.5 -33.5t85.5 -93t30 -135.5q0 -74 -22 -134h144v606h87v-673zM248 446v-143h13h143v143h-156zM404 236h-141q-63 0 -97.5 -24t-34.5 -68q0 -38 31.5 -62.5t83.5 -24.5q74 0 116 41t42 107v31zM585 -160h-401q-23 0 -38 -11.5t-15 -29.5
q0 -31 38 -49.5t117 -18.5q203 0 299 109z" />
    <glyph glyph-name="tm_NU" horiz-adv-x="1033" 
d="M943 -160h-275q-53 -88 -143.5 -136t-217.5 -48q-100 0 -158.5 37t-58.5 96q0 55 38 86.5t116 31.5h364q36 84 36 206q0 164 -104 164q-47 0 -77 -34.5t-30 -87.5v-155h-86v446h-171v-446h-86v513h515l12 -67h-184v-137q21 21 49 32t59 11q92 0 142.5 -66t50.5 -173
q0 -116 -34 -206h157v606h86v-673zM569 -160h-325q-33 0 -48 -14t-15 -37q0 -25 35.5 -41.5t90.5 -16.5q176 0 262 109z" />
    <glyph glyph-name="tm_NnnU" horiz-adv-x="1556" 
d="M1466 -160h-454q-102 -88 -253 -136t-344 -48q-175 0 -256.5 38.5t-81.5 104.5q0 48 36 78t108 30h745q69 66 104 150.5t35 183.5q0 104 -46.5 159.5t-139.5 55.5q-68 0 -127 -32q58 -49 90 -112.5t32 -135.5q0 -86 -46.5 -140t-126.5 -54t-126.5 54t-46.5 140
q0 69 24.5 130t68.5 108q-87 42 -197 42q-96 0 -169.5 -29.5t-113.5 -81t-40 -117.5q0 -72 38 -118q-4 13 -4 33q0 70 46.5 114.5t117.5 44.5q50 0 90 -20.5t62.5 -57t22.5 -82.5q0 -45 -23.5 -81.5t-64.5 -57.5t-93 -21q-85 0 -149 32t-99 88t-35 126q0 87 51.5 156
t146 108t216.5 39q146 0 260 -62q44 30 93.5 46t101.5 16q133 0 205 -76.5t72 -213.5q0 -94 -30 -179t-88 -155h302v606h86v-673zM798.5 284q-24.5 50 -70.5 88q-33 -38 -51 -88t-18 -108q0 -55 20.5 -87t61.5 -32t61.5 32t20.5 87q0 58 -24.5 108zM272.5 208
q-26.5 -26 -26.5 -66t26 -66t67 -26t67 26t26 66t-26.5 66t-66.5 26t-66.5 -26zM878 -160h-657q-28 0 -40.5 -12t-12.5 -29q0 -31 61.5 -49.5t185.5 -18.5q284 0 463 109z" />
    <glyph glyph-name="tm_MU" horiz-adv-x="1149" 
d="M991 492.5q53 -38.5 80.5 -106.5t27.5 -155q0 -106 -55 -168.5t-167 -62.5h-119q-11 -76 -53 -134t-112 -90t-163 -32q-113 0 -194 51t-123.5 143.5t-42.5 215.5q0 107 36 208t92 161l88 -10q-53 -57 -89 -154.5t-36 -206.5q0 -154 69.5 -243.5t199.5 -89.5q104 0 166 49
t76 132h-283v513l86 5v-450h201v251q0 104 50.5 158t139.5 54q72 0 125 -38.5zM978 111q30 43 30 120q0 102 -36 163.5t-106 61.5q-49 0 -76.5 -33t-27.5 -103v-252h115q71 0 101 43z" />
    <glyph glyph-name="tm_RU" horiz-adv-x="1114" 
d="M971 321.5q44 -30.5 68.5 -85t24.5 -123.5q0 -107 -60 -191t-171.5 -131t-261.5 -47q-153 0 -266 54.5t-174 151t-61 220.5q0 95 41 195t105 158l88 -10q-62 -53 -102.5 -149.5t-40.5 -195.5q0 -101 49 -180.5t142 -124t219 -44.5q124 0 215 37.5t139 104t48 152.5
q0 74 -27 119t-77 45q-47 0 -77 -34.5t-30 -87.5v-155h-86v446h-201v-446h-86v513h545l12 -67h-184v-137q46 43 108 43q57 0 101 -30.5z" />
    <glyph glyph-name="tm_RrU" horiz-adv-x="1121" 
d="M1031 -160h-324q-62 -88 -158.5 -136t-222.5 -48q-77 0 -132.5 18t-84.5 50.5t-29 74.5q0 50 36 79t108 29h425q74 126 74 324q0 103 -33.5 164t-103.5 61q-50 0 -79.5 -33t-29.5 -103v-320h-86v311q0 65 -27.5 105t-79.5 40q-100 0 -100 -136v-320h-86v319
q0 98 47.5 155t138.5 57q45 0 82.5 -21.5t62.5 -59.5q26 38 66.5 59.5t90.5 21.5q109 0 168.5 -82.5t59.5 -217.5q0 -189 -67 -324h198v606h86v-673zM599 -160h-375q-27 0 -40 -11t-13 -30q0 -32 39 -50t116 -18q170 0 273 109z" />
    <glyph glyph-name="tm_LU" horiz-adv-x="1287" 
d="M1197 -160h-428q-62 -86 -175.5 -135t-257.5 -49q-123 0 -193.5 35.5t-70.5 97.5q0 54 44 86t130 32h472q17 38 23 79q-72 14 -110.5 71t-38.5 152v46q0 94 -58.5 147t-159.5 53q-72 0 -125 -28t-80.5 -77.5t-27.5 -112.5q0 -75 39 -123q-3 14 -3 29q0 45 21 81t58 56.5
t83 20.5q50 0 90 -20.5t62.5 -57t22.5 -81.5t-23.5 -81.5t-64.5 -57.5t-93 -21q-84 0 -148.5 34t-99.5 92t-35 129q0 81 39 148t113 106.5t172 39.5q92 0 160.5 -34t106 -96t37.5 -146v-46q0 -76 27 -113t83 -37q57 0 84 45.5t27 128.5q0 64 -21 144t-61 136l88 14
q42 -69 63.5 -149.5t21.5 -144.5q0 -102 -42 -167.5t-120 -79.5q-6 -41 -21 -79h304v606h86v-673zM272.5 208q-26.5 -26 -26.5 -66t26 -66t67 -26t67 26t26 66t-26.5 66t-66.5 26t-66.5 -26zM535 -241.5q85 27.5 137 81.5h-426q-46 0 -64.5 -13.5t-18.5 -37.5
q0 -29 47 -43.5t126 -14.5q114 0 199 27.5z" />
    <glyph glyph-name="tm_LlU" horiz-adv-x="1641" 
d="M1499 321.5q44 -30.5 68 -85t24 -123.5q0 -121 -64.5 -206t-187 -129t-294.5 -44h-382q-185 0 -318 51.5t-204 149.5t-71 235q0 95 41 195t105 158l88 -10q-62 -53 -102.5 -149.5t-40.5 -195.5q0 -114 60.5 -195t173.5 -124.5t268 -47.5h382q140 0 242.5 36.5t157.5 107
t55 168.5q0 74 -27 119t-76 45q-38 0 -66 -24t-37 -63v-190h-86v446h-237v-446h-86v228q0 65 -31.5 117t-87.5 81.5t-126 29.5q-74 0 -129 -28t-84 -77.5t-29 -113.5q0 -73 37 -120q-3 12 -3 26q0 70 46.5 114.5t117.5 44.5q50 0 90 -20.5t62.5 -57t22.5 -82.5
q0 -45 -23.5 -81.5t-64.5 -57.5t-93 -21q-84 0 -148.5 34t-99.5 92t-35 129q0 85 41 152t116.5 104.5t175.5 37.5q75 0 138.5 -28.5t106.5 -78.5v89h581l12 -67h-184v-133q44 39 104 39q57 0 101 -30.5zM529.5 208q-26.5 -26 -26.5 -66t26 -66t67 -26t67 26t26 66t-26.5 66
t-66.5 26t-66.5 -26z" />
    <glyph glyph-name="tm_LllU" horiz-adv-x="1149" 
d="M762 0v-1q0 -13 8.5 -30.5t24 -30t35.5 -12.5h149l11 -67h-158q-32 -52 -114.5 -83.5t-188.5 -31.5q-140 0 -244 56.5t-159.5 156t-55.5 227.5q0 98 35.5 188t92.5 151l88 -10q-54 -58 -89.5 -144t-35.5 -187q0 -106 44 -188t127 -128.5t197 -46.5q75 0 131.5 15.5
t80.5 43.5q-30 15 -47.5 44t-17.5 68v10h-287v513l86 5v-450h201v251q0 104 50.5 158t139.5 54q72 0 125 -38.5t80.5 -106.5t27.5 -155q0 -106 -55 -168.5t-167 -62.5h-115zM762 68h115q71 0 101 43t30 120q0 102 -36 163.5t-106 61.5q-49 0 -76.5 -33t-27.5 -103v-252z" />
    <glyph glyph-name="tm_KUu" horiz-adv-x="1117" 
d="M1107 68v-68h-261q16 33 26 73t10 72q0 44 -27.5 70t-71.5 26q-16 0 -24 -1q50 -55 50 -130q0 -55 -37.5 -91.5t-93.5 -36.5t-93.5 36.5t-37.5 91.5q0 73 45 126h-7h-95v-31q0 -64 -30 -115t-85 -79.5t-129 -28.5q-61 0 -107.5 21t-72.5 57.5t-26 83.5q0 53 32 91t90 55
v223h490l12 -67h-174v-143h113q37 0 67 -10q51 23 113 23q54 0 97 -22t67.5 -61t24.5 -88q0 -42 -9 -77h144zM248 446v-143h13h143v143h-156zM404 236h-141q-63 0 -97.5 -24t-34.5 -68q0 -38 31.5 -62.5t83.5 -24.5q74 0 116 41t42 107v31zM714 165q-13 25 -37 43
q-22 -18 -35 -43t-13 -55q0 -25 13.5 -41.5t35.5 -16.5q21 0 35 16.5t14 41.5q0 30 -13 55z" />
    <glyph glyph-name="tm_NgUu" horiz-adv-x="1210" 
d="M1152 34.5q48 -49.5 48 -127.5q0 -86 -48.5 -150t-135.5 -98t-201 -34h-517q-109 0 -173.5 36t-64.5 101q0 54 41 89.5t105 35.5h528v-68h-528q-24 0 -39.5 -16t-15.5 -41q0 -33 39.5 -51.5t107.5 -18.5h517q87 0 153.5 26.5t103.5 75t37 113.5q0 43 -24.5 72.5
t-66.5 29.5q-45 0 -73.5 -29.5t-28.5 -74.5v-96h-86v191h-483v68h142q70 0 103.5 34.5t33.5 93.5q0 43 -25 72.5t-66 29.5q-46 0 -74 -29t-28 -75v-41h-86v293h-171v-446h-86v513h515l12 -67h-184v-108q48 35 110 35q78 0 125.5 -49.5t47.5 -127.5q0 -80 -51 -128h165v445
h86v-465q47 36 110 36q78 0 126 -49.5z" />
    <glyph glyph-name="tm_CUu" horiz-adv-x="1251" 
d="M1158.5 132q42.5 -46 42.5 -120q0 -135 -142 -201.5t-396 -66.5q-186 0 -319 49t-203.5 144.5t-70.5 232.5q0 95 41 195t105 158l88 -10q-62 -53 -102.5 -149.5t-40.5 -195.5q0 -171 133 -260t369 -89q208 0 327.5 46t119.5 147q0 40 -20 66t-51 26q-35 0 -58 -25
t-23 -64v-15h-86v236h-106v-31q0 -64 -30 -115t-85 -79.5t-129 -28.5q-61 0 -107.5 21t-72.5 57.5t-26 83.5q0 53 31.5 91t89.5 55v223h491l11 -67h-173v-143h295l4 -67h-107v-83q36 25 82 25q76 0 118.5 -46zM524 446v-143h13h142v143h-155zM679 236h-140q-64 0 -98 -24
t-34 -68q0 -38 31.5 -62.5t83.5 -24.5q73 0 115 41t42 107v31z" />
    <glyph glyph-name="tm_TtUu" horiz-adv-x="907" 
d="M653.5 579.5q32.5 30.5 83.5 30.5q8 0 22 -2q-33 49 -98 77t-156 28q-107 0 -185 -63t-118.5 -170t-40.5 -236q0 -130 34.5 -226t98.5 -147.5t150 -51.5q83 0 141.5 35t88 97.5t29.5 143.5q0 83 -26.5 132.5t-77.5 49.5q-47 0 -77 -34.5t-30 -87.5v-155h-86v513h86v-204
q45 43 108 43q60 0 104 -33t67 -91t23 -133q0 -103 -41.5 -182.5t-120.5 -124t-188 -44.5q-113 0 -197.5 61.5t-130.5 175t-46 265.5q0 150 53 273.5t152 196t230 72.5q101 0 181.5 -37.5t125.5 -100.5t45 -138q0 -53 -33.5 -87.5t-83.5 -34.5q-52 0 -85.5 31.5t-33.5 79.5
t32.5 78.5zM776.5 535.5q-14.5 14.5 -36.5 14.5t-36.5 -14.5t-14.5 -35.5q0 -22 14.5 -36.5t36.5 -14.5t36.5 14.5t14.5 36.5q0 21 -14.5 35.5z" />
    <glyph glyph-name="tm_PUu" horiz-adv-x="932" 
d="M874 34.5q48 -49.5 48 -127.5q0 -86 -48.5 -150t-135.5 -98t-201 -34h-239q-109 0 -173.5 36t-64.5 101q0 54 41 89.5t105 35.5h250v-68h-250q-24 0 -39.5 -16t-15.5 -41q0 -33 39.5 -51.5t107.5 -18.5h239q87 0 153.5 26.5t103.5 75t37 113.5q0 43 -24.5 72.5
t-66.5 29.5q-45 0 -73.5 -29.5t-28.5 -74.5v-96h-86v191h-462v513l86 5v-450h376v445h86v-465q47 36 110 36q78 0 126 -49.5z" />
    <glyph glyph-name="tm_MUu" horiz-adv-x="1295" 
d="M1137 492.5q53 -38.5 80.5 -106.5t27.5 -155q0 -106 -55 -168.5t-167 -62.5h-120q-14 -76 -64.5 -134t-134.5 -90t-193 -32q-135 0 -235 55.5t-153 154.5t-53 225q0 95 35 175.5t95 128.5t133 48q59 0 95 -33.5t36 -87.5q0 -50 -34.5 -83.5t-86.5 -33.5q-49 0 -82.5 29
t-37.5 75q-29 -41 -45.5 -98t-16.5 -120q0 -105 41.5 -186.5t120.5 -127.5t188 -46q128 0 207.5 49t98.5 132h-283v513l87 5v-450h201v251q0 104 50.5 158t138.5 54q73 0 126 -38.5zM381 449.5q-15 15.5 -38 15.5q-25 0 -40.5 -15.5t-15.5 -39.5q0 -23 15.5 -38.5
t40.5 -15.5q23 0 38 15.5t15 38.5q0 24 -15 39.5zM1124 111q30 43 30 120q0 102 -36 163.5t-107 61.5q-103 0 -103 -136v-252h115q71 0 101 43z" />
    <glyph glyph-name="tm_YUu" horiz-adv-x="1144" 
d="M1086 34.5q48 -49.5 48 -127.5q0 -86 -48.5 -150t-135.5 -98t-201 -34h-451q-109 0 -173.5 36t-64.5 101q0 54 41 89.5t105 35.5h462v-68h-462q-24 0 -39.5 -16t-15.5 -41q0 -33 39.5 -51.5t107.5 -18.5h451q87 0 153.5 26.5t103.5 75t37 113.5q0 43 -24.5 72.5
t-66.5 29.5q-45 0 -73.5 -29.5t-28.5 -74.5v-96h-86v191h-363v34q-52 -52 -125 -52q-91 0 -143.5 54.5t-52.5 157.5v319l86 5v-325q0 -136 110 -136q60 0 92.5 41.5t32.5 108.5v306h87v-445h276v445h86v-465q47 36 110 36q78 0 126 -49.5z" />
    <glyph glyph-name="tm_RUu" horiz-adv-x="1259" 
d="M1117 321.5q44 -30.5 68 -85t24 -123.5q0 -107 -69 -190.5t-197 -131t-298 -47.5q-175 0 -305 55t-200 157.5t-70 241.5q0 90 35.5 166.5t97.5 121.5t140 45q53 0 87 -34t34 -87q0 -50 -34.5 -83.5t-86.5 -33.5q-50 0 -84 30.5t-37 77.5q-29 -38 -45 -91t-16 -112
q0 -118 58 -203t167 -130.5t259 -45.5q145 0 252 37.5t164.5 104t57.5 152.5q0 74 -27 119t-77 45q-47 0 -77 -34.5t-30 -87.5v-155h-86v446h-201v-446h-87v513h546l12 -67h-184v-137q21 21 49 32t59 11q57 0 101 -30.5zM381 449.5q-15 15.5 -38 15.5q-25 0 -40.5 -15.5
t-15.5 -39.5q0 -23 15.5 -38.5t40.5 -15.5q23 0 38 15.5t15 38.5q0 24 -15 39.5z" />
    <glyph glyph-name="tm_LlUu" horiz-adv-x="1824" 
d="M1681 321.5q44 -30.5 68.5 -85t24.5 -123.5q0 -121 -65 -206t-187.5 -129t-294.5 -44h-582q-176 0 -305.5 49.5t-199.5 144.5t-70 230q0 109 35 194t97 132t141 47q53 0 87 -34t34 -87q0 -50 -34.5 -83.5t-86.5 -33.5q-49 0 -82.5 29.5t-37.5 75.5q-30 -42 -46 -103.5
t-16 -136.5q0 -114 58.5 -194t167 -121.5t258.5 -41.5h582q141 0 243.5 36.5t157.5 107t55 168.5q0 74 -27 119t-77 45q-37 0 -64.5 -22.5t-37.5 -60.5v-194h-86v446h-237v-446h-86v228q0 65 -31.5 117t-87.5 81.5t-126 29.5q-74 0 -129 -28t-84 -77.5t-29 -113.5
q0 -73 37 -120q-3 12 -3 26q0 70 46.5 114.5t117.5 44.5q50 0 90 -20.5t62.5 -57t22.5 -82.5q0 -45 -23.5 -81.5t-64.5 -57.5t-93 -21q-84 0 -148.5 34t-99.5 92t-35 129q0 85 41 152t116.5 104.5t175.5 37.5q75 0 138.5 -28.5t106.5 -78.5v89h581l12 -67h-184v-133
q44 39 103 39q57 0 101 -30.5zM381 449.5q-15 15.5 -38 15.5q-25 0 -40.5 -15.5t-15.5 -39.5q0 -23 15.5 -38.5t40.5 -15.5q23 0 38 15.5t15 38.5q0 24 -15 39.5zM712.5 208q-26.5 -26 -26.5 -66t26 -66t67 -26t67 26t26 66t-26.5 66t-66.5 26t-66.5 -26z" />
    <glyph glyph-name="tm_LllUu" horiz-adv-x="1295" 
d="M908 0v-1q0 -39 17 -56t50 -17h150l11 -67h-158q-43 -54 -138.5 -84.5t-212.5 -30.5q-168 0 -294.5 57t-194.5 157.5t-68 229.5q0 90 37 169t100 126.5t136 47.5q59 0 95 -33.5t36 -87.5q0 -50 -34.5 -83.5t-86.5 -33.5q-51 0 -84.5 30.5t-36.5 78.5q-33 -39 -52 -95.5
t-19 -118.5q0 -107 56.5 -191t162 -131t247.5 -47q87 0 155.5 14.5t103.5 44.5q-29 15 -46.5 44t-17.5 68v10h-288v513l87 5v-450h201v251q0 104 50.5 158t138.5 54q73 0 126 -38.5t80.5 -106.5t27.5 -155q0 -106 -55 -168.5t-167 -62.5h-115zM391 449.5q-15 15.5 -38 15.5
q-25 0 -40.5 -15.5t-15.5 -39.5q0 -23 15.5 -38.5t40.5 -15.5q23 0 38 15.5t15 38.5q0 24 -15 39.5zM908 68h115q71 0 101 43t30 120q0 102 -36 163.5t-107 61.5q-103 0 -103 -136v-252z" />
    <glyph glyph-name="tm_VUu" horiz-adv-x="1259" 
d="M1201 34.5q48 -49.5 48 -127.5q0 -86 -48.5 -150t-135.5 -98t-201 -34h-566q-109 0 -173.5 36t-64.5 101q0 54 41 89.5t105 35.5h577v-68h-577q-24 0 -39.5 -16t-15.5 -41q0 -33 39.5 -51.5t107.5 -18.5h566q87 0 153.5 26.5t103.5 75t37 113.5q0 43 -24.5 72.5
t-66.5 29.5q-45 0 -73.5 -29.5t-28.5 -74.5v-96h-86v191h-312v68q61 84 61 187q0 59 -28 104.5t-81.5 71t-126.5 25.5q-76 0 -133 -28t-87.5 -77.5t-30.5 -113.5q0 -73 37 -120q-3 12 -3 26q0 70 46.5 114.5t117.5 44.5q50 0 90 -20.5t62.5 -57t22.5 -82.5
q0 -45 -23.5 -81.5t-64.5 -57.5t-93 -21q-84 0 -148.5 34t-99.5 92t-35 129q0 85 42.5 152t120 104.5t179.5 37.5q98 0 172 -35.5t114.5 -98t40.5 -142.5q0 -51 -14.5 -99.5t-39.5 -87.5h214v445h86v-465q47 36 110 36q78 0 126 -49.5zM272.5 208q-26.5 -26 -26.5 -66
t26 -66t67 -26t67 26t26 66t-26.5 66t-66.5 26t-66.5 -26z" />
    <glyph glyph-name="tm_KSsa" horiz-adv-x="1609" 
d="M1529 0h-206v-243h-87v243h-390q16 33 26 73t10 72q0 44 -27.5 70t-71.5 26q-16 0 -24 -1q50 -55 50 -130q0 -55 -37.5 -91.5t-93.5 -36.5t-93.5 36.5t-37.5 91.5q0 73 45 126h-7h-95v-31q0 -64 -30 -115t-85 -79.5t-129 -28.5q-61 0 -107.5 21t-72.5 57.5t-26 83.5
q0 53 32 91t90 55v223h490l12 -67h-174v-143h113q37 0 67 -10q51 23 113 23q54 0 97 -22t67.5 -61t24.5 -88q0 -42 -9 -77h273v135q-25 -4 -61 -4q-59 0 -105 22.5t-72.5 61t-26.5 86.5q0 73 47 117.5t129 44.5q79 0 127.5 -45.5t48.5 -116.5v-51q75 47 119 128h87v-446z
M1236 281v83q0 41 -24 66.5t-65 25.5q-42 0 -63.5 -23.5t-21.5 -63.5t31.5 -67.5t81.5 -27.5q26 0 61 7zM248 446v-143h13h143v143h-156zM1442 68v240q-51 -55 -119 -82v-158h119zM404 236h-141q-63 0 -97.5 -24t-34.5 -68q0 -38 31.5 -62.5t83.5 -24.5q74 0 116 41t42 107
v31zM714 165q-13 25 -37 43q-22 -18 -35 -43t-13 -55q0 -25 13.5 -41.5t35.5 -16.5q21 0 35 16.5t14 41.5q0 30 -13 55z" />
    <glyph glyph-name="tm_TtI" horiz-adv-x="839" 
d="M698 0v-243h-86v243h-522v513l86 5v-450h202q-40 36 -62.5 91t-22.5 125q0 73 25.5 129t73.5 87t113 31q89 0 141 -60t52 -155v-248h120l11 -68h-131zM612 68v248q0 62 -28 101t-79 39q-58 0 -90 -47.5t-32 -124.5q0 -62 21.5 -111.5t60 -77t86.5 -27.5h61z" />
    <glyph glyph-name="tm_TtIi" horiz-adv-x="794" 
d="M784 0h-694v513l86 5v-450h147q-55 58 -55 145q0 63 32 113t88 78t126 28q59 0 111 -25.5t83 -68.5t31 -91q0 -53 -33.5 -88t-83.5 -35q-52 0 -85.5 31.5t-33.5 79.5q0 42 25 71t67 37q-36 14 -81 14q-68 0 -111.5 -40.5t-43.5 -103.5t36 -104t91 -41h287zM656.5 200.5
q13.5 13.5 13.5 33.5t-13.5 33.5t-34.5 13.5q-20 0 -33.5 -13.5t-13.5 -33.5t13.5 -33.5t33.5 -13.5q21 0 34.5 13.5z" />
    <glyph glyph-name="tm_Shree" horiz-adv-x="1869" 
d="M1726 321.5q44 -30.5 68.5 -85t24.5 -123.5q0 -121 -65 -206t-187.5 -129t-294.5 -44h-609q-185 0 -318 51.5t-204 149.5t-71 235q0 95 41 195t105 158l88 -10q-62 -53 -102.5 -149.5t-40.5 -195.5q0 -115 60.5 -196.5t173.5 -124.5t268 -46h609q141 0 243.5 36.5
t157.5 107t55 168.5q0 74 -27 119t-77 45q-47 0 -77 -34.5t-30 -87.5v-155h-86v446h-237v-446h-86v306q0 67 -32.5 108.5t-92.5 41.5q-54 0 -82 -32.5t-28 -103.5v-320h-494v513l86 5v-450h321v251q0 103 52.5 157.5t144.5 54.5q73 0 125 -52v34h263q-26 28 -40.5 65.5
t-14.5 80.5q0 63 31.5 113t87.5 78t126 28q60 0 111.5 -26t82.5 -69t31 -91q0 -53 -33 -87.5t-84 -34.5q-52 0 -85 31.5t-33 79.5q0 42 25.5 71t67.5 36q-35 15 -83 15q-67 0 -110.5 -40.5t-43.5 -103.5q0 -64 35.5 -105t90.5 -41h156l12 -67h-184v-137q21 21 49 32t59 11
q57 0 101 -30.5zM1703.5 646.5q13.5 13.5 13.5 33.5t-13.5 33t-34.5 13q-20 0 -33 -13t-13 -33t13 -33.5t33 -13.5q21 0 34.5 13.5z" />
    </font>
</defs>
</svg>
