<?xml version="1.0" standalone="no"?>
<!DOCTYPE svg PUBLIC "-//W3C//DTD SVG 1.1//EN" "http://www.w3.org/Graphics/SVG/1.1/DTD/svg11.dtd" >
<svg xmlns="http://www.w3.org/2000/svg" xmlns:xlink="http://www.w3.org/1999/xlink" version="1.1">
<metadata>
Created by FontForge 20170731 at Wed Mar 22 18:01:20 2017
 By Aleksey,,,
Copyright 2014 Pria Ravichandran (pria.ravichandran@gmail.com)
</metadata>
<defs>
<font id="Catamaran-Regular" horiz-adv-x="529" >
  <font-face 
    font-family="Catamaran"
    font-weight="400"
    font-stretch="normal"
    units-per-em="1000"
    panose-1="0 0 5 0 0 0 0 0 0 0"
    ascent="770"
    descent="-230"
    x-height="485"
    cap-height="680"
    bbox="-540 -377 2518 1320"
    underline-thickness="50"
    underline-position="-175"
    unicode-range="U+000D-FB02"
  />
<missing-glyph horiz-adv-x="658" 
d="M94 696v-696h469v696h-469zM482 632l1 -569h-309v569h308z" />
    <glyph glyph-name=".notdef" horiz-adv-x="658" 
d="M94 696v-696h469v696h-469zM482 632l1 -569h-309v569h308z" />
    <glyph glyph-name="uni0000" horiz-adv-x="0" 
 />
    <glyph glyph-name="uni0000" horiz-adv-x="0" 
 />
    <glyph glyph-name="nonmarkingreturn" unicode="&#xd;" horiz-adv-x="0" 
 />
    <glyph glyph-name="space" unicode=" " horiz-adv-x="233" 
 />
    <glyph glyph-name="exclam" unicode="!" horiz-adv-x="169" 
d="M57 224l57 -28l16 506h-90zM46.5 91.5q-16.5 -15.5 -16.5 -37.5t16.5 -38t38.5 -16q23 0 38.5 16t15.5 38t-16 37.5t-38 15.5t-38.5 -15.5z" />
    <glyph glyph-name="quotedbl" unicode="&#x22;" horiz-adv-x="328" 
d="M49.5 695.5q-16.5 -16.5 -16.5 -37.5q0 -20 13.5 -36.5t32.5 -17.5q-3 -26 -17.5 -45t-41.5 -38l21 -37q42 22 72 69.5t30 95.5q0 28 -16.5 45.5t-38.5 17.5t-38.5 -16.5zM206 695.5q-16 -16.5 -16 -37.5q0 -20 13.5 -36.5t32.5 -17.5q-4 -26 -18.5 -45t-41.5 -38l21 -37
q42 22 71.5 69.5t29.5 95.5q0 28 -16 45.5t-38 17.5t-38 -16.5z" />
    <glyph glyph-name="numbersign" unicode="#" horiz-adv-x="519" 
d="M384 507l-29 -127h-133l31 126l-66 1l-30 -127h-127l9 -61h102l-29 -127h-82l9 -61h58l-30 -129l65 -5l32 134h132l-30 -129l65 -5l31 134h127l-8 61h-105l30 127h83l-8 61h-60l30 126zM340 319l-30 -127h-132l31 127h131z" />
    <glyph glyph-name="dollar" unicode="$" horiz-adv-x="513" 
d="M173 -6q-36 6 -68.5 16.5t-50.5 22.5l19 62q32 -16 77.5 -28.5t89.5 -12.5q78 0 120.5 30.5t42.5 79.5q0 35 -20 61.5t-57.5 48t-102.5 49.5q-93 40 -136.5 87t-43.5 115q0 55 34.5 97.5t95.5 61.5v107l57 10v-106l30 1q12 0 34 -2v98l58 10v-118q42 -11 82 -30l-27 -61
q-37 17 -67.5 26t-74.5 9q-66 0 -105.5 -27t-39.5 -75q0 -36 19.5 -61.5t55.5 -46.5t106 -53q63 -29 101.5 -56t58.5 -61.5t20 -82.5q0 -56 -33.5 -98.5t-95.5 -63.5v-118h-58v106q-23 -4 -53 -4h-11v-102h-57v109z" />
    <glyph glyph-name="percent" unicode="%" horiz-adv-x="862" 
d="M545 710l-306 -710l77 -4l306 710zM112 681q-36 -21 -57.5 -59.5t-21.5 -89.5q0 -79 44 -124t115 -45q43 0 79 21t57.5 59t21.5 89q0 79 -44.5 124.5t-114.5 45.5q-43 0 -79 -21zM251 613q24 -27 24 -81t-24.5 -80.5t-58.5 -26.5q-37 0 -61 27t-24 81q0 53 25 80t59 27
q36 0 60 -27zM592.5 317q-36.5 -21 -57.5 -59t-21 -89q0 -79 44.5 -124t114.5 -45q43 0 79 21t57 59t21 89q0 79 -44 124t-113 45q-44 0 -80.5 -21zM732 249.5q24 -27.5 24 -80.5t-24.5 -80.5t-58.5 -27.5q-36 0 -60.5 27.5t-24.5 81.5t25 80.5t60 26.5t59 -27.5z" />
    <glyph glyph-name="ampersand" unicode="&#x26;" horiz-adv-x="668" 
d="M636 51l-82 75q43 81 49 200l-64 25q-8 -105 -43 -174l-197 185q-57 53 -79 84.5t-22 75.5q0 43 30.5 75t80.5 32q38 0 62.5 -7.5t43.5 -16.5t26 -12l28 61q-40 20 -77 31t-83 11q-58 0 -101 -24.5t-65.5 -65.5t-22.5 -90q0 -57 31 -102q-48 -32 -77.5 -86.5
t-30.5 -117.5q0 -71 33.5 -121t92 -75.5t131.5 -26.5q136 0 213 83l81 -74zM300 56q-73 0 -125 40t-52 116q1 50 20.5 89.5t53.5 61.5q10 -12 37 -37l224 -205q-57 -65 -158 -65z" />
    <glyph glyph-name="quotesingle" unicode="'" horiz-adv-x="173" 
d="M49.5 695.5q-16.5 -16.5 -16.5 -37.5q0 -20 13.5 -36.5t32.5 -17.5q-3 -26 -17.5 -45t-41.5 -38l21 -37q42 22 72 69.5t30 95.5q0 28 -16.5 45.5t-38.5 17.5t-38.5 -16.5z" />
    <glyph glyph-name="parenleft" unicode="(" horiz-adv-x="265" 
d="M182 76.5q-25 60.5 -40 128t-15 116.5q0 48 15 114t40 126.5t53 92.5l-64 23q-60 -78 -90.5 -173.5t-30.5 -183.5q0 -89 31 -185t90 -173l64 23q-28 31 -53 91.5z" />
    <glyph glyph-name="parenright" unicode=")" horiz-adv-x="265" 
d="M82 562.5q25 -60.5 40.5 -127.5t15.5 -115t-15.5 -115t-40.5 -127.5t-52 -92.5l64 -23q59 81 90 176t31 182q0 89 -31 184.5t-90 172.5l-64 -23q27 -31 52 -91.5z" />
    <glyph glyph-name="asterisk" unicode="*" horiz-adv-x="351" 
d="M206 772h-61l-2 -111l-116 25l-17 -52l118 -23l-83 -117l47 -35l84 113l84 -113l46 35l-82 117l117 23l-17 52l-117 -25z" />
    <glyph glyph-name="plus" unicode="+" horiz-adv-x="536" 
d="M496 305h-191v226l-73 3v-229h-202l8 -63h194v-234l73 -4v238h201z" />
    <glyph glyph-name="comma" unicode="," horiz-adv-x="173" 
d="M50 91q-16 -16 -16 -37q0 -20 14 -36t32 -17q-2 -26 -17 -45t-43 -39l21 -37q43 22 72.5 69.5t29.5 95.5q0 28 -15.5 45t-39.5 17q-22 0 -38 -16z" />
    <glyph glyph-name="hyphen" unicode="-" horiz-adv-x="320" 
d="M282 305h-252l9 -63h251z" />
    <glyph glyph-name="period" unicode="." horiz-adv-x="168" 
d="M122.5 16q15.5 16 15.5 38t-15.5 37.5t-37.5 15.5q-23 0 -39 -15.5t-16 -37.5q0 -23 16 -38.5t39 -15.5q22 0 37.5 16z" />
    <glyph glyph-name="slash" unicode="/" horiz-adv-x="402" 
d="M316 710l-306 -710l76 -4l306 710z" />
    <glyph glyph-name="zero" unicode="0" horiz-adv-x="593" 
d="M67 132.5q34 -68.5 94 -107t136 -38.5q75 0 135 39t94 108t34 155q0 83 -34 149t-94 103.5t-135 37.5q-76 0 -136 -37.5t-94 -104t-34 -150.5q0 -86 34 -154.5zM135 404.5q24 50.5 66.5 79t95.5 28.5t95.5 -29t66 -81t23.5 -117q0 -66 -23.5 -118.5t-66 -82t-95.5 -29.5
t-95.5 30.5t-66.5 84t-24 120.5q0 64 24 114.5z" />
    <glyph glyph-name="one" unicode="1" horiz-adv-x="312" 
d="M240 0v566h-53l-177 -82l35 -64l115 54v-474h80z" />
    <glyph glyph-name="two" unicode="2" horiz-adv-x="479" 
d="M118.5 564.5q-42.5 -14.5 -80.5 -37.5l23 -64q43 24 76 37.5t81 13.5q62 0 97.5 -26.5t35.5 -77.5q0 -42 -26 -79t-88 -90l-212 -184v-57h434l-13 62h-316l149 125q81 68 115 121t34 110q0 74 -56.5 117.5t-152.5 43.5q-58 0 -100.5 -14.5z" />
    <glyph glyph-name="three" unicode="3" horiz-adv-x="463" 
d="M13 517l39 -52q30 21 70 35.5t87 14.5q57 0 91.5 -30t34.5 -72q0 -53 -45 -84.5t-122 -31.5h-42l12 -59h24q95 0 140 -34t45 -96q0 -36 -21 -63.5t-54.5 -42t-71.5 -14.5q-49 0 -84.5 11t-74.5 35l-41 -56q43 -23 94.5 -38.5t102.5 -15.5q68 0 120 24.5t80.5 67
t28.5 94.5q0 60 -33.5 103.5t-84.5 55.5q45 16 75.5 55.5t30.5 89.5q0 44 -23 82t-68.5 60.5t-110.5 22.5q-102 0 -199 -62z" />
    <glyph glyph-name="four" unicode="4" horiz-adv-x="524" 
d="M504 135h-104v436h-55l-335 -436l11 -65h300v-139h79v139h95zM321 433v-298h-226z" />
    <glyph glyph-name="five" unicode="5" horiz-adv-x="496" 
d="M191.5 257.5q29.5 15.5 64.5 15.5q58 0 93 -37t35 -102q0 -66 -41.5 -105.5t-110.5 -39.5q-48 0 -83.5 11t-75.5 34l-40 -56q43 -23 94 -38.5t101 -15.5q74 0 127 28t80.5 76t27.5 106q-1 89 -54 146t-158 57q-25 0 -52.5 -8.5t-51.5 -23.5l9 196h260l9 65h-341l-16 -342
h76q18 18 47.5 33.5z" />
    <glyph glyph-name="six" unicode="6" horiz-adv-x="511" 
d="M378.5 361q48.5 -26 74.5 -71t26 -100q0 -57 -27.5 -103.5t-76 -73t-108.5 -26.5q-67 0 -120 31t-83.5 92t-30.5 146q0 108 54 190t137 129.5t169 58.5l18 -62q-61 -7 -122.5 -36.5t-108.5 -82t-63 -122.5q67 56 148 56q65 0 113.5 -26zM365.5 91.5q38.5 37.5 38.5 93.5
q0 63 -38 101t-103 38q-41 0 -81 -20.5t-72 -52.5q4 -96 44.5 -146.5t109.5 -50.5q63 0 101.5 37.5z" />
    <glyph glyph-name="seven" unicode="7" horiz-adv-x="440" 
d="M199 -69l221 600l-26 35h-384l10 -65h312l-208 -547z" />
    <glyph glyph-name="eight" unicode="8" horiz-adv-x="516" 
d="M152 620q-45 -23 -68.5 -60.5t-23.5 -81.5q0 -46 29 -83t74 -56q-34 -8 -64 -34t-48 -61.5t-18 -70.5q0 -52 26.5 -94t77.5 -67t122 -25q70 0 121 25.5t77.5 68t26.5 92.5q0 39 -18 74t-48 59t-64 33q43 20 73 56.5t30 82.5q0 44 -23.5 81.5t-68 60.5t-106.5 23t-107 -23
zM348 549.5q33 -29.5 33 -73.5q0 -40 -32.5 -70.5t-89.5 -39.5q-58 9 -90.5 39.5t-32.5 70.5q0 43 31.5 73t88.5 30q59 0 92 -29.5zM368.5 262.5q38.5 -37.5 38.5 -91.5q0 -53 -43.5 -86t-104.5 -33q-64 0 -106.5 33t-42.5 86q0 54 38 91.5t111 46.5q71 -9 109.5 -46.5z" />
    <glyph glyph-name="nine" unicode="9" horiz-adv-x="511" 
d="M365 548q53 -31 83.5 -92t30.5 -146q0 -108 -54 -190t-137 -129.5t-169 -58.5l-18 62q61 7 122.5 37t108.5 82.5t63 122.5q-70 -57 -148 -57q-66 0 -114.5 26t-74 71t-25.5 100q0 58 27.5 104t76 72.5t108.5 26.5q67 0 120 -31zM145.5 281q37.5 -38 102.5 -38
q42 0 82 20.5t72 52.5q-4 96 -44.5 146.5t-109.5 50.5q-63 0 -101.5 -38t-38.5 -94q0 -62 37.5 -100z" />
    <glyph glyph-name="colon" unicode=":" horiz-adv-x="168" 
d="M122 364q16 16 16 38t-16 38.5t-38 16.5t-38 -16.5t-16 -38.5t16 -38t38 -16t38 16zM122.5 43q15.5 16 15.5 38q0 23 -15.5 39t-38.5 16q-22 0 -38 -16t-16 -39q0 -22 16 -38t38 -16q23 0 38.5 16z" />
    <glyph glyph-name="semicolon" unicode=";" horiz-adv-x="174" 
d="M128 364q16 16 16 38t-16 38.5t-38 16.5q-23 0 -39 -16.5t-16 -38.5t16 -38t39 -16q22 0 38 16zM50 119.5q-16 -16.5 -16 -38.5q0 -21 13.5 -36t32.5 -17q-2 -26 -17 -45t-43 -39l21 -37q43 22 72.5 69.5t29.5 94.5q0 29 -15.5 47t-39.5 18q-22 0 -38 -16.5z" />
    <glyph glyph-name="less" unicode="&#x3c;" horiz-adv-x="329" 
d="M309 80l-204 165l204 165l-23 60l-256 -200v-50l256 -201z" />
    <glyph glyph-name="equal" unicode="=" horiz-adv-x="502" 
d="M464 380h-434l9 -61h433zM464 192h-434l9 -61h433z" />
    <glyph glyph-name="greater" unicode="&#x3e;" horiz-adv-x="329" 
d="M299 270l-256 200l-23 -60l204 -165l-204 -165l23 -61l256 201v50z" />
    <glyph glyph-name="question" unicode="?" horiz-adv-x="412" 
d="M97.5 687.5q-39.5 -14.5 -87.5 -45.5l10 -69q45 31 83.5 46t84.5 15q57 0 86 -24.5t29 -76.5t-47.5 -96t-126.5 -69l8 -196l58 -23l10 179q80 37 128.5 93.5t48.5 112.5q0 77 -48 122.5t-143 45.5q-54 0 -93.5 -14.5zM125.5 91.5q-15.5 -15.5 -15.5 -37.5
q0 -23 15.5 -38.5t37.5 -15.5q23 0 39 16t16 38t-16 37.5t-39 15.5q-22 0 -37.5 -15.5z" />
    <glyph glyph-name="at" unicode="@" horiz-adv-x="764" 
d="M518 415h-73q-59 0 -110.5 -25t-83 -71t-31.5 -105q0 -69 42 -109t124 -40q24 0 49 9t45 22q29 -32 81 -32q79 0 125 62t46 179q0 83 -39.5 149.5t-110 104t-160.5 37.5q-117 0 -205.5 -51t-136 -138t-47.5 -191q0 -93 45.5 -166.5t119.5 -114t157 -40.5q114 0 195 42
l-20 59q-32 -17 -76.5 -26t-87.5 -9q-71 0 -130 31t-93.5 89.5t-34.5 135.5q0 94 43 166.5t114.5 111.5t154.5 39q73 0 128.5 -30t85.5 -83.5t30 -122.5q0 -79 -27 -126t-69 -47q-21 0 -36.5 14t-12.5 44l24 202zM316.5 151.5q-22.5 26.5 -22.5 62.5q0 45 20.5 78t55 50.5
t75.5 17.5h31l-22 -171q-1 -5 -1 -14q0 -8 2 -18q-10 -15 -28.5 -23.5t-41.5 -8.5q-46 0 -68.5 26.5z" />
    <glyph glyph-name="A" unicode="A" horiz-adv-x="609" 
d="M262 680l-252 -680h77l71 193h287l76 -200l78 13l-261 674h-76zM422 257h-242l119 319z" />
    <glyph glyph-name="B" unicode="B" horiz-adv-x="590" 
d="M489 46q69 46 69 145q0 66 -34.5 109t-96.5 64q42 24 68 57.5t26 78.5q0 97 -63 138.5t-176 41.5h-189v-680h213q114 0 183 46zM400.5 589q40.5 -24 40.5 -90q0 -61 -48.5 -87.5t-128.5 -27.5h-92v229h107q81 0 121.5 -24zM435 288q43 -32 43 -99q0 -123 -173 -123h-133
v254h143q77 0 120 -32z" />
    <glyph glyph-name="C" unicode="C" horiz-adv-x="557" 
d="M452 683.5q-52 10.5 -89 10.5q-96 0 -169 -47t-112 -128.5t-39 -182.5q0 -96 36 -176t107 -127t171 -47q43 0 94.5 11.5t82.5 27.5l-30 60q-31 -14 -66.5 -22t-83.5 -8q-70 0 -122 37.5t-79 102t-27 142.5q0 83 31 149t85.5 103t120.5 37q47 0 76 -6.5t69 -21.5l25 57
q-29 18 -81 28.5z" />
    <glyph glyph-name="D" unicode="D" horiz-adv-x="671" 
d="M490.5 45q68.5 45 103.5 122.5t35 176.5q0 150 -74 243t-224 93h-238v-680h232q97 0 165.5 45zM495.5 539q54.5 -74 54.5 -196q0 -85 -28 -147.5t-78.5 -96t-117.5 -33.5h-154v547h163q106 0 160.5 -74z" />
    <glyph glyph-name="E" unicode="E" horiz-adv-x="523" 
d="M503 0l-10 63h-321v255h244l-9 59h-235v244h301l-9 59h-371v-680h410z" />
    <glyph glyph-name="F" unicode="F" horiz-adv-x="481" 
d="M397 373h-225v248h289l-10 59h-358v-680h79v314h234z" />
    <glyph glyph-name="G" unicode="G" horiz-adv-x="627" 
d="M499 291v-216q-56 -20 -116 -20q-73 0 -131.5 34.5t-92 98.5t-33.5 149q0 89 37.5 154.5t99 100t132.5 34.5q46 0 75 -6.5t69 -21.5l25 57q-29 18 -81.5 28.5t-89.5 10.5q-98 0 -178 -45.5t-126 -127t-46 -185.5q0 -99 42 -178.5t119.5 -125.5t179.5 -46q50 0 104 13.5
t86 33.5l1 317h-219l-7 -59h150z" />
    <glyph glyph-name="H" unicode="H" horiz-adv-x="663" 
d="M570 0v680h-79v-305h-319v310l-79 -5v-680h79v311h319v-311h79z" />
    <glyph glyph-name="I" unicode="I" horiz-adv-x="264" 
d="M172 0v680h-79v-680h79z" />
    <glyph glyph-name="J" unicode="J" horiz-adv-x="255" 
d="M87 9q-7 -19 -23.5 -31t-53.5 -25l31 -55q52 16 80 34.5t40 46t12 70.5v631h-79v-614q0 -38 -7 -57z" />
    <glyph glyph-name="K" unicode="K" horiz-adv-x="609" 
d="M504 0l-255 327l-77 -81v-246h-79v680h79v-330l328 345l54 -47l-253 -265l298 -383h-95z" />
    <glyph glyph-name="L" unicode="L" horiz-adv-x="506" 
d="M488 63h-316v617h-79v-680h403z" />
    <glyph glyph-name="M" unicode="M" horiz-adv-x="763" 
d="M400 229l190 283v-512h80v680h-50l-236 -347l-244 347h-47v-680h79v514l201 -290z" />
    <glyph glyph-name="N" unicode="N" horiz-adv-x="700" 
d="M172 0v534l26 -45l346 -489h64v680h-80v-527l-41 67l-331 460h-63v-680h79z" />
    <glyph glyph-name="O" unicode="O" horiz-adv-x="725" 
d="M199 647q-73 -47 -114.5 -128t-41.5 -182t41 -181t113 -125t163 -45q92 1 166 48t115.5 128.5t41.5 182.5t-41 181t-114 125t-164 45q-92 -2 -165 -49zM157 486.5q31 65.5 85.5 103t123.5 37.5q67 0 119.5 -36.5t82.5 -101t30 -145.5q0 -83 -31 -149t-85.5 -103
t-123.5 -37q-67 0 -119.5 36.5t-82.5 101t-30 145.5q0 83 31 148.5z" />
    <glyph glyph-name="P" unicode="P" horiz-adv-x="562" 
d="M172 257h96q114 0 187 54.5t74 160.5q0 107 -68 157.5t-183 50.5h-185v-680h79v257zM405 580.5q43 -32.5 43 -111.5q-2 -74 -50 -109.5t-127 -35.5h-99v289h107q83 0 126 -32.5z" />
    <glyph glyph-name="Q" unicode="Q" horiz-adv-x="725" 
d="M657 198.5q-26 -67.5 -73 -116.5l63 -61l-47 -41l-64 61q-79 -54 -176 -55q-91 0 -163 45t-113 125t-41 181t41.5 182t114.5 128t165 49q91 0 164 -45t114 -125t41 -181q0 -79 -26 -146.5zM481 92l-101 95l55 41l94 -92q33 39 51 92.5t18 115.5q0 81 -30 145.5t-82.5 101
t-119.5 36.5q-69 0 -123.5 -37.5t-85.5 -103t-31 -148.5q0 -81 30 -145.5t82.5 -101t119.5 -36.5q69 0 123 37z" />
    <glyph glyph-name="R" unicode="R" horiz-adv-x="592" 
d="M93 0h79v279h96q35 0 71 4l156 -283h87l-173 304q55 23 87 67.5t33 110.5q0 102 -68 150t-183 48h-185v-680zM404 583.5q44 -29.5 44 -104.5q-1 -72 -49.5 -103.5t-127.5 -31.5h-99v269h107q81 0 125 -29.5z" />
    <glyph glyph-name="S" unicode="S" horiz-adv-x="513" 
d="M139 1q58 -14 102 -14q74 0 128.5 23t83 63t28.5 92q0 48 -20 82.5t-58.5 61.5t-101.5 56q-70 32 -106 53t-55.5 46.5t-19.5 61.5q0 48 39.5 75t105.5 27q44 0 74.5 -9t67.5 -26l27 61q-35 18 -80.5 30t-93.5 12q-65 0 -114.5 -22.5t-76 -61.5t-26.5 -87q0 -68 43.5 -115
t136.5 -87q65 -28 102.5 -49.5t57.5 -48t20 -61.5q0 -49 -42.5 -79.5t-120.5 -30.5q-44 0 -89.5 12.5t-77.5 28.5l-19 -62q27 -18 85 -32z" />
    <glyph glyph-name="T" unicode="T" horiz-adv-x="563" 
d="M544 680h-534v-62h228v-618h80v618h235z" />
    <glyph glyph-name="U" unicode="U" horiz-adv-x="682" 
d="M83 680v-439q0 -73 31.5 -130t90 -90t136.5 -33t136.5 32.5t90 90.5t31.5 130v439h-80v-430q0 -87 -48 -141t-130 -54q-81 0 -130 54t-49 141v430h-79z" />
    <glyph glyph-name="V" unicode="V" horiz-adv-x="609" 
d="M88 687l-78 -12l261 -675h76l252 680h-77l-212 -575z" />
    <glyph glyph-name="W" unicode="W" horiz-adv-x="857" 
d="M847 680l-186 -680h-76l-156 562l-147 -562h-76l-196 675l78 12l157 -579l147 572h77l154 -572l148 572h76z" />
    <glyph glyph-name="X" unicode="X" horiz-adv-x="589" 
d="M95 0l201 287l183 -287h86l-215 333l229 347h-85l-185 -290l-207 307l-66 -33l218 -320l-244 -344h85z" />
    <glyph glyph-name="Y" unicode="Y" horiz-adv-x="563" 
d="M314 0l1 277l238 403h-85l-193 -329l-191 345l-74 -32l225 -391v-273h79z" />
    <glyph glyph-name="Z" unicode="Z" horiz-adv-x="562" 
d="M523 63h-413l429 555l-7 62h-482l12 -62h389l-428 -555l8 -63h499z" />
    <glyph glyph-name="bracketleft" unicode="[" horiz-adv-x="296" 
d="M100 -88h186l-11 58h-100v667h100l11 59h-186v-784z" />
    <glyph glyph-name="backslash" unicode="\" horiz-adv-x="402" 
d="M392 0l-305 710l-77 -4l306 -710z" />
    <glyph glyph-name="bracketright" unicode="]" horiz-adv-x="295" 
d="M195 696h-185l11 -59h98v-667h-98l-11 -58h185v784z" />
    <glyph glyph-name="asciicircum" unicode="^" horiz-adv-x="422" 
d="M211 323l122 -180h79l-169 247h-64l-169 -247h79z" />
    <glyph glyph-name="underscore" unicode="_" horiz-adv-x="440" 
d="M401 63h-371l9 -63h371z" />
    <glyph glyph-name="grave" unicode="`" horiz-adv-x="161" 
d="M98 589l53 15l-54 141h-87z" />
    <glyph glyph-name="a" unicode="a" horiz-adv-x="488" 
d="M170.5 420.5q30.5 8.5 73.5 8.5q55 0 80.5 -31t25.5 -85v-27h-125q-79 0 -127 -39t-48 -109q0 -67 42.5 -109t123.5 -42q38 0 78 18.5t67 43.5l10 -49h59v335q0 47 -24 84t-67 58t-98 21q-33 0 -83.5 -12t-76.5 -30l23 -60q36 16 66.5 24.5zM149.5 205.5
q26.5 27.5 73.5 27.5h128v-110q-27 -32 -62.5 -52t-74.5 -20q-45 0 -68 26t-23 61q0 40 26.5 67.5z" />
    <glyph glyph-name="b" unicode="b" 
d="M434.5 427.5q61.5 -70.5 61.5 -186.5q0 -74 -28.5 -131.5t-81 -90t-123.5 -32.5q-30 0 -63.5 12.5t-62.5 35.5l-17 -35h-47v696l79 10v-245q27 18 57 27.5t56 9.5q108 0 169.5 -70.5zM376 106q39 52 40 134q0 86 -38.5 138.5t-111.5 52.5q-36 0 -63 -11t-51 -34v-289
q24 -21 51 -32t62 -11q72 0 111 52z" />
    <glyph glyph-name="c" unicode="c" horiz-adv-x="458" 
d="M338 62q-28 -8 -72 -8q-73 0 -113 53t-40 138q1 81 43 133.5t114 52.5q42 0 68.5 -8t66.5 -25l24 56q-29 19 -76.5 31.5t-80.5 12.5q-72 0 -126 -32.5t-83.5 -90t-29.5 -131.5q0 -75 28 -133.5t81 -91t125 -32.5q33 0 81 12.5t78 31.5l-25 57q-35 -18 -63 -26z" />
    <glyph glyph-name="d" unicode="d" horiz-adv-x="530" 
d="M458 705v-705h-48l-15 37q-30 -24 -65 -37t-66 -13q-108 0 -169.5 70.5t-61.5 187.5q0 74 28.5 131.5t81 89.5t123.5 32q26 0 55.5 -10t56.5 -27v235zM326.5 65.5q27.5 11.5 51.5 35.5v287q-48 43 -114 43q-72 0 -111 -51.5t-40 -133.5q0 -87 38.5 -139.5t111.5 -52.5
q36 0 63.5 11.5z" />
    <glyph glyph-name="e" unicode="e" horiz-adv-x="499" 
d="M415.5 424q-50.5 74 -156.5 74q-70 0 -121.5 -32.5t-78 -90t-26.5 -131.5q0 -117 65 -187t189 -70q50 0 91 13.5t82 36.5l-25 58q-45 -22 -77.5 -32t-71.5 -10q-86 0 -127.5 47.5t-44.5 129.5h352q0 120 -50.5 194zM158.5 391.5q35.5 39.5 97.5 39.5q115 0 132 -147h-272
q7 68 42.5 107.5z" />
    <glyph glyph-name="f" unicode="f" horiz-adv-x="299" 
d="M90 417v-417h79v417h115l-26 60h-89v71q0 83 68 83q10 0 23 -3t21 -7l18 64q-13 7 -33 12t-40 5q-63 0 -99.5 -40.5t-36.5 -108.5v-76h-74l1 -60h73z" />
    <glyph glyph-name="g" unicode="g" horiz-adv-x="526" 
d="M458 485v-538q0 -51 -26 -91t-76 -63t-117 -23q-34 0 -86.5 12.5t-82.5 31.5l24 58q39 -19 69.5 -28t72.5 -9q63 0 102.5 29t39.5 84v77q-27 -18 -57.5 -28t-56.5 -10q-108 0 -169.5 70.5t-61.5 187.5q0 74 28.5 131.5t81 89.5t123.5 32q30 0 64 -13t63 -35l17 35h48z
M326.5 65.5q27.5 11.5 51.5 35.5v287q-48 43 -114 43q-72 0 -111 -51.5t-40 -133.5q0 -87 38.5 -139.5t111.5 -52.5q36 0 63.5 11.5z" />
    <glyph glyph-name="h" unicode="h" horiz-adv-x="539" 
d="M442.5 453.5q37.5 -46.5 37.5 -124.5v-328h-79v317q0 54 -20 84t-67 30q-36 0 -81.5 -25t-80.5 -63v-344h-79v696l79 10v-283q35 34 83.5 55.5t92.5 21.5q77 0 114.5 -46.5z" />
    <glyph glyph-name="i" unicode="i" horiz-adv-x="205" 
d="M140 597.5q16 15.5 16 37.5t-16 38t-38 16q-23 0 -38 -15.5t-15 -38.5t15 -38t38 -15q22 0 38 15.5zM143 0v485h-80v-485h80z" />
    <glyph glyph-name="j" unicode="j" horiz-adv-x="228" 
d="M76.5 597q-15.5 15 -15.5 38t15.5 38.5t38.5 15.5q22 0 38 -16t16 -38t-16 -37.5t-38 -15.5q-23 0 -38.5 15zM155 -30q0 -55 -8.5 -87t-35 -55t-80.5 -41l-31 57q34 12 50 27t21 37t4 62v515h80v-515z" />
    <glyph glyph-name="k" unicode="k" horiz-adv-x="472" 
d="M152 0v182l67 67l160 -249h93l-200 301l148 147l-48 50l-220 -221v429l-79 -10v-696h79z" />
    <glyph glyph-name="l" unicode="l" horiz-adv-x="224" 
d="M152 0v706l-79 -10v-696h79z" />
    <glyph glyph-name="m" unicode="m" horiz-adv-x="818" 
d="M724 453.5q36 -46.5 36 -124.5v-328h-79v317q0 54 -18 84t-62 30q-31 0 -71.5 -22.5t-75.5 -57.5q1 -7 1 -23v-328h-79v317q0 54 -18 84t-62 30q-32 0 -75.5 -25t-78.5 -63v-344h-79v485h59l13 -69q35 36 83.5 60t91.5 24q49 0 81.5 -22t48.5 -62q35 36 83 60t91 24
q74 0 110 -46.5z" />
    <glyph glyph-name="n" unicode="n" 
d="M142 344q35 38 80.5 63t81.5 25q47 0 67 -30t20 -84v-317h79v328q0 78 -37.5 124.5t-114.5 46.5q-46 0 -97 -24t-86 -60l-13 69h-59v-485h79v344z" />
    <glyph glyph-name="o" unicode="o" horiz-adv-x="536" 
d="M474.5 109.5q-29.5 -57.5 -84.5 -90t-128 -32.5q-70 0 -122 32.5t-79.5 91t-27.5 133.5q1 74 29.5 131.5t82.5 90t126 32.5q109 0 171 -69.5t62 -187.5q0 -74 -29.5 -131.5zM380 106.5q42 52.5 43 133.5q0 86 -40 138.5t-113 52.5q-72 0 -114 -52.5t-43 -133.5
q0 -85 40 -138t113 -53q72 0 114 52.5z" />
    <glyph glyph-name="p" unicode="p" horiz-adv-x="525" 
d="M430.5 427.5q61.5 -70.5 61.5 -186.5q0 -74 -28.5 -131.5t-81 -90t-123.5 -32.5q-53 0 -111 37v-232l-79 -11v704h47l17 -34q30 22 64 34.5t64 12.5q108 0 169.5 -70.5zM372 106q39 52 40 134q0 86 -38.5 138.5t-111.5 52.5q-36 0 -63 -11t-51 -34v-289q24 -21 51 -32
t62 -11q72 0 111 52z" />
    <glyph glyph-name="q" unicode="q" horiz-adv-x="526" 
d="M458 485v-694l-80 -10v244q-27 -18 -57.5 -28t-56.5 -10q-108 0 -169.5 70.5t-61.5 187.5q0 74 28.5 131.5t81 89.5t123.5 32q30 0 63.5 -12.5t62.5 -34.5l18 34h48zM326.5 65.5q27.5 11.5 51.5 35.5v287q-48 43 -114 43q-72 0 -111 -51.5t-40 -133.5q0 -87 38.5 -139.5
t111.5 -52.5q36 0 63.5 11.5z" />
    <glyph glyph-name="r" unicode="r" horiz-adv-x="324" 
d="M142 334q34 35 83 61.5t89 26.5l-19 63q-35 0 -81 -25t-79 -53l-25 78h-47v-485h79v334z" />
    <glyph glyph-name="s" unicode="s" horiz-adv-x="420" 
d="M112 -2q47 -11 81 -11q94 0 144.5 37t50.5 104q0 94 -163 154q-54 18 -83 37t-30 45q0 31 28.5 50.5t73.5 19.5q37 0 66 -9t62 -24l25 54q-26 19 -71.5 31t-79.5 12q-84 0 -132.5 -36.5t-48.5 -100.5q0 -53 44 -87t114 -57q120 -40 120 -94q0 -34 -32 -53t-87 -19
q-63 0 -131 34l-25 -57q27 -19 74 -30z" />
    <glyph glyph-name="t" unicode="t" horiz-adv-x="320" 
d="M166 477v146l-79 -22v-124h-71l1 -60h70v-291q0 -68 36.5 -104.5t99.5 -36.5q38 0 74 17l-18 62q-25 -10 -44 -10q-35 0 -52 22t-17 61v280h114l-26 60h-88z" />
    <glyph glyph-name="u" unicode="u" 
d="M387 142q-35 -38 -80.5 -63t-81.5 -25q-47 0 -67 30t-20 84v317h-79v-328q0 -78 37.5 -124.5t114.5 -46.5q46 0 97 24t86 60l13 -70h59v486h-79v-344z" />
    <glyph glyph-name="v" unicode="v" horiz-adv-x="456" 
d="M265 0l181 485h-80l-139 -378l-145 394l-72 -30l178 -471h77z" />
    <glyph glyph-name="w" unicode="w" horiz-adv-x="672" 
d="M519 0l143 485h-80l-102 -372l-108 372h-80l-102 -372l-108 387l-72 -30l141 -470h77l103 369l110 -369h78z" />
    <glyph glyph-name="x" unicode="x" horiz-adv-x="450" 
d="M99 0l119 187l120 -187h87l-152 233l167 252h-87l-124 -192l-131 206l-71 -30l146 -223l-163 -246h89z" />
    <glyph glyph-name="y" unicode="y" horiz-adv-x="456" 
d="M126.5 -125.5q-22.5 -15.5 -69.5 -37.5l24 -57q53 11 93.5 43t57.5 77l214 585h-80l-139 -375l-147 390l-70 -30l180 -467l-30 -83q-11 -30 -33.5 -45.5z" />
    <glyph glyph-name="z" unicode="z" horiz-adv-x="433" 
d="M408 485h-363l19 -63h246l-289 -381l10 -41h379l-10 62h-282l294 381z" />
    <glyph glyph-name="braceleft" unicode="{" horiz-adv-x="272" 
d="M191 349q13 25 13 67q0 29 -18 71t-18 67q0 19 16 32.5t47 13.5h24l7 59h-26q-66 0 -100.5 -27t-34.5 -78q0 -33 16 -71q15 -40 15 -73t-19.5 -54.5t-46.5 -21.5h-36v-52h36q27 0 48 -20t21 -51q0 -28 -17 -70q-18 -42 -18 -72q0 -111 136 -111h26l-7 59h-24
q-30 0 -46.5 13.5t-16.5 33.5q0 25 18 68q18 42 18 70q0 38 -14.5 66.5t-41.5 42.5q30 13 43 38z" />
    <glyph glyph-name="bar" unicode="|" horiz-adv-x="264" 
d="M93 711v-711l78 -6v711z" />
    <glyph glyph-name="braceright" unicode="}" horiz-adv-x="271" 
d="M81 267.5q-14 -25.5 -14 -66.5q0 -29 18 -71q19 -41 19 -66q0 -19 -16 -33t-47 -14h-24l-7 -60h26q66 0 100.5 27.5t34.5 79.5q0 32 -16 71t-16 72t19.5 55t46.5 22h36v51h-36q-27 0 -48 20.5t-21 50.5q0 29 18 71q18 41 18 71q0 111 -136 111h-26l7 -59h24
q30 0 46.5 -13.5t16.5 -33.5q0 -26 -19 -68q-18 -42 -18 -69q0 -39 15 -67.5t43 -42.5q-30 -13 -44 -38.5z" />
    <glyph glyph-name="asciitilde" unicode="~" horiz-adv-x="407" 
d="M93 197q4 40 43 40q27 0 63 -21q35 -22 76 -22q45 0 73.5 26t28.5 84h-65q-1 -22 -13 -32t-29 -10q-26 0 -59 22q-32 22 -79 22q-46 0 -74 -26t-28 -83h63z" />
    <glyph glyph-name="uni00A0" unicode="&#xa0;" horiz-adv-x="236" 
 />
    <glyph glyph-name="exclamdown" unicode="&#xa1;" horiz-adv-x="169" 
d="M123 609.5q16 16.5 16 38.5t-16 38t-38 16t-38.5 -16t-16.5 -38t16.5 -38.5t38.5 -16.5t38 16.5zM114 478l-58 27l-16 -505h90z" />
    <glyph glyph-name="cent" unicode="&#xa2;" horiz-adv-x="458" 
d="M426 31q-21 -14 -51.5 -24t-61.5 -15v-104h-70v100q-98 8 -154 77.5t-56 178.5q1 105 57 174t153 79v100l69 10v-113q32 -5 64 -15.5t53 -24.5l-24 -56q-40 17 -66.5 25t-68.5 8q-72 0 -114 -52.5t-43 -133.5q0 -85 40 -138t113 -53q44 0 72 8t63 26z" />
    <glyph glyph-name="sterling" unicode="&#xa3;" horiz-adv-x="450" 
d="M440 0l-10 63h-255q31 37 31 120v137h159l-27 60h-132v150q0 85 68 85q17 0 44 -11l18 62q-13 7 -34 12.5t-40 5.5q-64 0 -100 -42.5t-36 -115.5v-146h-73l1 -60h72v-173q0 -84 -70 -84l7 -63h377z" />
    <glyph glyph-name="currency" unicode="&#xa4;" horiz-adv-x="673" 
d="M643 -11l-102 106q43 63 44 145q0 86 -43 150l101 104l-45 56l-105 -106q-65 54 -153 54q-88 -1 -157 -56l-107 108l-46 -56l104 -105q-21 -30 -32.5 -67.5t-11.5 -77.5q0 -83 42 -151l-102 -104l46 -55l105 107q64 -53 150 -54q46 0 87 14.5t73 40.5l107 -108z
M481.5 146.5q-22.5 -41.5 -61.5 -65t-87 -23.5q-73 0 -117.5 53t-44.5 134q0 51 22.5 92.5t61 65.5t86.5 24t85.5 -24.5t57.5 -67t20 -95.5q0 -52 -22.5 -93.5z" />
    <glyph glyph-name="yen" unicode="&#xa5;" horiz-adv-x="563" 
d="M503 249h-188l-1 -113h180l9 -61h-189v-75h-79v75h-166l-9 61h175v113h-166l-9 61h154l-204 354l74 32l191 -345l193 329h85l-219 -370h160z" />
    <glyph glyph-name="brokenbar" unicode="&#xa6;" horiz-adv-x="264" 
d="M93 711v-299l78 -6v299zM93 293v-293l78 -6v294z" />
    <glyph glyph-name="section" unicode="&#xa7;" horiz-adv-x="573" 
d="M522.5 176q-17.5 -34 -50.5 -58q9 -25 9 -58q0 -52 -28.5 -92.5t-83 -63.5t-128.5 -23q-44 0 -102 14t-85 32l19 62q32 -16 77.5 -28.5t89.5 -12.5q78 0 120.5 30.5t42.5 80.5q0 35 -20 61t-57.5 47.5t-102.5 49.5q-93 40 -136.5 87.5t-43.5 115.5q0 39 18 72.5t51 56.5
q-10 27 -10 61q0 48 27 87t76.5 61.5t114.5 22.5q46 0 91.5 -12t82.5 -30l-27 -62q-34 17 -66 26t-77 9q-66 0 -105.5 -27t-39.5 -74q0 -36 20 -61.5t56 -47t106 -53.5q95 -43 137 -86t42 -113q0 -40 -17.5 -74zM379.5 219q31.5 -19 52.5 -40q30 29 30 70q0 35 -20 61
t-57.5 47.5t-102.5 49.5q-90 39 -131 82q-31 -26 -31 -68q0 -36 19.5 -61.5t56 -47t105.5 -53.5q47 -21 78.5 -40z" />
    <glyph glyph-name="dieresis" unicode="&#xa8;" horiz-adv-x="283" 
d="M94 628.5q14 14.5 14 34.5t-14 34t-35 14q-20 0 -34.5 -14.5t-14.5 -33.5q0 -20 14.5 -34.5t34.5 -14.5q21 0 35 14.5zM259 628.5q14 14.5 14 34.5t-14 34t-35 14q-19 0 -33.5 -14t-14.5 -34t14 -34.5t34 -14.5q21 0 35 14.5z" />
    <glyph glyph-name="copyright" unicode="&#xa9;" horiz-adv-x="799" 
d="M722 520q-45 83 -128.5 131.5t-193.5 48.5t-193.5 -48.5t-128.5 -131.5t-45 -184t45.5 -184t128.5 -131t193 -48t193 48t128.5 131t45.5 184t-45 184zM135 495q37 70 105.5 110t159.5 40t160 -40t106 -110t37 -158t-37 -158t-106 -110t-160 -40t-159.5 40t-105.5 110
t-37 158t37 158zM490 116.5q43 11.5 71 31.5l-24 57q-36 -19 -59 -26.5t-64 -7.5q-72 0 -104.5 43t-32.5 128q0 74 35.5 119t104.5 45q42 0 64.5 -7t59.5 -26l24 58q-27 20 -70 31t-77 11q-68 0 -118 -29.5t-76.5 -82t-26.5 -120.5q0 -106 56.5 -171t160.5 -65q33 0 76 11.5
z" />
    <glyph glyph-name="ordfeminine" unicode="&#xaa;" horiz-adv-x="331" 
d="M89 629.5q17 6.5 35 10t37 3.5q35 0 53 -19t18 -50v-11h-78q-54 0 -87.5 -26t-33.5 -72q0 -44 32 -73t83 -29q26 0 51 12.5t42 29.5l14 -33h44v209q0 32 -17.5 60t-49.5 44.5t-72 16.5q-23 0 -56 -8.5t-50 -20.5l14 -52q4 2 21 8.5zM117 500.5q19 12.5 47 12.5h69v-46
q-17 -20 -39 -33t-45 -13t-37 13.5t-14 31.5q0 22 19 34.5z" />
    <glyph glyph-name="guillemotleft" unicode="&#xab;" horiz-adv-x="373" 
d="M30 223l145 -139l22 52l-106 109l106 109l-22 53l-145 -139v-45zM186 223l146 -139l21 52l-106 109l106 109l-21 53l-146 -139v-45z" />
    <glyph glyph-name="logicalnot" unicode="&#xac;" horiz-adv-x="514" 
d="M476 406h-466l8 -63h395v-226l71 -5v244z" />
    <glyph glyph-name="softhyphen" unicode="&#xad;" horiz-adv-x="120" 
 />
    <glyph glyph-name="registered" unicode="&#xae;" horiz-adv-x="712" 
d="M640.5 650.5q-39.5 73.5 -113 115.5t-170.5 42q-98 0 -171.5 -42t-113 -115.5t-39.5 -163.5q0 -89 39.5 -162t113 -115t171.5 -42q97 0 170.5 42t113 115t39.5 162q0 90 -39.5 163.5zM125 626.5q32 60.5 91.5 94.5t140.5 34q80 0 139.5 -34t91.5 -95t32 -138
q0 -76 -32 -136.5t-91.5 -95.5t-139.5 -35q-81 0 -140.5 35t-91.5 95.5t-32 136.5q0 78 32 138.5zM424 473q29 13 46.5 37.5t17.5 60.5q0 56 -37.5 82.5t-101.5 26.5h-110v-376h60v154h39q21 0 28 1l83 -155h69zM403.5 620q22.5 -11 22.5 -51q0 -37 -25.5 -50t-71.5 -13h-30
v125h34q48 0 70.5 -11z" />
    <glyph glyph-name="macron" unicode="&#xaf;" horiz-adv-x="266" 
d="M10 633h246l-7 63h-239v-63z" />
    <glyph glyph-name="degree" unicode="&#xb0;" horiz-adv-x="240" 
d="M42.5 677q-32.5 -31 -32.5 -75q0 -45 32.5 -74.5t77.5 -29.5q46 0 78 29.5t32 74.5q0 44 -32.5 75t-77.5 31t-77.5 -31zM80.5 562.5q-15.5 16.5 -15.5 39.5t15.5 38.5t39.5 15.5q23 0 39.5 -16t16.5 -39q0 -22 -16.5 -38.5t-39.5 -16.5q-24 0 -39.5 16.5z" />
    <glyph glyph-name="plusminus" unicode="&#xb1;" horiz-adv-x="486" 
d="M448 359h-170v172l-70 3v-175h-178l9 -58h169v-180l70 -5v185h178zM449 59h-418l8 -58h417z" />
    <glyph glyph-name="twosuperior" unicode="&#xb2;" horiz-adv-x="357" 
d="M23 729l27 -54q24 15 56.5 26.5t63.5 11.5q40 0 61 -20.5t21 -48.5q0 -31 -18 -60t-58 -65l-151 -130v-53h312l-8 55h-216l102 87q58 50 83.5 88t25.5 78q0 31 -15.5 60t-49.5 48t-86 19q-74 0 -150 -42z" />
    <glyph glyph-name="threesuperior" unicode="&#xb3;" horiz-adv-x="358" 
d="M82 759q-36 -12 -71 -34l28 -49q26 17 53.5 27.5t62.5 10.5q41 0 63.5 -19t22.5 -48q0 -37 -28.5 -59t-85.5 -22h-31l8 -56h18q67 0 97.5 -23t30.5 -69q0 -38 -29 -60t-73 -22q-37 0 -62 8t-55 25l-31 -49q80 -42 148 -42q52 0 91 18.5t60.5 50.5t21.5 72q0 46 -25 79
t-63 41q33 11 56 41t23 68q0 53 -39.5 88t-112.5 35q-42 0 -78 -12z" />
    <glyph glyph-name="acute" unicode="&#xb4;" horiz-adv-x="161" 
d="M63 589l88 156h-87l-54 -141z" />
    <glyph glyph-name="mu" unicode="&#xb5;" horiz-adv-x="539" 
d="M476 486v-485h-59l-13 69q-35 -36 -86 -60t-97 -24q-43 0 -73 15v-209l-79 -11v704h79v-317q0 -54 20 -84t67 -30q36 0 81.5 25t80.5 63v344h79z" />
    <glyph glyph-name="paragraph" unicode="&#xb6;" horiz-adv-x="837" 
d="M408 618h220v-618h79v618h98v62h-522q-115 0 -182.5 -50.5t-67.5 -157.5q0 -106 73.5 -160.5t187.5 -54.5h35v-257h79v618z" />
    <glyph glyph-name="periodcentered" unicode="&#xb7;" horiz-adv-x="168" 
d="M122.5 224q15.5 16 15.5 38t-15.5 38t-37.5 16q-23 0 -39 -15.5t-16 -38.5q0 -22 16 -38t39 -16q22 0 37.5 16z" />
    <glyph glyph-name="cedilla" unicode="&#xb8;" horiz-adv-x="215" 
d="M115.5 -98q25.5 -14 25.5 -33q0 -16 -16 -25t-36 -9q-14 0 -31 5t-29 10l-19 -50q14 -9 37.5 -15t41.5 -6q49 0 82.5 23.5t33.5 68.5q0 27 -23 51t-55 30l24 61h-63l-36 -93q38 -4 63.5 -18z" />
    <glyph glyph-name="onesuperior" unicode="&#xb9;" horiz-adv-x="263" 
d="M190 336v429h-46l-134 -66l29 -49l80 41v-355h71z" />
    <glyph glyph-name="ordmasculine" unicode="&#xba;" horiz-adv-x="383" 
d="M77 655.5q-44 -46.5 -44 -123.5q0 -79 42.5 -124t114.5 -45q70 0 115.5 46t45.5 123q0 79 -43.5 124.5t-116.5 45.5q-70 0 -114 -46.5zM253 614q24 -28 24 -82q0 -55 -25.5 -82.5t-61.5 -27.5t-60.5 28.5t-24.5 81.5q0 55 25.5 82.5t60.5 27.5q38 0 62 -28z" />
    <glyph glyph-name="guillemotright" unicode="&#xbb;" horiz-adv-x="374" 
d="M188 268l-145 139l-23 -53l106 -109l-106 -109l23 -52l145 139v45zM344 268l-145 139l-22 -53l106 -109l-106 -109l22 -52l145 139v45z" />
    <glyph glyph-name="onequarter" unicode="&#xbc;" horiz-adv-x="772" 
d="M190 336v429h-46l-134 -66l29 -49l80 41v-355h71zM556 700l-506 -834h80l504 834h-78zM672 -77h75l5 57h-80v341h-48l-252 -341l7 -57h224v-87h69v87zM603 196v-216h-157z" />
    <glyph glyph-name="onehalf" unicode="&#xbd;" horiz-adv-x="793" 
d="M190 336v429h-46l-134 -66l29 -49l80 41v-355h71zM541 700l-506 -834h80l504 834h-78zM458 283l28 -54q23 15 55.5 26.5t63.5 11.5q41 0 62 -20.5t21 -48.5q0 -31 -18 -60t-58 -65l-151 -130v-53h312l-8 55h-217l103 87q57 50 82.5 87.5t25.5 78.5q0 31 -15.5 60
t-49.5 48t-86 19q-71 0 -150 -42z" />
    <glyph glyph-name="threequarters" unicode="&#xbe;" horiz-adv-x="795" 
d="M82 759q-36 -12 -71 -34l28 -49q26 17 53.5 27.5t62.5 10.5q41 0 63.5 -19.5t22.5 -47.5q0 -40 -31.5 -60.5t-82.5 -20.5h-31l8 -56h18q67 0 97.5 -23t30.5 -69q0 -38 -29 -60t-73 -22q-37 0 -62 8t-55 25l-31 -49q80 -42 148 -42q52 0 91 18.5t60.5 50.5t21.5 72
q0 46 -25 79t-63 41q33 11 56 41t23 68q0 53 -39.5 88t-112.5 35q-42 0 -78 -12zM618 700l-506 -834h80l504 834h-78zM694 -20v341h-48l-251 -341l6 -57h224v-87h69v87h75l6 57h-81zM625 -20h-157l157 216v-216z" />
    <glyph glyph-name="questiondown" unicode="&#xbf;" horiz-adv-x="412" 
d="M287 539q16 16 16 39q0 22 -16 38.5t-38 16.5t-38.5 -16.5t-16.5 -38.5t16.5 -38.5t38.5 -16.5t38 16zM315.5 -55.5q40.5 14.5 86.5 44.5l-10 71q-45 -32 -84 -47t-84 -15q-57 0 -86 24.5t-29 76.5t47.5 96t126.5 69l-8 196l-58 24l-9 -179q-80 -37 -129 -94t-49 -114
q0 -77 47.5 -122t143.5 -45q54 0 94.5 14.5z" />
    <glyph glyph-name="Agrave" unicode="&#xc0;" horiz-adv-x="609" 
d="M262 680l-252 -680h77l71 193h287l76 -200l78 13l-261 674h-76zM422 257h-242l119 319zM295 739l53 15l-54 141h-87z" />
    <glyph glyph-name="Aacute" unicode="&#xc1;" horiz-adv-x="609" 
d="M262 680l-252 -680h77l71 193h287l76 -200l78 13l-261 674h-76zM422 257h-242l119 319zM306 739l88 156h-87l-54 -141z" />
    <glyph glyph-name="Acircumflex" unicode="&#xc2;" horiz-adv-x="609" 
d="M262 680l-252 -680h77l71 193h287l76 -200l78 13l-261 674h-76zM422 257h-242l119 319zM294 837l75 -98l72 10l-116 146h-63l-114 -146l71 -10z" />
    <glyph glyph-name="Atilde" unicode="&#xc3;" horiz-adv-x="609" 
d="M262 680l-252 -680h77l71 193h287l76 -200l78 13l-261 674h-76zM422 257h-242l119 319zM373 823.5q-10 -10.5 -24 -10.5q-26 0 -49 23q-22 21 -64 21q-89 0 -89 -98h55q1 19 12 30t25 11q25 0 51 -23q23 -22 59 -22q41 0 65.5 23t24.5 75h-55q-1 -19 -11 -29.5z" />
    <glyph glyph-name="Adieresis" unicode="&#xc4;" horiz-adv-x="609" 
d="M262 680l-252 -680h77l71 193h287l76 -200l78 13l-261 674h-76zM422 257h-242l119 319zM247 778.5q14 14.5 14 34.5t-14 34t-35 14q-20 0 -34.5 -14.5t-14.5 -33.5q0 -20 14.5 -34.5t34.5 -14.5q21 0 35 14.5zM412 778.5q14 14.5 14 34.5t-14 34t-35 14q-19 0 -33.5 -14
t-14.5 -34t14 -34.5t34 -14.5q21 0 35 14.5z" />
    <glyph glyph-name="Aring" unicode="&#xc5;" horiz-adv-x="609" 
d="M262 680l-252 -680h77l71 193h287l76 -200l78 13l-261 674h-76zM422 257h-242l119 319zM232.5 892.5q-27.5 -25.5 -27.5 -63.5q0 -36 27.5 -60.5t66.5 -24.5q38 0 65 24.5t27 60.5q0 38 -27 63.5t-65 25.5q-39 0 -66.5 -25.5zM268.5 800q-12.5 12 -12.5 29q0 19 12.5 31
t30.5 12t30 -12t12 -31q0 -17 -12.5 -29t-29.5 -12q-18 0 -30.5 12z" />
    <glyph glyph-name="AE" unicode="&#xc6;" horiz-adv-x="875" 
d="M445 0h410l-8 63h-322v255h244l-9 59h-235v244h302l-9 59h-383l-425 -675l74 -13l122 201h239v-193zM445 572v-315h-198z" />
    <glyph glyph-name="Ccedilla" unicode="&#xc7;" horiz-adv-x="557" 
d="M423 -78q23 -24 23 -51q0 -45 -33.5 -68.5t-82.5 -23.5q-18 0 -41.5 6t-37.5 15l19 50q12 -5 29 -10t31 -5q20 0 36 9t16 25q0 19 -25.5 33t-63.5 18l26 68q-88 9 -150.5 57.5t-94 124.5t-31.5 166q0 101 39 182.5t112 128.5t169 47q37 0 89 -10.5t81 -28.5l-25 -57
q-40 15 -69 21.5t-76 6.5q-66 0 -120.5 -37t-85.5 -103t-31 -149q0 -78 27 -142.5t79 -102t122 -37.5q48 0 83.5 8t66.5 22l30 -60q-26 -14 -68.5 -24.5t-83.5 -13.5l-14 -35q32 -6 55 -30z" />
    <glyph glyph-name="Egrave" unicode="&#xc8;" horiz-adv-x="523" 
d="M503 0l-10 63h-321v255h244l-9 59h-235v244h301l-9 59h-371v-680h410zM283 739l53 15l-54 141h-87z" />
    <glyph glyph-name="Eacute" unicode="&#xc9;" horiz-adv-x="523" 
d="M503 0l-10 63h-321v255h244l-9 59h-235v244h301l-9 59h-371v-680h410zM294 739l88 156h-87l-54 -141z" />
    <glyph glyph-name="Ecircumflex" unicode="&#xca;" horiz-adv-x="523" 
d="M503 0l-10 63h-321v255h244l-9 59h-235v244h301l-9 59h-371v-680h410zM282 837l75 -98l72 10l-116 146h-63l-114 -146l71 -10z" />
    <glyph glyph-name="Edieresis" unicode="&#xcb;" horiz-adv-x="523" 
d="M503 0l-10 63h-321v255h244l-9 59h-235v244h301l-9 59h-371v-680h410zM235 778.5q14 14.5 14 34.5t-14 34t-35 14q-20 0 -34.5 -14.5t-14.5 -33.5q0 -20 14.5 -34.5t34.5 -14.5q21 0 35 14.5zM400 778.5q14 14.5 14 34.5t-14 34t-35 14q-19 0 -33.5 -14t-14.5 -34
t14 -34.5t34 -14.5q21 0 35 14.5z" />
    <glyph glyph-name="Igrave" unicode="&#xcc;" horiz-adv-x="264" 
d="M172 0v680h-79v-680h79zM130 739l53 15l-54 141h-87z" />
    <glyph glyph-name="Iacute" unicode="&#xcd;" horiz-adv-x="264" 
d="M172 0v680h-79v-680h79zM141 739l88 156h-87l-54 -141z" />
    <glyph glyph-name="Icircumflex" unicode="&#xce;" horiz-adv-x="264" 
d="M172 0v680h-79v-680h79zM129 837l75 -98l72 10l-116 146h-63l-114 -146l71 -10z" />
    <glyph glyph-name="Idieresis" unicode="&#xcf;" horiz-adv-x="264" 
d="M172 0v680h-79v-680h79zM82 778.5q14 14.5 14 34.5t-14 34t-35 14q-20 0 -34.5 -14.5t-14.5 -33.5q0 -20 14.5 -34.5t34.5 -14.5q21 0 35 14.5zM247 778.5q14 14.5 14 34.5t-14 34t-35 14q-19 0 -33.5 -14t-14.5 -34t14 -34.5t34 -14.5q21 0 35 14.5z" />
    <glyph glyph-name="Eth" unicode="&#xd0;" horiz-adv-x="671" 
d="M555 587q74 -93 74 -243q0 -99 -35 -176.5t-103.5 -122.5t-165.5 -45h-232v305h-64l-9 62h73v313h238q150 0 224 -93zM443.5 99.5q50.5 33.5 78.5 96t28 147.5q0 122 -54.5 196t-160.5 74h-163v-246h101l9 -62h-110v-239h154q67 0 117.5 33.5z" />
    <glyph glyph-name="Ntilde" unicode="&#xd1;" horiz-adv-x="700" 
d="M172 0v534l26 -45l346 -489h64v680h-80v-527l-41 67l-331 460h-63v-680h79zM426 823.5q-10 -10.5 -24 -10.5q-26 0 -49 23q-22 21 -64 21q-89 0 -89 -98h55q1 19 12 30t25 11q25 0 51 -23q23 -22 59 -22q41 0 65.5 23t24.5 75h-55q-1 -19 -11 -29.5z" />
    <glyph glyph-name="Ograve" unicode="&#xd2;" horiz-adv-x="725" 
d="M199 647q-73 -47 -114.5 -128t-41.5 -182t41 -181t113 -125t163 -45q92 1 166 48t115.5 128.5t41.5 182.5t-41 181t-114 125t-164 45q-92 -2 -165 -49zM157 486.5q31 65.5 85.5 103t123.5 37.5q67 0 119.5 -36.5t82.5 -101t30 -145.5q0 -83 -31 -149t-85.5 -103
t-123.5 -37q-67 0 -119.5 36.5t-82.5 101t-30 145.5q0 83 31 148.5zM360 739l53 15l-54 141h-87z" />
    <glyph glyph-name="Oacute" unicode="&#xd3;" horiz-adv-x="725" 
d="M199 647q-73 -47 -114.5 -128t-41.5 -182t41 -181t113 -125t163 -45q92 1 166 48t115.5 128.5t41.5 182.5t-41 181t-114 125t-164 45q-92 -2 -165 -49zM157 486.5q31 65.5 85.5 103t123.5 37.5q67 0 119.5 -36.5t82.5 -101t30 -145.5q0 -83 -31 -149t-85.5 -103
t-123.5 -37q-67 0 -119.5 36.5t-82.5 101t-30 145.5q0 83 31 148.5zM371 739l88 156h-87l-54 -141z" />
    <glyph glyph-name="Ocircumflex" unicode="&#xd4;" horiz-adv-x="725" 
d="M199 647q-73 -47 -114.5 -128t-41.5 -182t41 -181t113 -125t163 -45q92 1 166 48t115.5 128.5t41.5 182.5t-41 181t-114 125t-164 45q-92 -2 -165 -49zM157 486.5q31 65.5 85.5 103t123.5 37.5q67 0 119.5 -36.5t82.5 -101t30 -145.5q0 -83 -31 -149t-85.5 -103
t-123.5 -37q-67 0 -119.5 36.5t-82.5 101t-30 145.5q0 83 31 148.5zM359 837l75 -98l72 10l-116 146h-63l-114 -146l71 -10z" />
    <glyph glyph-name="Otilde" unicode="&#xd5;" horiz-adv-x="725" 
d="M199 647q-73 -47 -114.5 -128t-41.5 -182t41 -181t113 -125t163 -45q92 1 166 48t115.5 128.5t41.5 182.5t-41 181t-114 125t-164 45q-92 -2 -165 -49zM157 486.5q31 65.5 85.5 103t123.5 37.5q67 0 119.5 -36.5t82.5 -101t30 -145.5q0 -83 -31 -149t-85.5 -103
t-123.5 -37q-67 0 -119.5 36.5t-82.5 101t-30 145.5q0 83 31 148.5zM438 823.5q-10 -10.5 -24 -10.5q-26 0 -49 23q-22 21 -64 21q-89 0 -89 -98h55q1 19 12 30t25 11q25 0 51 -23q23 -22 59 -22q41 0 65.5 23t24.5 75h-55q-1 -19 -11 -29.5z" />
    <glyph glyph-name="Odieresis" unicode="&#xd6;" horiz-adv-x="725" 
d="M199 647q-73 -47 -114.5 -128t-41.5 -182t41 -181t113 -125t163 -45q92 1 166 48t115.5 128.5t41.5 182.5t-41 181t-114 125t-164 45q-92 -2 -165 -49zM157 486.5q31 65.5 85.5 103t123.5 37.5q67 0 119.5 -36.5t82.5 -101t30 -145.5q0 -83 -31 -149t-85.5 -103
t-123.5 -37q-67 0 -119.5 36.5t-82.5 101t-30 145.5q0 83 31 148.5zM312 778.5q14 14.5 14 34.5t-14 34t-35 14q-20 0 -34.5 -14.5t-14.5 -33.5q0 -20 14.5 -34.5t34.5 -14.5q21 0 35 14.5zM477 778.5q14 14.5 14 34.5t-14 34t-35 14q-19 0 -33.5 -14t-14.5 -34t14 -34.5
t34 -14.5q21 0 35 14.5z" />
    <glyph glyph-name="multiply" unicode="&#xd7;" horiz-adv-x="508" 
d="M292 249l170 -218h-80l-128 163l-143 -163h-81l186 220l-170 218h81l128 -163l143 163h80z" />
    <glyph glyph-name="Oslash" unicode="&#xd8;" horiz-adv-x="725" 
d="M528 651q73 -45 114 -125t41 -181t-41.5 -182.5t-115.5 -128.5t-166 -48q-91 0 -163 45t-113 125t-41 181t41.5 182t114.5 128t165 49q91 0 164 -45zM151.5 201.5q25.5 -61.5 71.5 -98.5l220 510q-36 14 -77 14q-69 0 -123.5 -37.5t-85.5 -103t-31 -148.5
q0 -75 25.5 -136.5zM481.5 92q54.5 37 85.5 103t31 149q0 72 -24 132t-67 98l-221 -507q35 -12 72 -12q69 0 123.5 37z" />
    <glyph glyph-name="Ugrave" unicode="&#xd9;" horiz-adv-x="682" 
d="M83 680v-439q0 -73 31.5 -130t90 -90t136.5 -33t136.5 32.5t90 90.5t31.5 130v439h-80v-430q0 -87 -48 -141t-130 -54q-81 0 -130 54t-49 141v430h-79zM337 739l53 15l-54 141h-87z" />
    <glyph glyph-name="Uacute" unicode="&#xda;" horiz-adv-x="682" 
d="M83 680v-439q0 -73 31.5 -130t90 -90t136.5 -33t136.5 32.5t90 90.5t31.5 130v439h-80v-430q0 -87 -48 -141t-130 -54q-81 0 -130 54t-49 141v430h-79zM348 739l88 156h-87l-54 -141z" />
    <glyph glyph-name="Ucircumflex" unicode="&#xdb;" horiz-adv-x="682" 
d="M83 680v-439q0 -73 31.5 -130t90 -90t136.5 -33t136.5 32.5t90 90.5t31.5 130v439h-80v-430q0 -87 -48 -141t-130 -54q-81 0 -130 54t-49 141v430h-79zM336 837l75 -98l72 10l-116 146h-63l-114 -146l71 -10z" />
    <glyph glyph-name="Udieresis" unicode="&#xdc;" horiz-adv-x="682" 
d="M83 680v-439q0 -73 31.5 -130t90 -90t136.5 -33t136.5 32.5t90 90.5t31.5 130v439h-80v-430q0 -87 -48 -141t-130 -54q-81 0 -130 54t-49 141v430h-79zM289 778.5q14 14.5 14 34.5t-14 34t-35 14q-20 0 -34.5 -14.5t-14.5 -33.5q0 -20 14.5 -34.5t34.5 -14.5
q21 0 35 14.5zM454 778.5q14 14.5 14 34.5t-14 34t-35 14q-19 0 -33.5 -14t-14.5 -34t14 -34.5t34 -14.5q21 0 35 14.5z" />
    <glyph glyph-name="Yacute" unicode="&#xdd;" horiz-adv-x="563" 
d="M314 0l1 277l238 403h-85l-193 -329l-191 345l-74 -32l225 -391v-273h79zM282 739l88 156h-87l-54 -141z" />
    <glyph glyph-name="Thorn" unicode="&#xde;" horiz-adv-x="562" 
d="M461 549.5q68 -50.5 68 -157.5q-1 -106 -74 -160.5t-187 -54.5h-96v-177h-79v680h79v-80h106q115 0 183 -50.5zM398 279.5q48 35.5 50 109.5q0 79 -43 111.5t-126 32.5h-107v-289h99q79 0 127 35.5z" />
    <glyph glyph-name="germandbls" unicode="&#xdf;" horiz-adv-x="575" 
d="M152 0v473q0 66 36.5 105.5t102.5 39.5q55 0 91 -30t36 -87q0 -58 -37 -87.5t-116 -29.5h-29v-64h58q75 0 118.5 -32.5t43.5 -98.5q0 -65 -47 -94t-125 -29h-61v-66h62q115 0 183.5 46t68.5 144q0 62 -33.5 105.5t-88.5 64.5q40 20 62 57.5t22 86.5q0 88 -59 135t-149 47
q-99 0 -158.5 -56.5t-59.5 -156.5v-473h79z" />
    <glyph glyph-name="agrave" unicode="&#xe0;" horiz-adv-x="488" 
d="M170.5 420.5q30.5 8.5 73.5 8.5q55 0 80.5 -31t25.5 -85v-27h-125q-79 0 -127 -39t-48 -109q0 -67 42.5 -109t123.5 -42q38 0 78 18.5t67 43.5l10 -49h59v335q0 47 -24 84t-67 58t-98 21q-33 0 -83.5 -12t-76.5 -30l23 -60q36 16 66.5 24.5zM149.5 205.5
q26.5 27.5 73.5 27.5h128v-110q-27 -32 -62.5 -52t-74.5 -20q-45 0 -68 26t-23 61q0 40 26.5 67.5zM241 589l53 15l-54 141h-87z" />
    <glyph glyph-name="aacute" unicode="&#xe1;" horiz-adv-x="488" 
d="M170.5 420.5q30.5 8.5 73.5 8.5q55 0 80.5 -31t25.5 -85v-27h-125q-79 0 -127 -39t-48 -109q0 -67 42.5 -109t123.5 -42q38 0 78 18.5t67 43.5l10 -49h59v335q0 47 -24 84t-67 58t-98 21q-33 0 -83.5 -12t-76.5 -30l23 -60q36 16 66.5 24.5zM149.5 205.5
q26.5 27.5 73.5 27.5h128v-110q-27 -32 -62.5 -52t-74.5 -20q-45 0 -68 26t-23 61q0 40 26.5 67.5zM242 589l88 156h-87l-54 -141z" />
    <glyph glyph-name="acircumflex" unicode="&#xe2;" horiz-adv-x="488" 
d="M170.5 420.5q30.5 8.5 73.5 8.5q55 0 80.5 -31t25.5 -85v-27h-125q-79 0 -127 -39t-48 -109q0 -67 42.5 -109t123.5 -42q38 0 78 18.5t67 43.5l10 -49h59v335q0 47 -24 84t-67 58t-98 21q-33 0 -83.5 -12t-76.5 -30l23 -60q36 16 66.5 24.5zM149.5 205.5
q26.5 27.5 73.5 27.5h128v-110q-27 -32 -62.5 -52t-74.5 -20q-45 0 -68 26t-23 61q0 40 26.5 67.5zM242 687l75 -98l72 10l-116 146h-63l-114 -146l71 -10z" />
    <glyph glyph-name="atilde" unicode="&#xe3;" horiz-adv-x="488" 
d="M170.5 420.5q30.5 8.5 73.5 8.5q55 0 80.5 -31t25.5 -85v-27h-125q-79 0 -127 -39t-48 -109q0 -67 42.5 -109t123.5 -42q38 0 78 18.5t67 43.5l10 -49h59v335q0 47 -24 84t-67 58t-98 21q-33 0 -83.5 -12t-76.5 -30l23 -60q36 16 66.5 24.5zM149.5 205.5
q26.5 27.5 73.5 27.5h128v-110q-27 -32 -62.5 -52t-74.5 -20q-45 0 -68 26t-23 61q0 40 26.5 67.5zM318 673.5q-10 -10.5 -24 -10.5q-26 0 -49 23q-22 21 -64 21q-89 0 -89 -98h55q1 19 12 30t25 11q25 0 51 -23q23 -22 59 -22q41 0 65.5 23t24.5 75h-55q-1 -19 -11 -29.5z
" />
    <glyph glyph-name="adieresis" unicode="&#xe4;" horiz-adv-x="488" 
d="M170.5 420.5q30.5 8.5 73.5 8.5q55 0 80.5 -31t25.5 -85v-27h-125q-79 0 -127 -39t-48 -109q0 -67 42.5 -109t123.5 -42q38 0 78 18.5t67 43.5l10 -49h59v335q0 47 -24 84t-67 58t-98 21q-33 0 -83.5 -12t-76.5 -30l23 -60q36 16 66.5 24.5zM149.5 205.5
q26.5 27.5 73.5 27.5h128v-110q-27 -32 -62.5 -52t-74.5 -20q-45 0 -68 26t-23 61q0 40 26.5 67.5zM189 628.5q14 14.5 14 34.5t-14 34t-35 14q-20 0 -34.5 -14.5t-14.5 -33.5q0 -20 14.5 -34.5t34.5 -14.5q21 0 35 14.5zM354 628.5q14 14.5 14 34.5t-14 34t-35 14
q-19 0 -33.5 -14t-14.5 -34t14 -34.5t34 -14.5q21 0 35 14.5z" />
    <glyph glyph-name="aring" unicode="&#xe5;" horiz-adv-x="488" 
d="M170.5 420.5q30.5 8.5 73.5 8.5q55 0 80.5 -31t25.5 -85v-27h-125q-79 0 -127 -39t-48 -109q0 -67 42.5 -109t123.5 -42q38 0 78 18.5t67 43.5l10 -49h59v335q0 47 -24 84t-67 58t-98 21q-33 0 -83.5 -12t-76.5 -30l23 -60q36 16 66.5 24.5zM149.5 205.5
q26.5 27.5 73.5 27.5h128v-110q-27 -32 -62.5 -52t-74.5 -20q-45 0 -68 26t-23 61q0 40 26.5 67.5zM178.5 742.5q-27.5 -25.5 -27.5 -63.5q0 -36 27.5 -60.5t66.5 -24.5q38 0 65 24.5t27 60.5q0 38 -27 63.5t-65 25.5q-39 0 -66.5 -25.5zM214.5 650q-12.5 12 -12.5 29
q0 19 12.5 31t30.5 12t30 -12t12 -31q0 -17 -12.5 -29t-29.5 -12q-18 0 -30.5 12z" />
    <glyph glyph-name="ae" unicode="&#xe6;" horiz-adv-x="815" 
d="M674 63.5q33 10.5 77 32.5l25 -58q-41 -23 -82 -36.5t-91 -13.5q-138 0 -204 87q-35 -38 -78 -63t-105 -25q-81 0 -123.5 42t-42.5 109q0 70 48 109t127 39h125v26q0 54 -25.5 85.5t-80.5 31.5q-43 0 -73.5 -8.5t-66.5 -24.5l-23 60q26 18 76.5 30t83.5 12q54 0 96 -20.5
t67 -55.5q29 37 72.5 57t98.5 20q106 0 156.5 -74t50.5 -194h-352q3 -82 44.5 -130t127.5 -48q39 0 72 10.5zM474.5 392.5q-35.5 -39.5 -42.5 -107.5h272q-17 147 -132 147q-62 0 -97.5 -39.5zM305.5 72.5q33.5 21.5 62.5 59.5q-17 44 -19 101h-126q-47 0 -73.5 -27.5
t-26.5 -67.5q0 -35 23 -61t68 -26q58 0 91.5 21.5z" />
    <glyph glyph-name="ccedilla" unicode="&#xe7;" horiz-adv-x="458" 
d="M364.5 4q-37.5 -11 -72.5 -15l-14 -37q32 -6 55 -30t23 -51q0 -45 -33.5 -68.5t-82.5 -23.5q-18 0 -41.5 6t-37.5 15l19 50q12 -5 29 -10t31 -5q20 0 36 9t16 25q0 19 -25.5 33t-63.5 18l27 69q-92 13 -144.5 81.5t-52.5 173.5q0 74 29.5 131.5t83.5 90t126 32.5
q33 0 80.5 -12.5t76.5 -31.5l-24 -56q-40 17 -66.5 25t-68.5 8q-72 0 -114 -52.5t-43 -133.5q0 -85 40 -138t113 -53q44 0 72 8t63 26l25 -57q-24 -16 -61.5 -27z" />
    <glyph glyph-name="egrave" unicode="&#xe8;" horiz-adv-x="499" 
d="M415.5 424q-50.5 74 -156.5 74q-70 0 -121.5 -32.5t-78 -90t-26.5 -131.5q0 -117 65 -187t189 -70q50 0 91 13.5t82 36.5l-25 58q-45 -22 -77.5 -32t-71.5 -10q-86 0 -127.5 47.5t-44.5 129.5h352q0 120 -50.5 194zM158.5 391.5q35.5 39.5 97.5 39.5q115 0 132 -147h-272
q7 68 42.5 107.5zM254 589l53 15l-54 141h-87z" />
    <glyph glyph-name="eacute" unicode="&#xe9;" horiz-adv-x="499" 
d="M415.5 424q-50.5 74 -156.5 74q-70 0 -121.5 -32.5t-78 -90t-26.5 -131.5q0 -117 65 -187t189 -70q50 0 91 13.5t82 36.5l-25 58q-45 -22 -77.5 -32t-71.5 -10q-86 0 -127.5 47.5t-44.5 129.5h352q0 120 -50.5 194zM158.5 391.5q35.5 39.5 97.5 39.5q115 0 132 -147h-272
q7 68 42.5 107.5zM255 589l88 156h-87l-54 -141z" />
    <glyph glyph-name="ecircumflex" unicode="&#xea;" horiz-adv-x="499" 
d="M415.5 424q-50.5 74 -156.5 74q-70 0 -121.5 -32.5t-78 -90t-26.5 -131.5q0 -117 65 -187t189 -70q50 0 91 13.5t82 36.5l-25 58q-45 -22 -77.5 -32t-71.5 -10q-86 0 -127.5 47.5t-44.5 129.5h352q0 120 -50.5 194zM158.5 391.5q35.5 39.5 97.5 39.5q115 0 132 -147h-272
q7 68 42.5 107.5zM255 687l75 -98l72 10l-116 146h-63l-114 -146l71 -10z" />
    <glyph glyph-name="edieresis" unicode="&#xeb;" horiz-adv-x="499" 
d="M415.5 424q-50.5 74 -156.5 74q-70 0 -121.5 -32.5t-78 -90t-26.5 -131.5q0 -117 65 -187t189 -70q50 0 91 13.5t82 36.5l-25 58q-45 -22 -77.5 -32t-71.5 -10q-86 0 -127.5 47.5t-44.5 129.5h352q0 120 -50.5 194zM158.5 391.5q35.5 39.5 97.5 39.5q115 0 132 -147h-272
q7 68 42.5 107.5zM202 628.5q14 14.5 14 34.5t-14 34t-35 14q-20 0 -34.5 -14.5t-14.5 -33.5q0 -20 14.5 -34.5t34.5 -14.5q21 0 35 14.5zM367 628.5q14 14.5 14 34.5t-14 34t-35 14q-19 0 -33.5 -14t-14.5 -34t14 -34.5t34 -14.5q21 0 35 14.5z" />
    <glyph glyph-name="igrave" unicode="&#xec;" horiz-adv-x="205" 
d="M143 0v485h-80v-485h80zM100 589l53 15l-54 141h-87z" />
    <glyph glyph-name="iacute" unicode="&#xed;" horiz-adv-x="205" 
d="M143 0v485h-80v-485h80zM101 589l88 156h-87l-54 -141z" />
    <glyph glyph-name="icircumflex" unicode="&#xee;" horiz-adv-x="205" 
d="M143 0v485h-80v-485h80zM101 687l75 -98l72 10l-116 146h-63l-114 -146l71 -10z" />
    <glyph glyph-name="idieresis" unicode="&#xef;" horiz-adv-x="205" 
d="M143 0v485h-80v-485h80zM48 628.5q14 14.5 14 34.5t-14 34t-35 14q-20 0 -34.5 -14.5t-14.5 -33.5q0 -20 14.5 -34.5t34.5 -14.5q21 0 35 14.5zM213 628.5q14 14.5 14 34.5t-14 34t-35 14q-19 0 -33.5 -14t-14.5 -34t14 -34.5t34 -14.5q21 0 35 14.5z" />
    <glyph glyph-name="eth" unicode="&#xf0;" horiz-adv-x="536" 
d="M455 474q49 -103 49 -228q0 -75 -28.5 -133.5t-83 -92t-130.5 -33.5q-70 0 -122 32.5t-79.5 91t-27.5 133.5q1 74 29.5 131.5t82.5 90t126 32.5q53 0 102 -27q-45 84 -135 147l-124 -63l-30 52l95 47q-35 19 -87 40l23 56q77 -28 134 -62l109 54l29 -49l-82 -42
q101 -74 150 -177zM380 106.5q42 52.5 43 133.5q0 74 -14 134q-55 57 -139 57q-72 0 -114 -52.5t-43 -133.5q0 -85 40 -138t113 -53q72 0 114 52.5z" />
    <glyph glyph-name="ntilde" unicode="&#xf1;" 
d="M142 344q35 38 80.5 63t81.5 25q47 0 67 -30t20 -84v-317h79v328q0 78 -37.5 124.5t-114.5 46.5q-46 0 -97 -24t-86 -60l-13 69h-59v-485h79v344zM349 673.5q-10 -10.5 -24 -10.5q-26 0 -49 23q-22 21 -64 21q-89 0 -89 -98h55q1 19 12 30t25 11q25 0 51 -23
q23 -22 59 -22q41 0 65.5 23t24.5 75h-55q-1 -19 -11 -29.5z" />
    <glyph glyph-name="ograve" unicode="&#xf2;" horiz-adv-x="536" 
d="M474.5 109.5q-29.5 -57.5 -84.5 -90t-128 -32.5q-70 0 -122 32.5t-79.5 91t-27.5 133.5q1 74 29.5 131.5t82.5 90t126 32.5q109 0 171 -69.5t62 -187.5q0 -74 -29.5 -131.5zM380 106.5q42 52.5 43 133.5q0 86 -40 138.5t-113 52.5q-72 0 -114 -52.5t-43 -133.5
q0 -85 40 -138t113 -53q72 0 114 52.5zM266 589l53 15l-54 141h-87z" />
    <glyph glyph-name="oacute" unicode="&#xf3;" horiz-adv-x="536" 
d="M474.5 109.5q-29.5 -57.5 -84.5 -90t-128 -32.5q-70 0 -122 32.5t-79.5 91t-27.5 133.5q1 74 29.5 131.5t82.5 90t126 32.5q109 0 171 -69.5t62 -187.5q0 -74 -29.5 -131.5zM380 106.5q42 52.5 43 133.5q0 86 -40 138.5t-113 52.5q-72 0 -114 -52.5t-43 -133.5
q0 -85 40 -138t113 -53q72 0 114 52.5zM267 589l88 156h-87l-54 -141z" />
    <glyph glyph-name="ocircumflex" unicode="&#xf4;" horiz-adv-x="536" 
d="M474.5 109.5q-29.5 -57.5 -84.5 -90t-128 -32.5q-70 0 -122 32.5t-79.5 91t-27.5 133.5q1 74 29.5 131.5t82.5 90t126 32.5q109 0 171 -69.5t62 -187.5q0 -74 -29.5 -131.5zM380 106.5q42 52.5 43 133.5q0 86 -40 138.5t-113 52.5q-72 0 -114 -52.5t-43 -133.5
q0 -85 40 -138t113 -53q72 0 114 52.5zM267 687l75 -98l72 10l-116 146h-63l-114 -146l71 -10z" />
    <glyph glyph-name="otilde" unicode="&#xf5;" horiz-adv-x="536" 
d="M474.5 109.5q-29.5 -57.5 -84.5 -90t-128 -32.5q-70 0 -122 32.5t-79.5 91t-27.5 133.5q1 74 29.5 131.5t82.5 90t126 32.5q109 0 171 -69.5t62 -187.5q0 -74 -29.5 -131.5zM380 106.5q42 52.5 43 133.5q0 86 -40 138.5t-113 52.5q-72 0 -114 -52.5t-43 -133.5
q0 -85 40 -138t113 -53q72 0 114 52.5zM343 673.5q-10 -10.5 -24 -10.5q-26 0 -49 23q-22 21 -64 21q-89 0 -89 -98h55q1 19 12 30t25 11q25 0 51 -23q23 -22 59 -22q41 0 65.5 23t24.5 75h-55q-1 -19 -11 -29.5z" />
    <glyph glyph-name="odieresis" unicode="&#xf6;" horiz-adv-x="536" 
d="M474.5 109.5q-29.5 -57.5 -84.5 -90t-128 -32.5q-70 0 -122 32.5t-79.5 91t-27.5 133.5q1 74 29.5 131.5t82.5 90t126 32.5q109 0 171 -69.5t62 -187.5q0 -74 -29.5 -131.5zM380 106.5q42 52.5 43 133.5q0 86 -40 138.5t-113 52.5q-72 0 -114 -52.5t-43 -133.5
q0 -85 40 -138t113 -53q72 0 114 52.5zM214 628.5q14 14.5 14 34.5t-14 34t-35 14q-20 0 -34.5 -14.5t-14.5 -33.5q0 -20 14.5 -34.5t34.5 -14.5q21 0 35 14.5zM379 628.5q14 14.5 14 34.5t-14 34t-35 14q-19 0 -33.5 -14t-14.5 -34t14 -34.5t34 -14.5q21 0 35 14.5z" />
    <glyph glyph-name="divide" unicode="&#xf7;" horiz-adv-x="500" 
d="M292.5 378.5q17.5 18.5 17.5 42.5q0 26 -17.5 44t-42.5 18q-26 0 -44 -18t-18 -44q0 -24 18 -42.5t44 -18.5q25 0 42.5 18.5zM462 305h-432l9 -63h431zM295 67.5q18 18.5 18 43.5t-18 43t-44 18q-25 0 -43 -17.5t-18 -43.5t18 -44t43 -18q26 0 44 18.5z" />
    <glyph glyph-name="oslash" unicode="&#xf8;" horiz-adv-x="543" 
d="M442 428.5q62 -69.5 62 -187.5q0 -74 -29.5 -131.5t-84.5 -90t-128 -32.5q-70 0 -122 32.5t-79.5 91t-27.5 133.5q1 74 29.5 131.5t82.5 90t126 32.5q109 0 171 -69.5zM156 378.5q-42 -52.5 -43 -133.5q0 -95 49 -149l169 323q-27 12 -61 12q-72 0 -114 -52.5zM380 106.5
q42 52.5 43 133.5q0 85 -37 135l-165 -315q21 -6 45 -6q72 0 114 52.5z" />
    <glyph glyph-name="ugrave" unicode="&#xf9;" 
d="M387 142q-35 -38 -80.5 -63t-81.5 -25q-47 0 -67 30t-20 84v317h-79v-328q0 -78 37.5 -124.5t114.5 -46.5q46 0 97 24t86 60l13 -70h59v486h-79v-344zM256 589l53 15l-54 141h-87z" />
    <glyph glyph-name="uacute" unicode="&#xfa;" 
d="M387 142q-35 -38 -80.5 -63t-81.5 -25q-47 0 -67 30t-20 84v317h-79v-328q0 -78 37.5 -124.5t114.5 -46.5q46 0 97 24t86 60l13 -70h59v486h-79v-344zM257 589l88 156h-87l-54 -141z" />
    <glyph glyph-name="ucircumflex" unicode="&#xfb;" 
d="M387 142q-35 -38 -80.5 -63t-81.5 -25q-47 0 -67 30t-20 84v317h-79v-328q0 -78 37.5 -124.5t114.5 -46.5q46 0 97 24t86 60l13 -70h59v486h-79v-344zM257 687l75 -98l72 10l-116 146h-63l-114 -146l71 -10z" />
    <glyph glyph-name="udieresis" unicode="&#xfc;" 
d="M387 142q-35 -38 -80.5 -63t-81.5 -25q-47 0 -67 30t-20 84v317h-79v-328q0 -78 37.5 -124.5t114.5 -46.5q46 0 97 24t86 60l13 -70h59v486h-79v-344zM204 628.5q14 14.5 14 34.5t-14 34t-35 14q-20 0 -34.5 -14.5t-14.5 -33.5q0 -20 14.5 -34.5t34.5 -14.5q21 0 35 14.5
zM369 628.5q14 14.5 14 34.5t-14 34t-35 14q-19 0 -33.5 -14t-14.5 -34t14 -34.5t34 -14.5q21 0 35 14.5z" />
    <glyph glyph-name="yacute" unicode="&#xfd;" horiz-adv-x="456" 
d="M126.5 -125.5q-22.5 -15.5 -69.5 -37.5l24 -57q53 11 93.5 43t57.5 77l214 585h-80l-139 -375l-147 390l-70 -30l180 -467l-30 -83q-11 -30 -33.5 -45.5zM221 589l88 156h-87l-54 -141z" />
    <glyph glyph-name="thorn" unicode="&#xfe;" horiz-adv-x="525" 
d="M430.5 427.5q61.5 -70.5 61.5 -186.5q0 -74 -28.5 -131.5t-81 -90t-123.5 -32.5q-53 0 -111 38v-233l-79 -11v915l79 10v-246q27 18 56.5 28t56.5 10q108 0 169.5 -70.5zM372 106q39 52 40 134q0 86 -38.5 138.5t-111.5 52.5q-36 0 -63 -11.5t-51 -34.5v-289
q24 -20 51 -31t62 -11q72 0 111 52z" />
    <glyph glyph-name="ydieresis" unicode="&#xff;" horiz-adv-x="456" 
d="M126.5 -125.5q-22.5 -15.5 -69.5 -37.5l24 -57q53 11 93.5 43t57.5 77l214 585h-80l-139 -375l-147 390l-70 -30l180 -467l-30 -83q-11 -30 -33.5 -45.5zM168 628.5q14 14.5 14 34.5t-14 34t-35 14q-20 0 -34.5 -14.5t-14.5 -33.5q0 -20 14.5 -34.5t34.5 -14.5
q21 0 35 14.5zM333 628.5q14 14.5 14 34.5t-14 34t-35 14q-19 0 -33.5 -14t-14.5 -34t14 -34.5t34 -14.5q21 0 35 14.5z" />
    <glyph glyph-name="Amacron" unicode="&#x100;" horiz-adv-x="609" 
d="M262 680l-252 -680h77l71 193h287l76 -200l78 13l-261 674h-76zM422 257h-242l119 319zM172 783h246l-8 63h-238v-63z" />
    <glyph glyph-name="amacron" unicode="&#x101;" horiz-adv-x="488" 
d="M170.5 420.5q30.5 8.5 73.5 8.5q55 0 80.5 -31t25.5 -85v-27h-125q-79 0 -127 -39t-48 -109q0 -67 42.5 -109t123.5 -42q38 0 78 18.5t67 43.5l10 -49h59v335q0 47 -24 84t-67 58t-98 21q-33 0 -83.5 -12t-76.5 -30l23 -60q36 16 66.5 24.5zM149.5 205.5
q26.5 27.5 73.5 27.5h128v-110q-27 -32 -62.5 -52t-74.5 -20q-45 0 -68 26t-23 61q0 40 26.5 67.5zM115 633h246l-7 63h-239v-63z" />
    <glyph glyph-name="Abreve" unicode="&#x102;" horiz-adv-x="609" 
d="M262 680l-252 -680h77l71 193h287l76 -200l78 13l-261 674h-76zM422 257h-242l119 319zM355 831.5q-21 -24.5 -57 -24.5t-56.5 24.5t-20.5 55.5h-57q0 -59 34 -98.5t100 -40.5q67 1 101 40.5t34 98.5h-57q0 -31 -21 -55.5z" />
    <glyph glyph-name="abreve" unicode="&#x103;" horiz-adv-x="488" 
d="M170.5 420.5q30.5 8.5 73.5 8.5q55 0 80.5 -31t25.5 -85v-27h-125q-79 0 -127 -39t-48 -109q0 -67 42.5 -109t123.5 -42q38 0 78 18.5t67 43.5l10 -49h59v335q0 47 -24 84t-67 58t-98 21q-33 0 -83.5 -12t-76.5 -30l23 -60q36 16 66.5 24.5zM149.5 205.5
q26.5 27.5 73.5 27.5h128v-110q-27 -32 -62.5 -52t-74.5 -20q-45 0 -68 26t-23 61q0 40 26.5 67.5zM298 681.5q-21 -24.5 -57 -24.5t-56.5 24.5t-20.5 55.5h-57q0 -59 34 -98.5t100 -40.5q67 1 101 40.5t34 98.5h-57q0 -31 -21 -55.5z" />
    <glyph glyph-name="Aogonek" unicode="&#x104;" horiz-adv-x="609" 
d="M663 -173q-34 -31 -85 -31q-47 0 -77 28t-30 72q0 24 13.5 53t34.5 50l-74 194h-287l-71 -193h-77l252 680h76l261 -674q-24 -18 -42 -48.5t-18 -55.5q0 -24 13 -35.5t34 -11.5q26 0 51 20zM180 257h242l-123 319z" />
    <glyph glyph-name="aogonek" unicode="&#x105;" horiz-adv-x="488" 
d="M494 -179q-33 -30 -85 -30q-47 0 -77 28t-30 72q0 30 18.5 63.5t47.5 59.5l-7 35q-27 -25 -67 -43.5t-78 -18.5q-81 0 -123.5 42t-42.5 109q0 70 48 109t127 39h125v27q0 54 -25.5 85t-80.5 31q-43 0 -73.5 -8.5t-66.5 -24.5l-23 60q26 18 76.5 30t83.5 12q55 0 98 -21
t67 -58t24 -84v-335q-24 -18 -42 -48.5t-18 -54.5t13 -35.5t34 -11.5q28 0 51 20zM351 233h-128q-47 0 -73.5 -27.5t-26.5 -67.5q0 -35 23 -61t68 -26q39 0 74.5 20t62.5 52v110z" />
    <glyph glyph-name="Cacute" unicode="&#x106;" horiz-adv-x="557" 
d="M452 683.5q-52 10.5 -89 10.5q-96 0 -169 -47t-112 -128.5t-39 -182.5q0 -96 36 -176t107 -127t171 -47q43 0 94.5 11.5t82.5 27.5l-30 60q-31 -14 -66.5 -22t-83.5 -8q-70 0 -122 37.5t-79 102t-27 142.5q0 83 31 149t85.5 103t120.5 37q47 0 76 -6.5t69 -21.5l25 57
q-29 18 -81 28.5zM370 739l88 156h-87l-54 -141z" />
    <glyph glyph-name="cacute" unicode="&#x107;" horiz-adv-x="458" 
d="M338 62q-28 -8 -72 -8q-73 0 -113 53t-40 138q1 81 43 133.5t114 52.5q42 0 68.5 -8t66.5 -25l24 56q-29 19 -76.5 31.5t-80.5 12.5q-72 0 -126 -32.5t-83.5 -90t-29.5 -131.5q0 -75 28 -133.5t81 -91t125 -32.5q33 0 81 12.5t78 31.5l-25 57q-35 -18 -63 -26zM254 589
l88 156h-87l-54 -141z" />
    <glyph glyph-name="Ccaron" unicode="&#x10c;" horiz-adv-x="557" 
d="M452 683.5q-52 10.5 -89 10.5q-96 0 -169 -47t-112 -128.5t-39 -182.5q0 -96 36 -176t107 -127t171 -47q43 0 94.5 11.5t82.5 27.5l-30 60q-31 -14 -66.5 -22t-83.5 -8q-70 0 -122 37.5t-79 102t-27 142.5q0 83 31 149t85.5 103t120.5 37q47 0 76 -6.5t69 -21.5l25 57
q-29 18 -81 28.5zM363 797l-75 98l-72 -10l116 -146h63l114 146l-71 10z" />
    <glyph glyph-name="ccaron" unicode="&#x10d;" horiz-adv-x="458" 
d="M338 62q-28 -8 -72 -8q-73 0 -113 53t-40 138q1 81 43 133.5t114 52.5q42 0 68.5 -8t66.5 -25l24 56q-29 19 -76.5 31.5t-80.5 12.5q-72 0 -126 -32.5t-83.5 -90t-29.5 -131.5q0 -75 28 -133.5t81 -91t125 -32.5q33 0 81 12.5t78 31.5l-25 57q-35 -18 -63 -26zM259 647
l-75 98l-72 -10l116 -146h63l114 146l-71 10z" />
    <glyph glyph-name="Dcaron" unicode="&#x10e;" horiz-adv-x="671" 
d="M490.5 45q68.5 45 103.5 122.5t35 176.5q0 150 -74 243t-224 93h-238v-680h232q97 0 165.5 45zM495.5 539q54.5 -74 54.5 -196q0 -85 -28 -147.5t-78.5 -96t-117.5 -33.5h-154v547h163q106 0 160.5 -74zM322 797l-75 98l-72 -10l116 -146h63l114 146l-71 10z" />
    <glyph glyph-name="dcaron" unicode="&#x10f;" horiz-adv-x="677" 
d="M630.5 694.5q16.5 -17.5 16.5 -45.5q0 -48 -30 -95.5t-72 -69.5l-21 37q27 19 41.5 38t17.5 45q-19 1 -32.5 17.5t-13.5 36.5q0 21 16.5 37.5t38.5 16.5t38.5 -17.5zM378 696l80 9v-705h-48l-15 37q-30 -24 -65 -37t-66 -13q-108 0 -169.5 70.5t-61.5 187.5
q0 74 28.5 131.5t81 89.5t123.5 32q26 0 55.5 -10t56.5 -27v235zM326.5 65.5q27.5 11.5 51.5 35.5v287q-48 43 -114 43q-72 0 -111 -51.5t-40 -133.5q0 -87 38.5 -139.5t111.5 -52.5q36 0 63.5 11.5z" />
    <glyph glyph-name="Dcroat" unicode="&#x110;" horiz-adv-x="671" 
d="M555 587q74 -93 74 -243q0 -99 -35 -176.5t-103.5 -122.5t-165.5 -45h-232v305h-64l-9 62h73v313h238q150 0 224 -93zM443.5 99.5q50.5 33.5 78.5 96t28 147.5q0 122 -54.5 196t-160.5 74h-163v-246h101l9 -62h-110v-239h154q67 0 117.5 33.5z" />
    <glyph glyph-name="dcroat" unicode="&#x111;" horiz-adv-x="530" 
d="M536 561h-78v-561h-48l-15 37q-30 -24 -65 -37t-66 -13q-108 0 -169.5 70.5t-61.5 187.5q0 74 28.5 131.5t81 89.5t123.5 32q26 0 55.5 -10t56.5 -27v100h-93l-9 57h102v78l80 9v-87h70zM326.5 65.5q27.5 11.5 51.5 35.5v287q-48 43 -114 43q-72 0 -111 -51.5t-40 -133.5
q0 -87 38.5 -139.5t111.5 -52.5q36 0 63.5 11.5z" />
    <glyph glyph-name="Emacron" unicode="&#x112;" horiz-adv-x="523" 
d="M503 0l-10 63h-321v255h244l-9 59h-235v244h301l-9 59h-371v-680h410zM160 783h246l-8 63h-238v-63z" />
    <glyph glyph-name="emacron" unicode="&#x113;" horiz-adv-x="499" 
d="M415.5 424q-50.5 74 -156.5 74q-70 0 -121.5 -32.5t-78 -90t-26.5 -131.5q0 -117 65 -187t189 -70q50 0 91 13.5t82 36.5l-25 58q-45 -22 -77.5 -32t-71.5 -10q-86 0 -127.5 47.5t-44.5 129.5h352q0 120 -50.5 194zM158.5 391.5q35.5 39.5 97.5 39.5q115 0 132 -147h-272
q7 68 42.5 107.5zM128 633h246l-7 63h-239v-63z" />
    <glyph glyph-name="Edotaccent" unicode="&#x116;" horiz-adv-x="523" 
d="M503 0l-10 63h-321v255h244l-9 59h-235v244h301l-9 59h-371v-680h410zM323.5 778q15.5 16 15.5 38t-15.5 38.5t-37.5 16.5t-38.5 -16.5t-16.5 -38.5t16 -38t39 -16q22 0 37.5 16z" />
    <glyph glyph-name="edotaccent" unicode="&#x117;" horiz-adv-x="499" 
d="M415.5 424q-50.5 74 -156.5 74q-70 0 -121.5 -32.5t-78 -90t-26.5 -131.5q0 -117 65 -187t189 -70q50 0 91 13.5t82 36.5l-25 58q-45 -22 -77.5 -32t-71.5 -10q-86 0 -127.5 47.5t-44.5 129.5h352q0 120 -50.5 194zM158.5 391.5q35.5 39.5 97.5 39.5q115 0 132 -147h-272
q7 68 42.5 107.5zM294.5 628q15.5 16 15.5 38t-15.5 38.5t-37.5 16.5t-38.5 -16.5t-16.5 -38.5t16 -38t39 -16q22 0 37.5 16z" />
    <glyph glyph-name="Eogonek" unicode="&#x118;" horiz-adv-x="523" 
d="M506 -177q-33 -30 -86 -30q-47 0 -77 28t-30 72q0 25 15 55.5t38 51.5h-273v680h371l9 -59h-301v-244h235l9 -59h-244v-255h321l10 -63h-65q-23 -18 -39.5 -47.5t-16.5 -53.5t13 -35.5t33 -11.5q27 0 52 20z" />
    <glyph glyph-name="eogonek" unicode="&#x119;" horiz-adv-x="499" 
d="M334.5 -48.5q-16.5 -29.5 -16.5 -52.5q0 -24 13 -35.5t33 -11.5q27 0 52 20l26 -49q-33 -30 -86 -30q-47 0 -77 28t-30 72q0 21 11 46.5t29 47.5h-2q-124 0 -189 70t-65 187q0 74 26.5 131.5t78 90t121.5 32.5q106 0 156.5 -74t50.5 -194h-352q3 -82 44.5 -129.5
t127.5 -47.5q39 0 71.5 10t77.5 32l25 -58q-46 -26 -87 -38q-22 -18 -38.5 -47.5zM158.5 391.5q-35.5 -39.5 -42.5 -107.5h272q-17 147 -132 147q-62 0 -97.5 -39.5z" />
    <glyph glyph-name="Ecaron" unicode="&#x11a;" horiz-adv-x="523" 
d="M503 0l-10 63h-321v255h244l-9 59h-235v244h301l-9 59h-371v-680h410zM287 797l-75 98l-72 -10l116 -146h63l114 146l-71 10z" />
    <glyph glyph-name="ecaron" unicode="&#x11b;" horiz-adv-x="499" 
d="M415.5 424q-50.5 74 -156.5 74q-70 0 -121.5 -32.5t-78 -90t-26.5 -131.5q0 -117 65 -187t189 -70q50 0 91 13.5t82 36.5l-25 58q-45 -22 -77.5 -32t-71.5 -10q-86 0 -127.5 47.5t-44.5 129.5h352q0 120 -50.5 194zM158.5 391.5q35.5 39.5 97.5 39.5q115 0 132 -147h-272
q7 68 42.5 107.5zM260 647l-75 98l-72 -10l116 -146h63l114 146l-71 10z" />
    <glyph glyph-name="Gbreve" unicode="&#x11e;" horiz-adv-x="627" 
d="M499 291v-216q-56 -20 -116 -20q-73 0 -131.5 34.5t-92 98.5t-33.5 149q0 89 37.5 154.5t99 100t132.5 34.5q46 0 75 -6.5t69 -21.5l25 57q-29 18 -81.5 28.5t-89.5 10.5q-98 0 -178 -45.5t-126 -127t-46 -185.5q0 -99 42 -178.5t119.5 -125.5t179.5 -46q50 0 104 13.5
t86 33.5l1 317h-219l-7 -59h150zM425 831.5q-21 -24.5 -57 -24.5t-56.5 24.5t-20.5 55.5h-57q0 -59 34 -98.5t100 -40.5q67 1 101 40.5t34 98.5h-57q0 -31 -21 -55.5z" />
    <glyph glyph-name="gbreve" unicode="&#x11f;" horiz-adv-x="526" 
d="M458 485v-538q0 -51 -26 -91t-76 -63t-117 -23q-34 0 -86.5 12.5t-82.5 31.5l24 58q39 -19 69.5 -28t72.5 -9q63 0 102.5 29t39.5 84v77q-27 -18 -57.5 -28t-56.5 -10q-108 0 -169.5 70.5t-61.5 187.5q0 74 28.5 131.5t81 89.5t123.5 32q30 0 64 -13t63 -35l17 35h48z
M326.5 65.5q27.5 11.5 51.5 35.5v287q-48 43 -114 43q-72 0 -111 -51.5t-40 -133.5q0 -87 38.5 -139.5t111.5 -52.5q36 0 63.5 11.5zM312 681.5q-21 -24.5 -57 -24.5t-56.5 24.5t-20.5 55.5h-57q0 -59 34 -98.5t100 -40.5q67 1 101 40.5t34 98.5h-57q0 -31 -21 -55.5z" />
    <glyph glyph-name="Gcommaaccent" unicode="&#x122;" horiz-adv-x="627" 
d="M499 291v-216q-56 -20 -116 -20q-73 0 -131.5 34.5t-92 98.5t-33.5 149q0 89 37.5 154.5t99 100t132.5 34.5q46 0 75 -6.5t69 -21.5l25 57q-29 18 -81.5 28.5t-89.5 10.5q-98 0 -178 -45.5t-126 -127t-46 -185.5q0 -99 42 -178.5t119.5 -125.5t179.5 -46q50 0 104 13.5
t86 33.5l1 317h-219l-7 -59h150zM347 -37.5q-16 -16.5 -16 -38.5q0 -20 13.5 -36t32.5 -17q-4 -41 -56 -73l21 -38q41 20 69.5 64.5t28.5 91.5q0 28 -16 45.5t-39 17.5q-22 0 -38 -16.5z" />
    <glyph glyph-name="gcommaaccent" unicode="&#x123;" horiz-adv-x="526" 
d="M224.5 577.5q-15.5 17.5 -15.5 46.5q0 47 28 90.5t69 64.5l21 -38q-51 -31 -56 -73q18 -2 32 -18t14 -35q0 -22 -16 -38.5t-38 -16.5q-23 0 -38.5 17.5zM458 485v-538q0 -51 -26 -91t-76 -63t-117 -23q-34 0 -86.5 12.5t-82.5 31.5l24 58q39 -19 69.5 -28t72.5 -9
q63 0 102.5 29t39.5 84v77q-27 -18 -57.5 -28t-56.5 -10q-108 0 -169.5 70.5t-61.5 187.5q0 74 28.5 131.5t81 89.5t123.5 32q30 0 64 -13t63 -35l17 35h48zM326.5 65.5q27.5 11.5 51.5 35.5v287q-48 43 -114 43q-72 0 -111 -51.5t-40 -133.5q0 -87 38.5 -139.5t111.5 -52.5
q36 0 63.5 11.5z" />
    <glyph glyph-name="Imacron" unicode="&#x12a;" horiz-adv-x="264" 
d="M172 0v680h-79v-680h79zM7 783h246l-8 63h-238v-63z" />
    <glyph glyph-name="imacron" unicode="&#x12b;" horiz-adv-x="205" 
d="M143 0v485h-80v-485h80zM-26 633h246l-7 63h-239v-63z" />
    <glyph glyph-name="Iogonek" unicode="&#x12e;" horiz-adv-x="264" 
d="M235 -179q-33 -30 -86 -30q-47 0 -77 28t-30 72q0 26 14 57.5t37 51.5v680h79v-680q-24 -18 -42.5 -48.5t-18.5 -54.5t13 -35.5t33 -11.5q27 0 52 20z" />
    <glyph glyph-name="iogonek" unicode="&#x12f;" horiz-adv-x="205" 
d="M64 628q-16 16 -16 38t16.5 38.5t38.5 16.5t37.5 -16.5t15.5 -38.5t-15.5 -38t-37.5 -16q-23 0 -39 16zM206 -179q-33 -30 -86 -30q-47 0 -77 28t-30 72q0 27 13.5 58t36.5 51v485h80v-485q-24 -18 -42.5 -48.5t-18.5 -54.5t13 -35.5t33 -11.5q27 0 52 20z" />
    <glyph glyph-name="Idotaccent" unicode="&#x130;" horiz-adv-x="264" 
d="M172 0v680h-79v-680h79zM170.5 778q15.5 16 15.5 38t-15.5 38.5t-37.5 16.5t-38.5 -16.5t-16.5 -38.5t16 -38t39 -16q22 0 37.5 16z" />
    <glyph glyph-name="dotlessi" unicode="&#x131;" horiz-adv-x="205" 
d="M143 0v485h-80v-485h80z" />
    <glyph glyph-name="Kcommaaccent" unicode="&#x136;" horiz-adv-x="609" 
d="M504 0l-255 327l-77 -81v-246h-79v680h79v-330l328 345l54 -47l-253 -265l298 -383h-95zM301 -37.5q-16 -16.5 -16 -38.5q0 -20 13.5 -36t32.5 -17q-4 -41 -56 -73l21 -38q41 20 69.5 64.5t28.5 91.5q0 28 -16 45.5t-39 17.5q-22 0 -38 -16.5z" />
    <glyph glyph-name="kcommaaccent" unicode="&#x137;" horiz-adv-x="472" 
d="M152 0v182l67 67l160 -249h93l-200 301l148 147l-48 50l-220 -221v429l-79 -10v-696h79zM226 -37.5q-16 -16.5 -16 -38.5q0 -20 13.5 -36t32.5 -17q-4 -41 -56 -73l21 -38q41 20 69.5 64.5t28.5 91.5q0 28 -16 45.5t-39 17.5q-22 0 -38 -16.5z" />
    <glyph glyph-name="Lacute" unicode="&#x139;" horiz-adv-x="506" 
d="M488 63h-316v617h-79v-680h403zM179 739l88 156h-87l-54 -141z" />
    <glyph glyph-name="lacute" unicode="&#x13a;" horiz-adv-x="224" 
d="M139 739l87 156h-86l-54 -141zM152 0v685l-79 -12v-673h79z" />
    <glyph glyph-name="Lcommaaccent" unicode="&#x13b;" horiz-adv-x="506" 
d="M488 63h-316v617h-79v-680h403zM307 -37.5q-16 -16.5 -16 -38.5q0 -20 13.5 -36t32.5 -17q-4 -41 -56 -73l21 -38q41 20 69.5 64.5t28.5 91.5q0 28 -16 45.5t-39 17.5q-22 0 -38 -16.5z" />
    <glyph glyph-name="lcommaaccent" unicode="&#x13c;" horiz-adv-x="224" 
d="M152 0v706l-79 -10v-696h79zM76 -37.5q-16 -16.5 -16 -38.5q0 -20 13.5 -36t32.5 -17q-4 -41 -56 -73l21 -38q41 20 69.5 64.5t28.5 91.5q0 28 -16 45.5t-39 17.5q-22 0 -38 -16.5z" />
    <glyph glyph-name="Lcaron" unicode="&#x13d;" horiz-adv-x="506" 
d="M488 63h-316v617h-79v-680h403zM358.5 695.5q-16.5 -16.5 -16.5 -37.5q0 -20 13.5 -36.5t32.5 -17.5q-3 -26 -17.5 -45t-41.5 -38l21 -37q42 22 72 69.5t30 95.5q0 28 -16.5 45.5t-38.5 17.5t-38.5 -16.5z" />
    <glyph glyph-name="lcaron" unicode="&#x13e;" horiz-adv-x="371" 
d="M247.5 695.5q-16.5 -16.5 -16.5 -37.5q0 -20 13.5 -36.5t32.5 -17.5q-3 -26 -17.5 -45t-41.5 -38l21 -37q42 22 72 69.5t30 95.5q0 28 -16.5 45.5t-38.5 17.5t-38.5 -16.5zM152 0v706l-79 -10v-696h79z" />
    <glyph glyph-name="Lslash" unicode="&#x141;" horiz-adv-x="501" 
d="M88 0v240l-38 -32l-35 52l73 61v359h79v-293l114 96l35 -51l-149 -126v-243h316l8 -63h-403z" />
    <glyph glyph-name="lslash" unicode="&#x142;" horiz-adv-x="299" 
d="M265 504l-75 -65v267l-79 -10v-322l-111 -93l35 -52l76 65v-294h79v359l109 94z" />
    <glyph glyph-name="Nacute" unicode="&#x143;" horiz-adv-x="700" 
d="M172 0v534l26 -45l346 -489h64v680h-80v-527l-41 67l-331 460h-63v-680h79zM359 739l88 156h-87l-54 -141z" />
    <glyph glyph-name="nacute" unicode="&#x144;" 
d="M142 344q35 38 80.5 63t81.5 25q47 0 67 -30t20 -84v-317h79v328q0 78 -37.5 124.5t-114.5 46.5q-46 0 -97 -24t-86 -60l-13 69h-59v-485h79v344zM273 589l88 156h-87l-54 -141z" />
    <glyph glyph-name="Ncommaaccent" unicode="&#x145;" horiz-adv-x="700" 
d="M172 0v534l26 -45l346 -489h64v680h-80v-527l-41 67l-331 460h-63v-680h79zM320 -37.5q-16 -16.5 -16 -38.5q0 -20 13.5 -36t32.5 -17q-4 -41 -56 -73l21 -38q41 20 69.5 64.5t28.5 91.5q0 28 -16 45.5t-39 17.5q-22 0 -38 -16.5z" />
    <glyph glyph-name="ncommaaccent" unicode="&#x146;" 
d="M142 344q35 38 80.5 63t81.5 25q47 0 67 -30t20 -84v-317h79v328q0 78 -37.5 124.5t-114.5 46.5q-46 0 -97 -24t-86 -60l-13 69h-59v-485h79v344zM237 -37.5q-16 -16.5 -16 -38.5q0 -20 13.5 -36t32.5 -17q-4 -41 -56 -73l21 -38q41 20 69.5 64.5t28.5 91.5
q0 28 -16 45.5t-39 17.5q-22 0 -38 -16.5z" />
    <glyph glyph-name="Ncaron" unicode="&#x147;" horiz-adv-x="700" 
d="M172 0v534l26 -45l346 -489h64v680h-80v-527l-41 67l-331 460h-63v-680h79zM352 797l-75 98l-72 -10l116 -146h63l114 146l-71 10z" />
    <glyph glyph-name="ncaron" unicode="&#x148;" 
d="M142 344q35 38 80.5 63t81.5 25q47 0 67 -30t20 -84v-317h79v328q0 78 -37.5 124.5t-114.5 46.5q-46 0 -97 -24t-86 -60l-13 69h-59v-485h79v344zM278 647l-75 98l-72 -10l116 -146h63l114 146l-71 10z" />
    <glyph glyph-name="Omacron" unicode="&#x14c;" horiz-adv-x="725" 
d="M199 647q-73 -47 -114.5 -128t-41.5 -182t41 -181t113 -125t163 -45q92 1 166 48t115.5 128.5t41.5 182.5t-41 181t-114 125t-164 45q-92 -2 -165 -49zM157 486.5q31 65.5 85.5 103t123.5 37.5q67 0 119.5 -36.5t82.5 -101t30 -145.5q0 -83 -31 -149t-85.5 -103
t-123.5 -37q-67 0 -119.5 36.5t-82.5 101t-30 145.5q0 83 31 148.5zM237 783h246l-8 63h-238v-63z" />
    <glyph glyph-name="omacron" unicode="&#x14d;" horiz-adv-x="536" 
d="M474.5 109.5q-29.5 -57.5 -84.5 -90t-128 -32.5q-70 0 -122 32.5t-79.5 91t-27.5 133.5q1 74 29.5 131.5t82.5 90t126 32.5q109 0 171 -69.5t62 -187.5q0 -74 -29.5 -131.5zM380 106.5q42 52.5 43 133.5q0 86 -40 138.5t-113 52.5q-72 0 -114 -52.5t-43 -133.5
q0 -85 40 -138t113 -53q72 0 114 52.5zM140 633h246l-7 63h-239v-63z" />
    <glyph glyph-name="Ohungarumlaut" unicode="&#x150;" horiz-adv-x="725" 
d="M199 647q-73 -47 -114.5 -128t-41.5 -182t41 -181t113 -125t163 -45q92 1 166 48t115.5 128.5t41.5 182.5t-41 181t-114 125t-164 45q-92 -2 -165 -49zM157 486.5q31 65.5 85.5 103t123.5 37.5q67 0 119.5 -36.5t82.5 -101t30 -145.5q0 -83 -31 -149t-85.5 -103
t-123.5 -37q-67 0 -119.5 36.5t-82.5 101t-30 145.5q0 83 31 148.5zM299 739l88 156h-87l-54 -141zM452 739l88 156h-87l-54 -141z" />
    <glyph glyph-name="ohungarumlaut" unicode="&#x151;" horiz-adv-x="536" 
d="M474.5 109.5q-29.5 -57.5 -84.5 -90t-128 -32.5q-70 0 -122 32.5t-79.5 91t-27.5 133.5q1 74 29.5 131.5t82.5 90t126 32.5q109 0 171 -69.5t62 -187.5q0 -74 -29.5 -131.5zM380 106.5q42 52.5 43 133.5q0 86 -40 138.5t-113 52.5q-72 0 -114 -52.5t-43 -133.5
q0 -85 40 -138t113 -53q72 0 114 52.5zM205 589l88 156h-87l-54 -141zM358 589l88 156h-87l-54 -141z" />
    <glyph glyph-name="OE" unicode="&#x152;" horiz-adv-x="932" 
d="M502 0v11q-32 -11 -72 -18t-73 -7q-100 0 -171 47t-107 127t-36 176q0 101 39 182.5t112 128.5t169 47q28 0 68 -6.5t71 -17.5v10h371l9 -59h-301v-244h235l9 -59h-244v-255h321l10 -63h-410zM435.5 62.5q34.5 7.5 66.5 21.5v516q-36 14 -65 20t-74 6q-66 0 -120.5 -37
t-85.5 -103t-31 -149q0 -78 27 -142.5t79 -102t122 -37.5q47 0 81.5 7.5z" />
    <glyph glyph-name="oe" unicode="&#x153;" horiz-adv-x="794" 
d="M652.5 63q32.5 10 77.5 32l25 -58q-41 -23 -82 -36.5t-91 -13.5q-97 0 -158 43q-30 -18 -77.5 -30.5t-79.5 -12.5q-72 0 -125 32.5t-81 91t-28 133.5q0 74 29.5 131.5t83.5 90t126 32.5q31 0 75.5 -11t74.5 -29q54 40 132 40q106 0 156.5 -74t50.5 -194h-352
q3 -82 44.5 -129.5t127.5 -47.5q39 0 71.5 10zM327 59.5q25 5.5 49 16.5q-48 66 -48 168q0 100 47 167q-51 20 -105 20q-72 0 -114 -52.5t-43 -133.5q0 -85 40 -138t113 -53q36 0 61 5.5zM453.5 391.5q-35.5 -39.5 -42.5 -107.5h272q-17 147 -132 147q-62 0 -97.5 -39.5z
" />
    <glyph glyph-name="Racute" unicode="&#x154;" horiz-adv-x="592" 
d="M93 0h79v279h96q35 0 71 4l156 -283h87l-173 304q55 23 87 67.5t33 110.5q0 102 -68 150t-183 48h-185v-680zM404 583.5q44 -29.5 44 -104.5q-1 -72 -49.5 -103.5t-127.5 -31.5h-99v269h107q81 0 125 -29.5zM286 739l88 156h-87l-54 -141z" />
    <glyph glyph-name="racute" unicode="&#x155;" horiz-adv-x="324" 
d="M142 334q34 35 83 61.5t89 26.5l-19 63q-35 0 -81 -25t-79 -53l-25 78h-47v-485h79v334zM161 589l88 156h-87l-54 -141z" />
    <glyph glyph-name="Rcommaaccent" unicode="&#x156;" horiz-adv-x="592" 
d="M93 0h79v279h96q35 0 71 4l156 -283h87l-173 304q55 23 87 67.5t33 110.5q0 102 -68 150t-183 48h-185v-680zM404 583.5q44 -29.5 44 -104.5q-1 -72 -49.5 -103.5t-127.5 -31.5h-99v269h107q81 0 125 -29.5zM289 -37.5q-16 -16.5 -16 -38.5q0 -20 13.5 -36t32.5 -17
q-4 -41 -56 -73l21 -38q41 20 69.5 64.5t28.5 91.5q0 28 -16 45.5t-39 17.5q-22 0 -38 -16.5z" />
    <glyph glyph-name="rcommaaccent" unicode="&#x157;" horiz-adv-x="324" 
d="M142 334q34 35 83 61.5t89 26.5l-19 63q-35 0 -81 -25t-79 -53l-25 78h-47v-485h79v334zM67 -37.5q-16 -16.5 -16 -38.5q0 -20 13.5 -36t32.5 -17q-4 -41 -56 -73l21 -38q41 20 69.5 64.5t28.5 91.5q0 28 -16 45.5t-39 17.5q-22 0 -38 -16.5z" />
    <glyph glyph-name="Rcaron" unicode="&#x158;" horiz-adv-x="592" 
d="M93 0h79v279h96q35 0 71 4l156 -283h87l-173 304q55 23 87 67.5t33 110.5q0 102 -68 150t-183 48h-185v-680zM404 583.5q44 -29.5 44 -104.5q-1 -72 -49.5 -103.5t-127.5 -31.5h-99v269h107q81 0 125 -29.5zM279 797l-75 98l-72 -10l116 -146h63l114 146l-71 10z" />
    <glyph glyph-name="rcaron" unicode="&#x159;" horiz-adv-x="324" 
d="M142 334q34 35 83 61.5t89 26.5l-19 63q-35 0 -81 -25t-79 -53l-25 78h-47v-485h79v334zM166 647l-75 98l-72 -10l116 -146h63l114 146l-71 10z" />
    <glyph glyph-name="Sacute" unicode="&#x15a;" horiz-adv-x="513" 
d="M139 1q58 -14 102 -14q74 0 128.5 23t83 63t28.5 92q0 48 -20 82.5t-58.5 61.5t-101.5 56q-70 32 -106 53t-55.5 46.5t-19.5 61.5q0 48 39.5 75t105.5 27q44 0 74.5 -9t67.5 -26l27 61q-35 18 -80.5 30t-93.5 12q-65 0 -114.5 -22.5t-76 -61.5t-26.5 -87q0 -68 43.5 -115
t136.5 -87q65 -28 102.5 -49.5t57.5 -48t20 -61.5q0 -49 -42.5 -79.5t-120.5 -30.5q-44 0 -89.5 12.5t-77.5 28.5l-19 -62q27 -18 85 -32zM267 739l88 156h-87l-54 -141z" />
    <glyph glyph-name="sacute" unicode="&#x15b;" horiz-adv-x="420" 
d="M112 -2q47 -11 81 -11q94 0 144.5 37t50.5 104q0 94 -163 154q-54 18 -83 37t-30 45q0 31 28.5 50.5t73.5 19.5q37 0 66 -9t62 -24l25 54q-26 19 -71.5 31t-79.5 12q-84 0 -132.5 -36.5t-48.5 -100.5q0 -53 44 -87t114 -57q120 -40 120 -94q0 -34 -32 -53t-87 -19
q-63 0 -131 34l-25 -57q27 -19 74 -30zM212 589l88 156h-87l-54 -141z" />
    <glyph glyph-name="Scedilla" unicode="&#x15e;" horiz-adv-x="513" 
d="M424 42.5q-57 -48.5 -158 -54.5l-14 -36q32 -6 55 -30t23 -51q0 -45 -33.5 -68.5t-82.5 -23.5q-18 0 -41.5 6t-37.5 15l19 50q12 -5 29 -10t31 -5q20 0 36 9t16 25q0 19 -25.5 33t-63.5 18l27 69q-43 5 -86 17.5t-64 26.5l19 62q32 -16 77.5 -28.5t89.5 -12.5
q78 0 120.5 30.5t42.5 79.5q0 35 -20 61.5t-57.5 48t-102.5 49.5q-93 40 -136.5 87t-43.5 115q0 48 26.5 87t76 61.5t114.5 22.5q48 0 93.5 -12t80.5 -30l-27 -61q-37 17 -67.5 26t-74.5 9q-66 0 -105.5 -27t-39.5 -75q0 -36 19.5 -61.5t55.5 -46.5t106 -53
q63 -29 101.5 -56t58.5 -61.5t20 -82.5q0 -74 -57 -122.5z" />
    <glyph glyph-name="scedilla" unicode="&#x15f;" horiz-adv-x="420" 
d="M344.5 30q-43.5 -37 -123.5 -42l-14 -36q32 -6 55 -30t23 -51q0 -45 -33.5 -68.5t-82.5 -23.5q-18 0 -41.5 6t-37.5 15l19 50q12 -5 29 -10t31 -5q20 0 36 9t16 25q0 19 -25.5 33t-63.5 18l27 69q-33 4 -66.5 14t-54.5 25l25 57q68 -34 131 -34q55 0 87 19t32 53
q0 54 -120 94q-70 23 -114 57t-44 87q0 64 48.5 100.5t132.5 36.5q34 0 79.5 -12t71.5 -31l-25 -54q-33 15 -62 24t-66 9q-45 0 -73.5 -19.5t-28.5 -50.5q1 -26 30 -45t83 -37q163 -60 163 -154q0 -61 -43.5 -98z" />
    <glyph glyph-name="Scaron" unicode="&#x160;" horiz-adv-x="513" 
d="M139 1q58 -14 102 -14q74 0 128.5 23t83 63t28.5 92q0 48 -20 82.5t-58.5 61.5t-101.5 56q-70 32 -106 53t-55.5 46.5t-19.5 61.5q0 48 39.5 75t105.5 27q44 0 74.5 -9t67.5 -26l27 61q-35 18 -80.5 30t-93.5 12q-65 0 -114.5 -22.5t-76 -61.5t-26.5 -87q0 -68 43.5 -115
t136.5 -87q65 -28 102.5 -49.5t57.5 -48t20 -61.5q0 -49 -42.5 -79.5t-120.5 -30.5q-44 0 -89.5 12.5t-77.5 28.5l-19 -62q27 -18 85 -32zM260 797l-75 98l-72 -10l116 -146h63l114 146l-71 10z" />
    <glyph glyph-name="scaron" unicode="&#x161;" horiz-adv-x="420" 
d="M112 -2q47 -11 81 -11q94 0 144.5 37t50.5 104q0 94 -163 154q-54 18 -83 37t-30 45q0 31 28.5 50.5t73.5 19.5q37 0 66 -9t62 -24l25 54q-26 19 -71.5 31t-79.5 12q-84 0 -132.5 -36.5t-48.5 -100.5q0 -53 44 -87t114 -57q120 -40 120 -94q0 -34 -32 -53t-87 -19
q-63 0 -131 34l-25 -57q27 -19 74 -30zM217 647l-75 98l-72 -10l116 -146h63l114 146l-71 10z" />
    <glyph glyph-name="Tcedilla" unicode="&#x162;" horiz-adv-x="563" 
d="M348 -78q23 -24 23 -51q0 -45 -33.5 -68.5t-82.5 -23.5q-18 0 -41.5 6t-37.5 15l19 50q12 -5 29 -10t31 -5q20 0 36 9t16 25q0 19 -25.5 33t-63.5 18l31 80h-11v618h-228v62h534l9 -62h-235v-618h-6l-19 -48q32 -6 55 -30z" />
    <glyph glyph-name="tcedilla" unicode="&#x163;" horiz-adv-x="320" 
d="M259 -78q23 -24 23 -51q0 -45 -33.5 -68.5t-82.5 -23.5q-18 0 -41.5 6t-37.5 15l19 50q12 -5 29 -10t31 -5q20 0 36 9t16 25q0 19 -25.5 33t-63.5 18l30 77q-34 15 -53 48t-19 81v291h-70l-1 60h71v124l79 22v-146h88l26 -60h-114v-280q0 -39 17 -61t52 -22q19 0 44 10
l18 -62q-36 -17 -74 -17h-6l-13 -33q32 -6 55 -30z" />
    <glyph glyph-name="Tcaron" unicode="&#x164;" horiz-adv-x="563" 
d="M544 680h-534v-62h228v-618h80v618h235zM280 797l-75 98l-72 -10l116 -146h63l114 146l-71 10z" />
    <glyph glyph-name="tcaron" unicode="&#x165;" horiz-adv-x="440" 
d="M316.5 695.5q-16.5 -16.5 -16.5 -37.5q0 -20 13.5 -36.5t32.5 -17.5q-3 -26 -17.5 -45t-41.5 -38l21 -37q42 22 72 69.5t30 95.5q0 28 -16.5 45.5t-38.5 17.5t-38.5 -16.5zM166 477v146l-79 -22v-124h-71l1 -60h70v-291q0 -68 36.5 -104.5t99.5 -36.5q38 0 74 17l-18 62
q-25 -10 -44 -10q-35 0 -52 22t-17 61v280h114l-26 60h-88z" />
    <glyph glyph-name="Umacron" unicode="&#x16a;" horiz-adv-x="682" 
d="M83 680v-439q0 -73 31.5 -130t90 -90t136.5 -33t136.5 32.5t90 90.5t31.5 130v439h-80v-430q0 -87 -48 -141t-130 -54q-81 0 -130 54t-49 141v430h-79zM214 783h246l-8 63h-238v-63z" />
    <glyph glyph-name="umacron" unicode="&#x16b;" 
d="M387 142q-35 -38 -80.5 -63t-81.5 -25q-47 0 -67 30t-20 84v317h-79v-328q0 -78 37.5 -124.5t114.5 -46.5q46 0 97 24t86 60l13 -70h59v486h-79v-344zM130 633h246l-7 63h-239v-63z" />
    <glyph glyph-name="Uring" unicode="&#x16e;" horiz-adv-x="682" 
d="M83 680v-439q0 -73 31.5 -130t90 -90t136.5 -33t136.5 32.5t90 90.5t31.5 130v439h-80v-430q0 -87 -48 -141t-130 -54q-81 0 -130 54t-49 141v430h-79zM274.5 892.5q-27.5 -25.5 -27.5 -63.5q0 -36 27.5 -60.5t66.5 -24.5q38 0 65 24.5t27 60.5q0 38 -27 63.5t-65 25.5
q-39 0 -66.5 -25.5zM310.5 800q-12.5 12 -12.5 29q0 19 12.5 31t30.5 12t30 -12t12 -31q0 -17 -12.5 -29t-29.5 -12q-18 0 -30.5 12z" />
    <glyph glyph-name="uring" unicode="&#x16f;" 
d="M387 142q-35 -38 -80.5 -63t-81.5 -25q-47 0 -67 30t-20 84v317h-79v-328q0 -78 37.5 -124.5t114.5 -46.5q46 0 97 24t86 60l13 -70h59v486h-79v-344zM193.5 742.5q-27.5 -25.5 -27.5 -63.5q0 -36 27.5 -60.5t66.5 -24.5q38 0 65 24.5t27 60.5q0 38 -27 63.5t-65 25.5
q-39 0 -66.5 -25.5zM229.5 650q-12.5 12 -12.5 29q0 19 12.5 31t30.5 12t30 -12t12 -31q0 -17 -12.5 -29t-29.5 -12q-18 0 -30.5 12z" />
    <glyph glyph-name="Uhungarumlaut" unicode="&#x170;" horiz-adv-x="682" 
d="M83 680v-439q0 -73 31.5 -130t90 -90t136.5 -33t136.5 32.5t90 90.5t31.5 130v439h-80v-430q0 -87 -48 -141t-130 -54q-81 0 -130 54t-49 141v430h-79zM276 739l88 156h-87l-54 -141zM429 739l88 156h-87l-54 -141z" />
    <glyph glyph-name="uhungarumlaut" unicode="&#x171;" 
d="M387 142q-35 -38 -80.5 -63t-81.5 -25q-47 0 -67 30t-20 84v317h-79v-328q0 -78 37.5 -124.5t114.5 -46.5q46 0 97 24t86 60l13 -70h59v486h-79v-344zM195 589l88 156h-87l-54 -141zM348 589l88 156h-87l-54 -141z" />
    <glyph glyph-name="Uogonek" unicode="&#x172;" horiz-adv-x="682" 
d="M599 680v-439q0 -69 -28.5 -124.5t-81.5 -89t-124 -38.5q-19 -19 -31.5 -44.5t-12.5 -45.5q0 -24 13 -35.5t33 -11.5q27 0 52 20l26 -49q-33 -30 -86 -30q-47 0 -77 28t-30 72q0 22 12.5 49.5t31.5 48.5q-98 14 -155.5 82t-57.5 168v439h79v-430q0 -87 49 -141t130 -54
q82 0 130 54t48 141v430h80z" />
    <glyph glyph-name="uogonek" unicode="&#x173;" 
d="M531 -179q-33 -30 -86 -30q-47 0 -77 28t-30 72q0 30 19 63t48 59l-11 57q-35 -36 -86 -60t-97 -24q-77 0 -114.5 46.5t-37.5 124.5v328h79v-317q0 -54 20 -84t67 -30q36 0 81.5 25t80.5 63v344h79v-486q-24 -17 -41.5 -48t-17.5 -55t13 -35.5t33 -11.5q27 0 52 20z" />
    <glyph glyph-name="Ydieresis" unicode="&#x178;" horiz-adv-x="563" 
d="M314 0l1 277l238 403h-85l-193 -329l-191 345l-74 -32l225 -391v-273h79zM223 778.5q14 14.5 14 34.5t-14 34t-35 14q-20 0 -34.5 -14.5t-14.5 -33.5q0 -20 14.5 -34.5t34.5 -14.5q21 0 35 14.5zM388 778.5q14 14.5 14 34.5t-14 34t-35 14q-19 0 -33.5 -14t-14.5 -34
t14 -34.5t34 -14.5q21 0 35 14.5z" />
    <glyph glyph-name="Zacute" unicode="&#x179;" horiz-adv-x="562" 
d="M523 63h-413l429 555l-7 62h-482l12 -62h389l-428 -555l8 -63h499zM305 739l88 156h-87l-54 -141z" />
    <glyph glyph-name="zacute" unicode="&#x17a;" horiz-adv-x="433" 
d="M408 485h-363l19 -63h246l-289 -381l10 -41h379l-10 62h-282l294 381zM223 589l88 156h-87l-54 -141z" />
    <glyph glyph-name="Zdotaccent" unicode="&#x17b;" horiz-adv-x="562" 
d="M523 63h-413l429 555l-7 62h-482l12 -62h389l-428 -555l8 -63h499zM334.5 778q15.5 16 15.5 38t-15.5 38.5t-37.5 16.5t-38.5 -16.5t-16.5 -38.5t16 -38t39 -16q22 0 37.5 16z" />
    <glyph glyph-name="zdotaccent" unicode="&#x17c;" horiz-adv-x="433" 
d="M408 485h-363l19 -63h246l-289 -381l10 -41h379l-10 62h-282l294 381zM262.5 628q15.5 16 15.5 38t-15.5 38.5t-37.5 16.5t-38.5 -16.5t-16.5 -38.5t16 -38t39 -16q22 0 37.5 16z" />
    <glyph glyph-name="Zcaron" unicode="&#x17d;" horiz-adv-x="562" 
d="M523 63h-413l429 555l-7 62h-482l12 -62h389l-428 -555l8 -63h499zM298 797l-75 98l-72 -10l116 -146h63l114 146l-71 10z" />
    <glyph glyph-name="zcaron" unicode="&#x17e;" horiz-adv-x="433" 
d="M408 485h-363l19 -63h246l-289 -381l10 -41h379l-10 62h-282l294 381zM228 647l-75 98l-72 -10l116 -146h63l114 146l-71 10z" />
    <glyph glyph-name="florin" unicode="&#x192;" horiz-adv-x="340" 
d="M58 415h72v-342q0 -83 -68 -83q-10 0 -23 3t-21 7l-18 -63q12 -7 33.5 -12t41.5 -5q62 0 98 40.5t36 108.5v346h115l-26 60h-89v73q0 39 16.5 61t51.5 22q10 0 23 -3t22 -7l18 64q-12 7 -33 12t-41 5q-63 0 -99.5 -40.5t-36.5 -108.5v-78h-73z" />
    <glyph glyph-name="Scommaaccent" unicode="&#x218;" horiz-adv-x="513" 
d="M139 1q58 -14 102 -14q74 0 128.5 23t83 63t28.5 92q0 48 -20 82.5t-58.5 61.5t-101.5 56q-70 32 -106 53t-55.5 46.5t-19.5 61.5q0 48 39.5 75t105.5 27q44 0 74.5 -9t67.5 -26l27 61q-35 18 -80.5 30t-93.5 12q-65 0 -114.5 -22.5t-76 -61.5t-26.5 -87q0 -68 43.5 -115
t136.5 -87q65 -28 102.5 -49.5t57.5 -48t20 -61.5q0 -49 -42.5 -79.5t-120.5 -30.5q-44 0 -89.5 12.5t-77.5 28.5l-19 -62q27 -18 85 -32zM204 -37.5q-16 -16.5 -16 -38.5q0 -20 13.5 -36t32.5 -17q-4 -41 -56 -73l21 -38q41 20 69.5 64.5t28.5 91.5q0 28 -16 45.5t-39 17.5
q-22 0 -38 -16.5z" />
    <glyph glyph-name="scommaaccent" unicode="&#x219;" horiz-adv-x="420" 
d="M112 -2q47 -11 81 -11q94 0 144.5 37t50.5 104q0 94 -163 154q-54 18 -83 37t-30 45q0 31 28.5 50.5t73.5 19.5q37 0 66 -9t62 -24l25 54q-26 19 -71.5 31t-79.5 12q-84 0 -132.5 -36.5t-48.5 -100.5q0 -53 44 -87t114 -57q120 -40 120 -94q0 -34 -32 -53t-87 -19
q-63 0 -131 34l-25 -57q27 -19 74 -30zM159 -37.5q-16 -16.5 -16 -38.5q0 -20 13.5 -36t32.5 -17q-4 -41 -56 -73l21 -38q41 20 69.5 64.5t28.5 91.5q0 28 -16 45.5t-39 17.5q-22 0 -38 -16.5z" />
    <glyph glyph-name="Tcommaaccent" unicode="&#x21a;" horiz-adv-x="563" 
d="M544 680h-534v-62h228v-618h80v618h235zM245 -37.5q-16 -16.5 -16 -38.5q0 -20 13.5 -36t32.5 -17q-4 -41 -56 -73l21 -38q41 20 69.5 64.5t28.5 91.5q0 28 -16 45.5t-39 17.5q-22 0 -38 -16.5z" />
    <glyph glyph-name="tcommaaccent" unicode="&#x21b;" horiz-adv-x="320" 
d="M166 477v146l-79 -22v-124h-71l1 -60h70v-291q0 -68 36.5 -104.5t99.5 -36.5q38 0 74 17l-18 62q-25 -10 -44 -10q-35 0 -52 22t-17 61v280h114l-26 60h-88zM156 -37.5q-16 -16.5 -16 -38.5q0 -20 13.5 -36t32.5 -17q-4 -41 -56 -73l21 -38q41 20 69.5 64.5t28.5 91.5
q0 28 -16 45.5t-39 17.5q-22 0 -38 -16.5z" />
    <glyph glyph-name="circumflex" unicode="&#x2c6;" horiz-adv-x="313" 
d="M156 687l75 -98l72 10l-116 146h-63l-114 -146l71 -10z" />
    <glyph glyph-name="caron" unicode="&#x2c7;" horiz-adv-x="313" 
d="M157 647l-75 98l-72 -10l116 -146h63l114 146l-71 10z" />
    <glyph glyph-name="uni02C9" unicode="&#x2c9;" horiz-adv-x="266" 
d="M10 633h246l-7 63h-239v-63z" />
    <glyph glyph-name="breve" unicode="&#x2d8;" horiz-adv-x="289" 
d="M201 681.5q-21 -24.5 -57 -24.5t-56.5 24.5t-20.5 55.5h-57q0 -59 34 -98.5t100 -40.5q67 1 101 40.5t34 98.5h-57q0 -31 -21 -55.5z" />
    <glyph glyph-name="dotaccent" unicode="&#x2d9;" horiz-adv-x="128" 
d="M102.5 628q15.5 16 15.5 38t-15.5 38.5t-37.5 16.5t-38.5 -16.5t-16.5 -38.5t16 -38t39 -16q22 0 37.5 16z" />
    <glyph glyph-name="ring" unicode="&#x2da;" horiz-adv-x="206" 
d="M37.5 742.5q-27.5 -25.5 -27.5 -63.5q0 -36 27.5 -60.5t66.5 -24.5q38 0 65 24.5t27 60.5q0 38 -27 63.5t-65 25.5q-39 0 -66.5 -25.5zM73.5 650q-12.5 12 -12.5 29q0 19 12.5 31t30.5 12t30 -12t12 -31q0 -17 -12.5 -29t-29.5 -12q-18 0 -30.5 12z" />
    <glyph glyph-name="ogonek" unicode="&#x2db;" horiz-adv-x="213" 
d="M26.5 -49q-16.5 -32 -16.5 -58q0 -44 30 -72t77 -28q53 0 86 30l-26 49q-25 -20 -52 -20q-20 0 -33 11.5t-13 35.5t17.5 55t41.5 48l-71 2q-24 -21 -40.5 -53z" />
    <glyph glyph-name="tilde" unicode="&#x2dc;" horiz-adv-x="314" 
d="M236 673.5q-10 -10.5 -24 -10.5q-26 0 -49 23q-22 21 -64 21q-89 0 -89 -98h55q1 19 12 30t25 11q25 0 51 -23q23 -22 59 -22q41 0 65.5 23t24.5 75h-55q-1 -19 -11 -29.5z" />
    <glyph glyph-name="hungarumlaut" unicode="&#x2dd;" horiz-adv-x="314" 
d="M63 589l88 156h-87l-54 -141zM216 589l88 156h-87l-54 -141z" />
    <glyph glyph-name="pi" unicode="&#x3c0;" horiz-adv-x="594" 
d="M188 0v422h218v-422h79v422h99v63h-574v-63h98v-422h80z" />
    <glyph glyph-name="tm_Anusvara" unicode="&#xb82;" horiz-adv-x="0" 
d="M82.5 660.5q34.5 31.5 34.5 78.5q0 48 -34.5 79.5t-82.5 31.5t-82 -31.5t-34 -79.5q0 -47 34.5 -78.5t81.5 -31.5q48 0 82.5 31.5zM-41 699.5q-16 15.5 -16 39.5q0 25 16 41t41 16t41 -16t16 -41q0 -24 -16 -39.5t-41 -15.5t-41 15.5z" />
    <glyph glyph-name="tm_Visarga" unicode="&#xb83;" horiz-adv-x="680" 
d="M422 338q34 31 34 78q0 48 -34 79.5t-82 31.5q-47 0 -81.5 -31.5t-34.5 -79.5q0 -47 34 -78t82 -31t82 31zM300 376.5q-16 15.5 -16 39.5q0 25 16 41t40 16q25 0 41 -16t16 -41q0 -24 -16 -39.5t-41 -15.5q-24 0 -40 15.5zM250.5 17.5q34.5 31.5 34.5 78.5
q0 48 -34.5 79.5t-82.5 31.5q-47 0 -81 -31.5t-34 -79.5q0 -47 34 -78.5t81 -31.5q48 0 82.5 31.5zM593.5 17.5q34.5 31.5 34.5 78.5q0 48 -34.5 79.5t-82.5 31.5q-47 0 -81.5 -31.5t-34.5 -79.5q0 -47 34.5 -78.5t81.5 -31.5q48 0 82.5 31.5zM128 56.5q-16 15.5 -16 39.5
q0 25 16 41t41 16q24 0 40.5 -16t16.5 -41q0 -24 -16.5 -39.5t-40.5 -15.5q-25 0 -41 15.5zM471 56.5q-16 15.5 -16 39.5q0 25 16 41t41 16q24 0 40 -16t16 -41q0 -24 -16 -39.5t-40 -15.5q-25 0 -41 15.5z" />
    <glyph glyph-name="tm_A" unicode="&#xb85;" horiz-adv-x="1068" 
d="M975 513v-639h-71v195h-187q-48 -99 -150 -156t-238 -57q-86 0 -153.5 22t-105 61t-37.5 87q0 45 31 72t88 27h507q17 49 17 105q0 69 -25.5 123t-73.5 85t-113 31q-58 0 -102 -22q51 -3 83.5 -35t32.5 -81q0 -53 -36 -87.5t-92 -34.5t-93.5 34t-37.5 86q0 57 32.5 103.5
t88.5 72.5t124 26q86 0 151.5 -38.5t101 -107t35.5 -155.5q0 -54 -14 -105h166v388h71zM393.5 373q-17.5 17 -44.5 17t-45 -17t-18 -44q0 -26 17.5 -43.5t44.5 -17.5q28 0 45.5 17.5t17.5 43.5q0 27 -17.5 44zM510.5 -42q78.5 40 122.5 111h-479q-46 0 -46 -43q0 -28 28 -53
t78.5 -40t114.5 -15q103 0 181.5 40z" />
    <glyph glyph-name="tm_Aa" unicode="&#xb86;" horiz-adv-x="1274" 
d="M1216.5 49q47.5 -49 47.5 -128q0 -86 -48 -153.5t-134 -106t-195 -38.5q-66 0 -118.5 18.5t-82 51.5t-29.5 75q0 51 37 83t96 32h21v-56h-21q-26 0 -42 -16.5t-16 -42.5q0 -36 43.5 -60t111.5 -24q87 0 155.5 30.5t107 84.5t38.5 122q0 49 -27.5 82t-74.5 33
q-49 0 -80 -34.5t-31 -87.5v-40h-71v195h-187q-48 -99 -150 -156t-238 -57q-86 0 -153.5 22t-105 61t-37.5 87q0 45 31 72t88 27h507q17 49 17 105q0 69 -25.5 123t-73.5 85t-113 31q-58 0 -102 -22q51 -3 83.5 -35t32.5 -81q0 -53 -36 -87.5t-92 -34.5t-93.5 34t-37.5 86
q0 57 32.5 103.5t88.5 72.5t124 26q86 0 151.5 -38.5t101 -107t35.5 -155.5q0 -54 -14 -105h166v388h71v-463q46 48 116 48q78 0 125.5 -49zM393.5 373q-17.5 17 -44.5 17t-45 -17t-18 -44q0 -26 17.5 -43.5t44.5 -17.5q28 0 45.5 17.5t17.5 43.5q0 27 -17.5 44zM510.5 -42
q78.5 40 122.5 111h-479q-46 0 -46 -43q0 -28 28 -53t78.5 -40t114.5 -15q103 0 181.5 40z" />
    <glyph glyph-name="tm_I" unicode="&#xb87;" horiz-adv-x="1042" 
d="M748.5 664.5q93.5 -46.5 147 -129.5t53.5 -190v-493h-71v491q0 90 -44 159.5t-121 108t-174 38.5q-103 0 -183.5 -37.5t-125.5 -107.5t-45 -164q0 -113 54 -216q87 28 187 28q86 0 159 -24q52 91 52 183q0 70 -39.5 114t-108.5 44q-57 0 -99 -22h5q54 0 89 -33t35 -83
q0 -53 -36 -87.5t-92 -34.5q-57 0 -94 34t-37 86q0 58 28.5 104t80.5 72t120 26q67 0 117.5 -28t78 -78t27.5 -114q0 -102 -61 -210q64 -33 101.5 -81t37.5 -106q0 -51 -40.5 -81.5t-107.5 -30.5q-121 0 -237 62q-116 -62 -225 -62q-66 0 -106.5 30.5t-40.5 81.5
q0 56 37 103t103 80q-63 115 -63 243q0 111 55 195t153 130t221 46q116 0 209.5 -46.5zM438 376.5q-19 18.5 -48 18.5t-48.5 -18.5t-19.5 -47.5t19 -47.5t48 -18.5q30 0 49 18.5t19 47.5t-19 47.5zM273 69q53 -77 133 -130q83 55 143 134q-57 18 -123 18q-81 0 -153 -22z
M688 -12.5q-27 34.5 -73 59.5q-63 -83 -147 -143q85 -40 174 -40q34 0 53.5 13.5t19.5 36.5q0 39 -27 73.5zM343 -97q-79 57 -137 139q-46 -25 -72 -57.5t-26 -70.5q0 -23 19 -36.5t53 -13.5q80 0 163 39z" />
    <glyph glyph-name="tm_Ii" unicode="&#xb88;" horiz-adv-x="753" 
d="M500 0h-71v457h-266v-457h-70v513h641l9 -56h-243v-457zM330.5 190q14.5 14 14.5 35q0 19 -14.5 33.5t-34.5 14.5t-34 -14t-14 -34q0 -21 14 -35t34 -14t34.5 14zM666.5 190q14.5 14 14.5 35q0 20 -14.5 34t-34.5 14t-33.5 -14t-13.5 -34q0 -21 13.5 -35t33.5 -14
t34.5 14z" />
    <glyph glyph-name="tm_U" unicode="&#xb89;" horiz-adv-x="986" 
d="M976 57v-57h-898v57h228q64 0 115 27.5t80 77t29 111.5q0 56 -26.5 100.5t-74.5 70t-109 25.5q-53 0 -96 -17t-72 -47q22 5 41 5q67 0 110.5 -40t43.5 -101q0 -62 -43.5 -102.5t-110.5 -40.5q-70 0 -115 41.5t-45 106.5q0 74 37 132.5t102.5 91.5t147.5 33
q83 0 148 -33.5t101 -92t36 -132.5q0 -69 -29 -125t-83 -91h483zM127 331.5q-25 -23.5 -25 -59.5q0 -38 25 -63t65 -25q38 0 62 24.5t24 61.5t-24.5 61t-61.5 24q-40 0 -65 -23.5z" />
    <glyph glyph-name="tm_Uu" unicode="&#xb8a;" horiz-adv-x="1640" 
d="M1630 57v-57h-1552v57h228q64 0 115 27.5t80 77t29 111.5q0 56 -26.5 100.5t-74.5 70t-109 25.5q-53 0 -96 -17t-72 -47q22 5 41 5q67 0 110.5 -40t43.5 -101q0 -62 -43.5 -102.5t-110.5 -40.5q-70 0 -115 41.5t-45 106.5q0 74 37 132.5t102.5 91.5t147.5 33
q83 0 148 -33.5t101 -92t36 -132.5q0 -70 -29.5 -126t-84.5 -90h1139zM795 124q-52 26 -81 72.5t-29 104.5q0 64 32.5 116.5t90.5 82t131 29.5q59 0 108 -22.5t82 -63.5v70h446l8 -56h-129v-342h-71v342h-183v-342h-71v178q0 49 -24.5 88.5t-68 62.5t-97.5 23
q-53 0 -94.5 -22t-64.5 -59.5t-23 -84.5q0 -56 30 -94q-2 12 -2 19q0 56 36.5 91.5t93.5 35.5q60 0 99 -35.5t39 -91.5q0 -55 -40 -91.5t-101 -36.5q-65 0 -117 26zM127 331.5q-25 -23.5 -25 -59.5q0 -38 25 -63t65 -25q38 0 62 24.5t24 61.5t-24.5 61t-61.5 24
q-40 0 -65 -23.5zM862 278.5q-21 -20.5 -21 -52.5t21 -53t53 -21t53 21t21 53t-21 52.5t-53 20.5t-53 -20.5z" />
    <glyph glyph-name="tm_E" unicode="&#xb8e;" horiz-adv-x="866" 
d="M856 457h-188v-457h-72v457h-207q-131 0 -196 -59t-65 -161q0 -88 50 -141q-8 24 -8 46q0 46 21 82.5t58.5 57t83.5 20.5q49 0 88.5 -20.5t61.5 -57t22 -82.5q0 -45 -22.5 -81.5t-62.5 -57.5t-90 -21q-85 0 -147.5 33.5t-96 91.5t-33.5 130q0 82 36.5 144t110 97
t180.5 35h468zM259 216q-29 -29 -29 -74t29 -74t74 -29t74.5 29t29.5 74t-29.5 74t-74.5 29t-74 -29z" />
    <glyph glyph-name="tm_Ee" unicode="&#xb8f;" horiz-adv-x="866" 
d="M856 457h-188v-440q0 -62 -13 -94t-56 -47l-344 -126l-28 52l318 120q32 11 41.5 35t9.5 76v424h-207q-131 0 -196 -59t-65 -161q0 -88 50 -141q-8 24 -8 46q0 46 21 82.5t58.5 57t83.5 20.5q49 0 88.5 -20.5t61.5 -57t22 -82.5q0 -45 -22.5 -81.5t-62.5 -57.5t-90 -21
q-85 0 -147.5 33.5t-96 91.5t-33.5 130q0 82 36.5 144t110 97t180.5 35h468zM259 216q-29 -29 -29 -74t29 -74t74 -29t74.5 29t29.5 74t-29.5 74t-74.5 29t-74 -29z" />
    <glyph glyph-name="tm_Ai" unicode="&#xb90;" horiz-adv-x="826" 
d="M721 101q20 -39 29 -72t9 -70q0 -47 -23.5 -84.5t-64.5 -58.5t-92 -21q-53 0 -94 21.5t-66 59.5q-26 -38 -69 -59.5t-99 -21.5q-57 0 -102 22.5t-70.5 63t-25.5 91.5q0 86 63.5 138.5t206.5 71.5l180 24q98 14 146 53.5t49 97.5q0 49 -29 80.5t-76 31.5q-53 0 -88.5 -36
t-35.5 -90v-69h-71v69q0 54 -38.5 90t-96.5 36q-60 0 -99 -34h8q47 0 77 -27.5t30 -70.5q0 -45 -30.5 -74.5t-77.5 -29.5q-48 0 -79.5 30t-31.5 77q0 53 26 96.5t72.5 69t104.5 25.5q108 0 169 -88q60 88 161 88q53 0 94 -22t63.5 -61.5t22.5 -90.5q0 -82 -67 -138t-203 -74
l-180 -25q-105 -14 -150 -51t-45 -99q0 -49 35 -81.5t88 -32.5q57 0 94.5 36.5t37.5 90.5v69h71v-69q0 -54 35.5 -90.5t89.5 -36.5q49 0 77 30t28 75q0 27 -9.5 64.5t-25.5 69.5zM135 370q-15 -14 -15 -36q0 -21 15 -35t37 -14t36 14t15 35q0 22 -14 36t-36 14
q-23 0 -38 -14z" />
    <glyph glyph-name="tm_O" unicode="&#xb92;" horiz-adv-x="819" 
d="M568 49.5q31 -28.5 91 -28.5h69v-56h-69q-27 0 -55 5v-20q0 -49 -24 -87.5t-67.5 -60t-99.5 -21.5q-58 0 -102.5 21.5t-69 60t-24.5 87.5v50h71v-50q0 -47 34.5 -77t90.5 -30t90 29.5t34 77.5v48q-32 23 -48.5 57.5t-16.5 77.5v136h65q1 -39 23 -64t57 -25q34 0 53 27
t19 72q0 55 -37 99t-101.5 69t-144.5 25q-77 0 -139.5 -22.5t-101.5 -62t-47 -91.5q34 44 93 44q55 0 90.5 -33t35.5 -85q0 -53 -36.5 -86.5t-93.5 -33.5q-45 0 -81 21.5t-56 59.5t-20 86q0 76 45.5 136.5t126.5 94.5t184 34q102 0 184 -33t128 -91t46 -131
q0 -72 -40.5 -116.5t-106.5 -44.5q-46 0 -80 25v-10q0 -55 31 -83.5zM163.5 266q-17.5 -17 -17.5 -44t17 -44t43 -17h1q27 0 44.5 17t18.5 44q0 27 -17.5 44t-44.5 17t-44.5 -17z" />
    <glyph glyph-name="tm_Oo" unicode="&#xb93;" horiz-adv-x="819" 
d="M568 49.5q31 -28.5 91 -28.5h69v-56h-69q-32 0 -58 6v-21q0 -48 -26 -86.5t-72 -60.5t-103 -22q-56 0 -101 17.5t-70.5 49t-25.5 70.5q0 52 37.5 86t95.5 34h21v-57h-21q-26 0 -43 -18t-17 -45q0 -33 35 -54t89 -21q59 0 96.5 30t37.5 77v50q-30 23 -46 56.5t-16 76.5
v136h65q1 -39 23 -64t57 -25q34 0 53 27t19 72q0 55 -37 99t-101.5 69t-144.5 25q-77 0 -139.5 -22.5t-101.5 -62t-47 -91.5q34 44 93 44q55 0 90.5 -33t35.5 -85q0 -53 -36.5 -86.5t-93.5 -33.5q-45 0 -81 21.5t-56 59.5t-20 86q0 76 45.5 136.5t126.5 94.5t184 34
q102 0 184 -33t128 -91t46 -131q0 -72 -40.5 -116.5t-106.5 -44.5q-46 0 -80 25v-10q0 -55 31 -83.5zM163.5 266q-17.5 -17 -17.5 -44t17 -44t43 -17h1q27 0 44.5 17t18.5 44q0 27 -17.5 44t-44.5 17t-44.5 -17z" />
    <glyph glyph-name="tm_Au" unicode="&#xb94;" horiz-adv-x="2036" 
d="M568 49.5q31 -28.5 91 -28.5h69v-56h-69q-27 0 -55 5v-20q0 -49 -24 -87.5t-67.5 -60t-99.5 -21.5q-58 0 -102.5 21.5t-69 60t-24.5 87.5v50h71v-50q0 -47 34.5 -77t90.5 -30t90 29.5t34 77.5v48q-32 23 -48.5 57.5t-16.5 77.5v136h65q1 -39 23 -64t57 -25q34 0 53 27
t19 72q0 55 -37 99t-101.5 69t-144.5 25q-77 0 -139.5 -22.5t-101.5 -62t-47 -91.5q34 44 93 44q55 0 90.5 -33t35.5 -85q0 -53 -36.5 -86.5t-93.5 -33.5q-45 0 -81 21.5t-56 59.5t-20 86q0 76 45.5 136.5t126.5 94.5t184 34q102 0 184 -33t128 -91t46 -131
q0 -72 -40.5 -116.5t-106.5 -44.5q-46 0 -80 25v-10q0 -55 31 -83.5zM163.5 266q-17.5 -17 -17.5 -44t17 -44t43 -17h1q27 0 44.5 17t18.5 44q0 27 -17.5 44t-44.5 17t-44.5 -17zM2026 457h-188v-457h-71v457h-250v-457h-71v228q0 69 -32.5 124t-89 86t-126.5 31
q-77 0 -133.5 -29.5t-87 -82t-30.5 -120.5q0 -88 50 -141q-8 24 -8 46q0 46 21 82.5t58.5 57t83.5 20.5q49 0 88.5 -20.5t61.5 -57t22 -82.5q0 -45 -22.5 -81.5t-62.5 -57.5t-90 -21q-85 0 -147.5 33.5t-96 91.5t-33.5 130q0 85 40 152t114 104.5t172 37.5q77 0 142 -32.5
t106 -90.5v105h572zM1078 216q-29 -29 -29 -74t29 -74t74 -29t74.5 29t29.5 74t-29.5 74t-74.5 29t-74 -29z" />
    <glyph glyph-name="tm_Ka" unicode="&#xb95;" horiz-adv-x="751" 
d="M664.5 254.5q54.5 -43.5 54.5 -114.5q0 -46 -26 -81.5t-75 -56t-116 -20.5v57q68 0 104.5 27.5t36.5 73.5t-33 74t-95 28h-38v-37q0 -66 -28.5 -116.5t-82 -78.5t-124.5 -28q-58 0 -103.5 20.5t-70.5 56.5t-25 81q0 53 31.5 92t89.5 55v226h478l9 -56h-174v-159h37
q96 0 150.5 -43.5zM235 457v-159h13h158v159h-171zM406 242h-156q-63 0 -97.5 -27.5t-34.5 -74.5q0 -42 34 -69t90 -27q77 0 120.5 43.5t43.5 117.5v37z" />
    <glyph glyph-name="tm_Nga" unicode="&#xb99;" horiz-adv-x="980" 
d="M888 513v-513h-544v57h136q73 0 111 38t38 101q0 49 -26.5 80.5t-73.5 31.5q-51 0 -82.5 -34.5t-31.5 -87.5v-34h-71v305h-181v-457h-70v513h503l8 -56h-189v-134q23 22 53.5 34t65.5 12q78 0 124 -48t46 -125q0 -88 -63 -139h176v456h71z" />
    <glyph glyph-name="tm_Ca" unicode="&#xb9a;" horiz-adv-x="683" 
d="M651 242h-174v-37q0 -66 -28.5 -116.5t-82 -78.5t-124.5 -28q-58 0 -103.5 20.5t-70.5 56.5t-25 81q0 53 31.5 92t89.5 55v226h478l9 -56h-174v-159h165zM235 457v-159h13h158v159h-171zM406 242h-156q-63 0 -97.5 -27.5t-34.5 -74.5q0 -42 34 -69t90 -27
q77 0 120.5 43.5t43.5 117.5v37z" />
    <glyph glyph-name="tm_Ja" unicode="&#xb9c;" horiz-adv-x="826" 
d="M732.5 40q40.5 -39 40.5 -102q0 -40 -22.5 -71.5t-63 -50t-90.5 -18.5h-111v56h111q45 0 73 24t28 60t-19 58t-56 22q-41 0 -75.5 -24t-88.5 -76q-40 -40 -69.5 -64.5t-67 -41.5t-80.5 -17q-57 0 -99.5 22.5t-66 63t-23.5 91.5q0 86 63.5 138.5t206.5 71.5l180 24
q98 14 146 53.5t49 97.5q0 49 -29 80.5t-76 31.5q-53 0 -88.5 -36t-35.5 -90v-69h-71v69q0 54 -38.5 90t-96.5 36q-60 0 -99 -34h8q47 0 77 -27.5t30 -70.5q0 -45 -30.5 -74.5t-77.5 -29.5q-48 0 -79.5 30t-31.5 77q0 53 26 96.5t72.5 69t104.5 25.5q108 0 169 -88
q60 88 161 88q53 0 94 -22t63.5 -61.5t22.5 -90.5q0 -82 -67 -138t-203 -74l-180 -25q-105 -14 -150 -51t-45 -99q0 -50 31 -82t83 -32q43 0 80.5 26t91.5 78q60 58 106 88.5t103 30.5q69 0 109.5 -39zM135 370q-15 -14 -15 -36q0 -21 15 -35t37 -14t36 14t15 35
q0 22 -14 36t-36 14q-23 0 -38 -14z" />
    <glyph glyph-name="tm_Nya" unicode="&#xb9e;" horiz-adv-x="1234" 
d="M1133.5 292q47.5 -62 47.5 -160q0 -120 -65.5 -207.5t-186 -134t-280.5 -46.5q-174 0 -304 52.5t-201 151t-71 232.5q0 94 40.5 189t104.5 154l73 -10q-63 -52 -103 -144t-40 -191q0 -116 61.5 -199.5t174.5 -128t265 -44.5q139 0 242 38.5t159 111.5t56 176
q0 73 -26 117t-83 44q-49 0 -81.5 -37t-32.5 -94v-162h-70v457h-181q-132 0 -197 -59t-65 -161q0 -90 51 -142q-8 24 -8 47q0 70 46 115t117 45q49 0 88 -20.5t61 -57t22 -82.5q0 -45 -22.5 -81.5t-62 -57.5t-89.5 -21q-85 0 -148 33.5t-96.5 91.5t-33.5 130q0 81 37 143.5
t110.5 97.5t180.5 35h441l8 -56h-189v-153q47 50 116 50q87 0 134.5 -62zM501.5 216q-29.5 -29 -29.5 -74t29.5 -74t74.5 -29t74 29t29 74t-29 74t-74 29t-74.5 -29z" />
    <glyph glyph-name="tm_Tta" unicode="&#xb9f;" horiz-adv-x="720" 
d="M702 57h-539v461l-70 -5v-513h617z" />
    <glyph glyph-name="tm_Nna" unicode="&#xba3;" horiz-adv-x="1698" 
d="M1688 457h-189v-457h-71v457h-98q-79 0 -144 -31q47 -48 72.5 -112.5t25.5 -139.5q0 -86 -44 -139t-119 -53q-76 0 -120 53t-44 139q0 75 31.5 141t87.5 112q-67 42 -152 42q-88 0 -155 -42q59 -49 91 -114t32 -139q0 -86 -44 -139t-120 -53t-120 53t-44 139
q0 73 24.5 136.5t70.5 112.5q-89 46 -204 46q-98 0 -172 -31t-114.5 -86t-40.5 -124q0 -86 52 -137q-10 23 -10 51q0 46 21 82.5t58.5 57t83.5 20.5q49 0 88.5 -20.5t61.5 -57t22 -82.5q0 -45 -22.5 -81.5t-62.5 -57.5t-90 -21q-85 0 -147.5 32t-96 88t-33.5 126
q0 87 50 156t141.5 108t210.5 39q147 0 256 -64q91 64 213 64q121 0 213 -64q87 46 193 46h349zM1187.5 292.5q-21.5 54.5 -61.5 94.5q-45 -39 -69.5 -94t-24.5 -119q0 -58 23 -94t66 -36q42 0 65 36t23 94q0 64 -21.5 118.5zM791 291q-26 54 -74 94q-38 -40 -58 -94
t-20 -117q0 -58 23.5 -94t65.5 -36q43 0 66 36t23 94q0 63 -26 117zM259 68q29 -29 74 -29t74.5 29t29.5 74t-29.5 74t-74.5 29t-74 -29t-29 -74t29 -74z" />
    <glyph glyph-name="tm_Ta" unicode="&#xba4;" horiz-adv-x="766" 
d="M618 269.5q50 -28.5 77.5 -79t27.5 -115.5q0 -71 -35.5 -127t-100 -87.5t-149.5 -31.5h-177q-61 0 -99.5 -19t-61.5 -54l-57 32q23 44 78.5 70.5t133.5 26.5h183q63 0 111 24.5t73.5 67.5t25.5 98q0 73 -39.5 120t-104.5 47h-27v-37q0 -66 -28.5 -116.5t-82 -78.5
t-124.5 -28q-58 0 -103.5 20.5t-70.5 56.5t-25 81q0 53 31.5 92t89.5 55v226h478l9 -56h-174v-159h26q65 0 115 -28.5zM235 457v-159h13h158v159h-171zM406 242h-156q-63 0 -97.5 -27.5t-34.5 -74.5q0 -42 34 -69t90 -27q77 0 120.5 43.5t43.5 117.5v37z" />
    <glyph glyph-name="tm_Na" unicode="&#xba8;" horiz-adv-x="765" 
d="M664.5 289.5q48.5 -64.5 48.5 -167.5q0 -85 -31.5 -151.5t-91.5 -103.5t-142 -37h-136q-114 0 -162 -73l-57 31q24 44 79 71t133 27h143q90 0 140 65t50 171q0 78 -27.5 124.5t-81.5 46.5q-50 0 -82 -37t-32 -94v-162h-71v457h-181v-457h-70v513h503l8 -56h-189v-153
q21 24 51 37t65 13q85 0 133.5 -64.5z" />
    <glyph glyph-name="tm_Nnna" unicode="&#xba9;" horiz-adv-x="1305" 
d="M1295 457h-188v-457h-72v457h-98q-87 0 -158 -38q54 -49 83.5 -111.5t29.5 -133.5q0 -86 -44 -139t-120 -53t-120 53t-44 139q0 71 28 133.5t79 108.5q-90 53 -216 53q-98 0 -172 -31t-114.5 -86t-40.5 -124q0 -86 52 -137q-10 23 -10 51q0 46 21 82.5t58.5 57t83.5 20.5
q49 0 88.5 -20.5t61.5 -57t22 -82.5q0 -45 -22.5 -81.5t-62.5 -57.5t-90 -21q-85 0 -147.5 32t-96 88t-33.5 126q0 87 50 156t141.5 108t210.5 39q78 0 147 -19t125 -54q93 55 210 55h350zM793 287.5q-24 52.5 -69 91.5q-41 -39 -63 -91t-22 -114q0 -58 23.5 -94t65.5 -36
q43 0 66 36t23 94q0 61 -24 113.5zM259 68q29 -29 74 -29t74.5 29t29.5 74t-29.5 74t-74.5 29t-74 -29t-29 -74t29 -74z" />
    <glyph glyph-name="tm_Pa" unicode="&#xbaa;" horiz-adv-x="718" 
d="M625 513v-513h-532v513l70 5v-461h391v456h71z" />
    <glyph glyph-name="tm_Ma" unicode="&#xbae;" horiz-adv-x="829" 
d="M674.5 492.5q50.5 -38.5 76.5 -106t26 -155.5q0 -105 -53.5 -168t-157.5 -63h-473v513l70 5v-461h213v277q0 96 48.5 146.5t129.5 50.5q70 0 120.5 -38.5zM669 104q33 47 33 127q0 107 -38 172.5t-108 65.5q-50 0 -79 -33t-29 -100v-279h118q70 0 103 47z" />
    <glyph glyph-name="tm_Ya" unicode="&#xbaf;" horiz-adv-x="925" 
d="M832 513v-513h-438v42q-24 -29 -56.5 -44.5t-71.5 -15.5q-84 0 -133.5 53t-49.5 154v324l70 5v-329q0 -145 113 -145q62 0 95 43.5t33 115.5v310h71v-456h296v456h71z" />
    <glyph glyph-name="tm_Ra" unicode="&#xbb0;" horiz-adv-x="683" 
d="M485 457v-440q0 -41 -4.5 -65t-19.5 -42.5t-45 -33.5l-254 -126l-28 57l228 115q32 16 41.5 38t9.5 73v424h-250v-457h-70v513h572l8 -56h-188z" />
    <glyph glyph-name="tm_Rra" unicode="&#xbb1;" horiz-adv-x="824" 
d="M716.5 449q55.5 -82 55.5 -218q0 -118 -39 -208.5t-114 -141.5t-181 -51h-136q-114 0 -162 -73l-57 31q24 44 79 71t133 27h143q84 0 142 44t87.5 121.5t29.5 179.5q0 110 -33.5 174t-106.5 64q-48 0 -81.5 -33.5t-33.5 -99.5v-336h-71v313q0 71 -29 113.5t-85 42.5
q-53 0 -78.5 -36t-25.5 -109v-324h-70v324q0 100 44.5 153.5t129.5 53.5q48 0 85 -23.5t60 -65.5q24 42 64 65.5t90 23.5q105 0 160.5 -82z" />
    <glyph glyph-name="tm_La" unicode="&#xbb2;" horiz-adv-x="1021" 
d="M947.5 378q21.5 -80 21.5 -144q0 -118 -49 -185t-145 -67q-92 0 -140 59t-48 169v47q0 100 -59 156t-163 56q-72 0 -125.5 -29.5t-82.5 -81.5t-29 -119q0 -89 51 -143q-8 24 -8 46q0 45 21 81.5t58 57t83 20.5q49 0 88.5 -20.5t61.5 -57t22 -81.5t-22.5 -81.5
t-62.5 -57.5t-90 -21q-85 0 -147.5 34t-96 92.5t-33.5 130.5q0 83 38.5 149.5t109 104.5t164.5 38q88 0 154.5 -33.5t102.5 -95t36 -145.5v-47q0 -82 28.5 -123.5t89.5 -41.5q119 0 119 188q0 64 -21 144t-61 136l71 14q42 -69 63.5 -149zM259 216q-29 -29 -29 -74t29 -74
t74 -29t74.5 29t29.5 74t-29.5 74t-74.5 29t-74 -29z" />
    <glyph glyph-name="tm_Lla" unicode="&#xbb3;" horiz-adv-x="1217" 
d="M1207 457h-188v-457h-71v457h-250v-457h-71v228q0 69 -32.5 124t-89 86t-126.5 31q-77 0 -133.5 -29.5t-87 -82t-30.5 -120.5q0 -88 50 -141q-8 24 -8 46q0 46 21 82.5t58.5 57t83.5 20.5q49 0 88.5 -20.5t61.5 -57t22 -82.5q0 -45 -22.5 -81.5t-62.5 -57.5t-90 -21
q-85 0 -147.5 33.5t-96 91.5t-33.5 130q0 85 40 152t114 104.5t172 37.5q77 0 142 -32.5t106 -90.5v105h572zM259 216q-29 -29 -29 -74t29 -74t74 -29t74.5 29t29.5 74t-29.5 74t-74.5 29t-74 -29z" />
    <glyph glyph-name="tm_Llla" unicode="&#xbb4;" horiz-adv-x="829" 
d="M448 0v-38q0 -41 15.5 -59t47.5 -18h163l7 -56h-174q-22 -59 -77.5 -95t-124.5 -36q-84 0 -135.5 46t-51.5 120h71q0 -46 32 -75t84 -29q45 0 80 21t53 61q-62 28 -62 116v42h-283v513l70 5v-461h213v277q0 96 48.5 146.5t129.5 50.5q70 0 120.5 -38.5t76.5 -106
t26 -155.5q0 -105 -53.5 -168t-157.5 -63h-118zM448 57h118q70 0 103 47t33 127q0 107 -38 172.5t-108 65.5q-50 0 -79 -33t-29 -100v-279z" />
    <glyph glyph-name="tm_Va" unicode="&#xbb5;" horiz-adv-x="1033" 
d="M940 513v-513h-388l1 57q32 39 50.5 89.5t18.5 108.5q0 62 -29.5 110.5t-84 76t-125.5 27.5q-78 0 -136 -29.5t-88.5 -82t-30.5 -120.5q0 -88 50 -141q-8 24 -8 46q0 46 21 82.5t58.5 57t83.5 20.5q49 0 88.5 -20.5t61.5 -57t22 -82.5q0 -45 -22.5 -81.5t-62.5 -57.5
t-90 -21q-85 0 -147.5 33.5t-96 91.5t-33.5 130q0 85 40.5 152t115 104.5t174.5 37.5q91 0 163 -35.5t112 -98.5t40 -142q0 -55 -16.5 -106t-45.5 -92h233v456h71zM259 216q-29 -29 -29 -74t29 -74t74 -29t74.5 29t29.5 74t-29.5 74t-74.5 29t-74 -29z" />
    <glyph glyph-name="tm_Sha" unicode="&#xbb6;" horiz-adv-x="1049" 
d="M942.5 450q53.5 -63 53.5 -168q0 -88 -26 -155.5t-76.5 -106t-120.5 -38.5q-81 0 -129 50.5t-48 146.5v278h-146v-268q0 -102 -50 -154.5t-134 -52.5q-83 0 -133 52.5t-50 154.5v324l70 5v-329q0 -75 30 -110t83 -35t83 35t30 110v324h406q104 0 157.5 -63zM883 109.5
q38 65.5 38 172.5q0 81 -33 128t-103 47h-118v-279q0 -67 29 -100.5t79 -33.5q70 0 108 65.5z" />
    <glyph glyph-name="tm_Ssa" unicode="&#xbb7;" horiz-adv-x="1371" 
d="M1286 0h-206v-243h-71v243h-457l1 57q32 39 50.5 89.5t18.5 108.5q0 62 -30 110.5t-84.5 76t-124.5 27.5q-78 0 -136 -29.5t-88.5 -82t-30.5 -120.5q0 -88 50 -141q-8 24 -8 46q0 46 21 82.5t58.5 57t83.5 20.5q49 0 88.5 -20.5t61.5 -57t22 -82.5q0 -45 -22.5 -81.5
t-62.5 -57.5t-90 -21q-85 0 -147.5 33.5t-96 91.5t-33.5 130q0 85 40.5 152t115 104.5t174.5 37.5q91 0 163 -35.5t112 -98.5t40 -142q0 -54 -16.5 -105.5t-44.5 -92.5h372v148q-30 -6 -63 -6q-59 0 -105 22t-72 61t-26 87q0 72 46.5 117t123.5 45t122 -44.5t45 -117.5v-67
q77 50 135 155h71v-457zM1009 270v94q0 48 -25 76.5t-71 28.5q-45 0 -70 -27.5t-25 -72.5q0 -47 35 -77.5t93 -30.5q33 0 63 9zM1215 57v280q-56 -75 -135 -110v-170h135zM259 216q-29 -29 -29 -74t29 -74t74 -29t74.5 29t29.5 74t-29.5 74t-74.5 29t-74 -29z" />
    <glyph glyph-name="tm_Sa" unicode="&#xbb8;" horiz-adv-x="1311" 
d="M1237.5 378q21.5 -80 21.5 -144q0 -118 -49 -185t-145 -67q-93 0 -140.5 59t-47.5 169v122q0 136 -96 136q-58 0 -90.5 -58.5t-32.5 -152.5v-257h-71v257q0 100 -59 156t-163 56q-72 0 -125.5 -29.5t-82.5 -81.5t-29 -119q0 -89 51 -143q-8 24 -8 46q0 45 21 81.5t58 57
t83 20.5q49 0 88.5 -20.5t61.5 -57t22 -81.5t-22.5 -81.5t-62.5 -57.5t-90 -21q-85 0 -147.5 34t-96 92.5t-33.5 130.5q0 83 38.5 149.5t109 104.5t164.5 38q89 0 155 -33t101 -94q21 60 61.5 93.5t98.5 33.5q81 0 124 -54t43 -144v-123q0 -82 28.5 -123.5t89.5 -41.5
q118 0 118 188q0 64 -21 144t-61 136l72 14q42 -69 63.5 -149zM259 216q-29 -29 -29 -74t29 -74t74 -29t74.5 29t29.5 74t-29.5 74t-74.5 29t-74 -29z" />
    <glyph glyph-name="tm_Ha" unicode="&#xbb9;" horiz-adv-x="1579" 
d="M1469.5 448.5q57.5 -82.5 57.5 -217.5q0 -118 -39 -208.5t-114 -141.5t-181 -51h-921q-114 0 -162 -73l-57 31q24 44 79 71t133 27h928q126 0 192.5 94.5t66.5 250.5q0 108 -35.5 172.5t-108.5 64.5q-51 0 -81 -32.5t-30 -99.5v-336h-71v313q0 70 -29 113t-85 43
q-52 0 -77.5 -35.5t-25.5 -109.5v-324h-357l1 57q32 39 50.5 89.5t18.5 108.5q0 62 -30 110.5t-84.5 76t-124.5 27.5q-78 0 -136 -29.5t-88.5 -82t-30.5 -120.5q0 -88 50 -141q-8 24 -8 46q0 46 21 82.5t58.5 57t83.5 20.5q49 0 88.5 -20.5t61.5 -57t22 -82.5
q0 -45 -22.5 -81.5t-62.5 -57.5t-90 -21q-85 0 -147.5 33.5t-96 91.5t-33.5 130q0 85 40.5 152t115 104.5t174.5 37.5q91 0 163 -35.5t112 -98.5t40 -142q0 -54 -16.5 -105.5t-45.5 -92.5h202v267q0 100 44.5 153.5t129.5 53.5q47 0 83.5 -22t59.5 -62q22 40 61.5 62
t89.5 22q106 0 163.5 -82.5zM259 216q-29 -29 -29 -74t29 -74t74 -29t74.5 29t29.5 74t-29.5 74t-74.5 29t-74 -29z" />
    <glyph glyph-name="tm_VowelAa" unicode="&#xbbe;" horiz-adv-x="663" 
d="M465 457v-457h-72v457h-230v-457h-70v513h552l8 -56h-188z" />
    <glyph glyph-name="tm_VowelI" unicode="&#xbbf;" horiz-adv-x="256" 
d="M19.5 759.5q68.5 -37.5 106 -104.5t37.5 -152v-503h-70v503q0 68 -28.5 121t-81 82.5t-123.5 29.5q-75 0 -117 -31t-42 -82t29 -80.5t89 -29.5h44v-49h-44q-91 0 -141 44t-51 115q0 50 28.5 89.5t81.5 62t123 22.5q91 0 159.5 -37.5z" />
    <glyph glyph-name="tm_VowelIi" unicode="&#xbc0;" horiz-adv-x="0" 
d="M-47 852q50 -26 79.5 -69.5t29.5 -91.5q0 -49 -31 -80.5t-78 -31.5q-48 0 -79 29t-31 73t30 72t77 28h6q-45 35 -111 35q-69 0 -113.5 -42.5t-44.5 -107.5q0 -67 36 -110t94 -43v-53q-59 0 -105.5 26.5t-73 73.5t-26.5 106q0 61 30 109t83 75.5t120 27.5q58 0 108 -26z
M-12 645q14 14 14 35t-14 34.5t-35 13.5t-35 -13.5t-14 -34.5t14 -35t35 -14t35 14z" />
    <glyph glyph-name="tm_VowelU" unicode="&#xbc1;" horiz-adv-x="471" 
d="M353.5 492.5q40.5 -20.5 63 -57t22.5 -81.5q0 -46 -22.5 -82.5t-62 -57t-88.5 -20.5t-88.5 20.5t-61.5 56.5t-22 82q0 62 40 104h-298v56h427q50 0 90.5 -20.5zM338.5 279.5q28.5 29.5 28.5 74.5t-28.5 74t-72.5 29q-46 0 -75 -29t-29 -74t29 -74.5t75 -29.5
q44 0 72.5 29.5z" />
    <glyph glyph-name="tm_VowelUu" unicode="&#xbc2;" horiz-adv-x="666" 
d="M504 578.5q60 -33.5 94.5 -93t34.5 -133.5q0 -77 -39 -139t-108.5 -97t-156.5 -35h-58v56h58q66 0 118 27.5t81.5 76.5t29.5 111q0 57 -24.5 102.5t-68 71.5t-96.5 26q-79 0 -132 -39h26q50 0 90.5 -20.5t63 -57t22.5 -81.5q0 -69 -47.5 -113t-121.5 -44q-49 0 -88 21.5
t-61 60t-22 85.5q0 50 17 93h-280v56h312q36 47 93 73t128 26q75 0 135 -33.5zM338 428.5q-29 28.5 -78 28.5h-73q-22 -42 -22 -92q0 -49 29.5 -80.5t75.5 -31.5q43 0 70 28t27 73q0 46 -29 74.5z" />
    <glyph glyph-name="tm_VowelE" unicode="&#xbc6;" horiz-adv-x="787" 
d="M549 635.5q70 -39.5 107.5 -114t37.5 -176.5v-345h-71v345q0 127 -63 197.5t-177 70.5q-78 0 -135.5 -37.5t-88.5 -104.5t-31 -153q0 -109 42 -182v6q0 46 21 82.5t58.5 57t83.5 20.5q49 0 88.5 -20.5t61.5 -57t22 -82.5q0 -45 -22.5 -81.5t-62.5 -57.5t-90 -21
q-80 0 -143 43t-98.5 119.5t-35.5 173.5q0 103 40.5 184t115.5 127t174 46q96 0 166 -39.5zM259 216q-29 -29 -29 -74t29 -74t74 -29t74.5 29t29.5 74t-29.5 74t-74.5 29t-74 -29z" />
    <glyph glyph-name="tm_VowelEe" unicode="&#xbc7;" horiz-adv-x="672" 
d="M577 240q42 -39 42 -100q0 -45 -26.5 -81t-77 -56.5t-119.5 -20.5q-105 0 -182.5 45t-119 123.5t-41.5 178.5q0 99 41.5 178t119 123.5t182.5 44.5q69 0 119.5 -20t77 -56t26.5 -81q0 -61 -42 -100.5t-107 -39.5q-62 0 -103 39.5t-41 100.5q0 30 13 55.5t37 43.5
q-75 -3 -131 -41t-86.5 -102.5t-30.5 -144.5t30.5 -144.5t87.5 -103t132 -41.5q-25 18 -38.5 43.5t-13.5 56.5q0 61 41 100t103 39q65 0 107 -39zM530.5 461q22.5 23 22.5 57q0 35 -22.5 57.5t-57.5 22.5t-58 -22.5t-23 -57.5t23 -57.5t58 -22.5t57.5 23zM415 197.5
q-23 -22.5 -23 -57.5t23 -57.5t58 -22.5t57.5 23t22.5 57q0 35 -22.5 57.5t-57.5 22.5t-58 -22.5z" />
    <glyph glyph-name="tm_VowelAi" unicode="&#xbc8;" horiz-adv-x="1221" 
d="M1047.5 498q59.5 -33 90 -92t30.5 -136q0 -63 -21 -138.5t-64 -145.5l-71 14q40 57 61 132.5t21 138.5q0 89 -48.5 143.5t-141.5 54.5q-77 0 -138 -39q60 -49 93 -115t33 -141q0 -86 -44 -139t-120 -53t-120 53t-44 139q0 72 25.5 136t70.5 112q-88 47 -205 47
q-98 0 -172 -31t-114.5 -86t-40.5 -124q0 -86 52 -137q-10 23 -10 51q0 46 21 82.5t58.5 57t83.5 20.5q49 0 88.5 -20.5t61.5 -57t22 -82.5q0 -45 -22.5 -81.5t-62.5 -57.5t-90 -21q-85 0 -147.5 32t-96 88t-33.5 126q0 87 50 156t141.5 108t210.5 39q147 0 256 -64
q42 31 91.5 47.5t101.5 16.5q84 0 143.5 -33zM790.5 292.5q-26.5 54.5 -75.5 94.5q-36 -40 -56 -94.5t-20 -118.5q0 -58 23.5 -94t65.5 -36q43 0 66 36t23 94q0 64 -26.5 118.5zM259 68q29 -29 74 -29t74.5 29t29.5 74t-29.5 74t-74.5 29t-74 -29t-29 -74t29 -74z" />
    <glyph glyph-name="tm_VowelO" unicode="&#xbca;" horiz-adv-x="1937" 
d="M549 635.5q70 -39.5 107.5 -114t37.5 -176.5v-345h-71v345q0 127 -63 197.5t-177 70.5q-78 0 -135.5 -37.5t-88.5 -104.5t-31 -153q0 -109 42 -182v6q0 46 21 82.5t58.5 57t83.5 20.5q49 0 88.5 -20.5t61.5 -57t22 -82.5q0 -45 -22.5 -81.5t-62.5 -57.5t-90 -21
q-80 0 -143 43t-98.5 119.5t-35.5 173.5q0 103 40.5 184t115.5 127t174 46q96 0 166 -39.5zM259 216q-29 -29 -29 -74t29 -74t74 -29t74.5 29t29.5 74t-29.5 74t-74.5 29t-74 -29zM1724 457v-457h-72v457h-230v-457h-70v513h552l8 -56h-188zM1041 467q8 8 8 21t-8 21.5
t-21 8.5t-21 -8.5t-8 -21.5t8 -21t21 -8t21 8zM910 494q-8 -8 -8 -21t8 -21t21 -8t21 8t8 21t-8 21t-21 8t-21 -8zM1131 452q8 8 8 21t-8 21t-21 8t-21 -8t-8 -21t8 -21t21 -8t21 8zM833.5 443.5q-8.5 -8.5 -8.5 -21.5t8.5 -21t21.5 -8t21 8t8 21t-8 21.5t-21 8.5
t-21.5 -8.5zM1207.5 401q8.5 8 8.5 21t-8.5 21.5t-21.5 8.5t-21 -8.5t-8 -21.5t8 -21t21 -8t21.5 8zM785.5 364.5q-8.5 -8.5 -8.5 -21.5t8.5 -21t21.5 -8t21 8t8 21t-8 21.5t-21 8.5t-21.5 -8.5zM1255 322q8 8 8 21t-8 21.5t-21 8.5t-21 -8.5t-8 -21.5t8 -21t21 -8t21 8z
M771.5 278.5q-8.5 -8.5 -8.5 -21.5t8.5 -20.5t21.5 -7.5t21 7.5t8 20.5t-8 21.5t-21 8.5t-21.5 -8.5zM1269.5 236.5q8.5 7.5 8.5 20.5t-8.5 21.5t-21.5 8.5t-21 -8.5t-8 -21.5t8 -20.5t21 -7.5t21.5 7.5zM785.5 195q-8.5 -8 -8.5 -21t8.5 -21t21.5 -8t21 8t8 21t-8 21t-21 8
t-21.5 -8zM1255 153q8 8 8 21t-8 21t-21 8t-21 -8t-8 -21t8 -21t21 -8t21 8zM832.5 115q-8.5 -8 -8.5 -21t8.5 -21t21.5 -8t21 8t8 21t-8 21t-21 8t-21.5 -8zM1208.5 73q8.5 8 8.5 21t-8.5 21t-21.5 8t-21 -8t-8 -21t8 -21t21 -8t21.5 8zM910 65.5q-8 -8.5 -8 -21.5t8 -21
t21 -8t21 8t8 21t-8 21.5t-21 8.5t-21 -8.5zM1131 23q8 8 8 21t-8 21.5t-21 8.5t-21 -8.5t-8 -21.5t8 -21t21 -8t21 8zM1041 8q8 8 8 21t-8 21.5t-21 8.5t-21 -8.5t-8 -21.5t8 -21t21 -8t21 8z" />
    <glyph glyph-name="tm_VowelOo" unicode="&#xbcb;" horiz-adv-x="1842" 
d="M577 240q42 -39 42 -100q0 -45 -26.5 -81t-77 -56.5t-119.5 -20.5q-105 0 -182.5 45t-119 123.5t-41.5 178.5q0 99 41.5 178t119 123.5t182.5 44.5q69 0 119.5 -20t77 -56t26.5 -81q0 -61 -42 -100.5t-107 -39.5q-62 0 -103 39.5t-41 100.5q0 30 13 55.5t37 43.5
q-75 -3 -131 -41t-86.5 -102.5t-30.5 -144.5t30.5 -144.5t87.5 -103t132 -41.5q-25 18 -38.5 43.5t-13.5 56.5q0 61 41 100t103 39q65 0 107 -39zM530.5 461q22.5 23 22.5 57q0 35 -22.5 57.5t-57.5 22.5t-58 -22.5t-23 -57.5t23 -57.5t58 -22.5t57.5 23zM415 197.5
q-23 -22.5 -23 -57.5t23 -57.5t58 -22.5t57.5 23t22.5 57q0 35 -22.5 57.5t-57.5 22.5t-58 -22.5zM1629 457v-457h-72v457h-230v-457h-70v513h552l8 -56h-188zM945 467q8 8 8 21t-8 21.5t-21 8.5t-21 -8.5t-8 -21.5t8 -21t21 -8t21 8zM814 494q-8 -8 -8 -21t8 -21t21 -8
t21 8t8 21t-8 21t-21 8t-21 -8zM1035 452q8 8 8 21t-8 21t-21 8t-21 -8t-8 -21t8 -21t21 -8t21 8zM737.5 443.5q-8.5 -8.5 -8.5 -21.5t8.5 -21t21.5 -8t21 8t8 21t-8 21.5t-21 8.5t-21.5 -8.5zM1111.5 401q8.5 8 8.5 21t-8.5 21.5t-21.5 8.5t-21 -8.5t-8 -21.5t8 -21t21 -8
t21.5 8zM689.5 364.5q-8.5 -8.5 -8.5 -21.5t8.5 -21t21.5 -8t21 8t8 21t-8 21.5t-21 8.5t-21.5 -8.5zM1159 322q8 8 8 21t-8 21.5t-21 8.5t-21 -8.5t-8 -21.5t8 -21t21 -8t21 8zM675.5 278.5q-8.5 -8.5 -8.5 -21.5t8.5 -20.5t21.5 -7.5t21 7.5t8 20.5t-8 21.5t-21 8.5
t-21.5 -8.5zM1173.5 236.5q8.5 7.5 8.5 20.5t-8.5 21.5t-21.5 8.5t-21 -8.5t-8 -21.5t8 -20.5t21 -7.5t21.5 7.5zM689.5 195q-8.5 -8 -8.5 -21t8.5 -21t21.5 -8t21 8t8 21t-8 21t-21 8t-21.5 -8zM1159 153q8 8 8 21t-8 21t-21 8t-21 -8t-8 -21t8 -21t21 -8t21 8zM736.5 115
q-8.5 -8 -8.5 -21t8.5 -21t21.5 -8t21 8t8 21t-8 21t-21 8t-21.5 -8zM1112.5 73q8.5 8 8.5 21t-8.5 21t-21.5 8t-21 -8t-8 -21t8 -21t21 -8t21.5 8zM814 65.5q-8 -8.5 -8 -21.5t8 -21t21 -8t21 8t8 21t-8 21.5t-21 8.5t-21 -8.5zM1035 23q8 8 8 21t-8 21.5t-21 8.5t-21 -8.5
t-8 -21.5t8 -21t21 -8t21 8zM945 8q8 8 8 21t-8 21.5t-21 8.5t-21 -8.5t-8 -21.5t8 -21t21 -8t21 8z" />
    <glyph glyph-name="tm_VowelAu" unicode="&#xbcc;" horiz-adv-x="2528" 
d="M554 635.5q70 -39.5 107.5 -114t37.5 -176.5v-345h-71v345q0 127 -63 197.5t-177 70.5q-78 0 -135.5 -37.5t-88.5 -104.5t-31 -153q0 -109 42 -182v6q0 46 21 82.5t58.5 57t83.5 20.5q49 0 88.5 -20.5t61.5 -57t22 -82.5q0 -45 -22.5 -81.5t-62.5 -57.5t-90 -21
q-80 0 -143 43t-98.5 119.5t-35.5 173.5q0 103 40.5 184t115.5 127t174 46q96 0 166 -39.5zM264 216q-29 -29 -29 -74t29 -74t74 -29t74.5 29t29.5 74t-29.5 74t-74.5 29t-74 -29zM2518 457h-188v-457h-71v457h-250v-457h-71v228q0 69 -32.5 124t-89 86t-126.5 31
q-77 0 -133.5 -29.5t-87 -82t-30.5 -120.5q0 -88 50 -141q-8 24 -8 46q0 46 21 82.5t58.5 57t83.5 20.5q49 0 88.5 -20.5t61.5 -57t22 -82.5q0 -45 -22.5 -81.5t-62.5 -57.5t-90 -21q-85 0 -147.5 33.5t-96 91.5t-33.5 130q0 85 40 152t114 104.5t172 37.5q78 0 142.5 -32.5
t105.5 -90.5v105h572zM1570 216q-29 -29 -29 -74t29 -74t74 -29t74.5 29t29.5 74t-29.5 74t-74.5 29t-74 -29zM1059 467q8 8 8 21t-8 21.5t-21 8.5t-21 -8.5t-8 -21.5t8 -21t21 -8t21 8zM928 494q-8 -8 -8 -21t8 -21t21 -8t21 8t8 21t-8 21t-21 8t-21 -8zM1149 452q8 8 8 21
t-8 21t-21 8t-21 -8t-8 -21t8 -21t21 -8t21 8zM851.5 443.5q-8.5 -8.5 -8.5 -21.5t8.5 -21t21.5 -8t21 8t8 21t-8 21.5t-21 8.5t-21.5 -8.5zM1225.5 401q8.5 8 8.5 21t-8.5 21.5t-21.5 8.5t-21 -8.5t-8 -21.5t8 -21t21 -8t21.5 8zM803.5 364.5q-8.5 -8.5 -8.5 -21.5t8.5 -21
t21.5 -8t21 8t8 21t-8 21.5t-21 8.5t-21.5 -8.5zM1273 322q8 8 8 21t-8 21.5t-21 8.5t-21 -8.5t-8 -21.5t8 -21t21 -8t21 8zM789.5 278.5q-8.5 -8.5 -8.5 -21.5t8.5 -20.5t21.5 -7.5t21 7.5t8 20.5t-8 21.5t-21 8.5t-21.5 -8.5zM1287.5 236.5q8.5 7.5 8.5 20.5t-8.5 21.5
t-21.5 8.5t-21 -8.5t-8 -21.5t8 -20.5t21 -7.5t21.5 7.5zM803.5 195q-8.5 -8 -8.5 -21t8.5 -21t21.5 -8t21 8t8 21t-8 21t-21 8t-21.5 -8zM1273 153q8 8 8 21t-8 21t-21 8t-21 -8t-8 -21t8 -21t21 -8t21 8zM850.5 115q-8.5 -8 -8.5 -21t8.5 -21t21.5 -8t21 8t8 21t-8 21
t-21 8t-21.5 -8zM1226.5 73q8.5 8 8.5 21t-8.5 21t-21.5 8t-21 -8t-8 -21t8 -21t21 -8t21.5 8zM928 65.5q-8 -8.5 -8 -21.5t8 -21t21 -8t21 8t8 21t-8 21.5t-21 8.5t-21 -8.5zM1149 23q8 8 8 21t-8 21.5t-21 8.5t-21 -8.5t-8 -21.5t8 -21t21 -8t21 8zM1059 8q8 8 8 21
t-8 21.5t-21 8.5t-21 -8.5t-8 -21.5t8 -21t21 -8t21 8z" />
    <glyph glyph-name="tm_Virama" unicode="&#xbcd;" horiz-adv-x="0" 
d="M34.5 643.5q14.5 14.5 14.5 33.5q0 21 -14.5 35t-34.5 14q-21 0 -34.5 -14t-13.5 -35q0 -20 13.5 -34t34.5 -14q20 0 34.5 14.5z" />
    <glyph glyph-name="tm_Om" unicode="&#xbd0;" horiz-adv-x="819" 
d="M568 49.5q31 -28.5 91 -28.5h69v-56h-69q-27 0 -55 5v-20q0 -49 -24 -87.5t-67.5 -60t-99.5 -21.5q-58 0 -102.5 21.5t-69 60t-24.5 87.5v50h71v-50q0 -47 34.5 -77t90.5 -30t90 29.5t34 77.5v48q-32 23 -48.5 57.5t-16.5 77.5v136h65q1 -39 23 -64t57 -25q34 0 53 27
t19 72q0 55 -37 99t-101.5 69t-144.5 25q-77 0 -139.5 -22.5t-101.5 -62t-47 -91.5q34 44 93 44q55 0 90.5 -33t35.5 -85q0 -53 -36.5 -86.5t-93.5 -33.5q-45 0 -81 21.5t-56 59.5t-20 86q0 76 45.5 136.5t126.5 94.5t184 34q102 0 184 -33t128 -91t46 -131
q0 -72 -40.5 -116.5t-106.5 -44.5q-46 0 -80 25v-10q0 -55 31 -83.5zM163.5 266q-17.5 -17 -17.5 -44t17 -44t43 -17h1q27 0 44.5 17t18.5 44q0 27 -17.5 44t-44.5 17t-44.5 -17zM403 35q-4 4 -4 11t4 11.5t11 4.5q6 0 10.5 -4.5t4.5 -11.5t-4.5 -11t-10.5 -4q-7 0 -11 4z
M372 12v-80h30v39q0 19 10 31.5t29 12.5q23 0 35.5 -14.5t12.5 -39.5q0 -23 -13 -37t-37 -14h-91v101zM426 -68h15q10 0 17 8.5t7 20.5q0 15 -5.5 24t-15.5 9q-18 0 -18 -24v-38z" />
    <glyph glyph-name="tm_AuLengthMark" unicode="&#xbd7;" horiz-adv-x="1217" 
d="M1207 457h-188v-457h-71v457h-250v-457h-71v228q0 69 -32.5 124t-89 86t-126.5 31q-77 0 -133.5 -29.5t-87 -82t-30.5 -120.5q0 -88 50 -141q-8 24 -8 46q0 46 21 82.5t58.5 57t83.5 20.5q49 0 88.5 -20.5t61.5 -57t22 -82.5q0 -45 -22.5 -81.5t-62.5 -57.5t-90 -21
q-85 0 -147.5 33.5t-96 91.5t-33.5 130q0 85 40 152t114 104.5t172 37.5q78 0 142.5 -32.5t105.5 -90.5v105h572zM259 216q-29 -29 -29 -74t29 -74t74 -29t74.5 29t29.5 74t-29.5 74t-74.5 29t-74 -29z" />
    <glyph glyph-name="tm_Zero" unicode="&#xbe6;" horiz-adv-x="711" 
d="M510 495.5q69 -35.5 108.5 -98t39.5 -140.5q0 -79 -39.5 -141.5t-108.5 -98t-155 -35.5q-85 0 -154 35.5t-108.5 98t-39.5 141.5q0 78 39.5 140.5t108.5 98t154 35.5q86 0 155 -35.5zM472 71.5q52 27.5 81.5 76t29.5 109.5t-29.5 109.5t-81.5 75.5t-117 27
q-64 0 -115.5 -27t-81.5 -75.5t-30 -109.5t30 -109.5t81.5 -76t115.5 -27.5q65 0 117 27.5z" />
    <glyph glyph-name="tm_One" unicode="&#xbe7;" horiz-adv-x="751" 
d="M664.5 254.5q54.5 -43.5 54.5 -114.5q0 -46 -26 -81.5t-75 -56t-116 -20.5v57q68 0 104.5 27.5t36.5 73.5t-33 74t-95 28h-38v-37q0 -66 -28.5 -116.5t-82 -78.5t-124.5 -28q-58 0 -103.5 20.5t-70.5 56.5t-25 81q0 53 31.5 92t89.5 55v226h478l9 -56h-174v-159h37
q96 0 150.5 -43.5zM235 457v-159h13h158v159h-171zM406 242h-156q-63 0 -97.5 -27.5t-34.5 -74.5q0 -42 34 -69t90 -27q77 0 120.5 43.5t43.5 117.5v37z" />
    <glyph glyph-name="tm_Two" unicode="&#xbe8;" horiz-adv-x="778" 
d="M768 57v-57h-690v57h228q64 0 115 27.5t80 77t29 111.5q0 56 -26.5 100.5t-74.5 70t-109 25.5q-53 0 -96 -17t-72 -47q22 5 41 5q67 0 110.5 -40t43.5 -101q0 -62 -43.5 -102.5t-110.5 -40.5q-70 0 -115 41.5t-45 106.5q0 74 37 132.5t102.5 91.5t147.5 33
q83 0 148 -33.5t101 -92t36 -132.5q0 -69 -29 -125t-83 -91h275zM127 331.5q-25 -23.5 -25 -59.5q0 -38 25 -63t65 -25q38 0 62 24.5t24 61.5t-24.5 61t-61.5 24q-40 0 -65 -23.5z" />
    <glyph glyph-name="tm_Three" unicode="&#xbe9;" horiz-adv-x="827" 
d="M817 57v-57h-473v57h136q73 0 111 38t38 101q0 49 -26.5 80.5t-73.5 31.5q-51 0 -82.5 -34.5t-31.5 -87.5v-34h-71v305h-181v-457h-70v513h503l8 -56h-189v-134q23 22 53.5 34t65.5 12q78 0 124 -48t46 -125q0 -43 -16.5 -79t-47.5 -60h177z" />
    <glyph glyph-name="tm_Four" unicode="&#xbea;" horiz-adv-x="827" 
d="M785 242h-308v-37q0 -66 -28.5 -116.5t-82 -78.5t-124.5 -28q-58 0 -103.5 20.5t-70.5 56.5t-25 81q0 53 31.5 92t89.5 55v226h478l9 -56h-174v-159h243v215h65v-271zM235 457v-159h13h158v159h-171zM406 242h-156q-63 0 -97.5 -27.5t-34.5 -74.5q0 -42 34 -69t90 -27
q77 0 120.5 43.5t43.5 117.5v37z" />
    <glyph glyph-name="tm_Five" unicode="&#xbeb;" horiz-adv-x="1271" 
d="M1107 0v336q0 114 -55 202.5t-159.5 138t-248.5 49.5q-153 0 -265.5 -61.5t-171.5 -171t-59 -249.5q0 -132 51 -231t146.5 -153t225.5 -54q110 0 194 38.5t130 110t46 167.5q0 78 -27.5 124.5t-81.5 46.5q-49 0 -81.5 -37t-32.5 -94v-162h-70v457h-194v-457h-71v513h516
l8 -56h-189v-153q47 50 116 50q85 0 134 -64.5t49 -167.5q0 -114 -56 -199.5t-157.5 -132t-232.5 -46.5q-152 0 -264.5 62t-173 175.5t-60.5 264.5q0 157 69 280t198.5 192.5t303.5 69.5q164 0 285 -57.5t185 -159.5t64 -233v-338h-71z" />
    <glyph glyph-name="tm_Six" unicode="&#xbec;" horiz-adv-x="1081" 
d="M1071 57v-57h-310v57q57 0 89.5 28.5t32.5 73.5q0 41 -26.5 67t-69.5 26q-51 0 -83 -32.5t-32 -83.5v-136h-71v136q0 48 -31 76.5t-93 29.5v-37q0 -66 -28.5 -116.5t-82 -78.5t-124.5 -28q-58 0 -103.5 20.5t-70.5 56.5t-25 81q0 53 31.5 92t89.5 55v226h478l9 -56h-174
v-159q54 -1 95 -17t65 -45q25 37 65.5 58t89.5 21q73 0 119.5 -44t46.5 -112q0 -63 -44 -102h157zM235 457v-159h13h158v159h-171zM362.5 87.5q43.5 43.5 43.5 117.5v37h-156q-63 0 -97.5 -27.5t-34.5 -74.5q0 -42 34 -69t90 -27q77 0 120.5 43.5z" />
    <glyph glyph-name="tm_Seven" unicode="&#xbed;" horiz-adv-x="758" 
d="M668 0h-72v457h-207q-131 0 -196 -59t-65 -161q0 -88 50 -141q-8 24 -8 46q0 46 21 82.5t58.5 57t83.5 20.5q49 0 88.5 -20.5t61.5 -57t22 -82.5q0 -45 -22.5 -81.5t-62.5 -57.5t-90 -21q-85 0 -147.5 33.5t-96 91.5t-33.5 130q0 82 36.5 144t110 97t180.5 35l288 1v-514
zM259 216q-29 -29 -29 -74t29 -74t74 -29t74.5 29t29.5 74t-29.5 74t-74.5 29t-74 -29z" />
    <glyph glyph-name="tm_Eight" unicode="&#xbee;" horiz-adv-x="1068" 
d="M975 513v-639h-71v195h-188q-47 -99 -148.5 -156t-238.5 -57q-86 0 -153.5 22t-105 61t-37.5 87q0 45 31 72t88 27h146q-39 30 -61 74.5t-22 98.5q0 67 32.5 120t90 83t130.5 30q85 0 149.5 -38.5t99.5 -107t35 -155.5q0 -54 -14 -105h166v388h71zM676 230
q0 69 -25 123.5t-72 85t-111 30.5q-52 0 -92 -22t-62.5 -61t-22.5 -88q0 -51 21.5 -90t60 -61t87.5 -22h199q17 47 17 105zM510.5 -42q78.5 40 121.5 111h-478q-46 0 -46 -43q0 -28 28 -53t78.5 -40t114.5 -15q103 0 181.5 40z" />
    <glyph glyph-name="tm_Nine" unicode="&#xbef;" horiz-adv-x="968" 
d="M850.5 293q40.5 -22 62.5 -60.5t22 -87.5q0 -42 -9 -75t-28 -76l-73 6q16 32 25.5 72.5t9.5 72.5q0 50 -27.5 79t-74.5 29q-18 0 -40 -5q29 -26 45.5 -62.5t16.5 -78.5q0 -54 -34.5 -89.5t-86.5 -35.5q-53 0 -87.5 35t-34.5 90q0 78 49 135h-12h-97v-37
q0 -66 -28.5 -116.5t-82 -78.5t-124.5 -28q-58 0 -103.5 20.5t-70.5 56.5t-25 81q0 53 31.5 92t89.5 55v226h478l9 -56h-174v-159h105q34 0 64 -9q49 26 112 26q52 0 92.5 -22zM235 457v-159h13h158v159h-171zM406 242h-156q-63 0 -97.5 -27.5t-34.5 -74.5q0 -42 34 -69
t90 -27q77 0 120.5 43.5t43.5 117.5v37zM695.5 170.5q-14.5 28.5 -40.5 46.5q-23 -20 -35.5 -48t-12.5 -62q0 -28 14.5 -46t37.5 -18q22 0 36.5 18t14.5 46q0 35 -14.5 63.5z" />
    <glyph glyph-name="tm_Ten" unicode="&#xbf0;" horiz-adv-x="797" 
d="M723.5 378q21.5 -80 21.5 -144q0 -118 -49 -185t-145 -67q-104 0 -152 78q-48 -78 -153 -78q-96 0 -144.5 67t-48.5 185q0 64 21 144t63 149l72 -14q-40 -56 -61 -136t-21 -144q0 -188 118 -188q61 0 89.5 41.5t28.5 123.5v128h71v-128q0 -165 118 -165t118 188
q0 64 -21 144t-61 136l72 14q42 -69 63.5 -149z" />
    <glyph glyph-name="tm_Hundred" unicode="&#xbf1;" horiz-adv-x="984" 
d="M786 457v-457h-71v457h-250v-457h-71v310q0 72 -33 115.5t-95 43.5q-113 0 -113 -145v-324h-70v324q0 102 49 154.5t134 52.5q40 0 72.5 -16t55.5 -45v43h572l8 -56h-188z" />
    <glyph glyph-name="tm_Thousand" unicode="&#xbf2;" horiz-adv-x="1090" 
d="M970 118.5q41 -23.5 64 -65t23 -93.5q0 -58 -27.5 -102.5t-77 -69.5t-113.5 -25h-149q-57 0 -87.5 -12t-46.5 -36l-56 34q35 70 189 70h150q65 0 104.5 39.5t39.5 101.5q0 53 -30 89.5t-76 36.5h-15v-19q0 -82 -53.5 -129t-136.5 -47q-76 0 -123 36.5t-47 93.5
q0 54 44 87.5t118 33.5h126v100h-313v-37q0 -66 -28.5 -116.5t-82 -78.5t-124.5 -28q-58 0 -103.5 20.5t-70.5 56.5t-25 81q0 53 31.5 92t89.5 55v226h478l9 -56h-174v-159h539l4 -56h-158v-100h14q53 0 94 -23.5zM235 457v-159h13h158v159h-171zM406 242h-156
q-63 0 -97.5 -27.5t-34.5 -74.5q0 -42 34 -69t90 -27q77 0 120.5 43.5t43.5 117.5v37zM790 86h-124q-43 0 -66 -18t-23 -48t25 -48.5t70 -18.5q51 0 84.5 31t33.5 83v19z" />
    <glyph glyph-name="tm_Naal" unicode="&#xbf3;" horiz-adv-x="879" 
d="M869 57v-57h-317l1 57q32 39 50.5 89.5t18.5 108.5q0 62 -30 110.5t-84.5 76t-124.5 27.5q-78 0 -136 -29.5t-88.5 -82t-30.5 -120.5q0 -88 50 -141q-8 24 -8 46q0 46 21 82.5t58.5 57t83.5 20.5q49 0 88.5 -20.5t61.5 -57t22 -82.5q0 -45 -22.5 -81.5t-62.5 -57.5
t-90 -21q-85 0 -147.5 33.5t-96 91.5t-33.5 130q0 85 40.5 152t115 104.5t174.5 37.5q91 0 163 -35.5t112 -98.5t40 -142q0 -54 -16.5 -105.5t-44.5 -92.5h232zM259 216q-29 -29 -29 -74t29 -74t74 -29t74.5 29t29.5 74t-29.5 74t-74.5 29t-74 -29z" />
    <glyph glyph-name="tm_Maatham" unicode="&#xbf4;" horiz-adv-x="1208" 
d="M1208 619v-56h-274v56q41 0 66 27.5t25 69.5q0 44 -33 72t-87 28q-32 0 -62 -8q27 -27 41.5 -63t14.5 -76q0 -55 -35 -89.5t-88 -34.5q-54 0 -89.5 34.5t-35.5 89.5q0 82 67 143q-26 4 -42 4q-68 0 -110.5 -42t-42.5 -108q0 -48 19 -84.5t52 -54.5q87 -15 135 -95.5
t48 -200.5q0 -105 -53.5 -168t-157.5 -63h-473v513l70 5v-461h213v277q0 78 32.5 126.5t90.5 63.5q-51 56 -51 142q0 61 28.5 109.5t80.5 75.5t119 27q57 0 107 -25q56 25 122 25q56 0 100.5 -21t69 -57.5t24.5 -83.5q0 -59 -38 -97h147zM816 732.5q-12 28.5 -35 48.5
q-28 -20 -43.5 -48.5t-15.5 -63.5q0 -28 15 -46t39 -18q23 0 37.5 18t14.5 46q0 35 -12 63.5zM664 403.5q-38 65.5 -108 65.5q-50 0 -79 -33t-29 -100v-279h118q70 0 103 47t33 127q0 107 -38 172.5z" />
    <glyph glyph-name="tm_Varudam" unicode="&#xbf5;" horiz-adv-x="1757" 
d="M1656 289.5q49 -64.5 49 -167.5q0 -122 -65 -207t-184.5 -128t-282.5 -43h-524q-177 0 -307 52.5t-199.5 148.5t-69.5 225q0 95 41 194.5t104 158.5l73 -10q-62 -51 -102.5 -148t-40.5 -197q0 -111 60.5 -194t174 -128.5t266.5 -45.5h524q139 -2 242 35t159 109.5
t56 177.5q0 78 -28 124.5t-82 46.5q-49 0 -81 -37t-32 -94v-162h-71v457h-189v-457h-352v57q32 39 51 89.5t19 108.5q0 62 -29.5 110.5t-84 76t-125.5 27.5q-78 0 -136 -29.5t-89 -82t-31 -120.5q0 -90 51 -142q-8 24 -8 47q0 70 46 115t117 45q49 0 88 -20.5t61 -57
t22 -82.5q0 -45 -22.5 -81.5t-62 -57.5t-89.5 -21q-85 0 -148 33.5t-96.5 91.5t-33.5 130q0 85 40.5 152t115.5 104.5t175 37.5q91 0 162.5 -35.5t111.5 -98.5t40 -142q0 -54 -16.5 -105.5t-44.5 -92.5h197v456h511l8 -56h-188v-153q21 24 50.5 37t64.5 13q85 0 134 -64.5z
M501.5 216q-29.5 -29 -29.5 -74t29.5 -74t74.5 -29t74 29t29 74t-29 74t-74 29t-74.5 -29z" />
    <glyph glyph-name="tm_Patru" unicode="&#xbf6;" horiz-adv-x="980" 
d="M887 -147h-266q-11 -57 -52.5 -100.5t-107 -67.5t-145.5 -24q-103 0 -163 38t-60 99q0 50 37 80.5t103 30.5h321v91h-461v513l70 5v-461h391v456h71v-604h191v604h71v-660zM468 -241.5q63 35.5 80 94.5h-315q-32 0 -48.5 -15t-16.5 -40q0 -33 40 -54t108 -21
q89 0 152 35.5z" />
    <glyph glyph-name="tm_Varavu" unicode="&#xbf7;" horiz-adv-x="1333" 
d="M1323 57v-57h-274v57q41 0 66 26.5t25 69.5q0 44 -34 72t-92 28q-39 0 -70 -10q27 -25 42 -60t15 -76q0 -55 -34.5 -90t-87.5 -35t-87.5 35t-34.5 90q0 76 59 133q-14 2 -21 2h-127v-242h-72v457h-207q-131 0 -196 -59t-65 -161q0 -88 50 -141q-8 24 -8 46q0 46 21 82.5
t58.5 57t83.5 20.5q49 0 88.5 -20.5t61.5 -57t22 -82.5q0 -45 -22.5 -81.5t-62.5 -57.5t-90 -21q-85 0 -147.5 33.5t-96 91.5t-33.5 130q0 82 36.5 144t110 97t180.5 35h468l8 -56h-188v-159h135q40 0 76 -14q60 31 135 31q60 0 105.5 -21t70.5 -57.5t25 -83.5
q0 -59 -39 -96h147zM259 216q-29 -29 -29 -74t29 -74t74 -29t74.5 29t29.5 74t-29.5 74t-74.5 29t-74 -29zM917 166.5q-13 27.5 -36 45.5q-25 -19 -39 -46t-14 -59q0 -28 14.5 -46t36.5 -18t36.5 18t14.5 46q0 32 -13 59.5z" />
    <glyph glyph-name="tm_Merpadi" unicode="&#xbf8;" horiz-adv-x="1863" 
d="M1771 0h-206v-243h-71v243h-450v57q24 52 37 109.5t13 104.5q0 89 -48.5 143.5t-141.5 54.5q-77 0 -138 -39q60 -49 93 -115t33 -141q0 -86 -44 -139t-120 -53t-120 53t-44 139q0 72 25.5 136t70.5 112q-88 47 -205 47q-98 0 -172 -31t-114.5 -86t-40.5 -124
q0 -86 52 -137q-10 23 -10 51q0 46 21 82.5t58.5 57t83.5 20.5q49 0 88.5 -20.5t61.5 -57t22 -82.5q0 -45 -22.5 -81.5t-62.5 -57.5t-90 -21q-85 0 -147.5 32t-96 88t-33.5 126q0 87 50 156t141.5 108t210.5 39q147 0 256 -64q42 31 91.5 47.5t101.5 16.5q84 0 143.5 -33
t90 -92t30.5 -136q0 -104 -48 -213h374v148q-30 -6 -63 -6q-59 0 -105 22t-72 61t-26 87q0 72 46.5 117t123.5 45t122 -44.5t45 -117.5v-67q77 50 135 155h71v-457zM1494 270v94q0 48 -25 76.5t-71 28.5q-45 0 -70 -27.5t-25 -72.5q0 -47 35 -77.5t93 -30.5q33 0 63 9z
M790.5 292.5q-26.5 54.5 -75.5 94.5q-36 -40 -56 -94.5t-20 -118.5q0 -58 23.5 -94t65.5 -36q43 0 66 36t23 94q0 64 -26.5 118.5zM1700 57v280q-56 -75 -135 -110v-170h135zM259 68q29 -29 74 -29t74.5 29t29.5 74t-29.5 74t-74.5 29t-74 -29t-29 -74t29 -74z" />
    <glyph glyph-name="tm_Rupee" unicode="&#xbf9;" horiz-adv-x="1089" 
d="M988 289.5q49 -64.5 49 -167.5q0 -116 -55.5 -201.5t-158 -131t-240.5 -45.5q-160 0 -275 65.5t-175 185.5t-60 282q0 173 68 310t190.5 214t280.5 77q108 0 192 -27.5t130 -73t46 -97.5q0 -46 -30 -75.5t-76 -29.5q-48 0 -79 29t-31 73q0 36 21 62t57 35q-88 41 -230 41
q-136 0 -241.5 -69t-164 -191.5t-58.5 -278.5q0 -144 50.5 -250t148.5 -163t236 -57q117 0 202 37.5t130.5 108.5t45.5 170q0 78 -27.5 124.5t-81.5 46.5q-49 0 -81.5 -37t-32.5 -94v-162h-70v457h-214v-457h-71v513h536l8 -56h-189v-153q45 50 116 50q85 0 134 -64.5z
M910.5 639.5q14.5 14.5 14.5 36.5q0 21 -14.5 35.5t-36.5 14.5t-36.5 -14.5t-14.5 -35.5q0 -22 14.5 -36.5t36.5 -14.5t36.5 14.5z" />
    <glyph glyph-name="tm_Enn" unicode="&#xbfa;" horiz-adv-x="997" 
d="M997 619v-56h-273v56q41 0 65.5 27t24.5 70q0 44 -33.5 72t-86.5 28q-32 0 -62 -8q27 -27 41.5 -63t14.5 -76q0 -56 -34.5 -90t-88.5 -34t-89 34t-35 90q0 41 17.5 77.5t49.5 64.5q-23 5 -43 5q-68 0 -110 -42t-42 -108q0 -67 35.5 -110t93.5 -43h154l8 -56h-189v-153
q21 24 51 37t65 13q85 0 133.5 -64.5t48.5 -167.5q0 -85 -31.5 -151.5t-91.5 -103.5t-142 -37h-136q-114 0 -162 -73l-57 31q24 44 79 71t133 27h143q90 0 140 65t50 171q0 78 -27.5 124.5t-81.5 46.5q-50 0 -82 -37t-32 -94v-162h-71v457h-181v-457h-70v513h206
q-30 28 -45.5 67t-15.5 86q0 61 28.5 109.5t80.5 75.5t118 27q57 0 107 -25q56 25 122 25q56 0 100.5 -21t69.5 -58t25 -83q0 -58 -39 -97h147zM606 732.5q-12 28.5 -35 48.5q-28 -20 -44 -48.5t-16 -63.5q0 -28 15.5 -46t38.5 -18t38 18t15 46q0 35 -12 63.5z" />
    <glyph glyph-name="uni200C" unicode="&#x200c;" horiz-adv-x="0" 
d="M-30 -68h60v1305h-60v-1305z" />
    <glyph glyph-name="uni200D" unicode="&#x200d;" horiz-adv-x="0" 
d="M0 1246l-73 74l-40 -40l74 -74l-74 -74l39 -39l44 43v-1204h60v1205l45 -44l39 39l-74 74l74 74l-40 40z" />
    <glyph glyph-name="endash" unicode="&#x2013;" horiz-adv-x="440" 
d="M401 305h-371l9 -63h371z" />
    <glyph glyph-name="emdash" unicode="&#x2014;" horiz-adv-x="538" 
d="M500 305h-470l9 -63h469z" />
    <glyph glyph-name="quoteleft" unicode="&#x2018;" horiz-adv-x="173" 
d="M122 500.5q16 16.5 16 37.5t-13.5 37t-32.5 17q3 26 18 44t43 38l-22 38q-42 -22 -71.5 -69.5t-29.5 -95.5q0 -28 15.5 -45.5t38.5 -17.5q22 0 38 16.5z" />
    <glyph glyph-name="quoteright" unicode="&#x2019;" horiz-adv-x="173" 
d="M49.5 695.5q-16.5 -16.5 -16.5 -37.5q0 -20 13.5 -36.5t32.5 -17.5q-3 -26 -17.5 -45t-41.5 -38l21 -37q42 22 72 69.5t30 95.5q0 28 -16.5 45.5t-38.5 17.5t-38.5 -16.5z" />
    <glyph glyph-name="quotesinglbase" unicode="&#x201a;" horiz-adv-x="173" 
d="M49.5 91q-16.5 -16 -16.5 -37q0 -20 14 -36t32 -17q-3 -26 -17.5 -45.5t-41.5 -38.5l21 -37q43 22 72.5 69.5t29.5 95.5q0 28 -16 45t-39 17q-22 0 -38.5 -16z" />
    <glyph glyph-name="quotedblleft" unicode="&#x201c;" horiz-adv-x="329" 
d="M122 500.5q16 16.5 16 37.5t-13.5 37t-32.5 17q3 26 18 44t43 38l-22 38q-42 -22 -71.5 -69.5t-29.5 -95.5q0 -28 15.5 -45.5t38.5 -17.5q22 0 38 16.5zM278.5 500.5q16.5 16.5 16.5 37.5q0 20 -13.5 36t-31.5 18q2 26 16.5 44.5t42.5 37.5l-21 38q-43 -22 -72 -69.5
t-29 -95.5q0 -27 15.5 -45t37.5 -18t38.5 16.5z" />
    <glyph glyph-name="quotedblright" unicode="&#x201d;" horiz-adv-x="328" 
d="M49.5 695.5q-16.5 -16.5 -16.5 -37.5q0 -20 13.5 -36.5t32.5 -17.5q-3 -26 -17.5 -45t-41.5 -38l21 -37q42 22 72 69.5t30 95.5q0 28 -16.5 45.5t-38.5 17.5t-38.5 -16.5zM206 695.5q-16 -16.5 -16 -37.5q0 -20 13.5 -36.5t32.5 -17.5q-4 -26 -18.5 -45t-41.5 -38l21 -37
q42 22 71.5 69.5t29.5 95.5q0 28 -16 45.5t-38 17.5t-38 -16.5z" />
    <glyph glyph-name="quotedblbase" unicode="&#x201e;" horiz-adv-x="328" 
d="M49.5 92q-16.5 -16 -16.5 -38q0 -20 14 -36t32 -17q-3 -26 -17.5 -44.5t-41.5 -38.5l21 -38q42 22 72 69.5t30 95.5q0 28 -16.5 45.5t-38.5 17.5t-38.5 -16zM206 91q-16 -16 -16 -37q0 -20 14 -36t32 -17q-4 -27 -18.5 -46t-41.5 -38l21 -37q42 22 71.5 69.5t29.5 95.5
q0 28 -16 45t-38 17t-38 -16z" />
    <glyph glyph-name="dagger" unicode="&#x2020;" horiz-adv-x="392" 
d="M155 783v-158h-125l19 -66h106l10 -559l64 -4l10 563h123l-19 66h-104v155z" />
    <glyph glyph-name="daggerdbl" unicode="&#x2021;" horiz-adv-x="397" 
d="M243 1l-5 177h129l-19 67h-109l3 281h125l-19 68h-109l5 186l-89 3l5 -189h-130l19 -68h109l-3 -281h-125l19 -67h109l-5 -184z" />
    <glyph glyph-name="bullet" unicode="&#x2022;" horiz-adv-x="237" 
d="M181.5 265.5q25.5 25.5 25.5 61.5q0 37 -25.5 63t-62.5 26t-63 -26t-26 -63q0 -36 26 -61.5t63 -25.5t62.5 25.5z" />
    <glyph glyph-name="ellipsis" unicode="&#x2026;" horiz-adv-x="464" 
d="M116.5 14.5q14.5 14.5 14.5 35.5q0 22 -14.5 36.5t-35.5 14.5t-36 -14.5t-15 -36.5q0 -21 15 -35.5t36 -14.5t35.5 14.5zM270 14.5q15 14.5 15 35.5q0 22 -14.5 36.5t-35.5 14.5q-22 0 -37 -14.5t-15 -36.5q0 -21 15 -35.5t37 -14.5q20 0 35 14.5zM419.5 14.5
q14.5 14.5 14.5 35.5q0 22 -14.5 36.5t-35.5 14.5t-36 -14.5t-15 -36.5q0 -21 15 -35.5t36 -14.5t35.5 14.5z" />
    <glyph glyph-name="perthousand" unicode="&#x2030;" horiz-adv-x="1233" 
d="M545 710l-305 -710l76 -4l306 710zM112 681q-36 -21 -57.5 -59.5t-21.5 -89.5q0 -79 44 -124t115 -45q43 0 79 21t57.5 59t21.5 89q0 79 -44.5 124.5t-114.5 45.5q-43 0 -79 -21zM251 613q24 -27 24 -81t-24.5 -80.5t-58.5 -26.5q-37 0 -61 27t-24 81q0 53 25 80t59 27
q36 0 60 -27zM592.5 317q-36.5 -21 -57.5 -59t-21 -89q0 -79 44.5 -124t114.5 -45q43 0 79 21t57 59t21 89q0 79 -44 124t-113 45q-44 0 -80.5 -21zM962 317q-36 -21 -57 -59t-21 -89q0 -79 44 -124t115 -45q43 0 79 21t57.5 59t21.5 89q0 79 -44 124t-115 45q-44 0 -80 -21
zM732 249.5q24 -27.5 24 -80.5t-24.5 -80.5t-58.5 -27.5q-36 0 -60.5 27.5t-24.5 81.5t25 80.5t60 26.5t59 -27.5zM1102.5 249.5q24.5 -27.5 24.5 -80.5t-25 -80.5t-59 -27.5q-36 0 -60.5 27.5t-24.5 81.5t25 80.5t59 26.5q36 0 60.5 -27.5z" />
    <glyph glyph-name="guilsinglleft" unicode="&#x2039;" horiz-adv-x="217" 
d="M30 221l145 -138l22 56l-102 106l102 106l-22 57l-145 -139v-48z" />
    <glyph glyph-name="guilsinglright" unicode="&#x203a;" horiz-adv-x="218" 
d="M188 269l-145 139l-23 -57l104 -106l-104 -106l23 -56l145 138v48z" />
    <glyph glyph-name="fraction" unicode="&#x2044;" horiz-adv-x="402" 
d="M316 710l-306 -710l76 -4l306 710z" />
    <glyph glyph-name="Euro" unicode="&#x20ac;" horiz-adv-x="598" 
d="M576 25q-31 -16 -82.5 -27.5t-94.5 -11.5q-118 0 -195 63.5t-105 168.5h-89l-10 61h87q-3 29 -3 57q0 36 4 63h-78l-10 60h101q30 107 110 171t194 64q36 0 88 -10.5t81 -28.5l-25 -57q-40 15 -69 21.5t-76 6.5q-73 0 -131 -45t-86 -122h247l9 -60h-271q-5 -33 -5 -62
q0 -33 4 -58h263l9 -61h-258q26 -75 80.5 -119t130.5 -44q85 0 149 30z" />
    <glyph glyph-name="Turkishlira" unicode="&#x20ba;" horiz-adv-x="497" 
d="M154 0q83 0 157.5 42.5t120 117.5t45.5 167h-80q0 -67 -33.5 -127t-87.5 -95.5t-111 -35.5v309l191 67l-12 58l-179 -63v52l191 67l-12 58l-179 -63v152l-79 -10v-171l-86 -30l11 -59l75 27v-50l-86 -31l11 -59l75 27v-350h68z" />
    <glyph glyph-name="Ruble" unicode="&#x20bd;" horiz-adv-x="562" 
d="M172 257v-55h290l7 -60h-297v-142h-79v142h-53l-7 60h60v59h-53l-7 60h60v359h185q115 0 183 -50.5t68 -157.5q-1 -106 -74 -160.5t-187 -54.5h-96zM172 324h99q79 0 127 35.5t50 109.5q0 79 -43 111.5t-126 32.5h-107v-289z" />
    <glyph glyph-name="litre" unicode="&#x2113;" horiz-adv-x="366" 
d="M78 211v-57q0 -80 31.5 -123t108.5 -43q62 0 101 38l-27 49q-37 -19 -66 -19q-42 0 -55 27.5t-13 80.5v110q78 72 128 150.5t50 144.5q0 61 -34.5 97t-89.5 36q-59 0 -96.5 -37.5t-37.5 -102.5v-267q-34 -30 -68 -54l19 -64q28 16 49 34zM158 371v189q0 39 15 56.5
t38 18.5q21 0 33.5 -16t12.5 -53q0 -83 -99 -195z" />
    <glyph glyph-name="trademark" unicode="&#x2122;" horiz-adv-x="730" 
d="M300 680h-290v-51h115v-323h63v323h118zM534 408l93 132v-234h61v374h-28l-134 -188l-142 188h-26v-374h62v236l98 -137z" />
    <glyph glyph-name="Ohm" unicode="&#x2126;" horiz-adv-x="716" 
d="M553 175q-35 -81 -90 -111l-3 -64h207l6 64h-111q51 41 80.5 117.5t29.5 158.5q0 101 -37.5 181t-109 126.5t-167.5 48.5q-96 -2 -167.5 -48.5t-109 -126.5t-37.5 -181q0 -82 29.5 -158.5t80.5 -117.5h-111l6 -64h207l-4 64q-55 30 -90 111t-35 165q0 83 29.5 148.5
t82.5 102t119 36.5t118.5 -36.5t82 -102t29.5 -148.5q0 -84 -35 -165z" />
    <glyph glyph-name="estimated" unicode="&#x212e;" horiz-adv-x="499" 
d="M415.5 424q-50.5 74 -156.5 74q-70 0 -121.5 -32.5t-78 -90t-26.5 -131.5q0 -117 65 -187t189 -70q50 0 91 13.5t82 36.5l-25 58q-45 -22 -77.5 -32t-71.5 -10q-86 0 -127.5 47.5t-44.5 129.5h352q0 120 -50.5 194zM158.5 391.5q35.5 39.5 97.5 39.5q115 0 132 -147h-272
q7 68 42.5 107.5z" />
    <glyph glyph-name="partialdiff" unicode="&#x2202;" horiz-adv-x="536" 
d="M408 550q96 -130 96 -304q0 -75 -28.5 -133.5t-83 -92t-130.5 -33.5q-70 0 -122 32.5t-79.5 91t-27.5 133.5q1 74 29.5 131.5t82.5 90t126 32.5q53 0 102 -27q-37 69 -105 124.5t-176 98.5l23 56q197 -70 293 -200zM380 106.5q42 52.5 43 133.5q0 74 -14 134
q-55 57 -139 57q-72 0 -114 -52.5t-43 -133.5q0 -85 40 -138t113 -53q72 0 114 52.5z" />
    <glyph glyph-name="Delta" unicode="&#x2206;" horiz-adv-x="609" 
d="M262 680l-252 -680h589v12l-261 668h-76zM496 64h-386l189 512z" />
    <glyph glyph-name="product" unicode="&#x220f;" horiz-adv-x="621" 
d="M93 0h75v622h285v-622h76v680h-436v-680z" />
    <glyph glyph-name="summation" unicode="&#x2211;" horiz-adv-x="452" 
d="M395 680h-364v-59l195 -276l-196 -282v-63h402l-9 63h-310l181 266v33l-180 259h290z" />
    <glyph glyph-name="minus" unicode="&#x2212;" horiz-adv-x="478" 
d="M437 305h-407l8 -63h410z" />
    <glyph glyph-name="divisionslash" unicode="&#x2215;" horiz-adv-x="402" 
d="M316 710l-306 -710l76 -4l306 710z" />
    <glyph glyph-name="bulletmath" unicode="&#x2219;" horiz-adv-x="237" 
d="M181.5 265.5q25.5 25.5 25.5 61.5q0 37 -25.5 63t-62.5 26t-63 -26t-26 -63q0 -36 26 -61.5t63 -25.5t62.5 25.5z" />
    <glyph glyph-name="radical" unicode="&#x221a;" horiz-adv-x="558" 
d="M474 710l-257 -630l-128 241l-79 -4l166 -317l82 -4l290 710z" />
    <glyph glyph-name="infinity" unicode="&#x221e;" horiz-adv-x="817" 
d="M131 432.5q-46 -28.5 -72 -77.5t-26 -108t25.5 -105t72 -71.5t106.5 -25.5q96 0 162 105q37 -50 83.5 -77.5t100.5 -27.5q59 0 105 28.5t71.5 77t25.5 107.5t-25.5 105.5t-72 72t-106.5 25.5q-98 0 -164 -104q-36 48 -82.5 76t-99.5 28q-58 0 -104 -28.5zM495.5 350.5
q34.5 44.5 85.5 44.5q59 0 95 -39.5t36 -95.5q0 -62 -35.5 -105t-94.5 -43q-48 0 -86.5 27.5t-63.5 72.5l10 34q19 60 53.5 104.5zM323 154q-34 -43 -86 -43q-59 0 -95 39t-36 95q0 62 35.5 105t94.5 43q48 0 87 -27.5t63 -72.5l-10 -33q-19 -63 -53 -106z" />
    <glyph glyph-name="integral" unicode="&#x222b;" horiz-adv-x="335" 
d="M273 715q12 0 43 -11l19 63q-12 6 -32.5 11t-40.5 5q-63 0 -98.5 -39.5t-35.5 -108.5v-661q0 -83 -67 -83q-18 0 -43 9l-18 -63q13 -6 33.5 -11t39.5 -5q63 0 98.5 40t35.5 109v661q0 84 66 84z" />
    <glyph glyph-name="approxequal" unicode="&#x2248;" horiz-adv-x="506" 
d="M397.5 367q-17.5 -10 -34.5 -10q-42 0 -102 22q-63 21 -103 21q-51 0 -89.5 -19.5t-38.5 -72.5l59 -13q1 21 20.5 31t37.5 10q47 0 107 -22t97 -22q125 0 125 92l-60 14q-1 -21 -18.5 -31zM397.5 187q-17.5 -10 -34.5 -10q-42 0 -102 22q-62 22 -103 22
q-51 0 -89.5 -19.5t-38.5 -73.5l59 -12q1 20 20.5 30t37.5 10q46 0 107 -21q63 -23 97 -23q50 0 87.5 19.5t37.5 72.5l-60 14q-1 -21 -18.5 -31z" />
    <glyph glyph-name="notequal" unicode="&#x2260;" horiz-adv-x="502" 
d="M330 520l-62 -140h-238l9 -61h201l-56 -127h-154l9 -61h118l-63 -141l69 -5l66 146h243l-8 61h-209l57 127h160l-8 61h-125l60 137z" />
    <glyph glyph-name="lessequal" unicode="&#x2264;" horiz-adv-x="334" 
d="M314 167l-205 127l205 127l-23 60l-261 -160v-56l261 -159zM305 60h-274l8 -60h272z" />
    <glyph glyph-name="greaterequal" unicode="&#x2265;" horiz-adv-x="335" 
d="M305 321l-262 160l-23 -60l205 -127l-205 -127l23 -61l262 159v56zM294 60h-273l8 -60h272z" />
    <glyph glyph-name="lozenge" unicode="&#x25ca;" horiz-adv-x="535" 
d="M283 0l222 289v22l-222 288h-31l-222 -288v-22l222 -289h31zM267 513l162 -214l-162 -211l-160 211z" />
    <glyph glyph-name="uni25CC" unicode="&#x25cc;" horiz-adv-x="605" 
d="M323 467q8 8 8 21t-8 21.5t-21 8.5t-21 -8.5t-8 -21.5t8 -21t21 -8t21 8zM192 494q-8 -8 -8 -21t8 -21t21 -8t21 8t8 21t-8 21t-21 8t-21 -8zM413 452q8 8 8 21t-8 21t-21 8t-21 -8t-8 -21t8 -21t21 -8t21 8zM115.5 443.5q-8.5 -8.5 -8.5 -21.5t8.5 -21t21.5 -8t21 8
t8 21t-8 21.5t-21 8.5t-21.5 -8.5zM489.5 401q8.5 8 8.5 21t-8.5 21.5t-21.5 8.5t-21 -8.5t-8 -21.5t8 -21t21 -8t21.5 8zM67.5 364.5q-8.5 -8.5 -8.5 -21.5t8.5 -21t21.5 -8t21 8t8 21t-8 21.5t-21 8.5t-21.5 -8.5zM537 322q8 8 8 21t-8 21.5t-21 8.5t-21 -8.5t-8 -21.5
t8 -21t21 -8t21 8zM53.5 278.5q-8.5 -8.5 -8.5 -21.5t8.5 -20.5t21.5 -7.5t21 7.5t8 20.5t-8 21.5t-21 8.5t-21.5 -8.5zM551.5 236.5q8.5 7.5 8.5 20.5t-8.5 21.5t-21.5 8.5t-21 -8.5t-8 -21.5t8 -20.5t21 -7.5t21.5 7.5zM67.5 195q-8.5 -8 -8.5 -21t8.5 -21t21.5 -8t21 8
t8 21t-8 21t-21 8t-21.5 -8zM537 153q8 8 8 21t-8 21t-21 8t-21 -8t-8 -21t8 -21t21 -8t21 8zM114.5 115q-8.5 -8 -8.5 -21t8.5 -21t21.5 -8t21 8t8 21t-8 21t-21 8t-21.5 -8zM490.5 73q8.5 8 8.5 21t-8.5 21t-21.5 8t-21 -8t-8 -21t8 -21t21 -8t21.5 8zM192 65.5
q-8 -8.5 -8 -21.5t8 -21t21 -8t21 8t8 21t-8 21.5t-21 8.5t-21 -8.5zM413 23q8 8 8 21t-8 21.5t-21 8.5t-21 -8.5t-8 -21.5t8 -21t21 -8t21 8zM323 8q8 8 8 21t-8 21.5t-21 8.5t-21 -8.5t-8 -21.5t8 -21t21 -8t21 8z" />
    <glyph glyph-name="commaaccent" unicode="&#xf6c3;" horiz-adv-x="0" 
d="M-103 -37.5q-16 -16.5 -16 -38.5q0 -20 13.5 -36t32.5 -17q-4 -41 -56 -73l21 -38q41 20 69.5 64.5t28.5 91.5q0 28 -16 45.5t-39 17.5q-22 0 -38 -16.5z" />
    <glyph glyph-name="fi" unicode="&#xfb01;" horiz-adv-x="504" 
d="M90 417v-417h79v417h115l-26 60h-89v71q0 83 68 83q10 0 23 -3t21 -7l18 64q-13 7 -33 12t-40 5q-63 0 -99.5 -40.5t-36.5 -108.5v-76h-74l1 -60h73zM439 597.5q16 15.5 16 37.5t-16 38t-38 16q-23 0 -38 -15.5t-15 -38.5t15 -38t38 -15q22 0 38 15.5zM442 0v485h-80
v-485h80z" />
    <glyph glyph-name="fl" unicode="&#xfb02;" horiz-adv-x="523" 
d="M90 417v-417h79v417h115l-26 60h-89v71q0 83 68 83q10 0 23 -3t21 -7l18 64q-13 7 -33 12t-40 5q-63 0 -99.5 -40.5t-36.5 -108.5v-76h-74l1 -60h73zM451 0v706l-79 -10v-696h79z" />
    <glyph glyph-name="grave.case" horiz-adv-x="161" 
d="M98 739l53 15l-54 141h-87z" />
    <glyph glyph-name="dieresis.case" horiz-adv-x="283" 
d="M94 778.5q14 14.5 14 34.5t-14 34t-35 14q-20 0 -34.5 -14.5t-14.5 -33.5q0 -20 14.5 -34.5t34.5 -14.5q21 0 35 14.5zM259 778.5q14 14.5 14 34.5t-14 34t-35 14q-19 0 -33.5 -14t-14.5 -34t14 -34.5t34 -14.5q21 0 35 14.5z" />
    <glyph glyph-name="macron.case" horiz-adv-x="266" 
d="M10 783h246l-8 63h-238v-63z" />
    <glyph glyph-name="acute.case" horiz-adv-x="161" 
d="M63 739l88 156h-87l-54 -141z" />
    <glyph glyph-name="circumflex.case" horiz-adv-x="313" 
d="M156 837l75 -98l72 10l-116 146h-63l-114 -146l71 -10z" />
    <glyph glyph-name="caron.case" horiz-adv-x="313" 
d="M157 797l-75 98l-72 -10l116 -146h63l114 146l-71 10z" />
    <glyph glyph-name="breve.case" horiz-adv-x="289" 
d="M201 831.5q-21 -24.5 -57 -24.5t-56.5 24.5t-20.5 55.5h-57q0 -59 34 -98.5t100 -40.5q67 1 101 40.5t34 98.5h-57q0 -31 -21 -55.5z" />
    <glyph glyph-name="dotaccent.case" horiz-adv-x="128" 
d="M102.5 778q15.5 16 15.5 38t-15.5 38.5t-37.5 16.5t-38.5 -16.5t-16.5 -38.5t16 -38t39 -16q22 0 37.5 16z" />
    <glyph glyph-name="ring.case" horiz-adv-x="206" 
d="M37.5 892.5q-27.5 -25.5 -27.5 -63.5q0 -36 27.5 -60.5t66.5 -24.5q38 0 65 24.5t27 60.5q0 38 -27 63.5t-65 25.5q-39 0 -66.5 -25.5zM73.5 800q-12.5 12 -12.5 29q0 19 12.5 31t30.5 12t30 -12t12 -31q0 -17 -12.5 -29t-29.5 -12q-18 0 -30.5 12z" />
    <glyph glyph-name="tilde.case" horiz-adv-x="312" 
d="M236 823.5q-10 -10.5 -24 -10.5q-26 0 -49 23q-22 21 -64 21q-89 0 -89 -98h55q1 19 12 30t25 11q25 0 51 -23q23 -22 59 -22q41 0 65.5 23t24.5 75h-55q-1 -19 -11 -29.5z" />
    <glyph glyph-name="hungarumlaut.case" horiz-adv-x="314" 
d="M63 739l88 156h-87l-54 -141zM216 739l88 156h-87l-54 -141z" />
    <glyph glyph-name="tm_VowelAi.alt" horiz-adv-x="360" 
d="M476 217q0 -67 -27 -120.5t-74.5 -84t-107.5 -30.5q-75 0 -122 40.5t-47 103.5q0 40 24 76t78 90l61 61q41 39 59.5 66.5t18.5 65.5q0 41 -29 68t-75 27q-57 0 -95 -31h2q46 0 75.5 -27.5t29.5 -69.5q0 -43 -29 -71.5t-74 -28.5q-48 0 -79.5 29t-31.5 75q0 51 26 93.5
t72 67.5t104 25q52 0 92.5 -20.5t63 -57t22.5 -82.5q0 -47 -28 -88.5t-78 -90.5l-62 -61q-39 -38 -55.5 -63.5t-16.5 -52.5q0 -36 26 -59t68 -23q43 0 77 22.5t52.5 62t17.5 88.5h62zM173.5 482q-12.5 13 -31.5 13t-32 -12.5t-13 -32.5q0 -19 12.5 -31.5t31.5 -12.5t32 12.5
t13 31.5t-12.5 32z" />
    <glyph glyph-name="tm_VowelI.alt1" horiz-adv-x="256" 
d="M19.5 759.5q68.5 -37.5 106 -104.5t37.5 -152v-503h-70v503q0 68 -28.5 121t-81 82.5t-123.5 29.5q-75 0 -117 -31t-42 -82q0 -41 23.5 -73t65.5 -41l-83 -24q-37 22 -58 58.5t-22 79.5q0 50 28.5 89.5t81.5 62t123 22.5q91 0 159.5 -37.5z" />
    <glyph glyph-name="tm_VowelU.alt1" horiz-adv-x="0" 
d="M-93 -187l-70 -10v232l70 4v-226z" />
    <glyph glyph-name="tm_VowelUu.alt1" horiz-adv-x="427" 
d="M228 457v-604h-71v604h-321v56h572l9 -56h-189z" />
    <glyph glyph-name="tm_VowelI.alt2" horiz-adv-x="256" 
d="M-31.5 759.5q93.5 -37.5 144 -104.5t50.5 -152v-503h-70v503q0 68 -41.5 121t-119 82.5t-181.5 29.5q-107 0 -162 -32.5t-55 -85.5q0 -37 19 -64.5t56 -39.5l-45 -39q-48 19 -75.5 57t-28.5 86q0 52 33.5 92.5t99.5 63.5t158 23q124 0 217.5 -37.5z" />
    <glyph glyph-name="tm_VowelU.alt2" horiz-adv-x="471" 
d="M353.5 492.5q40.5 -20.5 63 -57t22.5 -81.5q0 -46 -22.5 -82.5t-62 -57t-88.5 -20.5t-88.5 20.5t-61.5 56.5t-22 82q0 62 40 104h-413v56h542q50 0 90.5 -20.5zM338.5 279.5q28.5 29.5 28.5 74.5t-28.5 74t-72.5 29q-46 0 -75 -29t-29 -74t29 -74.5t75 -29.5
q44 0 72.5 29.5z" />
    <glyph glyph-name="tm_VowelUu.alt2" horiz-adv-x="666" 
d="M504 578.5q60 -33.5 94.5 -93t34.5 -133.5q0 -77 -39 -139t-108.5 -97t-156.5 -35h-58v56h58q66 0 118 27.5t81.5 76.5t29.5 111q0 57 -24.5 102.5t-68 71.5t-96.5 26q-79 0 -132 -39h26q50 0 90.5 -20.5t63 -57t22.5 -81.5q0 -69 -47.5 -113t-121.5 -44q-49 0 -88 21.5
t-61 60t-22 85.5q0 50 17 93h-405v56h437q36 47 93 73t128 26q75 0 135 -33.5zM338 428.5q-29 28.5 -78 28.5h-73q-22 -42 -22 -92q0 -49 29.5 -80.5t75.5 -31.5q43 0 70 28t27 73q0 46 -29 74.5z" />
    <glyph glyph-name="tm_VowelI.alt3" horiz-adv-x="256" 
d="M1.5 759.5q77.5 -37.5 119.5 -104.5t42 -152v-503h-70v503q0 68 -33 121t-95 82.5t-146 29.5q-74 0 -116.5 -31t-42.5 -82q0 -49 34 -79.5t95 -30.5v-49q-92 0 -146.5 44.5t-55.5 114.5q0 50 28.5 89.5t81 62t122.5 22.5q105 0 182.5 -37.5z" />
    <glyph glyph-name="tm_VowelU.alt3" horiz-adv-x="471" 
d="M353.5 492.5q40.5 -20.5 63 -57t22.5 -81.5q0 -46 -22.5 -82.5t-62 -57t-88.5 -20.5t-88.5 20.5t-61.5 56.5t-22 82q0 62 40 104h-332v56h461q50 0 90.5 -20.5zM338.5 279.5q28.5 29.5 28.5 74.5t-28.5 74t-72.5 29q-46 0 -75 -29t-29 -74t29 -74.5t75 -29.5
q44 0 72.5 29.5z" />
    <glyph glyph-name="tm_VowelUu.alt3" horiz-adv-x="666" 
d="M504 578.5q60 -33.5 94.5 -93t34.5 -133.5q0 -77 -39 -139t-108.5 -97t-156.5 -35h-58v56h58q66 0 118 27.5t81.5 76.5t29.5 111q0 57 -24.5 102.5t-68 71.5t-96.5 26q-79 0 -132 -39h26q50 0 90.5 -20.5t63 -57t22.5 -81.5q0 -69 -47.5 -113t-121.5 -44q-49 0 -88 21.5
t-61 60t-22 85.5q0 50 17 93h-312v56h344q36 47 93 73t128 26q75 0 135 -33.5zM338 428.5q-29 28.5 -78 28.5h-73q-22 -42 -22 -92q0 -49 29.5 -80.5t75.5 -31.5q43 0 70 28t27 73q0 46 -29 74.5z" />
    <glyph glyph-name="tm_VowelI.alt4" horiz-adv-x="256" 
d="M-5.5 759.5q81.5 -37.5 125 -104t43.5 -152.5v-503h-70v503q0 68 -34.5 121t-100 82.5t-157.5 29.5q-103 0 -158 -32.5t-55 -85.5q0 -48 33.5 -76.5t95.5 -28.5v-49q-93 0 -147 42t-55 112q0 52 33.5 92.5t98 63.5t154.5 23q112 0 193.5 -37.5z" />
    <glyph glyph-name="tm_KU" horiz-adv-x="1062" 
d="M901 267q54 -31 81.5 -83t27.5 -115q0 -99 -53.5 -172.5t-154.5 -113t-241 -39.5q-152 0 -262.5 53t-168 147.5t-57.5 216.5q0 96 41.5 200t103.5 162l73 -10q-62 -51 -102.5 -152t-40.5 -202q0 -103 48 -183t141.5 -125t223.5 -45q118 0 202 31.5t127.5 91t43.5 140.5
q0 74 -41 123.5t-122 49.5h-14v-37q0 -66 -28.5 -116.5t-81.5 -78.5t-125 -28q-58 0 -103.5 20.5t-70.5 56.5t-25 81q0 53 31.5 92t89.5 55v226h479l8 -56h-174v-159h13q77 0 131 -31zM515 457v-159h14h157v159h-171zM686 242h-156q-63 0 -97.5 -27.5t-34.5 -74.5
q0 -42 34.5 -69t89.5 -27q77 0 120.5 43.5t43.5 117.5v37z" />
    <glyph glyph-name="tm_CU" horiz-adv-x="809" 
d="M667 242v-242h-72v242h-118v-37q0 -66 -28.5 -116.5t-82 -78.5t-124.5 -28q-58 0 -103.5 20.5t-70.5 56.5t-25 81q0 53 31.5 92t89.5 55v226h478l9 -56h-174v-159h295l5 -56h-110zM235 457v-159h13h158v159h-171zM406 242h-156q-63 0 -97.5 -27.5t-34.5 -74.5
q0 -42 34 -69t90 -27q77 0 120.5 43.5t43.5 117.5v37z" />
    <glyph glyph-name="tm_NyU" horiz-adv-x="1234" 
d="M1141 -147h-298q-75 -91 -201 -141.5t-290 -50.5q-129 0 -198.5 36.5t-69.5 105.5q0 48 39.5 77t108.5 29h563q68 93 68 213q0 78 -27.5 124.5t-80.5 46.5q-50 0 -82 -37t-32 -94v-162h-72v457h-180q-131 0 -196 -59t-65 -161q0 -88 50 -141q-8 24 -8 46q0 46 21 82.5
t58.5 57t83.5 20.5q49 0 88.5 -20.5t61.5 -57t22 -82.5q0 -45 -22.5 -81.5t-62.5 -57.5t-90 -21q-85 0 -147.5 33.5t-96 91.5t-33.5 130q0 82 36.5 144t110 97t180.5 35h441l8 -56h-188v-153q45 50 115 50q85 0 133.5 -64t48.5 -168q0 -118 -56 -213h188v604h71v-660z
M259 216q-29 -29 -29 -74t29 -74t74 -29t74.5 29t29.5 74t-29.5 74t-74.5 29t-74 -29zM576 -243q100 34 169 96h-513q-36 0 -54.5 -13.5t-18.5 -36.5q0 -41 52.5 -60.5t140.5 -19.5q124 0 224 34z" />
    <glyph glyph-name="tm_TtU" horiz-adv-x="819" 
d="M681 319q42 -35 64 -94t22 -130q0 -103 -41 -182.5t-118.5 -124t-185.5 -44.5q-109 0 -188 50t-120 138t-41 202q0 64 18 139.5t50 142.5t73 107l71 -10q-40 -35 -71 -99t-48.5 -139.5t-17.5 -142.5q0 -96 31.5 -169.5t93.5 -115t149 -41.5q86 0 146.5 36.5t91.5 102
t31 150.5q0 84 -28.5 140t-82.5 56q-50 0 -81 -36t-31 -93v-162h-70v513h70v-207q46 48 114 48q57 0 99 -35z" />
    <glyph glyph-name="tm_NnU" horiz-adv-x="1922" 
d="M1830 -147h-481q-133 -93 -342.5 -142.5t-490.5 -49.5q-221 0 -326.5 40.5t-105.5 109.5q0 44 36.5 71t103.5 27h1092q85 64 128 148t43 184q0 110 -47.5 169t-142.5 59q-67 0 -124 -31q53 -48 82 -116t29 -148q0 -86 -44 -139t-119 -53q-76 0 -120 53t-44 139
q0 76 28.5 143.5t79.5 116.5q-62 35 -141 35q-88 0 -155 -42q59 -49 91 -114t32 -139q0 -86 -44 -139t-120 -53t-120 53t-44 139q0 73 24.5 136.5t70.5 112.5q-89 46 -204 46q-98 0 -172 -31t-114.5 -86t-40.5 -124q0 -86 52 -137q-10 23 -10 51q0 46 21 82.5t58.5 57
t83.5 20.5q49 0 88.5 -20.5t61.5 -57t22 -82.5q0 -45 -22.5 -81.5t-62.5 -57.5t-90 -21q-85 0 -147.5 32t-96 88t-33.5 126q0 87 50 156t141.5 108t210.5 39q147 0 256 -64q91 64 213 64q110 0 196 -53q81 53 177 53q127 0 195.5 -76.5t68.5 -214.5q0 -194 -143 -331h340
v604h72v-660zM1185 299q-24 57 -68 97q-40 -40 -62.5 -97t-22.5 -125q0 -58 23.5 -94t65.5 -36t65 36t23 94q0 68 -24 125zM791 291q-26 54 -74 94q-38 -40 -58 -94t-20 -117q0 -58 23.5 -94t65.5 -36q43 0 66 36t23 94q0 63 -26 117zM259 68q29 -29 74 -29t74.5 29t29.5 74
t-29.5 74t-74.5 29t-74 -29t-29 -74t29 -74zM1227 -147h-1003q-31 0 -48 -11.5t-17 -30.5q0 -40 94 -64.5t263 -24.5q458 0 711 131z" />
    <glyph glyph-name="tm_TU" horiz-adv-x="1018" 
d="M926 -147h-247q-50 -92 -149.5 -142t-235.5 -50q-122 0 -186.5 40t-64.5 105q0 46 36.5 74.5t102.5 28.5h443q23 59 23 130q0 91 -41 147t-113 56h-17v-37q0 -66 -28.5 -116.5t-82 -78.5t-124.5 -28q-58 0 -103.5 20.5t-70.5 56.5t-25 81q0 53 31.5 92t89.5 55v226h478
l9 -56h-174v-159h16q70 0 122 -33t80 -92t28 -134q0 -70 -20 -130h151v604h72v-660zM235 457v-159h13h158v159h-171zM406 242h-156q-63 0 -97.5 -27.5t-34.5 -74.5q0 -42 34 -69t90 -27q77 0 120.5 43.5t43.5 117.5v37zM479 -241.5q75 34.5 116 94.5h-413q-31 0 -47.5 -13
t-16.5 -34q0 -37 44 -59.5t132 -22.5q110 0 185 34.5z" />
    <glyph glyph-name="tm_NU" horiz-adv-x="1008" 
d="M915 -147h-260q-49 -93 -136.5 -142.5t-209.5 -49.5q-67 0 -116 17.5t-74.5 48.5t-25.5 69q0 53 36.5 83t107.5 30h366q35 86 35 213q0 79 -26.5 125t-82.5 46q-50 0 -82 -37t-32 -94v-162h-71v457h-181v-457h-70v513h503l8 -56h-189v-153q47 50 116 50q88 0 135 -63.5
t47 -168.5q0 -121 -34 -213h166v604h70v-660zM575 -147h-338q-69 0 -69 -57q0 -32 38 -52.5t103 -20.5q184 0 266 130z" />
    <glyph glyph-name="tm_NnnU" horiz-adv-x="1529" 
d="M1436 -147h-436q-100 -91 -248.5 -141.5t-335.5 -50.5q-169 0 -250.5 39t-81.5 106q0 46 36 74.5t109 28.5h731q66 66 100 150t34 182q0 110 -47.5 169t-142.5 59q-77 0 -138 -39q60 -49 93 -115t33 -141q0 -86 -44 -139t-120 -53t-120 53t-44 139q0 72 25.5 136
t70.5 112q-88 47 -205 47q-98 0 -172 -31t-114.5 -86t-40.5 -124q0 -86 52 -137q-10 23 -10 51q0 46 21 82.5t58.5 57t83.5 20.5q49 0 88.5 -20.5t61.5 -57t22 -82.5q0 -45 -22.5 -81.5t-62.5 -57.5t-90 -21q-85 0 -147.5 32t-96 88t-33.5 126q0 87 50 156t141.5 108
t210.5 39q147 0 256 -64q42 31 91.5 47.5t101.5 16.5q127 0 195.5 -76.5t68.5 -214.5q0 -94 -29.5 -177.5t-86.5 -153.5h313v604h71v-660zM790.5 292.5q-26.5 54.5 -75.5 94.5q-36 -40 -56 -94.5t-20 -118.5q0 -58 23.5 -94t65.5 -36q43 0 66 36t23 94q0 64 -26.5 118.5z
M259 68q29 -29 74 -29t74.5 29t29.5 74t-29.5 74t-74.5 29t-74 -29t-29 -74t29 -74zM685 -243.5q121 33.5 209 96.5h-665q-70 0 -70 -47q0 -38 64.5 -60.5t192.5 -22.5q148 0 269 33.5z" />
    <glyph glyph-name="tm_MU" horiz-adv-x="1120" 
d="M963.5 492.5q50.5 -38.5 77 -106.5t26.5 -155q0 -105 -54 -168t-158 -63h-119q-12 -117 -93.5 -186.5t-218.5 -69.5q-110 0 -189 50.5t-120.5 141t-41.5 208.5q0 103 36 210.5t91 168.5l72 -10q-53 -55 -88.5 -159.5t-35.5 -211.5q0 -154 72 -245t204 -91q109 0 171 52.5
t71 141.5h-283v513l71 5v-461h213v277q0 96 47.5 146.5t129.5 50.5q69 0 119.5 -38.5zM958.5 104q33.5 47 33.5 127q0 107 -38 172.5t-108 65.5q-50 0 -79 -33t-29 -100v-279h117q70 0 103.5 47z" />
    <glyph glyph-name="tm_RU" horiz-adv-x="1089" 
d="M988 289.5q49 -64.5 49 -167.5q0 -110 -58.5 -195.5t-167 -134t-255.5 -48.5t-256.5 54t-168 149.5t-58.5 218.5q0 95 41 197t104 160l73 -10q-62 -51 -102.5 -149.5t-40.5 -199.5q0 -104 49 -185.5t141 -127t218 -45.5q125 0 216.5 40t140 112t48.5 164
q0 78 -27.5 124.5t-81.5 46.5q-49 0 -81.5 -37t-32.5 -94v-162h-70v457h-214v-457h-71v513h536l8 -56h-189v-153q47 50 116 50q85 0 134 -64.5z" />
    <glyph glyph-name="tm_RrU" horiz-adv-x="1080" 
d="M987 -147h-300q-59 -92 -152 -142t-217 -50q-106 0 -168.5 37.5t-62.5 102.5q0 52 39 80t116 28h395q69 126 69 322q0 110 -33.5 174t-106.5 64q-48 0 -81.5 -33.5t-33.5 -99.5v-336h-71v313q0 71 -29 113.5t-85 42.5q-53 0 -78.5 -36t-25.5 -109v-324h-70v324
q0 100 44.5 153.5t129.5 53.5q48 0 85 -23.5t60 -65.5q24 42 64 65.5t90 23.5q105 0 160.5 -82t55.5 -218q0 -187 -63 -322h198v604h71v-660zM481 -243.5q71 33.5 120 96.5h-359q-80 0 -80 -52q0 -37 41 -57.5t115 -20.5q92 0 163 33.5z" />
    <glyph glyph-name="tm_LU" horiz-adv-x="1265" 
d="M1172 -147h-404q-56 -90 -166.5 -141t-254.5 -51q-126 0 -197 36.5t-71 98.5q0 54 41 83.5t119 29.5h481q13 31 20 75q-75 11 -114 69t-39 157v47q0 100 -59 156t-163 56q-72 0 -125.5 -29.5t-82.5 -81.5t-29 -119q0 -89 51 -143q-8 24 -8 46q0 45 21 81.5t58 57t83 20.5
q49 0 88.5 -20.5t61.5 -57t22 -81.5t-22.5 -81.5t-62.5 -57.5t-90 -21q-85 0 -147.5 34t-96 92.5t-33.5 130.5q0 83 38.5 149.5t109 104.5t164.5 38q88 0 154.5 -33.5t102.5 -95t36 -145.5v-47q0 -82 28.5 -123.5t89.5 -41.5q119 0 119 188q0 64 -21 144t-61 136l71 14
q42 -69 63.5 -149t21.5 -144q0 -106 -39 -171t-117 -78q-4 -40 -18 -76h306v604h71v-660zM259 216q-29 -29 -29 -74t29 -74t74 -29t74.5 29t29.5 74t-29.5 74t-74.5 29t-74 -29zM553 -243.5q87 33.5 135 96.5h-449q-85 0 -85 -57q0 -34 52 -53.5t141 -19.5q119 0 206 33.5z
" />
    <glyph glyph-name="tm_LlU" horiz-adv-x="1612" 
d="M1510.5 289.5q48.5 -64.5 48.5 -167.5q0 -122 -64.5 -207t-184 -128t-282.5 -43h-379q-177 0 -307 52.5t-199.5 148.5t-69.5 225q0 95 41 194.5t104 158.5l73 -10q-62 -51 -102.5 -148t-40.5 -197q0 -109 60.5 -191.5t174 -128.5t266.5 -48h379q139 0 241.5 36.5
t158.5 108.5t56 177q0 78 -27.5 124.5t-81.5 46.5q-39 0 -68 -24.5t-40 -65.5v-203h-71v457h-250v-457h-71v228q0 69 -32.5 124t-89 86t-126.5 31q-77 0 -133.5 -29.5t-87 -82t-30.5 -120.5q0 -88 50 -141q-8 24 -8 46q0 46 21 82.5t58.5 57t83.5 20.5q49 0 88.5 -20.5
t61.5 -57t22 -82.5q0 -45 -22.5 -81.5t-62.5 -57.5t-90 -21q-85 0 -147.5 33.5t-96 91.5t-33.5 130q0 85 40 152t114 104.5t172 37.5q77 0 142 -32.5t106 -90.5v105h572l8 -56h-188v-147q44 44 110 44q85 0 133.5 -64.5zM507 216q-29 -29 -29 -74t29 -74t74 -29t74.5 29
t29.5 74t-29.5 74t-74.5 29t-74 -29z" />
    <glyph glyph-name="tm_LllU" horiz-adv-x="1120" 
d="M738 0v-8q0 -32 16.5 -54.5t46.5 -22.5h163l8 -56h-166q-35 -53 -114 -84t-178 -31q-135 0 -235 53t-153 147t-53 215q0 99 35.5 200.5t91.5 163.5l72 -10q-54 -56 -89 -155t-35 -201t43.5 -182t126 -124.5t196.5 -44.5q155 0 214 66q-33 15 -47 44.5t-14 71.5v12h-284
v513l71 5v-461h213v277q0 96 47.5 146.5t129.5 50.5q69 0 119.5 -38.5t77 -106.5t26.5 -155q0 -105 -54 -168t-158 -63h-117zM738 57h117q70 0 103.5 47t33.5 127q0 107 -38 172.5t-108 65.5q-50 0 -79 -33t-29 -100v-279z" />
    <glyph glyph-name="tm_KUu" horiz-adv-x="1091" 
d="M1081 57v-57h-256q16 32 25.5 72.5t9.5 72.5q0 50 -27.5 79t-74.5 29q-18 0 -40 -5q29 -26 45.5 -62.5t16.5 -78.5q0 -54 -34.5 -89.5t-86.5 -35.5q-53 0 -87.5 35t-34.5 90q0 78 49 135h-12h-97v-37q0 -66 -28.5 -116.5t-82 -78.5t-124.5 -28q-58 0 -103.5 20.5
t-70.5 56.5t-25 81q0 53 31.5 92t89.5 55v226h478l9 -56h-174v-159h105q34 0 64 -9q49 26 112 26q52 0 92.5 -22t62.5 -60.5t22 -87.5q0 -42 -12 -88h158zM235 457v-159h13h158v159h-171zM406 242h-156q-63 0 -97.5 -27.5t-34.5 -74.5q0 -42 34 -69t90 -27q77 0 120.5 43.5
t43.5 117.5v37zM695.5 170.5q-14.5 28.5 -40.5 46.5q-23 -20 -35.5 -48t-12.5 -62q0 -28 14.5 -46t37.5 -18q22 0 36.5 18t14.5 46q0 35 -14.5 63.5z" />
    <glyph glyph-name="tm_NgUu" horiz-adv-x="1187" 
d="M1129.5 30.5q47.5 -49.5 47.5 -127.5q0 -85 -47.5 -145t-133 -91.5t-196.5 -31.5h-511q-104 0 -166.5 33.5t-62.5 94.5q0 52 38.5 86t98.5 34h527v-56h-527q-28 0 -45 -18t-17 -46q0 -35 42 -53.5t112 -18.5h511q89 0 157.5 24.5t106.5 72.5t38 115q0 49 -28 82t-75 33
q-49 0 -80 -34.5t-31 -87.5v-87h-71v191h-473v57h136q73 0 111 38t38 101q0 49 -26.5 80.5t-73.5 31.5q-51 0 -82.5 -34.5t-31.5 -87.5v-34h-71v305h-181v-457h-70v513h503l8 -56h-189v-134q23 22 53.5 34t65.5 12q78 0 124 -48t46 -125q0 -88 -63 -139h176v456h71v-481
q46 48 116 48q78 0 125.5 -49.5z" />
    <glyph glyph-name="tm_CUu" horiz-adv-x="1234" 
d="M1139.5 133.5q41.5 -45.5 41.5 -116.5q0 -86 -63 -147.5t-180.5 -93.5t-276.5 -32q-181 0 -313.5 52t-203.5 148t-71 226q0 95 41 194.5t104 158.5l73 -10q-62 -51 -102.5 -148t-40.5 -197q0 -112 62 -193.5t178 -125t273 -43.5q135 0 235.5 24.5t155.5 72t55 115.5
q0 44 -21.5 72.5t-55.5 28.5q-40 0 -66 -27.5t-26 -70.5v-21h-71v242h-118v-37q0 -66 -28.5 -116.5t-82 -78.5t-124.5 -28q-59 0 -104.5 20.5t-70.5 56.5t-25 81q0 53 31.5 92t89.5 55v226h479l8 -56h-173v-159h295l4 -56h-110v-97q37 34 92 34q68 0 109.5 -45.5zM507 457
v-159h13h157v159h-170zM677 242h-155q-64 0 -98 -27.5t-34 -74.5q0 -42 34 -69t90 -27q77 0 120 43.5t43 117.5v37z" />
    <glyph glyph-name="tm_TtUu" horiz-adv-x="880" 
d="M641 573q30 28 77 28q19 0 32 -4q-29 60 -96 94.5t-163 34.5q-108 0 -185.5 -64t-117.5 -174t-40 -244t34.5 -233t100.5 -152t157 -53q85 0 144.5 36.5t90 102t30.5 150.5q0 83 -28.5 139.5t-82.5 56.5q-51 0 -81.5 -36t-30.5 -93v-162h-71v513h71v-207q43 48 113 48
q58 0 99.5 -35t63.5 -94t22 -130q0 -103 -40 -182.5t-117 -124t-183 -44.5q-113 0 -195.5 61.5t-127 175t-44.5 265.5t50 275t144.5 195t223.5 72q97 0 173.5 -36.5t119.5 -99.5t43 -140q0 -49 -30 -81t-76 -32q-47 0 -78.5 29t-31.5 73t30 72zM757.5 535.5
q-14.5 14.5 -36.5 14.5t-36.5 -14.5t-14.5 -35.5q0 -22 14.5 -36.5t36.5 -14.5t36.5 14.5t14.5 36.5q0 21 -14.5 35.5z" />
    <glyph glyph-name="tm_PUu" horiz-adv-x="924" 
d="M866.5 31q47.5 -49 47.5 -128q0 -85 -47.5 -145t-133 -91.5t-196.5 -31.5h-248q-104 0 -166.5 33.5t-62.5 94.5q0 52 38.5 86t98.5 34h264v-56h-264q-28 0 -45 -18t-17 -46q0 -35 42 -53.5t112 -18.5h248q137 0 219.5 55.5t82.5 156.5q0 49 -28 82t-75 33
q-49 0 -80 -34.5t-31 -87.5v-87h-71v191h-461v513l70 5v-461h391v456h71v-481q46 48 117 48q77 0 124.5 -49z" />
    <glyph glyph-name="tm_MUu" horiz-adv-x="1265" 
d="M1109.5 492.5q50.5 -38.5 77 -106t26.5 -155.5q0 -105 -54 -168t-158 -63h-121q-12 -76 -60 -134t-128.5 -90t-184.5 -32q-133 0 -231 54t-150.5 151.5t-52.5 224.5q0 97 34.5 179t95 130t133.5 48q54 0 88 -32.5t34 -83.5q0 -49 -33.5 -81t-83.5 -32q-51 0 -83.5 31.5
t-32.5 80.5v5q-37 -40 -57 -104.5t-20 -140.5q0 -109 42.5 -192.5t123.5 -129.5t193 -46q127 0 207 53t95 141h-281v513l71 5v-461h213v277q0 96 48 146.5t129 50.5q70 0 120.5 -38.5zM382 457.5q-16 16.5 -41 16.5q-27 0 -44 -16.5t-17 -42.5t17 -42.5t44 -16.5
q25 0 41 16.5t16 42.5t-16 42.5zM1104 103.5q33 46.5 33 127.5q0 107 -37.5 172.5t-108.5 65.5q-50 0 -79 -33t-29 -100v-279h118q70 0 103 46.5z" />
    <glyph glyph-name="tm_YUu" horiz-adv-x="1131" 
d="M1073.5 31q47.5 -49 47.5 -128q0 -85 -47.5 -145t-133 -91.5t-196.5 -31.5h-455q-104 0 -166.5 33.5t-62.5 94.5q0 52 38.5 86t98.5 34h471v-56h-471q-28 0 -45 -18t-17 -46q0 -35 42 -53.5t112 -18.5h455q137 0 219.5 55.5t82.5 156.5q0 49 -28 82t-75 33
q-49 0 -80 -34.5t-31 -87.5v-87h-71v191h-367v42q-24 -29 -56.5 -44.5t-71.5 -15.5q-84 0 -133.5 53t-49.5 154v324l70 5v-329q0 -145 113 -145q62 0 95 43.5t33 115.5v310h71v-456h296v456h71v-481q46 48 117 48q77 0 124.5 -49z" />
    <glyph glyph-name="tm_RUu" horiz-adv-x="1234" 
d="M1133.5 289.5q48.5 -64.5 48.5 -167.5q0 -109 -66 -195t-189 -134.5t-287 -48.5q-170 0 -298.5 56t-198.5 158t-70 236q0 90 35 167.5t96 123.5t137 46q51 0 84 -32.5t33 -83.5q0 -49 -33.5 -81t-83.5 -32q-51 0 -83.5 31.5t-32.5 80.5v8q-37 -39 -57 -99t-20 -129
q0 -116 60.5 -204t171.5 -136t260 -48q143 0 248.5 40.5t162 112t56.5 163.5q0 78 -27.5 124.5t-81.5 46.5q-50 0 -82 -37t-32 -94v-162h-71v457h-214v-457h-71v513h536l9 -56h-189v-153q47 50 116 50q85 0 133.5 -64.5zM382 457.5q-16 16.5 -41 16.5q-27 0 -44 -16.5
t-17 -42.5t17 -42.5t44 -16.5q25 0 41 16.5t16 42.5t-16 42.5z" />
    <glyph glyph-name="tm_LlUu" horiz-adv-x="1793" 
d="M1692 289.5q49 -64.5 49 -167.5q0 -122 -65 -207t-184.5 -128t-282.5 -43h-569q-173 0 -301 50t-197 142.5t-69 217.5q0 109 34.5 195t95.5 134t138 48q51 0 84 -32.5t33 -83.5q0 -49 -33.5 -81t-83.5 -32q-51 0 -83.5 31.5t-32.5 80.5v5q-37 -42 -57 -110t-20 -155
q0 -108 59.5 -188t170.5 -123t262 -43h569q139 0 242 36.5t159 108.5t56 177q0 78 -28 124.5t-82 46.5q-39 0 -68 -24.5t-40 -65.5v-203h-71v457h-250v-457h-71v228q0 69 -32.5 124t-89 86t-126.5 31q-77 0 -133.5 -29.5t-87 -82t-30.5 -120.5q0 -88 50 -141q-8 24 -8 46
q0 46 21 82.5t58.5 57t83.5 20.5q49 0 88.5 -20.5t61.5 -57t22 -82.5q0 -45 -22.5 -81.5t-62.5 -57.5t-90 -21q-85 0 -147.5 33.5t-96 91.5t-33.5 130q0 85 40 152t114 104.5t172 37.5q77 0 142 -32.5t106 -90.5v105h572l8 -56h-188v-147q44 44 110 44q85 0 134 -64.5z
M382 457.5q-16 16.5 -41 16.5q-27 0 -44 -16.5t-17 -42.5t17 -42.5t44 -16.5q25 0 41 16.5t16 42.5t-16 42.5zM688 216q-29 -29 -29 -74t29 -74t74 -29t74.5 29t29.5 74t-29.5 74t-74.5 29t-74 -29z" />
    <glyph glyph-name="tm_LllUu" horiz-adv-x="1265" 
d="M883 0v-8q0 -40 15.5 -58.5t47.5 -18.5h163l8 -56h-165q-46 -52 -141 -83.5t-216 -31.5q-154 0 -272.5 56.5t-184 156.5t-65.5 227q0 92 36 172t97.5 127.5t134.5 47.5q54 0 88 -32.5t34 -83.5q0 -49 -33.5 -81t-83.5 -32q-51 0 -83.5 31.5t-32.5 80.5v8
q-38 -41 -60 -103.5t-22 -134.5q0 -109 56 -195t157.5 -134.5t233.5 -48.5q93 0 164.5 16.5t113.5 49.5q-61 28 -61 116v12h-284v513l71 5v-461h213v277q0 96 48 146.5t129 50.5q70 0 120.5 -38.5t77 -106t26.5 -155.5q0 -105 -54 -168t-158 -63h-118zM387 457.5
q-16 16.5 -41 16.5q-27 0 -44 -16.5t-17 -42.5t17 -42.5t44 -16.5q25 0 41 16.5t16 42.5t-16 42.5zM883 57h118q70 0 103 46.5t33 127.5q0 107 -37.5 172.5t-108.5 65.5q-50 0 -79 -33t-29 -100v-279z" />
    <glyph glyph-name="tm_VUu" horiz-adv-x="1239" 
d="M1181.5 31q47.5 -49 47.5 -128q0 -85 -47.5 -145t-133 -91.5t-196.5 -31.5h-563q-104 0 -166.5 33.5t-62.5 94.5q0 52 38.5 86t98.5 34h579v-56h-579q-28 0 -45 -18t-17 -46q0 -35 42 -53.5t112 -18.5h563q137 0 219.5 55.5t82.5 156.5q0 49 -28 82t-75 33
q-49 0 -80 -34.5t-31 -87.5v-87h-71v191h-317l1 57q32 39 50.5 89.5t18.5 108.5q0 62 -29.5 110.5t-84 76t-125.5 27.5q-78 0 -136 -29.5t-88.5 -82t-30.5 -120.5q0 -88 50 -141q-8 24 -8 46q0 46 21 82.5t58.5 57t83.5 20.5q49 0 88.5 -20.5t61.5 -57t22 -82.5
q0 -45 -22.5 -81.5t-62.5 -57.5t-90 -21q-85 0 -147.5 33.5t-96 91.5t-33.5 130q0 85 40.5 152t115 104.5t174.5 37.5q91 0 163 -35.5t112 -98.5t40 -142q0 -55 -16.5 -106t-45.5 -92h233v456h71v-481q46 48 117 48q77 0 124.5 -49zM259 216q-29 -29 -29 -74t29 -74t74 -29
t74.5 29t29.5 74t-29.5 74t-74.5 29t-74 -29z" />
    <glyph glyph-name="tm_KSsa" horiz-adv-x="1561" 
d="M1476 0h-206v-243h-71v243h-374q16 32 25.5 72.5t9.5 72.5q0 50 -27.5 79t-74.5 29q-18 0 -40 -5q29 -26 45.5 -62.5t16.5 -78.5q0 -54 -34.5 -89.5t-86.5 -35.5q-53 0 -87.5 35t-34.5 90q0 78 49 135h-12h-97v-37q0 -66 -28.5 -116.5t-82 -78.5t-124.5 -28
q-58 0 -103.5 20.5t-70.5 56.5t-25 81q0 53 31.5 92t89.5 55v226h478l9 -56h-174v-159h105q34 0 64 -9q49 26 112 26q52 0 92.5 -22t62.5 -60.5t22 -87.5t-13 -88h277v148q-30 -6 -64 -6q-59 0 -104.5 22t-71.5 61t-26 87q0 72 46 117t124 45q77 0 122 -44.5t45 -117.5v-67
q80 52 135 155h71v-457zM1199 270v94q0 48 -25.5 76.5t-70.5 28.5t-70 -27.5t-25 -72.5q0 -47 35 -77.5t92 -30.5q34 0 64 9zM235 457v-159h13h158v159h-171zM1405 57v279q-57 -74 -135 -109v-170h135zM406 242h-156q-63 0 -97.5 -27.5t-34.5 -74.5q0 -42 34 -69t90 -27
q77 0 120.5 43.5t43.5 117.5v37zM695.5 170.5q-14.5 28.5 -40.5 46.5q-23 -20 -35.5 -48t-12.5 -62q0 -28 14.5 -46t37.5 -18q22 0 36.5 18t14.5 46q0 35 -14.5 63.5z" />
    <glyph glyph-name="tm_TtI" horiz-adv-x="823" 
d="M673 0v-243h-71v243h-509v513l70 5v-461h221q-45 37 -70 95t-26 132q0 111 53.5 179t147.5 68q86 0 135 -60t49 -156v-258h133l7 -57h-140zM602 57v258q0 69 -29 111.5t-84 42.5q-60 0 -93.5 -51t-33.5 -134q0 -65 23 -117t63.5 -81t90.5 -29h63z" />
    <glyph glyph-name="tm_TtIi" horiz-adv-x="783" 
d="M773 0h-680v513l70 5v-461h175q-30 27 -46 66t-16 86q0 61 30 109t82.5 75.5t119.5 27.5q59 0 108.5 -26t79 -69t29.5 -91q0 -49 -31 -81t-78 -32t-78.5 28.5t-31.5 71.5q0 45 30.5 74t77.5 29h4q-42 34 -110 34t-112.5 -42.5t-44.5 -107.5q0 -66 36 -109t93 -43h285z
M652 188q14 14 14 35t-14 35t-36 14q-21 0 -34.5 -14t-13.5 -35t13.5 -35t34.5 -14q22 0 36 14z" />
    <glyph glyph-name="tm_Shree" horiz-adv-x="1811" 
d="M1709.5 289.5q48.5 -64.5 48.5 -167.5q0 -122 -64.5 -207t-184 -128t-283.5 -43h-577q-177 0 -307 52.5t-199.5 148.5t-69.5 225q0 95 41 194.5t104 158.5l73 -10q-62 -51 -102.5 -148t-40.5 -197q0 -109 60.5 -192t174 -129t266.5 -47h577q139 0 242 36.5t159 108.5
t56 177q0 78 -27.5 124.5t-81.5 46.5q-50 0 -82 -37t-32 -94v-162h-71v457h-232v-457h-70v310q0 72 -33 115.5t-95 43.5q-113 0 -113 -145v-324h-479v513l71 5v-461h337v267q0 102 49.5 154.5t134.5 52.5q78 0 128 -61v43h252q-30 28 -46.5 67.5t-16.5 85.5q0 61 30 109
t82.5 75.5t119.5 27.5q59 0 108.5 -26t78.5 -69t29 -92t-30.5 -80.5t-77.5 -31.5t-78.5 28.5t-31.5 71.5q0 45 30 73.5t78 28.5h6q-45 35 -112 35q-69 0 -113 -42.5t-44 -107.5q0 -67 36 -110t93 -43h161l8 -56h-189v-153q47 50 116 50q85 0 133.5 -64.5zM1652 645
q14 14 14 35t-14 34.5t-36 13.5q-21 0 -34.5 -13.5t-13.5 -34.5t13.5 -35t34.5 -14q22 0 36 14z" />
    </font>
</defs>
</svg>
