<?xml version="1.0" standalone="no"?>
<!DOCTYPE svg PUBLIC "-//W3C//DTD SVG 1.1//EN" "http://www.w3.org/Graphics/SVG/1.1/DTD/svg11.dtd" >
<svg xmlns="http://www.w3.org/2000/svg" xmlns:xlink="http://www.w3.org/1999/xlink" version="1.1">
<metadata>
Created by FontForge 20170731 at Fri Dec  2 11:32:35 2016
 By Aleksey,,,
Digitized data copyright 2012-2016, The Mozilla Foundation and Telefonica S.A.
</metadata>
<defs>
<font id="FiraSans-ExtraBold" horiz-adv-x="560" >
  <font-face 
    font-family="Fira Sans ExtraBold"
    font-weight="800"
    font-stretch="normal"
    units-per-em="1000"
    panose-1="2 11 9 3 5 0 0 2 0 4"
    ascent="800"
    descent="-200"
    x-height="533"
    cap-height="695"
    bbox="-792 -355 1360 1218"
    underline-thickness="50"
    underline-position="-150"
    unicode-range="U+000D-FEFF"
  />
<missing-glyph horiz-adv-x="666" 
d="M543 1050v-1400h-420v1400h420zM489 998h-311v-1296h311v1296zM409.5 419q25.5 -32 25.5 -83q0 -53 -22.5 -82t-72.5 -36v-45q0 -11 -7.5 -17.5t-17.5 -6.5t-17.5 6.5t-7.5 17.5v84q53 3 72 19.5t19 57.5q0 33 -13 51t-48 18q-29 0 -52 -11q-8 -3 -13 -3q-11 0 -17.5 6.5
t-6.5 16.5q0 19 29.5 29t63.5 10q60 0 85.5 -32zM340 110q10 -10 10 -25q0 -16 -10 -26.5t-25 -10.5t-25 10.5t-10 26.5q0 15 10 25t25 10t25 -10z" />
    <glyph glyph-name="fi" unicode="fi" horiz-adv-x="606" 
d="M499 720l-48 -112q-59 24 -115 24q-44 0 -60.5 -15t-16.5 -54v-30h295v-533h-178v411h-117v-411h-178v411h-81v122h81v38q0 85 57 137.5t175 52.5q102 0 186 -41z" />
    <glyph glyph-name="fl" unicode="fl" horiz-adv-x="643" 
d="M652 0q-46 -18 -109 -18q-73 0 -112.5 41.5t-39.5 118.5v484q-36 9 -67 9q-37 0 -51 -15t-14 -53v-34h92l-19 -122h-73v-411h-178v411h-81v122h81v38q0 84 55.5 137t160.5 53q55 0 116 -18l156 17v-598q0 -40 25 -40q11 0 25 4z" />
    <glyph glyph-name=".notdef" horiz-adv-x="666" 
d="M543 1050v-1400h-420v1400h420zM489 998h-311v-1296h311v1296zM409.5 419q25.5 -32 25.5 -83q0 -53 -22.5 -82t-72.5 -36v-45q0 -11 -7.5 -17.5t-17.5 -6.5t-17.5 6.5t-7.5 17.5v84q53 3 72 19.5t19 57.5q0 33 -13 51t-48 18q-29 0 -52 -11q-8 -3 -13 -3q-11 0 -17.5 6.5
t-6.5 16.5q0 19 29.5 29t63.5 10q60 0 85.5 -32zM340 110q10 -10 10 -25q0 -16 -10 -26.5t-25 -10.5t-25 10.5t-10 26.5q0 15 10 25t25 10t25 -10z" />
    <glyph glyph-name=".null" horiz-adv-x="0" 
 />
    <glyph glyph-name="nonmarkingreturn" unicode="&#xd;" horiz-adv-x="228" 
 />
    <glyph glyph-name="space" unicode=" " horiz-adv-x="228" 
 />
    <glyph glyph-name="exclam" unicode="!" horiz-adv-x="240" 
d="M214 695l-23 -433h-142l-23 433h188zM188.5 146.5q28.5 -28.5 28.5 -68.5t-28.5 -68t-68.5 -28t-68.5 28t-28.5 68t28.5 68.5t68.5 28.5t68.5 -28.5z" />
    <glyph glyph-name="quotedbl" unicode="&#x22;" horiz-adv-x="452" 
d="M64 410l-20 285h156l-20 -285h-116zM272 410l-20 285h156l-20 -285h-116z" />
    <glyph glyph-name="numbersign" unicode="#" horiz-adv-x="568" 
d="M553 438h-67l-25 -186h55v-115h-70l-18 -137h-147l18 137h-84l-18 -137h-147l18 137h-53v115h68l25 186h-56v116h72l16 124h146l-16 -124h85l16 124h147l-16 -124h51v-116zM314 252l25 186h-85l-24 -186h84z" />
    <glyph glyph-name="dollar" unicode="$" horiz-adv-x="555" 
d="M486 71.5q-49 -54.5 -137 -73.5v-161h-125v155q-70 6 -125 31.5t-94 64.5l88 96q75 -65 164 -65q46 0 70 19t24 51q0 23 -9.5 38t-34 27.5t-70.5 26.5q-112 35 -158 85t-46 125q0 77 52.5 128t138.5 65v148h125v-149q101 -16 168 -83l-80 -93q-66 54 -143 54
q-38 0 -59 -14.5t-21 -41.5q0 -19 10.5 -31.5t36 -24t77.5 -28.5q102 -32 149.5 -81t47.5 -136q0 -78 -49 -132.5z" />
    <glyph glyph-name="percent" unicode="%" horiz-adv-x="869" 
d="M614 722l108 -67l-464 -697l-107 67zM299.5 670.5q41.5 -22.5 65.5 -64t24 -96.5t-24 -96.5t-65.5 -64t-92.5 -22.5t-92.5 22.5t-65.5 64t-24 96.5t24 96.5t65.5 64t92.5 22.5t92.5 -22.5zM160.5 566.5q-13.5 -22.5 -13.5 -56.5t13.5 -56.5t46.5 -22.5q59 0 59 79t-59 79
q-33 0 -46.5 -22.5zM754.5 324.5q41.5 -22.5 65.5 -64t24 -96.5t-24 -96t-65.5 -63.5t-92.5 -22.5t-92.5 22.5t-66 63.5t-24.5 96t24.5 96.5t66 64t92.5 22.5t92.5 -22.5zM602 164q0 -78 60 -78q59 0 59 78q0 79 -59 79q-60 0 -60 -79z" />
    <glyph glyph-name="ampersand" unicode="&#x26;" horiz-adv-x="770" 
d="M436.5 692q50.5 -21 77 -58t26.5 -83q0 -59 -33 -103.5t-97 -87.5l123 -116q27 60 44 136l146 -42q-38 -108 -93 -183l124 -107l-155 -66l-73 69q-93 -69 -218 -69q-76 0 -133.5 24t-89.5 68.5t-32 103.5q0 60 32 104t103 90q-55 54 -75.5 90t-20.5 81t24.5 83.5t75 62.5
t124.5 24q70 0 120.5 -21zM277.5 585q-15.5 -16 -15.5 -42q0 -23 10.5 -41.5t40.5 -49.5q30 22 44 44t14 50q0 25 -14 40t-39 15t-40.5 -16zM241 189q0 -38 26.5 -60.5t72.5 -22.5q56 0 99 28l-150 143q-48 -37 -48 -88z" />
    <glyph glyph-name="quotesingle" unicode="'" horiz-adv-x="244" 
d="M64 410l-20 285h156l-20 -285h-116z" />
    <glyph glyph-name="parenleft" unicode="(" horiz-adv-x="325" 
d="M321 786q-70 -99 -100.5 -201.5t-30.5 -234.5t30.5 -234.5t100.5 -201.5l-114 -77q-64 88 -103.5 155.5t-65.5 156.5t-26 201t26 201t65.5 156.5t103.5 155.5z" />
    <glyph glyph-name="parenright" unicode=")" horiz-adv-x="325" 
d="M221 708q40 -68 66 -157t26 -201t-26 -201t-66 -157t-104 -155l-114 77q70 98 100.5 200.5t30.5 235.5t-30.5 235.5t-100.5 200.5l114 77q64 -87 104 -155z" />
    <glyph glyph-name="asterisk" unicode="*" horiz-adv-x="452" 
d="M448 528l-138 -21l101 -97l-122 -89l-63 125l-61 -126l-122 89l99 98l-138 20l46 140l124 -64l-23 140h150l-23 -141l124 66z" />
    <glyph glyph-name="plus" unicode="+" horiz-adv-x="540" 
d="M343 558v-158h153v-136h-153v-158h-146v158h-153v136h153v158h146z" />
    <glyph glyph-name="comma" unicode="," horiz-adv-x="240" 
d="M189 147q28 -28 28 -69q0 -22 -8 -45.5t-28 -70.5l-63 -143h-95l43 180q-43 28 -43 80q0 41 28 68.5t69 27.5t69 -28z" />
    <glyph glyph-name="hyphen" unicode="-" horiz-adv-x="409" 
d="M40 245v136h329v-136h-329z" />
    <glyph glyph-name="period" unicode="." horiz-adv-x="240" 
d="M188.5 146.5q28.5 -28.5 28.5 -68.5t-28.5 -68t-68.5 -28t-68.5 28t-28.5 68t28.5 68.5t68.5 28.5t68.5 -28.5z" />
    <glyph glyph-name="slash" unicode="/" horiz-adv-x="520" 
d="M300 819l156 -36l-235 -898l-157 36z" />
    <glyph glyph-name="zero" unicode="0" horiz-adv-x="594" 
d="M493 601q68 -92 68 -263t-68 -263.5t-196 -92.5t-196.5 92.5t-68.5 263.5q0 172 68.5 263.5t196.5 91.5t196 -92zM248 542.5q-18 -20.5 -26 -69t-8 -135.5q0 -88 8 -136.5t26 -69t49 -20.5t48.5 19.5t25.5 68t8 138.5t-8 138.5t-25.5 67.5t-48.5 19t-49 -20.5z" />
    <glyph glyph-name="one" unicode="1" horiz-adv-x="473" 
d="M399 678v-678h-173v507l-142 -87l-77 117l234 141h158z" />
    <glyph glyph-name="two" unicode="2" horiz-adv-x="523" 
d="M372.5 666.5q54.5 -26.5 82.5 -71t28 -98.5q0 -53 -20 -99t-74.5 -108t-160.5 -155h270l-19 -135h-453v124q119 115 175 175.5t78 100t22 78.5q0 37 -21 58.5t-58 21.5q-35 0 -62.5 -16.5t-55.5 -52.5l-103 83q43 57 103.5 89t136.5 32q77 0 131.5 -26.5z" />
    <glyph glyph-name="three" unicode="3" horiz-adv-x="526" 
d="M370 670.5q53 -22.5 80 -61.5t27 -88q0 -61 -34.5 -102t-99.5 -61q69 -7 112.5 -48.5t43.5 -119.5q0 -57 -30.5 -104.5t-91 -75.5t-145.5 -28q-155 0 -241 106l94 91q34 -33 65.5 -48t69.5 -15q43 0 70 23t27 65q0 47 -26 68.5t-78 21.5h-58l20 120h40q43 0 66.5 21
t23.5 57q0 34 -22.5 52.5t-60.5 18.5q-70 0 -130 -58l-88 93q98 95 239 95q74 0 127 -22.5z" />
    <glyph glyph-name="four" unicode="4" horiz-adv-x="575" 
d="M557 272v-132h-73v-140h-174l-1 140h-285v117l189 440l152 -55l-158 -370h104l20 154h153v-154h73z" />
    <glyph glyph-name="five" unicode="5" horiz-adv-x="546" 
d="M465 552h-240v-125q48 22 97 22q56 0 100.5 -26.5t70 -77t25.5 -119.5q0 -72 -34 -127.5t-96.5 -86t-145.5 -30.5q-145 0 -233 107l99 91q52 -66 126 -66q49 0 75.5 28.5t26.5 81.5q0 105 -87 105q-19 0 -37 -5.5t-40 -18.5h-118v373h430z" />
    <glyph glyph-name="six" unicode="6" horiz-adv-x="573" 
d="M458.5 432q44.5 -27 69.5 -78t25 -122q0 -68 -30.5 -125.5t-88 -91t-135.5 -33.5q-134 0 -200.5 86.5t-66.5 239.5q0 115 37.5 202t107 135t163.5 48q92 0 158 -45l-64 -105q-44 26 -90 26q-52 0 -85 -42t-40 -122q58 54 138 54q57 0 101.5 -27zM356.5 139.5
q18.5 32.5 18.5 90.5q0 60 -17 84.5t-55 24.5q-21 0 -43 -10.5t-41 -30.5q0 -71 7.5 -112.5t25 -60t48.5 -18.5q38 0 56.5 32.5z" />
    <glyph glyph-name="seven" unicode="7" horiz-adv-x="475" 
d="M461 678v-119l-248 -577l-161 54l223 509h-266v133h452z" />
    <glyph glyph-name="eight" unicode="8" horiz-adv-x="590" 
d="M533 285.5q32 -44.5 32 -101.5q0 -55 -32 -101t-94.5 -73.5t-147.5 -27.5q-82 0 -142.5 26.5t-92 72t-31.5 100.5q0 57 32 99t91 67q-97 61 -97 162q0 53 31 95t86.5 65.5t126.5 23.5q110 0 177 -47t67 -129q0 -43 -26.5 -83t-80.5 -70q69 -34 101 -78.5zM242.5 557.5
q-19.5 -17.5 -19.5 -51.5q0 -30 16.5 -50.5t52.5 -36.5l23 -10q30 22 41 45.5t11 53.5t-18.5 48.5t-52.5 18.5t-53.5 -17.5zM364.5 129.5q23.5 22.5 23.5 56.5q0 37 -20.5 58t-71.5 41l-35 13q-59 -35 -59 -107q0 -38 26 -61t69 -23q44 0 67.5 22.5z" />
    <glyph glyph-name="nine" unicode="9" horiz-adv-x="571" 
d="M478 621q68 -72 68 -191q0 -137 -47 -229t-143.5 -147.5t-250.5 -83.5l-35 123q88 20 143.5 45t89.5 61.5t50 91.5q-27 -30 -59.5 -44.5t-77.5 -14.5q-53 0 -97.5 27t-71 78t-26.5 119q0 70 34 123.5t94 83.5t134 30q127 0 195 -72zM321.5 367q23.5 13 41.5 39
q1 62 -6.5 97t-25.5 50.5t-50 15.5q-38 0 -60 -27t-22 -78q0 -110 74 -110q25 0 48.5 13z" />
    <glyph glyph-name="colon" unicode=":" horiz-adv-x="240" 
d="M188.5 146.5q28.5 -28.5 28.5 -68.5t-28.5 -68t-68.5 -28t-68.5 28t-28.5 68t28.5 68.5t68.5 28.5t68.5 -28.5zM188.5 485.5q28.5 -28.5 28.5 -68.5t-28.5 -68t-68.5 -28t-68.5 28t-28.5 68t28.5 68.5t68.5 28.5t68.5 -28.5z" />
    <glyph glyph-name="semicolon" unicode=";" horiz-adv-x="240" 
d="M189 147q28 -28 28 -69q0 -22 -8 -45.5t-28 -70.5l-63 -143h-95l43 180q-43 28 -43 80q0 41 28 68.5t69 27.5t69 -28zM188.5 485.5q28.5 -28.5 28.5 -68.5t-28.5 -68t-68.5 -28t-68.5 28t-28.5 68t28.5 68.5t68.5 28.5t68.5 -28.5z" />
    <glyph glyph-name="less" unicode="&#x3c;" horiz-adv-x="524" 
d="M440 583l55 -121l-313 -129l313 -123l-55 -127l-410 173v153z" />
    <glyph glyph-name="equal" unicode="=" horiz-adv-x="524" 
d="M44 371v136h436v-136h-436zM44 156v136h436v-136h-436z" />
    <glyph glyph-name="greater" unicode="&#x3e;" horiz-adv-x="524" 
d="M85 583l410 -174v-153l-410 -173l-55 127l312 123l-312 129z" />
    <glyph glyph-name="question" unicode="?" horiz-adv-x="488" 
d="M375.5 690q51.5 -23 77 -61.5t25.5 -85.5q0 -42 -14.5 -72t-35.5 -49t-54 -41q-39 -28 -57 -48t-18 -52v-19h-160v25q0 49 14.5 82t34.5 52t51 40q28 19 40.5 32.5t12.5 32.5q0 23 -15.5 35.5t-44.5 12.5q-58 0 -111 -58l-111 88q92 109 241 109q73 0 124.5 -23z
M288.5 146.5q28.5 -28.5 28.5 -68.5t-28.5 -68t-68.5 -28t-68 28t-28 68t28 68.5t68 28.5t68.5 -28.5z" />
    <glyph glyph-name="at" unicode="@" horiz-adv-x="1020" 
d="M617.5 493.5q47.5 -12.5 88.5 -34.5v-242q0 -63 8 -85.5t32 -22.5q35 0 55.5 46.5t20.5 160.5q0 130 -72.5 200t-223.5 70q-104 0 -177.5 -43t-111 -120t-37.5 -180q0 -161 84 -250t244 -89q49 0 103.5 10t93.5 25l42 -120q-47 -19 -113 -31t-127 -12q-147 0 -256.5 57
t-169 162.5t-59.5 246.5q0 136 62.5 243.5t173 167.5t249.5 60q138 0 240.5 -55t156.5 -145.5t54 -194.5q0 -92 -28.5 -163.5t-79.5 -111.5t-116 -40q-55 0 -91 30t-44 71q-19 -45 -55.5 -71t-87.5 -26q-96 0 -141 61.5t-45 164.5q0 125 62 199t176 74q42 0 89.5 -12.5z
M533.5 127q14.5 11 22.5 28v233q-17 8 -37 8q-33 0 -52 -36.5t-19 -126.5q0 -66 11.5 -91.5t39.5 -25.5q20 0 34.5 11z" />
    <glyph glyph-name="A" unicode="A" horiz-adv-x="596" 
d="M419 0l-31 142h-184l-31 -142h-192l206 695h222l206 -695h-196zM233 274h126l-63 289z" />
    <glyph glyph-name="B" unicode="B" horiz-adv-x="619" 
d="M556 317q43 -37 43 -113q0 -113 -82 -158.5t-229 -45.5h-234v695h207q150 0 229.5 -41.5t79.5 -137.5q0 -61 -36.5 -97.5t-90.5 -50.5q70 -14 113 -51zM239 566v-145h48q49 0 72 18t23 58q0 37 -24.5 53t-79.5 16h-39zM378 149.5q30 17.5 30 65.5q0 46 -28 66.5t-81 20.5
h-60v-170h50q59 0 89 17.5z" />
    <glyph glyph-name="C" unicode="C" horiz-adv-x="579" 
d="M469 693q53 -20 99 -59l-87 -103q-31 23 -60 35t-62 12q-66 0 -103 -57t-37 -172t37.5 -171t104.5 -56q36 0 66.5 14.5t66.5 42.5l82 -104q-41 -41 -98.5 -67t-124.5 -26q-99 0 -172.5 42.5t-113.5 125t-40 199.5q0 114 41 196t114 125t168 43q66 0 119 -20z" />
    <glyph glyph-name="D" unicode="D" horiz-adv-x="654" 
d="M527 620.5q100 -74.5 100 -270.5q0 -350 -351 -350h-222v695h208q165 0 265 -74.5zM239 563v-431h48q76 0 112.5 48t36.5 170q0 84 -17.5 130.5t-50 64.5t-82.5 18h-47z" />
    <glyph glyph-name="E" unicode="E" horiz-adv-x="523" 
d="M495 695l-19 -131h-237v-148h207v-127h-207v-158h253v-131h-438v695h441z" />
    <glyph glyph-name="F" unicode="F" horiz-adv-x="486" 
d="M54 0v695h427l-19 -131h-223v-167h196v-131h-196v-266h-185z" />
    <glyph glyph-name="G" unicode="G" horiz-adv-x="649" 
d="M607 625l-91 -95q-38 27 -68.5 39.5t-69.5 12.5q-75 0 -117.5 -58t-42.5 -177q0 -87 14 -137.5t42.5 -72.5t73.5 -22t82 19v143h-79l-18 127h276v-346q-54 -36 -122 -56t-134 -20q-326 0 -326 366q0 114 44.5 196.5t121.5 125.5t175 43q139 0 239 -88z" />
    <glyph glyph-name="H" unicode="H" horiz-adv-x="661" 
d="M423 0v289h-184v-289h-185v695h185v-263h184v263h185v-695h-185z" />
    <glyph glyph-name="I" unicode="I" horiz-adv-x="293" 
d="M239 695v-695h-185v695h185z" />
    <glyph glyph-name="J" unicode="J" horiz-adv-x="321" 
d="M270 108q0 -87 -32.5 -143.5t-83 -88.5t-120.5 -55l-49 130q43 17 64.5 39.5t28.5 51t7 73.5v580h185v-587z" />
    <glyph glyph-name="K" unicode="K" horiz-adv-x="646" 
d="M239 695v-695h-185v695h185zM644 695l-209 -310l227 -385h-212l-205 370l206 325h193z" />
    <glyph glyph-name="L" unicode="L" horiz-adv-x="517" 
d="M239 695v-551h267l-20 -144h-432v695h185z" />
    <glyph glyph-name="M" unicode="M" horiz-adv-x="789" 
d="M765 0h-182l-9 259l-1 43q-2 60 -2 91q0 75 6 150l-95 -471h-175l-101 471q9 -117 9 -206q0 -51 -1 -78l-8 -259h-182l51 695h230l93 -461l84 461h231z" />
    <glyph glyph-name="N" unicode="N" horiz-adv-x="657" 
d="M603 0h-233l-176 523l3 -21q10 -69 15.5 -129.5t5.5 -137.5v-235h-164v695h228l182 -525q-12 75 -18.5 135t-6.5 138v252h164v-695z" />
    <glyph glyph-name="O" unicode="O" horiz-adv-x="690" 
d="M580 617q84 -96 84 -269q0 -113 -37.5 -195.5t-109.5 -126.5t-172 -44q-151 0 -234.5 96t-83.5 270q0 113 37.5 195t109 126t171.5 44q151 0 235 -96zM249.5 526q-30.5 -54 -30.5 -178t31 -178.5t95 -54.5q66 0 96 54t30 179q0 124 -30 178t-96 54q-65 0 -95.5 -54z" />
    <glyph glyph-name="P" unicode="P" horiz-adv-x="605" 
d="M509.5 636.5q77.5 -58.5 77.5 -171.5q0 -118 -75 -179.5t-202 -61.5h-71v-224h-185v695h238q140 0 217.5 -58.5zM371.5 382q26.5 26 26.5 82q0 101 -109 101h-50v-209h54q52 0 78.5 26z" />
    <glyph glyph-name="Q" unicode="Q" horiz-adv-x="690" 
d="M617 31q49 -15 93 -48l-110 -143q-55 67 -117 106t-150 39q-95 0 -163.5 42.5t-105.5 124.5t-37 196q0 113 37.5 195t109 126t171.5 44q151 0 235 -96t84 -269q0 -115 -46.5 -188t-118.5 -114q69 0 118 -15zM250 169.5q31 -54.5 95 -54.5q66 0 96 54t30 179
q0 124 -30 178t-96 54q-65 0 -95.5 -54t-30.5 -178t31 -178.5z" />
    <glyph glyph-name="R" unicode="R" horiz-adv-x="620" 
d="M290 256h-51v-256h-185v695h241q147 0 219.5 -53t72.5 -163q0 -66 -30.5 -110t-97.5 -79l173 -290h-206zM239 382h62q96 0 96 97q0 45 -26.5 66t-79.5 21h-52v-184z" />
    <glyph glyph-name="S" unicode="S" horiz-adv-x="580" 
d="M433.5 690q60.5 -23 108.5 -69l-83 -98q-72 57 -151 57q-41 0 -62.5 -15.5t-21.5 -43.5q0 -20 11 -33t37 -25t82 -30q107 -34 156.5 -85.5t49.5 -142.5q0 -66 -34 -116.5t-98.5 -78.5t-151.5 -28q-166 0 -271 101l91 101q83 -68 173 -68q47 0 73 20.5t26 54.5
q0 24 -10 39.5t-35.5 28t-74.5 27.5q-118 37 -166 89t-48 131q0 62 33.5 109t93 72.5t133.5 25.5q79 0 139.5 -23z" />
    <glyph glyph-name="T" unicode="T" horiz-adv-x="547" 
d="M549 695l-19 -141h-164v-554h-185v554h-174v141h542z" />
    <glyph glyph-name="U" unicode="U" horiz-adv-x="647" 
d="M604 233q0 -72 -31.5 -129t-94.5 -89.5t-154 -32.5q-138 0 -209 67.5t-71 183.5v462h185v-456q0 -63 22.5 -92.5t72.5 -29.5t72 30t22 92v456h186v-462z" />
    <glyph glyph-name="V" unicode="V" horiz-adv-x="575" 
d="M594 695l-184 -695h-236l-193 695h195l119 -560l110 560h189z" />
    <glyph glyph-name="W" unicode="W" horiz-adv-x="853" 
d="M848 695l-108 -695h-241l-74 515l-80 -515h-235l-105 695h184l57 -558l85 558h194l76 -558l70 558h177z" />
    <glyph glyph-name="X" unicode="X" horiz-adv-x="594" 
d="M404 374l197 -374h-201l-108 251l-103 -251h-196l190 369l-176 326h199l88 -211l96 211h195z" />
    <glyph glyph-name="Y" unicode="Y" horiz-adv-x="607" 
d="M618 695l-222 -436v-259h-185v258l-222 437h202l115 -295l116 295h196z" />
    <glyph glyph-name="Z" unicode="Z" horiz-adv-x="550" 
d="M522 695v-139l-289 -410h297l-19 -146h-497v137l297 416h-268v142h479z" />
    <glyph glyph-name="bracketleft" unicode="[" horiz-adv-x="324" 
d="M307 825v-131h-114v-689h114v-130h-283v950h283z" />
    <glyph glyph-name="backslash" unicode="\" horiz-adv-x="520" 
d="M220 819l236 -898l-157 -36l-235 898z" />
    <glyph glyph-name="bracketright" unicode="]" horiz-adv-x="324" 
d="M300 825v-950h-282v130h113v690h-113v130h282z" />
    <glyph glyph-name="asciicircum" unicode="^" horiz-adv-x="564" 
d="M364 846l189 -319h-172l-100 188l-95 -188h-174l189 319h163z" />
    <glyph glyph-name="underscore" unicode="_" horiz-adv-x="520" 
d="M7 -179v136h506v-136h-506z" />
    <glyph glyph-name="grave" unicode="`" horiz-adv-x="352" 
d="M98 846l224 -139l-48 -89l-244 96z" />
    <glyph glyph-name="a" unicode="a" horiz-adv-x="550" 
d="M501.5 121q7.5 -14 26.5 -21l-36 -115q-51 4 -83.5 21t-52.5 54q-51 -78 -161 -78q-79 0 -126.5 46.5t-47.5 120.5q0 88 65 135t188 47h46v18q0 43 -18 58.5t-65 15.5q-25 0 -62.5 -7.5t-76.5 -20.5l-39 115q48 20 103 30.5t102 10.5q120 0 175 -47.5t55 -145.5v-194
q0 -29 7.5 -43zM289.5 118.5q18.5 11.5 30.5 31.5v86h-30q-48 0 -71 -17.5t-23 -52.5q0 -27 14 -43t39 -16q22 0 40.5 11.5z" />
    <glyph glyph-name="b" unicode="b" horiz-adv-x="598" 
d="M518 476q51 -75 51 -210q0 -82 -25.5 -146.5t-73.5 -101t-114 -36.5q-44 0 -79.5 17.5t-59.5 49.5l-7 -49h-158v743l178 18v-280q23 32 61 51t81 19q95 0 146 -75zM363.5 146q21.5 36 21.5 120q0 90 -19.5 123t-55.5 33q-47 0 -80 -56v-211q27 -45 73 -45q39 0 60.5 36z
" />
    <glyph glyph-name="c" unicode="c" horiz-adv-x="479" 
d="M397 534q46 -17 84 -51l-75 -104q-46 37 -97 37q-49 0 -74 -35.5t-25 -117.5q0 -80 25 -111.5t72 -31.5q25 0 46 8t51 27l77 -109q-77 -64 -183 -64q-84 0 -145.5 35t-94.5 98.5t-33 146.5q0 84 33 149.5t93.5 102.5t141.5 37q58 0 104 -17z" />
    <glyph glyph-name="d" unicode="d" horiz-adv-x="600" 
d="M548 743v-743h-158l-7 59q-24 -34 -61.5 -55.5t-89.5 -21.5q-100 0 -151 76t-51 210q0 82 27.5 146.5t77.5 100.5t115 36q72 0 120 -46v256zM370 163v223q-17 19 -33 28t-37 9q-40 0 -63.5 -37.5t-23.5 -118.5q0 -90 20 -123.5t57 -33.5q48 0 80 53z" />
    <glyph glyph-name="e" unicode="e" horiz-adv-x="555" 
d="M532 215h-326q7 -61 34.5 -83.5t78.5 -22.5q30 0 59.5 11.5t64.5 35.5l72 -98q-42 -35 -96 -55.5t-117 -20.5q-136 0 -206.5 76.5t-70.5 205.5q0 81 29.5 146t87.5 103t140 38q117 0 185 -72.5t68 -203.5q0 -6 -3 -60zM360 325q-1 53 -18 82t-57 29q-37 0 -56 -26
t-24 -91h155v6z" />
    <glyph glyph-name="f" unicode="f" horiz-adv-x="363" 
d="M268 616.5q-14 -15.5 -14 -53.5v-30h125l-20 -122h-105v-411h-178v411h-76v122h76v38q0 83 55.5 136.5t159.5 53.5q41 0 81 -9.5t70 -25.5l-48 -114q-39 20 -80 20q-32 0 -46 -15.5z" />
    <glyph glyph-name="g" unicode="g" horiz-adv-x="561" 
d="M561 499q-55 -23 -153 -23q53 -21 77.5 -53.5t24.5 -84.5q0 -51 -28 -91t-80 -63t-122 -23q-35 0 -59 5q-15 -10 -15 -25q0 -13 11.5 -21t44.5 -8h78q63 0 111 -20t73.5 -55.5t25.5 -80.5q0 -85 -74 -132.5t-213 -47.5q-101 0 -158.5 21t-80.5 59t-23 94h159
q0 -23 8.5 -35.5t31.5 -18t68 -5.5q59 0 81 14t22 38q0 20 -16 33t-50 13h-76q-87 0 -129.5 29.5t-42.5 76.5q0 30 18 58t48 46q-52 28 -75 65t-23 89q0 93 66 145.5t176 52.5q78 -3 136 17.5t118 58.5zM221 414.5q-19 -20.5 -19 -57.5q0 -40 19 -61t52 -21q70 0 70 84
q0 39 -17.5 57.5t-53.5 18.5q-32 0 -51 -20.5z" />
    <glyph glyph-name="h" unicode="h" horiz-adv-x="575" 
d="M489 508.5q39 -42.5 39 -117.5v-391h-178v359q0 35 -10.5 48.5t-30.5 13.5q-41 0 -79 -61v-360h-178v743l178 18v-280q33 36 70 53t82 17q68 0 107 -42.5z" />
    <glyph glyph-name="i" unicode="i" horiz-adv-x="282" 
d="M230 533v-533h-178v533h178zM214.5 792q28.5 -28 28.5 -70t-28.5 -70t-73.5 -28t-73.5 28t-28.5 70t28.5 70t73.5 28t73.5 -28z" />
    <glyph glyph-name="j" unicode="j" horiz-adv-x="282" 
d="M230 69q0 -86 -29 -143t-78.5 -91t-120.5 -59l-60 129q38 18 61 35.5t36 45.5t13 72v475h178v-464zM214.5 792q28.5 -28 28.5 -70t-28.5 -70t-73.5 -28t-73.5 28t-28.5 70t28.5 70t73.5 28t73.5 -28z" />
    <glyph glyph-name="k" unicode="k" horiz-adv-x="564" 
d="M230 761v-761h-178v743zM565 533l-151 -234l162 -299h-198l-144 291l153 242h178z" />
    <glyph glyph-name="l" unicode="l" horiz-adv-x="299" 
d="M88 24q-41 42 -41 121v598l178 18v-610q0 -29 26 -29q11 0 23 4l33 -126q-41 -18 -103 -18q-75 0 -116 42z" />
    <glyph glyph-name="m" unicode="m" horiz-adv-x="841" 
d="M756 508.5q38 -42.5 38 -117.5v-391h-178v359q0 62 -36 62q-37 0 -68 -61v-360h-178v359q0 62 -36 62q-37 0 -68 -61v-360h-178v533h155l13 -59q31 39 68.5 58t86.5 19q42 0 74 -20.5t48 -59.5q33 41 71 60.5t88 19.5q62 0 100 -42.5z" />
    <glyph glyph-name="n" unicode="n" horiz-adv-x="575" 
d="M489 509q39 -42 39 -118v-391h-178v359q0 35 -10 48.5t-30 13.5q-42 0 -80 -61v-360h-178v533h155l13 -60q36 40 75 59t87 19q68 0 107 -42z" />
    <glyph glyph-name="o" unicode="o" horiz-adv-x="584" 
d="M488 476q71 -75 71 -210q0 -86 -32 -150t-92.5 -99t-142.5 -35q-125 0 -196 75t-71 210q0 86 32 150t92.5 99t142.5 35q125 0 196 -75zM228.5 384.5q-20.5 -37.5 -20.5 -117.5q0 -83 20.5 -119.5t63.5 -36.5t63.5 37.5t20.5 117.5q0 82 -20.5 119t-63.5 37t-63.5 -37.5z
" />
    <glyph glyph-name="p" unicode="p" horiz-adv-x="598" 
d="M519 476.5q50 -74.5 50 -208.5q0 -82 -26 -147t-74.5 -102t-111.5 -37q-79 0 -127 54v-242l-178 -18v757h158l8 -56q31 39 70.5 56.5t80.5 17.5q100 0 150 -74.5zM385 266q0 91 -18.5 123.5t-55.5 32.5q-48 0 -81 -56v-214q15 -22 31.5 -32t38.5 -10q85 0 85 156z" />
    <glyph glyph-name="q" unicode="q" horiz-adv-x="600" 
d="M548 533v-757l-178 18v252q-52 -64 -138 -64q-100 0 -151 76.5t-51 209.5q0 82 27 146.5t77 100.5t116 36q79 0 135 -59l8 41h155zM370 163v223q-17 19 -33 28t-37 9q-40 0 -63.5 -37.5t-23.5 -118.5q0 -90 20 -123.5t57 -33.5q48 0 80 53z" />
    <glyph glyph-name="r" unicode="r" horiz-adv-x="405" 
d="M412 540l-29 -172q-26 8 -48 8q-45 0 -68.5 -30.5t-36.5 -92.5v-253h-178v533h155l16 -101q16 53 53.5 85t81.5 32q26 0 54 -9z" />
    <glyph glyph-name="s" unicode="s" horiz-adv-x="488" 
d="M363.5 533q52.5 -18 89.5 -49l-64 -98q-64 40 -129 40q-28 0 -41.5 -8.5t-13.5 -23.5q0 -13 7 -21t29.5 -17.5t71.5 -24.5q82 -24 121 -62.5t39 -107.5q0 -54 -31.5 -94.5t-87 -62.5t-125.5 -22q-68 0 -127.5 21.5t-100.5 59.5l85 95q31 -24 66.5 -38t71.5 -14
q32 0 49.5 10.5t17.5 31.5q0 16 -7.5 25t-28.5 17.5t-72 23.5q-155 46 -155 169q0 47 27 85.5t77.5 60.5t120.5 22q58 0 110.5 -18z" />
    <glyph glyph-name="t" unicode="t" horiz-adv-x="393" 
d="M406 26q-31 -22 -72 -33t-80 -11q-185 0 -185 204v225h-69v122h69v113l178 21v-134h121l-18 -122h-103v-223q0 -36 11.5 -51t34.5 -15q28 0 54 15z" />
    <glyph glyph-name="u" unicode="u" horiz-adv-x="569" 
d="M517 0h-155l-7 63q-56 -81 -159 -81q-74 0 -111.5 44.5t-37.5 123.5v383h178v-360q0 -34 10.5 -47.5t31.5 -13.5q19 0 37.5 13.5t34.5 39.5v368h178v-533z" />
    <glyph glyph-name="v" unicode="v" horiz-adv-x="520" 
d="M530 533l-163 -533h-211l-166 533h193l80 -402l86 402h181z" />
    <glyph glyph-name="w" unicode="w" horiz-adv-x="758" 
d="M759 533l-108 -533h-208l-64 374l-63 -374h-206l-110 533h179l44 -398l77 398h169l64 -398l55 398h171z" />
    <glyph glyph-name="x" unicode="x" horiz-adv-x="520" 
d="M367 285l168 -285h-200l-81 191l-77 -191h-192l167 280l-152 253h198l63 -164l59 164h188z" />
    <glyph glyph-name="y" unicode="y" horiz-adv-x="526" 
d="M370 0q-33 -107 -110.5 -163.5t-204.5 -61.5l-19 123q76 8 113 30.5t58 71.5h-61l-156 533h189l81 -422l93 422h183z" />
    <glyph glyph-name="z" unicode="z" horiz-adv-x="465" 
d="M445 533v-125l-229 -275h236l-16 -133h-427v125l232 276h-212v132h416z" />
    <glyph glyph-name="braceleft" unicode="{" horiz-adv-x="324" 
d="M304 719q-41 0 -55.5 -12.5t-14.5 -44.5v-170q0 -67 -27.5 -98t-84.5 -45q56 -11 84.5 -43.5t28.5 -97.5v-170q0 -32 14 -44.5t55 -12.5v-122q-94 0 -145.5 19t-71 55t-19.5 95v166q0 46 -13 64.5t-50 18.5v146q37 0 50 18.5t13 64.5v166q0 59 19.5 95t71 55t145.5 19
v-122z" />
    <glyph glyph-name="bar" unicode="|" horiz-adv-x="368" 
d="M267 811v-917h-166v917h166z" />
    <glyph glyph-name="braceright" unicode="}" horiz-adv-x="324" 
d="M166 822q51 -19 70.5 -55.5t19.5 -94.5v-166q0 -46 13 -64.5t51 -18.5v-146q-38 0 -51 -18.5t-13 -64.5v-166q0 -58 -19.5 -94.5t-70.5 -55.5t-145 -19v122q41 0 55 12.5t14 44.5v170q0 66 28.5 98t84.5 43q-58 14 -85 45t-27 98v170q0 32 -14.5 44.5t-55.5 12.5v122
q94 0 145 -19z" />
    <glyph glyph-name="asciitilde" unicode="~" horiz-adv-x="522" 
d="M284 236q-25 10 -53 27q-21 13 -33 18.5t-27 5.5q-17 0 -28.5 -6.5t-21.5 -19t-19 -25.5l-91 46q30 62 69 99t98 37q35 0 58.5 -9t54.5 -27q20 -12 33 -18t28 -6q20 0 32.5 9.5t22.5 21.5t14 17l90 -45q-30 -61 -69 -98t-98 -37q-35 0 -60 10z" />
    <glyph glyph-name="uni00A0" unicode="&#xa0;" horiz-adv-x="228" 
 />
    <glyph glyph-name="exclamdown" unicode="&#xa1;" horiz-adv-x="240" 
d="M188.5 485.5q28.5 -28.5 28.5 -68.5t-28.5 -68.5t-68.5 -28.5t-68.5 28.5t-28.5 68.5t28.5 68.5t68.5 28.5t68.5 -28.5zM191 232l23 -445h-188l23 445h142z" />
    <glyph glyph-name="cent" unicode="&#xa2;" horiz-adv-x="479" 
d="M481 46q-56 -47 -130 -60v-149h-125v152q-95 21 -148 93.5t-53 179.5q0 109 54 185t148 97v150h124v-148q74 -13 130 -63l-75 -104q-46 37 -97 37q-49 0 -74 -35.5t-25 -117.5q0 -80 25 -111.5t72 -31.5q25 0 46 8t51 27z" />
    <glyph glyph-name="sterling" unicode="&#xa3;" horiz-adv-x="545" 
d="M268.5 181q-13.5 -28 -51.5 -48h303l-20 -133h-476v127q38 10 55.5 25t22.5 35t5 55v65h-68v89h68v82q0 97 57 156t164 59q72 0 123 -25.5t88 -78.5l-107 -79q-19 28 -39 40t-46 12q-65 0 -65 -85v-81h178v-89h-178v-55q0 -43 -13.5 -71z" />
    <glyph glyph-name="currency" unicode="&#xa4;" 
d="M471 224l76 -75l-74 -74l-78 76q-50 -29 -115 -29q-61 0 -114 29l-78 -76l-74 74l76 76q-32 54 -32 117q0 64 32 116l-76 77l74 75l78 -78q53 29 114 29q63 0 116 -29l77 78l74 -75l-75 -76q32 -54 32 -117q0 -65 -33 -118zM348 266q23 27 23 76t-23 75t-67 26t-67 -26.5
t-23 -74.5q0 -49 23 -76t67 -27t67 27z" />
    <glyph glyph-name="yen" unicode="&#xa5;" horiz-adv-x="578" 
d="M589 678l-173 -324h94v-89h-132v-65h132v-89h-132v-111h-176v111h-131v89h131v65h-131v89h92l-174 324h188l116 -277l113 277h183z" />
    <glyph glyph-name="brokenbar" unicode="&#xa6;" horiz-adv-x="368" 
d="M267 811v-368h-166v368h166zM267 262v-368h-166v368h166z" />
    <glyph glyph-name="section" unicode="&#xa7;" horiz-adv-x="555" 
d="M471 139q13 -25 13 -63q0 -48 -28 -85t-80.5 -57.5t-121.5 -20.5q-114 0 -199 55l56 104q66 -39 132 -39q35 0 54 10t19 28q0 15 -7.5 24.5t-32.5 21t-78 27.5q-75 22 -113 56t-38 94q0 74 81 123q-29 22 -42 48.5t-13 62.5q0 47 27 84.5t77.5 58.5t118.5 21
q55 0 107 -14.5t93 -41.5l-58 -99q-64 35 -130 35q-67 0 -67 -38q0 -16 8 -25.5t31.5 -19.5t75.5 -25q75 -23 113.5 -57.5t38.5 -95.5q0 -79 -80 -127q30 -20 43 -45zM334 230q10 14 15.5 29.5t5.5 26.5q0 23 -20 38.5t-75 33.5q-21 7 -43 15q-17 -27 -17 -53
q0 -23 15 -36.5t58 -29.5q39 -14 61 -24z" />
    <glyph glyph-name="dieresis" unicode="&#xa8;" horiz-adv-x="474" 
d="M178.5 784q25.5 -25 25.5 -61t-25.5 -61t-62.5 -25q-36 0 -62 25t-26 61t26 61t62 25q37 0 62.5 -25zM416.5 784q25.5 -25 25.5 -61t-25.5 -61t-62.5 -25q-36 0 -62 25t-26 61t26 61t62 25q37 0 62.5 -25z" />
    <glyph glyph-name="copyright" unicode="&#xa9;" horiz-adv-x="810" 
d="M580 728.5q79 -43.5 124.5 -121t45.5 -175.5t-45.5 -175.5t-124.5 -120.5t-174 -43q-96 0 -175 43t-125 120.5t-46 175.5t46 175.5t125.5 121t174.5 43.5t174 -43.5zM280 652.5q-56 -31.5 -87.5 -89t-31.5 -131.5t31.5 -131.5t87.5 -89t126 -31.5t125.5 31.5t87 89
t31.5 131.5t-31.5 131.5t-87 89t-125.5 31.5t-126 -31.5zM481 617q35 -14 62 -39l-52 -65q-19 14 -34.5 19t-34.5 5q-32 0 -51 -25t-19 -79q0 -105 67 -105q43 0 80 30l48 -70q-28 -26 -63.5 -40.5t-74.5 -14.5q-84 0 -133 52.5t-49 147.5q0 90 50.5 144t130.5 54
q38 0 73 -14z" />
    <glyph glyph-name="ordfeminine" unicode="&#xaa;" horiz-adv-x="500" 
d="M278 529v7q0 29 -12.5 38.5t-49.5 9.5q-41 0 -110 -21l-35 100q40 15 86 23.5t83 8.5q101 0 146.5 -36.5t45.5 -113.5v-133q0 -21 5.5 -31.5t20.5 -14.5l-32 -100q-40 2 -67.5 14.5t-47.5 38.5q-21 -29 -55 -43t-74 -14q-63 0 -102 36t-39 93q0 67 53.5 102.5t153.5 35.5
h30zM235 373q23 0 43 18v56h-15q-63 0 -63 -43q0 -31 35 -31zM45 136h419v-136h-419v136z" />
    <glyph glyph-name="guillemotleft" unicode="&#xab;" horiz-adv-x="644" 
d="M224 563l110 -73l-126 -206l126 -206l-110 -73l-193 223v111zM503 563l110 -73l-126 -206l126 -206l-110 -73l-193 223v111z" />
    <glyph glyph-name="logicalnot" unicode="&#xac;" horiz-adv-x="541" 
d="M496 398v-293h-145v157h-307v136h452z" />
    <glyph glyph-name="uni00AD" unicode="&#xad;" horiz-adv-x="409" 
d="M40 245v136h329v-136h-329z" />
    <glyph glyph-name="registered" unicode="&#xae;" horiz-adv-x="636" 
d="M462.5 725.5q63.5 -35.5 100 -99t36.5 -144.5q0 -80 -36.5 -143.5t-100 -99t-143.5 -35.5t-144 35.5t-101 99t-37 143.5q0 81 37 144.5t101 99t144 35.5t143.5 -35.5zM420.5 301.5q44.5 25.5 69 72t24.5 108.5t-24.5 109t-69 72.5t-101.5 25.5t-102 -25.5t-70 -72.5
t-25 -109t25 -108.5t70 -72t102 -25.5t101.5 25.5zM419 498q-15 -20 -41 -31l73 -118h-87l-56 102h-21v-102h-76v284h86q137 0 137 -88q0 -27 -15 -47zM287 513h29q18 0 29 8.5t11 25.5q0 30 -41 30h-28v-64z" />
    <glyph glyph-name="macron" unicode="&#xaf;" horiz-adv-x="375" 
d="M345 652h-315v121h315v-121z" />
    <glyph glyph-name="degree" unicode="&#xb0;" horiz-adv-x="520" 
d="M130 387.5q-42 21.5 -68.5 61.5t-26.5 92t26 91t68 60t88 21t88 -21t68.5 -60t26.5 -91t-26.5 -92t-68.5 -61.5t-88 -21.5q-45 0 -87 21.5zM265 487.5q17 20.5 17 53.5q0 32 -17 52.5t-48 20.5q-30 0 -47 -20t-17 -53t17 -53.5t47 -20.5q31 0 48 20.5z" />
    <glyph glyph-name="plusminus" unicode="&#xb1;" horiz-adv-x="541" 
d="M52 0v136h436v-136h-436zM343 646v-158h153v-136h-153v-158h-146v158h-153v136h153v158h146z" />
    <glyph glyph-name="uni00B2" unicode="&#xb2;" horiz-adv-x="400" 
d="M284.5 735.5q37.5 -17.5 56 -46.5t18.5 -63q0 -31 -13 -58t-48 -62t-103 -88h173l-13 -98h-306v90q75 66 111.5 102t50.5 58.5t14 43.5q0 20 -12 31.5t-34 11.5t-39.5 -10t-35.5 -32l-73 58q28 37 69.5 58.5t93.5 21.5q53 0 90.5 -17.5z" />
    <glyph glyph-name="uni00B3" unicode="&#xb3;" horiz-adv-x="400" 
d="M316.5 722q41.5 -31 41.5 -81q0 -35 -23.5 -60.5t-71.5 -37.5q51 -4 80.5 -29.5t29.5 -72.5q0 -37 -20.5 -67.5t-61.5 -48.5t-99 -18q-107 0 -165 70l71 68q19 -21 39 -30.5t45 -9.5t40.5 11t15.5 33q0 25 -15 36.5t-47 11.5h-39l14 87h28q52 0 52 38q0 18 -13 27t-36 9
q-44 0 -83 -34l-64 66q66 63 164 63q76 0 117.5 -31z" />
    <glyph glyph-name="acute" unicode="&#xb4;" horiz-adv-x="352" 
d="M254 846l68 -132l-244 -96l-48 89z" />
    <glyph glyph-name="uni00B5" unicode="&#xb5;" horiz-adv-x="581" 
d="M382 -18q-9 18 -13.5 34.5t-9.5 45.5q-43 -69 -100 -69q-27 0 -47.5 8.5t-38.5 31.5q24 -38 35 -70t11 -81v-88l-167 -17v756h178v-363q0 -52 42 -52q18 0 36.5 13t34.5 40v362h178v-350q0 -107 24 -183z" />
    <glyph glyph-name="paragraph" unicode="&#xb6;" horiz-adv-x="804" 
d="M696 695v-900l-155 -20v798h-85v-778l-155 -20v483q-117 2 -180 61t-63 156q0 103 70 161.5t197 58.5h371z" />
    <glyph glyph-name="periodcentered" unicode="&#xb7;" horiz-adv-x="240" 
d="M188.5 375.5q28.5 -28.5 28.5 -68.5t-28.5 -68t-68.5 -28t-68.5 28t-28.5 68t28.5 68.5t68.5 28.5t68.5 -28.5z" />
    <glyph glyph-name="cedilla" unicode="&#xb8;" horiz-adv-x="335" 
d="M198 -45q53 -7 80 -33.5t27 -70.5q0 -53 -42 -86.5t-114 -33.5q-36 0 -67 9.5t-52 23.5l40 79q31 -18 63 -18q46 0 46 28q0 16 -22 23.5t-71 7.5l17 132h95v-61z" />
    <glyph glyph-name="uni00B9" unicode="&#xb9;" horiz-adv-x="400" 
d="M307 743v-423h-128v302l-90 -56l-57 86l158 91h117z" />
    <glyph glyph-name="ordmasculine" unicode="&#xba;" horiz-adv-x="500" 
d="M411.5 638.5q58.5 -56.5 58.5 -160.5q0 -99 -58.5 -157.5t-160.5 -58.5q-103 0 -161.5 56.5t-58.5 160.5q0 99 59 157.5t160 58.5q103 0 161.5 -56.5zM206 558.5q-14 -24.5 -14 -79.5q0 -56 14 -80.5t45 -24.5q30 0 43.5 24.5t13.5 79.5q0 57 -13.5 81t-44.5 24
q-30 0 -44 -24.5zM32 0v136h436v-136h-436z" />
    <glyph glyph-name="guillemotright" unicode="&#xbb;" horiz-adv-x="643" 
d="M141 563l193 -224v-111l-193 -223l-110 73l127 206l-127 206zM419 563l193 -224v-111l-193 -223l-110 73l127 206l-127 206z" />
    <glyph glyph-name="onequarter" unicode="&#xbc;" horiz-adv-x="980" 
d="M307 695v-423h-128v302l-90 -56l-57 86l158 91h117zM646 761l101 -50l-413 -799l-101 50zM960 175v-94h-45v-81h-122v81h-194v85l119 267l109 -40l-95 -218h62l25 91h96v-91h45z" />
    <glyph glyph-name="onehalf" unicode="&#xbd;" horiz-adv-x="980" 
d="M307 695v-423h-128v302l-90 -56l-57 86l158 91h117zM646 761l101 -50l-413 -799l-101 50zM864.5 415.5q37.5 -17.5 56 -46.5t18.5 -63q0 -31 -13 -58t-48 -62t-103 -88h173l-13 -98h-306v90q75 66 111.5 102t50.5 58.5t14 43.5q0 20 -12 31.5t-34 11.5t-39.5 -10
t-35.5 -32l-73 58q28 37 69.5 58.5t93.5 21.5q53 0 90.5 -17.5z" />
    <glyph glyph-name="threequarters" unicode="&#xbe;" horiz-adv-x="980" 
d="M316.5 674q41.5 -31 41.5 -81q0 -35 -23.5 -60.5t-71.5 -37.5q51 -4 80.5 -29.5t29.5 -72.5q0 -37 -20.5 -67.5t-61.5 -48.5t-99 -18q-107 0 -165 70l71 68q19 -21 39 -30.5t45 -9.5t40.5 11t15.5 33q0 25 -15 36.5t-47 11.5h-39l14 87h28q52 0 52 38q0 18 -13 27t-36 9
q-44 0 -83 -34l-64 66q66 63 164 63q76 0 117.5 -31zM646 761l101 -50l-413 -799l-101 50zM960 175v-94h-45v-81h-122v81h-194v85l119 267l109 -40l-95 -218h62l25 91h96v-91h45z" />
    <glyph glyph-name="questiondown" unicode="&#xbf;" horiz-adv-x="488" 
d="M199.5 348.5q-28.5 28.5 -28.5 68.5t28.5 68.5t68.5 28.5t68 -28.5t28 -68.5t-28 -68.5t-68 -28.5t-68.5 28.5zM112.5 -202q-51.5 23 -77 62t-25.5 86q0 42 14.5 71.5t35.5 48.5t54 41q38 26 56.5 47t18.5 52v26h160v-32q0 -49 -14.5 -81.5t-34.5 -51.5t-51 -40
q-27 -18 -40 -31.5t-13 -33.5q0 -22 15.5 -34.5t44.5 -12.5q58 0 111 57l111 -87q-93 -110 -241 -110q-73 0 -124.5 23z" />
    <glyph glyph-name="Agrave" unicode="&#xc0;" horiz-adv-x="596" 
d="M419 0l-31 142h-184l-31 -142h-192l206 695h222l206 -695h-196zM233 274h126l-63 289zM215 970l227 -130l-45 -90l-247 89z" />
    <glyph glyph-name="Aacute" unicode="&#xc1;" horiz-adv-x="596" 
d="M419 0l-31 142h-184l-31 -142h-192l206 695h222l206 -695h-196zM233 274h126l-63 289zM380 970l64 -131l-247 -89l-45 90z" />
    <glyph glyph-name="Acircumflex" unicode="&#xc2;" horiz-adv-x="596" 
d="M419 0l-31 142h-184l-31 -142h-192l206 695h222l206 -695h-196zM233 274h126l-63 289zM163 753l-62 71l143 135h108l143 -135l-62 -71l-135 85z" />
    <glyph glyph-name="Atilde" unicode="&#xc3;" horiz-adv-x="596" 
d="M419 0l-31 142h-184l-31 -142h-192l206 695h222l206 -695h-196zM233 274h126l-63 289zM316.5 761q-16.5 7 -35.5 20q-10 7 -20 12t-19 5q-18 0 -29 -10t-24 -33l-86 42q20 55 55 91t80 36q24 0 41 -7t36 -20q10 -7 20 -12t19 -5q17 0 28 10t24 33l86 -42
q-21 -56 -56 -91.5t-80 -35.5q-23 0 -39.5 7z" />
    <glyph glyph-name="Adieresis" unicode="&#xc4;" horiz-adv-x="596" 
d="M419 0l-31 142h-184l-31 -142h-192l206 695h222l206 -695h-196zM233 274h126l-63 289zM239.5 910q25.5 -25 25.5 -61t-25.5 -61t-62.5 -25q-36 0 -62 25t-26 61t26 61t62 25q37 0 62.5 -25zM477.5 910q25.5 -25 25.5 -61t-25.5 -61t-62.5 -25q-36 0 -62 25t-26 61t26 61
t62 25q37 0 62.5 -25z" />
    <glyph glyph-name="Aring" unicode="&#xc5;" horiz-adv-x="596" 
d="M419 0l-31 142h-184l-31 -142h-192l206 695h222l206 -695h-196zM233 274h126l-63 289zM405 962.5q40 -40.5 40 -98.5q0 -37 -18 -69t-51 -51t-78 -19q-44 0 -77 19t-51 51t-18 69q0 58 40 98.5t106 40.5q67 0 107 -40.5zM267.5 900q-11.5 -12 -11.5 -36q0 -23 11.5 -35.5
t30.5 -12.5t31 12.5t12 35.5q0 24 -11.5 36t-31.5 12q-19 0 -30.5 -12z" />
    <glyph glyph-name="AE" unicode="&#xc6;" horiz-adv-x="854" 
d="M596 131h232v-131h-388l-22 142h-199l-46 -142h-200l272 695h547l-20 -131h-258l28 -149h241v-128h-217zM261 274h137l-45 287z" />
    <glyph glyph-name="Ccedilla" unicode="&#xc7;" horiz-adv-x="579" 
d="M465 -78.5q27 -26.5 27 -70.5q0 -53 -42 -86.5t-114 -33.5q-36 0 -67 9.5t-52 23.5l40 79q31 -18 63 -18q46 0 46 28q0 16 -22 23.5t-71 7.5l13 103q-122 21 -190.5 114t-68.5 248q0 114 41 196t114 125t168 43q66 0 119 -20t99 -59l-87 -103q-31 23 -60 35t-62 12
q-66 0 -103 -57t-37 -172t37.5 -171t104.5 -56q36 0 66.5 14.5t66.5 42.5l82 -104q-35 -35 -84.5 -60t-106.5 -31v-29q53 -7 80 -33.5z" />
    <glyph glyph-name="Egrave" unicode="&#xc8;" horiz-adv-x="523" 
d="M495 695l-19 -131h-237v-148h207v-127h-207v-158h253v-131h-438v695h441zM192 970l227 -130l-45 -90l-247 89z" />
    <glyph glyph-name="Eacute" unicode="&#xc9;" horiz-adv-x="523" 
d="M495 695l-19 -131h-237v-148h207v-127h-207v-158h253v-131h-438v695h441zM357 970l64 -131l-247 -89l-45 90z" />
    <glyph glyph-name="Ecircumflex" unicode="&#xca;" horiz-adv-x="523" 
d="M495 695l-19 -131h-237v-148h207v-127h-207v-158h253v-131h-438v695h441zM140 753l-62 71l143 135h108l143 -135l-62 -71l-135 85z" />
    <glyph glyph-name="Edieresis" unicode="&#xcb;" horiz-adv-x="523" 
d="M495 695l-19 -131h-237v-148h207v-127h-207v-158h253v-131h-438v695h441zM216.5 910q25.5 -25 25.5 -61t-25.5 -61t-62.5 -25q-36 0 -62 25t-26 61t26 61t62 25q37 0 62.5 -25zM454.5 910q25.5 -25 25.5 -61t-25.5 -61t-62.5 -25q-36 0 -62 25t-26 61t26 61t62 25
q37 0 62.5 -25z" />
    <glyph glyph-name="Igrave" unicode="&#xcc;" horiz-adv-x="293" 
d="M239 695v-695h-185v695h185zM63 970l227 -130l-45 -90l-247 89z" />
    <glyph glyph-name="Iacute" unicode="&#xcd;" horiz-adv-x="293" 
d="M239 695v-695h-185v695h185zM228 970l64 -131l-247 -89l-45 90z" />
    <glyph glyph-name="Icircumflex" unicode="&#xce;" horiz-adv-x="293" 
d="M239 695v-695h-185v695h185zM11 753l-62 71l143 135h108l143 -135l-62 -71l-135 85z" />
    <glyph glyph-name="Idieresis" unicode="&#xcf;" horiz-adv-x="293" 
d="M239 695v-695h-185v695h185zM87.5 910q25.5 -25 25.5 -61t-25.5 -61t-62.5 -25q-36 0 -62 25t-26 61t26 61t62 25q37 0 62.5 -25zM325.5 910q25.5 -25 25.5 -61t-25.5 -61t-62.5 -25q-36 0 -62 25t-26 61t26 61t62 25q37 0 62.5 -25z" />
    <glyph glyph-name="Eth" unicode="&#xd0;" horiz-adv-x="668" 
d="M541 620.5q100 -74.5 100 -270.5q0 -350 -351 -350h-222v299h-56v108h56v288h208q165 0 265 -74.5zM413.5 180q36.5 48 36.5 170q0 84 -17.5 130.5t-50 64.5t-82.5 18h-47v-156h128v-108h-128v-167h48q76 0 112.5 48z" />
    <glyph glyph-name="Ntilde" unicode="&#xd1;" horiz-adv-x="657" 
d="M603 0h-233l-176 523l3 -21q10 -69 15.5 -129.5t5.5 -137.5v-235h-164v695h228l182 -525q-12 75 -18.5 135t-6.5 138v252h164v-695zM349.5 761q-16.5 7 -35.5 20q-10 7 -20 12t-19 5q-18 0 -29 -10t-24 -33l-86 42q20 55 55 91t80 36q24 0 41 -7t36 -20q10 -7 20 -12
t19 -5q17 0 28 10t24 33l86 -42q-21 -56 -56 -91.5t-80 -35.5q-23 0 -39.5 7z" />
    <glyph glyph-name="Ograve" unicode="&#xd2;" horiz-adv-x="690" 
d="M580 617q84 -96 84 -269q0 -113 -37.5 -195.5t-109.5 -126.5t-172 -44q-151 0 -234.5 96t-83.5 270q0 113 37.5 195t109 126t171.5 44q151 0 235 -96zM249.5 526q-30.5 -54 -30.5 -178t31 -178.5t95 -54.5q66 0 96 54t30 179q0 124 -30 178t-96 54q-65 0 -95.5 -54z
M262 970l227 -130l-45 -90l-247 89z" />
    <glyph glyph-name="Oacute" unicode="&#xd3;" horiz-adv-x="690" 
d="M580 617q84 -96 84 -269q0 -113 -37.5 -195.5t-109.5 -126.5t-172 -44q-151 0 -234.5 96t-83.5 270q0 113 37.5 195t109 126t171.5 44q151 0 235 -96zM249.5 526q-30.5 -54 -30.5 -178t31 -178.5t95 -54.5q66 0 96 54t30 179q0 124 -30 178t-96 54q-65 0 -95.5 -54z
M427 970l64 -131l-247 -89l-45 90z" />
    <glyph glyph-name="Ocircumflex" unicode="&#xd4;" horiz-adv-x="690" 
d="M580 617q84 -96 84 -269q0 -113 -37.5 -195.5t-109.5 -126.5t-172 -44q-151 0 -234.5 96t-83.5 270q0 113 37.5 195t109 126t171.5 44q151 0 235 -96zM249.5 526q-30.5 -54 -30.5 -178t31 -178.5t95 -54.5q66 0 96 54t30 179q0 124 -30 178t-96 54q-65 0 -95.5 -54z
M210 753l-62 71l143 135h108l143 -135l-62 -71l-135 85z" />
    <glyph glyph-name="Otilde" unicode="&#xd5;" horiz-adv-x="690" 
d="M580 617q84 -96 84 -269q0 -113 -37.5 -195.5t-109.5 -126.5t-172 -44q-151 0 -234.5 96t-83.5 270q0 113 37.5 195t109 126t171.5 44q151 0 235 -96zM249.5 526q-30.5 -54 -30.5 -178t31 -178.5t95 -54.5q66 0 96 54t30 179q0 124 -30 178t-96 54q-65 0 -95.5 -54z
M363.5 761q-16.5 7 -35.5 20q-10 7 -20 12t-19 5q-18 0 -29 -10t-24 -33l-86 42q20 55 55 91t80 36q24 0 41 -7t36 -20q10 -7 20 -12t19 -5q17 0 28 10t24 33l86 -42q-21 -56 -56 -91.5t-80 -35.5q-23 0 -39.5 7z" />
    <glyph glyph-name="Odieresis" unicode="&#xd6;" horiz-adv-x="690" 
d="M580 617q84 -96 84 -269q0 -113 -37.5 -195.5t-109.5 -126.5t-172 -44q-151 0 -234.5 96t-83.5 270q0 113 37.5 195t109 126t171.5 44q151 0 235 -96zM249.5 526q-30.5 -54 -30.5 -178t31 -178.5t95 -54.5q66 0 96 54t30 179q0 124 -30 178t-96 54q-65 0 -95.5 -54z
M286.5 910q25.5 -25 25.5 -61t-25.5 -61t-62.5 -25q-36 0 -62 25t-26 61t26 61t62 25q37 0 62.5 -25zM524.5 910q25.5 -25 25.5 -61t-25.5 -61t-62.5 -25q-36 0 -62 25t-26 61t26 61t62 25q37 0 62.5 -25z" />
    <glyph glyph-name="multiply" unicode="&#xd7;" horiz-adv-x="524" 
d="M377 518l96 -97l-115 -112l115 -118l-96 -96l-113 120l-117 -120l-96 96l114 112l-114 118l96 97l112 -120z" />
    <glyph glyph-name="Oslash" unicode="&#xd8;" horiz-adv-x="690" 
d="M627.5 542q36.5 -81 36.5 -194t-37.5 -195.5t-109.5 -126.5t-172 -44q-16 0 -44 2l-37 -121l-136 37l40 129q-69 44 -105 125t-36 194t37.5 195t109 126t171.5 44q16 0 44 -2l37 119l137 -36l-41 -127q69 -44 105.5 -125zM249.5 526q-30.5 -54 -30.5 -178q0 -129 27 -181
l123 412q-7 1 -24 1q-65 0 -95.5 -54zM441 169q30 54 30 179q0 129 -26 180l-123 -412q7 -1 23 -1q66 0 96 54z" />
    <glyph glyph-name="Ugrave" unicode="&#xd9;" horiz-adv-x="647" 
d="M604 233q0 -72 -31.5 -129t-94.5 -89.5t-154 -32.5q-138 0 -209 67.5t-71 183.5v462h185v-456q0 -63 22.5 -92.5t72.5 -29.5t72 30t22 92v456h186v-462zM241 970l227 -130l-45 -90l-247 89z" />
    <glyph glyph-name="Uacute" unicode="&#xda;" horiz-adv-x="647" 
d="M604 233q0 -72 -31.5 -129t-94.5 -89.5t-154 -32.5q-138 0 -209 67.5t-71 183.5v462h185v-456q0 -63 22.5 -92.5t72.5 -29.5t72 30t22 92v456h186v-462zM406 970l64 -131l-247 -89l-45 90z" />
    <glyph glyph-name="Ucircumflex" unicode="&#xdb;" horiz-adv-x="647" 
d="M604 233q0 -72 -31.5 -129t-94.5 -89.5t-154 -32.5q-138 0 -209 67.5t-71 183.5v462h185v-456q0 -63 22.5 -92.5t72.5 -29.5t72 30t22 92v456h186v-462zM189 753l-62 71l143 135h108l143 -135l-62 -71l-135 85z" />
    <glyph glyph-name="Udieresis" unicode="&#xdc;" horiz-adv-x="647" 
d="M604 233q0 -72 -31.5 -129t-94.5 -89.5t-154 -32.5q-138 0 -209 67.5t-71 183.5v462h185v-456q0 -63 22.5 -92.5t72.5 -29.5t72 30t22 92v456h186v-462zM265.5 910q25.5 -25 25.5 -61t-25.5 -61t-62.5 -25q-36 0 -62 25t-26 61t26 61t62 25q37 0 62.5 -25zM503.5 910
q25.5 -25 25.5 -61t-25.5 -61t-62.5 -25q-36 0 -62 25t-26 61t26 61t62 25q37 0 62.5 -25z" />
    <glyph glyph-name="Yacute" unicode="&#xdd;" horiz-adv-x="607" 
d="M618 695l-222 -436v-259h-185v258l-222 437h202l115 -295l116 295h196zM385 970l64 -131l-247 -89l-45 90z" />
    <glyph glyph-name="Thorn" unicode="&#xde;" horiz-adv-x="605" 
d="M509.5 530.5q77.5 -58.5 77.5 -173.5q0 -122 -75 -184.5t-202 -62.5h-71v-110h-185v695h185v-106h53q140 0 217.5 -58.5zM371.5 269q26.5 27 26.5 88q0 102 -109 102h-50v-217h54q52 0 78.5 27z" />
    <glyph glyph-name="germandbls" unicode="&#xdf;" horiz-adv-x="610" 
d="M414.5 740.5q48.5 -20.5 73.5 -55t25 -75.5q0 -37 -15 -61.5t-43 -52.5q-20 -19 -29.5 -32.5t-9.5 -30.5q0 -20 15 -35t47 -38q37 -26 61 -49t41.5 -58.5t17.5 -85.5q0 -86 -58 -135.5t-150 -49.5q-34 0 -66.5 7.5t-57.5 19.5l53 120q22 -11 47 -11q23 0 35.5 13.5
t12.5 38.5q0 32 -16.5 52t-51.5 47q-40 30 -61 57.5t-21 74.5q0 39 11.5 61t33.5 46q18 19 27.5 36t9.5 42q0 24 -14 38t-38 14q-64 0 -64 -101v-537h-178v532q0 108 63.5 168.5t182.5 60.5q68 0 116.5 -20.5z" />
    <glyph glyph-name="agrave" unicode="&#xe0;" horiz-adv-x="550" 
d="M501.5 121q7.5 -14 26.5 -21l-36 -115q-51 4 -83.5 21t-52.5 54q-51 -78 -161 -78q-79 0 -126.5 46.5t-47.5 120.5q0 88 65 135t188 47h46v18q0 43 -18 58.5t-65 15.5q-25 0 -62.5 -7.5t-76.5 -20.5l-39 115q48 20 103 30.5t102 10.5q120 0 175 -47.5t55 -145.5v-194
q0 -29 7.5 -43zM289.5 118.5q18.5 11.5 30.5 31.5v86h-30q-48 0 -71 -17.5t-23 -52.5q0 -27 14 -43t39 -16q22 0 40.5 11.5zM206 846l224 -139l-48 -89l-244 96z" />
    <glyph glyph-name="aacute" unicode="&#xe1;" horiz-adv-x="550" 
d="M501.5 121q7.5 -14 26.5 -21l-36 -115q-51 4 -83.5 21t-52.5 54q-51 -78 -161 -78q-79 0 -126.5 46.5t-47.5 120.5q0 88 65 135t188 47h46v18q0 43 -18 58.5t-65 15.5q-25 0 -62.5 -7.5t-76.5 -20.5l-39 115q48 20 103 30.5t102 10.5q120 0 175 -47.5t55 -145.5v-194
q0 -29 7.5 -43zM289.5 118.5q18.5 11.5 30.5 31.5v86h-30q-48 0 -71 -17.5t-23 -52.5q0 -27 14 -43t39 -16q22 0 40.5 11.5zM344 846l68 -132l-244 -96l-48 89z" />
    <glyph glyph-name="acircumflex" unicode="&#xe2;" horiz-adv-x="550" 
d="M501.5 121q7.5 -14 26.5 -21l-36 -115q-51 4 -83.5 21t-52.5 54q-51 -78 -161 -78q-79 0 -126.5 46.5t-47.5 120.5q0 88 65 135t188 47h46v18q0 43 -18 58.5t-65 15.5q-25 0 -62.5 -7.5t-76.5 -20.5l-39 115q48 20 103 30.5t102 10.5q120 0 175 -47.5t55 -145.5v-194
q0 -29 7.5 -43zM289.5 118.5q18.5 11.5 30.5 31.5v86h-30q-48 0 -71 -17.5t-23 -52.5q0 -27 14 -43t39 -16q22 0 40.5 11.5zM139 616l-62 71l143 144h107l144 -144l-62 -71l-135 94z" />
    <glyph glyph-name="atilde" unicode="&#xe3;" horiz-adv-x="550" 
d="M501.5 121q7.5 -14 26.5 -21l-36 -115q-51 4 -83.5 21t-52.5 54q-51 -78 -161 -78q-79 0 -126.5 46.5t-47.5 120.5q0 88 65 135t188 47h46v18q0 43 -18 58.5t-65 15.5q-25 0 -62.5 -7.5t-76.5 -20.5l-39 115q48 20 103 30.5t102 10.5q120 0 175 -47.5t55 -145.5v-194
q0 -29 7.5 -43zM289.5 118.5q18.5 11.5 30.5 31.5v86h-30q-48 0 -71 -17.5t-23 -52.5q0 -27 14 -43t39 -16q22 0 40.5 11.5zM292.5 635q-16.5 7 -35.5 20q-10 7 -20 12t-19 5q-18 0 -29 -10t-24 -33l-86 42q20 55 55 91t80 36q24 0 41 -7t36 -20q10 -7 20 -12t19 -5
q17 0 28 10t24 33l86 -42q-21 -56 -56 -91.5t-80 -35.5q-23 0 -39.5 7z" />
    <glyph glyph-name="adieresis" unicode="&#xe4;" horiz-adv-x="550" 
d="M501.5 121q7.5 -14 26.5 -21l-36 -115q-51 4 -83.5 21t-52.5 54q-51 -78 -161 -78q-79 0 -126.5 46.5t-47.5 120.5q0 88 65 135t188 47h46v18q0 43 -18 58.5t-65 15.5q-25 0 -62.5 -7.5t-76.5 -20.5l-39 115q48 20 103 30.5t102 10.5q120 0 175 -47.5t55 -145.5v-194
q0 -29 7.5 -43zM289.5 118.5q18.5 11.5 30.5 31.5v86h-30q-48 0 -71 -17.5t-23 -52.5q0 -27 14 -43t39 -16q22 0 40.5 11.5zM216.5 784q25.5 -25 25.5 -61t-25.5 -61t-62.5 -25q-36 0 -62 25t-26 61t26 61t62 25q37 0 62.5 -25zM454.5 784q25.5 -25 25.5 -61t-25.5 -61
t-62.5 -25q-36 0 -62 25t-26 61t26 61t62 25q37 0 62.5 -25z" />
    <glyph glyph-name="aring" unicode="&#xe5;" horiz-adv-x="550" 
d="M501.5 121q7.5 -14 26.5 -21l-36 -115q-51 4 -83.5 21t-52.5 54q-51 -78 -161 -78q-79 0 -126.5 46.5t-47.5 120.5q0 88 65 135t188 47h46v18q0 43 -18 58.5t-65 15.5q-25 0 -62.5 -7.5t-76.5 -20.5l-39 115q48 20 103 30.5t102 10.5q120 0 175 -47.5t55 -145.5v-194
q0 -29 7.5 -43zM289.5 118.5q18.5 11.5 30.5 31.5v86h-30q-48 0 -71 -17.5t-23 -52.5q0 -27 14 -43t39 -16q22 0 40.5 11.5zM381 836.5q40 -40.5 40 -98.5q0 -37 -18 -69t-51 -51t-78 -19q-44 0 -77 19t-51 51t-18 69q0 58 40 98.5t106 40.5q67 0 107 -40.5zM243.5 774
q-11.5 -12 -11.5 -36q0 -23 11.5 -35.5t30.5 -12.5t31 12.5t12 35.5q0 24 -11.5 36t-31.5 12q-19 0 -30.5 -12z" />
    <glyph glyph-name="ae" unicode="&#xe6;" horiz-adv-x="857" 
d="M834 215h-326q7 -61 35 -83.5t78 -22.5q30 0 59.5 11.5t64.5 35.5l73 -98q-94 -76 -213 -76q-72 0 -127 23.5t-91 65.5q-62 -89 -188 -89q-82 0 -130 46t-48 121q0 88 66 135t194 47h46v16q0 43 -18.5 59t-64.5 16q-25 0 -62.5 -7.5t-76.5 -20.5l-39 116q48 20 103 30.5
t102 10.5q111 0 164 -64q64 64 163 64q70 0 124.5 -32.5t85 -95t30.5 -148.5q0 -24 -4 -60zM662 325q-1 53 -17.5 82t-56.5 29q-37 0 -56.5 -26.5t-24.5 -90.5h155v6zM301 121q19 14 39 42q-8 28 -10 64v5h-32q-46 0 -68.5 -16.5t-22.5 -52.5q0 -26 13.5 -41t37.5 -15t43 14
z" />
    <glyph glyph-name="ccedilla" unicode="&#xe7;" horiz-adv-x="479" 
d="M328 -17v-28q53 -7 80 -33.5t27 -70.5q0 -53 -42 -86.5t-114 -33.5q-36 0 -67 9.5t-52 23.5l40 79q31 -18 63 -18q46 0 46 28q0 16 -22 23.5t-71 7.5l13 105q-96 19 -150 92t-54 181q0 84 33 149.5t93.5 102.5t141.5 37q58 0 104 -17t84 -51l-75 -104q-46 37 -97 37
q-49 0 -74 -35.5t-25 -117.5q0 -80 25 -111.5t72 -31.5q25 0 46 8t51 27l77 -109q-64 -54 -153 -63z" />
    <glyph glyph-name="egrave" unicode="&#xe8;" horiz-adv-x="555" 
d="M532 215h-326q7 -61 34.5 -83.5t78.5 -22.5q30 0 59.5 11.5t64.5 35.5l72 -98q-42 -35 -96 -55.5t-117 -20.5q-136 0 -206.5 76.5t-70.5 205.5q0 81 29.5 146t87.5 103t140 38q117 0 185 -72.5t68 -203.5q0 -6 -3 -60zM360 325q-1 53 -18 82t-57 29q-37 0 -56 -26
t-24 -91h155v6zM216 846l224 -139l-48 -89l-244 96z" />
    <glyph glyph-name="eacute" unicode="&#xe9;" horiz-adv-x="555" 
d="M532 215h-326q7 -61 34.5 -83.5t78.5 -22.5q30 0 59.5 11.5t64.5 35.5l72 -98q-42 -35 -96 -55.5t-117 -20.5q-136 0 -206.5 76.5t-70.5 205.5q0 81 29.5 146t87.5 103t140 38q117 0 185 -72.5t68 -203.5q0 -6 -3 -60zM360 325q-1 53 -18 82t-57 29q-37 0 -56 -26
t-24 -91h155v6zM354 846l68 -132l-244 -96l-48 89z" />
    <glyph glyph-name="ecircumflex" unicode="&#xea;" horiz-adv-x="555" 
d="M532 215h-326q7 -61 34.5 -83.5t78.5 -22.5q30 0 59.5 11.5t64.5 35.5l72 -98q-42 -35 -96 -55.5t-117 -20.5q-136 0 -206.5 76.5t-70.5 205.5q0 81 29.5 146t87.5 103t140 38q117 0 185 -72.5t68 -203.5q0 -6 -3 -60zM360 325q-1 53 -18 82t-57 29q-37 0 -56 -26
t-24 -91h155v6zM149 616l-62 71l143 144h107l144 -144l-62 -71l-135 94z" />
    <glyph glyph-name="edieresis" unicode="&#xeb;" horiz-adv-x="555" 
d="M532 215h-326q7 -61 34.5 -83.5t78.5 -22.5q30 0 59.5 11.5t64.5 35.5l72 -98q-42 -35 -96 -55.5t-117 -20.5q-136 0 -206.5 76.5t-70.5 205.5q0 81 29.5 146t87.5 103t140 38q117 0 185 -72.5t68 -203.5q0 -6 -3 -60zM360 325q-1 53 -18 82t-57 29q-37 0 -56 -26
t-24 -91h155v6zM226.5 784q25.5 -25 25.5 -61t-25.5 -61t-62.5 -25q-36 0 -62 25t-26 61t26 61t62 25q37 0 62.5 -25zM464.5 784q25.5 -25 25.5 -61t-25.5 -61t-62.5 -25q-36 0 -62 25t-26 61t26 61t62 25q37 0 62.5 -25z" />
    <glyph glyph-name="igrave" unicode="&#xec;" horiz-adv-x="282" 
d="M230 533v-533h-178v533h178zM73 846l224 -139l-48 -89l-244 96z" />
    <glyph glyph-name="iacute" unicode="&#xed;" horiz-adv-x="282" 
d="M230 533v-533h-178v533h178zM211 846l68 -132l-244 -96l-48 89z" />
    <glyph glyph-name="icircumflex" unicode="&#xee;" horiz-adv-x="282" 
d="M230 533v-533h-178v533h178zM6 616l-62 71l143 144h107l144 -144l-62 -71l-135 94z" />
    <glyph glyph-name="idieresis" unicode="&#xef;" horiz-adv-x="282" 
d="M230 533v-533h-178v533h178zM83.5 784q25.5 -25 25.5 -61t-25.5 -61t-62.5 -25q-36 0 -62 25t-26 61t26 61t62 25q37 0 62.5 -25zM321.5 784q25.5 -25 25.5 -61t-25.5 -61t-62.5 -25q-36 0 -62 25t-26 61t26 61t62 25q37 0 62.5 -25z" />
    <glyph glyph-name="eth" unicode="&#xf0;" horiz-adv-x="581" 
d="M508 505q44 -96 44 -225q0 -83 -31 -151t-91.5 -107.5t-145.5 -39.5q-74 0 -133 30t-92.5 87t-33.5 134q0 70 28 126.5t76 89t105 32.5q39 0 70 -10.5t58 -30.5q-14 41 -36 72.5t-60 61.5l-50 -50l-111 51l51 53q-41 12 -84 19l35 114q69 -11 144 -35l75 78l89 -77
l-54 -54q103 -72 147 -168zM351 144.5q19 34.5 19 108.5v73q-34 32 -84 32q-81 0 -81 -122q0 -126 83 -126q44 0 63 34.5z" />
    <glyph glyph-name="ntilde" unicode="&#xf1;" horiz-adv-x="575" 
d="M489 509q39 -42 39 -118v-391h-178v359q0 35 -10 48.5t-30 13.5q-42 0 -80 -61v-360h-178v533h155l13 -60q36 40 75 59t87 19q68 0 107 -42zM310.5 635q-16.5 7 -35.5 20q-10 7 -20 12t-19 5q-18 0 -29 -10t-24 -33l-86 42q20 55 55 91t80 36q24 0 41 -7t36 -20
q10 -7 20 -12t19 -5q17 0 28 10t24 33l86 -42q-21 -56 -56 -91.5t-80 -35.5q-23 0 -39.5 7z" />
    <glyph glyph-name="ograve" unicode="&#xf2;" horiz-adv-x="584" 
d="M488 476q71 -75 71 -210q0 -86 -32 -150t-92.5 -99t-142.5 -35q-125 0 -196 75t-71 210q0 86 32 150t92.5 99t142.5 35q125 0 196 -75zM228.5 384.5q-20.5 -37.5 -20.5 -117.5q0 -83 20.5 -119.5t63.5 -36.5t63.5 37.5t20.5 117.5q0 82 -20.5 119t-63.5 37t-63.5 -37.5z
M224 846l224 -139l-48 -89l-244 96z" />
    <glyph glyph-name="oacute" unicode="&#xf3;" horiz-adv-x="584" 
d="M488 476q71 -75 71 -210q0 -86 -32 -150t-92.5 -99t-142.5 -35q-125 0 -196 75t-71 210q0 86 32 150t92.5 99t142.5 35q125 0 196 -75zM228.5 384.5q-20.5 -37.5 -20.5 -117.5q0 -83 20.5 -119.5t63.5 -36.5t63.5 37.5t20.5 117.5q0 82 -20.5 119t-63.5 37t-63.5 -37.5z
M362 846l68 -132l-244 -96l-48 89z" />
    <glyph glyph-name="ocircumflex" unicode="&#xf4;" horiz-adv-x="584" 
d="M488 476q71 -75 71 -210q0 -86 -32 -150t-92.5 -99t-142.5 -35q-125 0 -196 75t-71 210q0 86 32 150t92.5 99t142.5 35q125 0 196 -75zM228.5 384.5q-20.5 -37.5 -20.5 -117.5q0 -83 20.5 -119.5t63.5 -36.5t63.5 37.5t20.5 117.5q0 82 -20.5 119t-63.5 37t-63.5 -37.5z
M157 616l-62 71l143 144h107l144 -144l-62 -71l-135 94z" />
    <glyph glyph-name="otilde" unicode="&#xf5;" horiz-adv-x="584" 
d="M488 476q71 -75 71 -210q0 -86 -32 -150t-92.5 -99t-142.5 -35q-125 0 -196 75t-71 210q0 86 32 150t92.5 99t142.5 35q125 0 196 -75zM228.5 384.5q-20.5 -37.5 -20.5 -117.5q0 -83 20.5 -119.5t63.5 -36.5t63.5 37.5t20.5 117.5q0 82 -20.5 119t-63.5 37t-63.5 -37.5z
M310.5 635q-16.5 7 -35.5 20q-10 7 -20 12t-19 5q-18 0 -29 -10t-24 -33l-86 42q20 55 55 91t80 36q24 0 41 -7t36 -20q10 -7 20 -12t19 -5q17 0 28 10t24 33l86 -42q-21 -56 -56 -91.5t-80 -35.5q-23 0 -39.5 7z" />
    <glyph glyph-name="odieresis" unicode="&#xf6;" horiz-adv-x="584" 
d="M488 476q71 -75 71 -210q0 -86 -32 -150t-92.5 -99t-142.5 -35q-125 0 -196 75t-71 210q0 86 32 150t92.5 99t142.5 35q125 0 196 -75zM228.5 384.5q-20.5 -37.5 -20.5 -117.5q0 -83 20.5 -119.5t63.5 -36.5t63.5 37.5t20.5 117.5q0 82 -20.5 119t-63.5 37t-63.5 -37.5z
M234.5 784q25.5 -25 25.5 -61t-25.5 -61t-62.5 -25q-36 0 -62 25t-26 61t26 61t62 25q37 0 62.5 -25zM472.5 784q25.5 -25 25.5 -61t-25.5 -61t-62.5 -25q-36 0 -62 25t-26 61t26 61t62 25q37 0 62.5 -25z" />
    <glyph glyph-name="divide" unicode="&#xf7;" horiz-adv-x="524" 
d="M330.5 155.5q28.5 -28.5 28.5 -68.5t-28.5 -68t-68.5 -28t-68.5 28t-28.5 68t28.5 68.5t68.5 28.5t68.5 -28.5zM330.5 645.5q28.5 -28.5 28.5 -68.5t-28.5 -68t-68.5 -28t-68.5 28t-28.5 68t28.5 68.5t68.5 28.5t68.5 -28.5zM44 264v136h436v-136h-436z" />
    <glyph glyph-name="oslash" unicode="&#xf8;" horiz-adv-x="584" 
d="M530 414q29 -62 29 -148t-32 -150t-92.5 -99t-142.5 -35q-19 0 -28 1l-37 -119l-128 37l39 121q-55 35 -84 97.5t-29 147.5q0 86 32 150t92.5 99t142.5 35q19 0 28 -1l39 120l127 -38l-40 -121q55 -35 84 -97zM217 384.5q-25 -37.5 -25 -117.5q0 -85 19 -121l91 276h-10
q-50 0 -75 -37.5zM367 148.5q25 37.5 25 117.5q0 85 -18 119l-91 -274h9q50 0 75 37.5z" />
    <glyph glyph-name="ugrave" unicode="&#xf9;" horiz-adv-x="569" 
d="M517 0h-155l-7 63q-56 -81 -159 -81q-74 0 -111.5 44.5t-37.5 123.5v383h178v-360q0 -34 10.5 -47.5t31.5 -13.5q19 0 37.5 13.5t34.5 39.5v368h178v-533zM215 846l224 -139l-48 -89l-244 96z" />
    <glyph glyph-name="uacute" unicode="&#xfa;" horiz-adv-x="569" 
d="M517 0h-155l-7 63q-56 -81 -159 -81q-74 0 -111.5 44.5t-37.5 123.5v383h178v-360q0 -34 10.5 -47.5t31.5 -13.5q19 0 37.5 13.5t34.5 39.5v368h178v-533zM353 846l68 -132l-244 -96l-48 89z" />
    <glyph glyph-name="ucircumflex" unicode="&#xfb;" horiz-adv-x="569" 
d="M517 0h-155l-7 63q-56 -81 -159 -81q-74 0 -111.5 44.5t-37.5 123.5v383h178v-360q0 -34 10.5 -47.5t31.5 -13.5q19 0 37.5 13.5t34.5 39.5v368h178v-533zM148 616l-62 71l143 144h107l144 -144l-62 -71l-135 94z" />
    <glyph glyph-name="udieresis" unicode="&#xfc;" horiz-adv-x="569" 
d="M517 0h-155l-7 63q-56 -81 -159 -81q-74 0 -111.5 44.5t-37.5 123.5v383h178v-360q0 -34 10.5 -47.5t31.5 -13.5q19 0 37.5 13.5t34.5 39.5v368h178v-533zM225.5 784q25.5 -25 25.5 -61t-25.5 -61t-62.5 -25q-36 0 -62 25t-26 61t26 61t62 25q37 0 62.5 -25zM463.5 784
q25.5 -25 25.5 -61t-25.5 -61t-62.5 -25q-36 0 -62 25t-26 61t26 61t62 25q37 0 62.5 -25z" />
    <glyph glyph-name="yacute" unicode="&#xfd;" horiz-adv-x="526" 
d="M370 0q-33 -107 -110.5 -163.5t-204.5 -61.5l-19 123q76 8 113 30.5t58 71.5h-61l-156 533h189l81 -422l93 422h183zM333 846l68 -132l-244 -96l-48 89z" />
    <glyph glyph-name="thorn" unicode="&#xfe;" horiz-adv-x="598" 
d="M518.5 477q50.5 -74 50.5 -209q0 -82 -26 -147t-74.5 -102t-111.5 -37q-79 0 -127 54v-241l-178 -19v967l178 18v-274q29 34 64.5 49t71.5 15q102 0 152.5 -74zM385 266q0 91 -19 123.5t-58 32.5q-21 0 -41.5 -14.5t-36.5 -41.5v-214q15 -22 31.5 -32t38.5 -10
q85 0 85 156z" />
    <glyph glyph-name="ydieresis" unicode="&#xff;" horiz-adv-x="526" 
d="M370 0q-33 -107 -110.5 -163.5t-204.5 -61.5l-19 123q76 8 113 30.5t58 71.5h-61l-156 533h189l81 -422l93 422h183zM205.5 784q25.5 -25 25.5 -61t-25.5 -61t-62.5 -25q-36 0 -62 25t-26 61t26 61t62 25q37 0 62.5 -25zM443.5 784q25.5 -25 25.5 -61t-25.5 -61
t-62.5 -25q-36 0 -62 25t-26 61t26 61t62 25q37 0 62.5 -25z" />
    <glyph glyph-name="Amacron" unicode="&#x100;" horiz-adv-x="596" 
d="M419 0l-31 142h-184l-31 -142h-192l206 695h222l206 -695h-196zM233 274h126l-63 289zM455 778h-315v121h315v-121z" />
    <glyph glyph-name="amacron" unicode="&#x101;" horiz-adv-x="550" 
d="M501.5 121q7.5 -14 26.5 -21l-36 -115q-51 4 -83.5 21t-52.5 54q-51 -78 -161 -78q-79 0 -126.5 46.5t-47.5 120.5q0 88 65 135t188 47h46v18q0 43 -18 58.5t-65 15.5q-25 0 -62.5 -7.5t-76.5 -20.5l-39 115q48 20 103 30.5t102 10.5q120 0 175 -47.5t55 -145.5v-194
q0 -29 7.5 -43zM289.5 118.5q18.5 11.5 30.5 31.5v86h-30q-48 0 -71 -17.5t-23 -52.5q0 -27 14 -43t39 -16q22 0 40.5 11.5zM431 652h-315v121h315v-121z" />
    <glyph glyph-name="Abreve" unicode="&#x102;" horiz-adv-x="596" 
d="M419 0l-31 142h-184l-31 -142h-192l206 695h222l206 -695h-196zM233 274h126l-63 289zM172 799q-46 51 -53 123l95 17q10 -31 30.5 -50t52.5 -19q33 0 54 19t30 50l95 -17q-7 -72 -53 -123t-126 -51q-79 0 -125 51z" />
    <glyph glyph-name="abreve" unicode="&#x103;" horiz-adv-x="550" 
d="M501.5 121q7.5 -14 26.5 -21l-36 -115q-51 4 -83.5 21t-52.5 54q-51 -78 -161 -78q-79 0 -126.5 46.5t-47.5 120.5q0 88 65 135t188 47h46v18q0 43 -18 58.5t-65 15.5q-25 0 -62.5 -7.5t-76.5 -20.5l-39 115q48 20 103 30.5t102 10.5q120 0 175 -47.5t55 -145.5v-194
q0 -29 7.5 -43zM289.5 118.5q18.5 11.5 30.5 31.5v86h-30q-48 0 -71 -17.5t-23 -52.5q0 -27 14 -43t39 -16q22 0 40.5 11.5zM147 681.5q-46 52.5 -52 131.5l95 17q20 -79 83 -79q33 0 54 21t30 58l95 -17q-6 -79 -52.5 -131.5t-126.5 -52.5t-126 52.5z" />
    <glyph glyph-name="Aogonek" unicode="&#x104;" horiz-adv-x="596" 
d="M402 -99q0 -44 52 -44q29 0 61 7l-12 -106q-34 -8 -72 -8q-67 0 -110 33t-43 88q0 102 134 159l-24 112h-184l-31 -142h-192l206 695h222l206 -695h-97q-116 -41 -116 -99zM233 274h126l-63 289z" />
    <glyph glyph-name="aogonek" unicode="&#x105;" horiz-adv-x="550" 
d="M376 -114q0 -44 52 -44q29 0 61 7l-12 -106q-34 -8 -72 -8q-67 0 -110 33t-43 88q0 56 36.5 95t102.5 66q-22 17 -35 43q-51 -78 -161 -78q-79 0 -126.5 46.5t-47.5 120.5q0 88 65 135t188 47h46v18q0 43 -18 58.5t-65 15.5q-25 0 -62.5 -7.5t-76.5 -20.5l-39 115
q48 20 103 30.5t102 10.5q120 0 175 -47.5t55 -145.5v-194q0 -29 7.5 -43t26.5 -21l-36 -115q-116 -41 -116 -99zM289.5 118.5q18.5 11.5 30.5 31.5v86h-30q-48 0 -71 -17.5t-23 -52.5q0 -27 14 -43t39 -16q22 0 40.5 11.5z" />
    <glyph glyph-name="Cacute" unicode="&#x106;" horiz-adv-x="579" 
d="M469 693q53 -20 99 -59l-87 -103q-31 23 -60 35t-62 12q-66 0 -103 -57t-37 -172t37.5 -171t104.5 -56q36 0 66.5 14.5t66.5 42.5l82 -104q-41 -41 -98.5 -67t-124.5 -26q-99 0 -172.5 42.5t-113.5 125t-40 199.5q0 114 41 196t114 125t168 43q66 0 119 -20zM438 970
l64 -131l-247 -89l-45 90z" />
    <glyph glyph-name="cacute" unicode="&#x107;" horiz-adv-x="479" 
d="M397 534q46 -17 84 -51l-75 -104q-46 37 -97 37q-49 0 -74 -35.5t-25 -117.5q0 -80 25 -111.5t72 -31.5q25 0 46 8t51 27l77 -109q-77 -64 -183 -64q-84 0 -145.5 35t-94.5 98.5t-33 146.5q0 84 33 149.5t93.5 102.5t141.5 37q58 0 104 -17zM361 846l68 -132l-244 -96
l-48 89z" />
    <glyph glyph-name="Ccircumflex" unicode="&#x108;" horiz-adv-x="579" 
d="M469 693q53 -20 99 -59l-87 -103q-31 23 -60 35t-62 12q-66 0 -103 -57t-37 -172t37.5 -171t104.5 -56q36 0 66.5 14.5t66.5 42.5l82 -104q-41 -41 -98.5 -67t-124.5 -26q-99 0 -172.5 42.5t-113.5 125t-40 199.5q0 114 41 196t114 125t168 43q66 0 119 -20zM221 753
l-62 71l143 135h108l143 -135l-62 -71l-135 85z" />
    <glyph glyph-name="ccircumflex" unicode="&#x109;" horiz-adv-x="479" 
d="M397 534q46 -17 84 -51l-75 -104q-46 37 -97 37q-49 0 -74 -35.5t-25 -117.5q0 -80 25 -111.5t72 -31.5q25 0 46 8t51 27l77 -109q-77 -64 -183 -64q-84 0 -145.5 35t-94.5 98.5t-33 146.5q0 84 33 149.5t93.5 102.5t141.5 37q58 0 104 -17zM156 616l-62 71l143 144h107
l144 -144l-62 -71l-135 94z" />
    <glyph glyph-name="Cdotaccent" unicode="&#x10a;" horiz-adv-x="579" 
d="M469 693q53 -20 99 -59l-87 -103q-31 23 -60 35t-62 12q-66 0 -103 -57t-37 -172t37.5 -171t104.5 -56q36 0 66.5 14.5t66.5 42.5l82 -104q-41 -41 -98.5 -67t-124.5 -26q-99 0 -172.5 42.5t-113.5 125t-40 199.5q0 114 41 196t114 125t168 43q66 0 119 -20zM429.5 918
q28.5 -28 28.5 -70t-28.5 -70t-73.5 -28t-73.5 28t-28.5 70t28.5 70t73.5 28t73.5 -28z" />
    <glyph glyph-name="cdotaccent" unicode="&#x10b;" horiz-adv-x="479" 
d="M397 534q46 -17 84 -51l-75 -104q-46 37 -97 37q-49 0 -74 -35.5t-25 -117.5q0 -80 25 -111.5t72 -31.5q25 0 46 8t51 27l77 -109q-77 -64 -183 -64q-84 0 -145.5 35t-94.5 98.5t-33 146.5q0 84 33 149.5t93.5 102.5t141.5 37q58 0 104 -17zM364.5 792q28.5 -28 28.5 -70
t-28.5 -70t-73.5 -28t-73.5 28t-28.5 70t28.5 70t73.5 28t73.5 -28z" />
    <glyph glyph-name="Ccaron" unicode="&#x10c;" horiz-adv-x="579" 
d="M469 693q53 -20 99 -59l-87 -103q-31 23 -60 35t-62 12q-66 0 -103 -57t-37 -172t37.5 -171t104.5 -56q36 0 66.5 14.5t66.5 42.5l82 -104q-41 -41 -98.5 -67t-124.5 -26q-99 0 -172.5 42.5t-113.5 125t-40 199.5q0 114 41 196t114 125t168 43q66 0 119 -20zM491 954
l62 -71l-143 -135h-108l-143 135l62 71l135 -85z" />
    <glyph glyph-name="ccaron" unicode="&#x10d;" horiz-adv-x="479" 
d="M397 534q46 -17 84 -51l-75 -104q-46 37 -97 37q-49 0 -74 -35.5t-25 -117.5q0 -80 25 -111.5t72 -31.5q25 0 46 8t51 27l77 -109q-77 -64 -183 -64q-84 0 -145.5 35t-94.5 98.5t-33 146.5q0 84 33 149.5t93.5 102.5t141.5 37q58 0 104 -17zM426 822l62 -71l-143 -144
h-108l-143 144l62 71l135 -94z" />
    <glyph glyph-name="Dcaron" unicode="&#x10e;" horiz-adv-x="654" 
d="M527 620.5q100 -74.5 100 -270.5q0 -350 -351 -350h-222v695h208q165 0 265 -74.5zM239 563v-431h48q76 0 112.5 48t36.5 170q0 84 -17.5 130.5t-50 64.5t-82.5 18h-47zM428 954l62 -71l-143 -135h-108l-143 135l62 71l135 -85z" />
    <glyph glyph-name="dcaron" unicode="&#x10f;" horiz-adv-x="712" 
d="M548 743v-743h-158l-7 59q-24 -34 -61.5 -55.5t-89.5 -21.5q-100 0 -151 76t-51 210q0 82 27.5 146.5t77.5 100.5t115 36q72 0 120 -46v256zM370 163v223q-17 19 -33 28t-37 9q-40 0 -63.5 -37.5t-23.5 -118.5q0 -90 20 -123.5t57 -33.5q48 0 80 53zM682 517l56 225
l-130 19l-24 -229z" />
    <glyph glyph-name="Dcroat" unicode="&#x110;" horiz-adv-x="668" 
d="M541 620.5q100 -74.5 100 -270.5q0 -350 -351 -350h-222v299h-56v108h56v288h208q165 0 265 -74.5zM413.5 180q36.5 48 36.5 170q0 84 -17.5 130.5t-50 64.5t-82.5 18h-47v-156h128v-108h-128v-167h48q76 0 112.5 48z" />
    <glyph glyph-name="dcroat" unicode="&#x111;" horiz-adv-x="610" 
d="M606 692v-99h-58v-593h-158l-7 59q-24 -34 -61.5 -55.5t-89.5 -21.5q-100 0 -151 76t-51 210q0 82 27.5 146.5t77.5 100.5t115 36q72 0 120 -46v88h-130v99h130v69l178 -18v-51h58zM370 163v223q-17 19 -33 28t-37 9q-40 0 -63.5 -37.5t-23.5 -118.5q0 -90 20 -123.5
t57 -33.5q48 0 80 53z" />
    <glyph glyph-name="Emacron" unicode="&#x112;" horiz-adv-x="523" 
d="M495 695l-19 -131h-237v-148h207v-127h-207v-158h253v-131h-438v695h441zM432 778h-315v121h315v-121z" />
    <glyph glyph-name="emacron" unicode="&#x113;" horiz-adv-x="555" 
d="M532 215h-326q7 -61 34.5 -83.5t78.5 -22.5q30 0 59.5 11.5t64.5 35.5l72 -98q-42 -35 -96 -55.5t-117 -20.5q-136 0 -206.5 76.5t-70.5 205.5q0 81 29.5 146t87.5 103t140 38q117 0 185 -72.5t68 -203.5q0 -6 -3 -60zM360 325q-1 53 -18 82t-57 29q-37 0 -56 -26
t-24 -91h155v6zM441 652h-315v121h315v-121z" />
    <glyph glyph-name="Ebreve" unicode="&#x114;" horiz-adv-x="523" 
d="M495 695l-19 -131h-237v-148h207v-127h-207v-158h253v-131h-438v695h441zM149 799q-46 51 -53 123l95 17q10 -31 30.5 -50t52.5 -19q33 0 54 19t30 50l95 -17q-7 -72 -53 -123t-126 -51q-79 0 -125 51z" />
    <glyph glyph-name="ebreve" unicode="&#x115;" horiz-adv-x="555" 
d="M532 215h-326q7 -61 34.5 -83.5t78.5 -22.5q30 0 59.5 11.5t64.5 35.5l72 -98q-42 -35 -96 -55.5t-117 -20.5q-136 0 -206.5 76.5t-70.5 205.5q0 81 29.5 146t87.5 103t140 38q117 0 185 -72.5t68 -203.5q0 -6 -3 -60zM360 325q-1 53 -18 82t-57 29q-37 0 -56 -26
t-24 -91h155v6zM157 681.5q-46 52.5 -52 131.5l95 17q20 -79 83 -79q33 0 54 21t30 58l95 -17q-6 -79 -52.5 -131.5t-126.5 -52.5t-126 52.5z" />
    <glyph glyph-name="Edotaccent" unicode="&#x116;" horiz-adv-x="523" 
d="M495 695l-19 -131h-237v-148h207v-127h-207v-158h253v-131h-438v695h441zM348.5 918q28.5 -28 28.5 -70t-28.5 -70t-73.5 -28t-73.5 28t-28.5 70t28.5 70t73.5 28t73.5 -28z" />
    <glyph glyph-name="edotaccent" unicode="&#x117;" horiz-adv-x="555" 
d="M532 215h-326q7 -61 34.5 -83.5t78.5 -22.5q30 0 59.5 11.5t64.5 35.5l72 -98q-42 -35 -96 -55.5t-117 -20.5q-136 0 -206.5 76.5t-70.5 205.5q0 81 29.5 146t87.5 103t140 38q117 0 185 -72.5t68 -203.5q0 -6 -3 -60zM360 325q-1 53 -18 82t-57 29q-37 0 -56 -26
t-24 -91h155v6zM357.5 792q28.5 -28 28.5 -70t-28.5 -70t-73.5 -28t-73.5 28t-28.5 70t28.5 70t73.5 28t73.5 -28z" />
    <glyph glyph-name="Eogonek" unicode="&#x118;" horiz-adv-x="523" 
d="M239 131h253v-131h-40q-116 -41 -116 -99q0 -44 52 -44q29 0 61 7l-12 -106q-34 -8 -72 -8q-67 0 -110 33t-43 88q0 79 77 129h-235v695h441l-19 -131h-237v-148h207v-127h-207v-158z" />
    <glyph glyph-name="eogonek" unicode="&#x119;" horiz-adv-x="555" 
d="M532 215h-326q7 -61 34.5 -83.5t78.5 -22.5q30 0 59.5 11.5t64.5 35.5l72 -98q-55 -44 -117 -62q-81 -37 -81 -85q0 -44 52 -44q30 0 61 7l-11 -106q-35 -8 -72 -8q-67 0 -110 33t-43 88q0 65 63 103q-114 13 -173 88t-59 192q0 81 29.5 146t87.5 103t140 38
q117 0 185 -72.5t68 -203.5q0 -6 -3 -60zM360 325q-1 53 -18 82t-57 29q-37 0 -56 -26t-24 -91h155v6z" />
    <glyph glyph-name="Ecaron" unicode="&#x11a;" horiz-adv-x="523" 
d="M495 695l-19 -131h-237v-148h207v-127h-207v-158h253v-131h-438v695h441zM410 954l62 -71l-143 -135h-108l-143 135l62 71l135 -85z" />
    <glyph glyph-name="ecaron" unicode="&#x11b;" horiz-adv-x="555" 
d="M532 215h-326q7 -61 34.5 -83.5t78.5 -22.5q30 0 59.5 11.5t64.5 35.5l72 -98q-42 -35 -96 -55.5t-117 -20.5q-136 0 -206.5 76.5t-70.5 205.5q0 81 29.5 146t87.5 103t140 38q117 0 185 -72.5t68 -203.5q0 -6 -3 -60zM360 325q-1 53 -18 82t-57 29q-37 0 -56 -26
t-24 -91h155v6zM419 822l62 -71l-143 -144h-108l-143 144l62 71l135 -94z" />
    <glyph glyph-name="Gcircumflex" unicode="&#x11c;" horiz-adv-x="649" 
d="M607 625l-91 -95q-38 27 -68.5 39.5t-69.5 12.5q-75 0 -117.5 -58t-42.5 -177q0 -87 14 -137.5t42.5 -72.5t73.5 -22t82 19v143h-79l-18 127h276v-346q-54 -36 -122 -56t-134 -20q-326 0 -326 366q0 114 44.5 196.5t121.5 125.5t175 43q139 0 239 -88zM216 753l-62 71
l143 135h108l143 -135l-62 -71l-135 85z" />
    <glyph glyph-name="gcircumflex" unicode="&#x11d;" horiz-adv-x="561" 
d="M561 499q-55 -23 -153 -23q53 -21 77.5 -53.5t24.5 -84.5q0 -51 -28 -91t-80 -63t-122 -23q-35 0 -59 5q-15 -10 -15 -25q0 -13 11.5 -21t44.5 -8h78q63 0 111 -20t73.5 -55.5t25.5 -80.5q0 -85 -74 -132.5t-213 -47.5q-101 0 -158.5 21t-80.5 59t-23 94h159
q0 -23 8.5 -35.5t31.5 -18t68 -5.5q59 0 81 14t22 38q0 20 -16 33t-50 13h-76q-87 0 -129.5 29.5t-42.5 76.5q0 30 18 58t48 46q-52 28 -75 65t-23 89q0 93 66 145.5t176 52.5q78 -3 136 17.5t118 58.5zM221 414.5q-19 -20.5 -19 -57.5q0 -40 19 -61t52 -21q70 0 70 84
q0 39 -17.5 57.5t-53.5 18.5q-32 0 -51 -20.5zM145 616l-62 71l143 144h107l144 -144l-62 -71l-135 94z" />
    <glyph glyph-name="Gbreve" unicode="&#x11e;" horiz-adv-x="649" 
d="M607 625l-91 -95q-38 27 -68.5 39.5t-69.5 12.5q-75 0 -117.5 -58t-42.5 -177q0 -87 14 -137.5t42.5 -72.5t73.5 -22t82 19v143h-79l-18 127h276v-346q-54 -36 -122 -56t-134 -20q-326 0 -326 366q0 114 44.5 196.5t121.5 125.5t175 43q139 0 239 -88zM225 799
q-46 51 -53 123l95 17q10 -31 30.5 -50t52.5 -19q33 0 54 19t30 50l95 -17q-7 -72 -53 -123t-126 -51q-79 0 -125 51z" />
    <glyph glyph-name="gbreve" unicode="&#x11f;" horiz-adv-x="561" 
d="M561 499q-55 -23 -153 -23q53 -21 77.5 -53.5t24.5 -84.5q0 -51 -28 -91t-80 -63t-122 -23q-35 0 -59 5q-15 -10 -15 -25q0 -13 11.5 -21t44.5 -8h78q63 0 111 -20t73.5 -55.5t25.5 -80.5q0 -85 -74 -132.5t-213 -47.5q-101 0 -158.5 21t-80.5 59t-23 94h159
q0 -23 8.5 -35.5t31.5 -18t68 -5.5q59 0 81 14t22 38q0 20 -16 33t-50 13h-76q-87 0 -129.5 29.5t-42.5 76.5q0 30 18 58t48 46q-52 28 -75 65t-23 89q0 93 66 145.5t176 52.5q78 -3 136 17.5t118 58.5zM221 414.5q-19 -20.5 -19 -57.5q0 -40 19 -61t52 -21q70 0 70 84
q0 39 -17.5 57.5t-53.5 18.5q-32 0 -51 -20.5zM153 681.5q-46 52.5 -52 131.5l95 17q20 -79 83 -79q33 0 54 21t30 58l95 -17q-6 -79 -52.5 -131.5t-126.5 -52.5t-126 52.5z" />
    <glyph glyph-name="Gdotaccent" unicode="&#x120;" horiz-adv-x="649" 
d="M607 625l-91 -95q-38 27 -68.5 39.5t-69.5 12.5q-75 0 -117.5 -58t-42.5 -177q0 -87 14 -137.5t42.5 -72.5t73.5 -22t82 19v143h-79l-18 127h276v-346q-54 -36 -122 -56t-134 -20q-326 0 -326 366q0 114 44.5 196.5t121.5 125.5t175 43q139 0 239 -88zM424.5 918
q28.5 -28 28.5 -70t-28.5 -70t-73.5 -28t-73.5 28t-28.5 70t28.5 70t73.5 28t73.5 -28z" />
    <glyph glyph-name="gdotaccent" unicode="&#x121;" horiz-adv-x="561" 
d="M561 499q-55 -23 -153 -23q53 -21 77.5 -53.5t24.5 -84.5q0 -51 -28 -91t-80 -63t-122 -23q-35 0 -59 5q-15 -10 -15 -25q0 -13 11.5 -21t44.5 -8h78q63 0 111 -20t73.5 -55.5t25.5 -80.5q0 -85 -74 -132.5t-213 -47.5q-101 0 -158.5 21t-80.5 59t-23 94h159
q0 -23 8.5 -35.5t31.5 -18t68 -5.5q59 0 81 14t22 38q0 20 -16 33t-50 13h-76q-87 0 -129.5 29.5t-42.5 76.5q0 30 18 58t48 46q-52 28 -75 65t-23 89q0 93 66 145.5t176 52.5q78 -3 136 17.5t118 58.5zM221 414.5q-19 -20.5 -19 -57.5q0 -40 19 -61t52 -21q70 0 70 84
q0 39 -17.5 57.5t-53.5 18.5q-32 0 -51 -20.5zM353.5 792q28.5 -28 28.5 -70t-28.5 -70t-73.5 -28t-73.5 28t-28.5 70t28.5 70t73.5 28t73.5 -28z" />
    <glyph glyph-name="Gcommaaccent" unicode="&#x122;" horiz-adv-x="649" 
d="M607 625l-91 -95q-38 27 -68.5 39.5t-69.5 12.5q-75 0 -117.5 -58t-42.5 -177q0 -87 14 -137.5t42.5 -72.5t73.5 -22t82 19v143h-79l-18 127h276v-346q-54 -36 -122 -56t-134 -20q-326 0 -326 366q0 114 44.5 196.5t121.5 125.5t175 43q139 0 239 -88zM411 -89
q24 -24 24 -60q0 -20 -6 -37t-21 -49l-48 -98h-86l25 114q-35 28 -35 70q0 35 24.5 59.5t61.5 24.5t61 -24z" />
    <glyph glyph-name="gcommaaccent" unicode="&#x123;" horiz-adv-x="561" 
d="M561 499q-55 -23 -153 -23q53 -21 77.5 -53.5t24.5 -84.5q0 -51 -28 -91t-80 -63t-122 -23q-35 0 -59 5q-15 -10 -15 -25q0 -13 11.5 -21t44.5 -8h78q63 0 111 -20t73.5 -55.5t25.5 -80.5q0 -85 -74 -132.5t-213 -47.5q-101 0 -158.5 21t-80.5 59t-23 94h159
q0 -23 8.5 -35.5t31.5 -18t68 -5.5q59 0 81 14t22 38q0 20 -16 33t-50 13h-76q-87 0 -129.5 29.5t-42.5 76.5q0 30 18 58t48 46q-52 28 -75 65t-23 89q0 93 66 145.5t176 52.5q78 -3 136 17.5t118 58.5zM221 414.5q-19 -20.5 -19 -57.5q0 -40 19 -61t52 -21q70 0 70 84
q0 39 -17.5 57.5t-53.5 18.5q-32 0 -51 -20.5zM214 599q-24 24 -24 60q0 20 6 37t21 49l48 98h86l-25 -114q35 -28 35 -70q0 -35 -24.5 -59.5t-61.5 -24.5t-61 24z" />
    <glyph glyph-name="Hcircumflex" unicode="&#x124;" horiz-adv-x="661" 
d="M423 0v289h-184v-289h-185v695h185v-263h184v263h185v-695h-185zM196 753l-62 71l143 135h108l143 -135l-62 -71l-135 85z" />
    <glyph glyph-name="hcircumflex" unicode="&#x125;" horiz-adv-x="575" 
d="M489 508.5q39 -42.5 39 -117.5v-391h-178v359q0 35 -10.5 48.5t-30.5 13.5q-41 0 -79 -61v-360h-178v743l178 18v-280q33 36 70 53t82 17q68 0 107 -42.5zM152 801l-62 71l143 135h108l143 -135l-62 -71l-135 85z" />
    <glyph glyph-name="Hbar" unicode="&#x126;" horiz-adv-x="674" 
d="M668 596v-99h-54v-497h-185v289h-184v-289h-185v497h-53v99h53v99h185v-99h184v99h185v-99h54zM429 432v65h-184v-65h184z" />
    <glyph glyph-name="hbar" unicode="&#x127;" horiz-adv-x="584" 
d="M498 508.5q39 -42.5 39 -117.5v-391h-178v359q0 35 -10.5 48.5t-30.5 13.5q-41 0 -79 -61v-360h-178v593h-57v99h57v51l178 18v-69h127v-99h-127v-112q33 36 70 53t82 17q68 0 107 -42.5z" />
    <glyph glyph-name="Itilde" unicode="&#x128;" horiz-adv-x="293" 
d="M239 695v-695h-185v695h185zM164.5 761q-16.5 7 -35.5 20q-10 7 -20 12t-19 5q-18 0 -29 -10t-24 -33l-86 42q20 55 55 91t80 36q24 0 41 -7t36 -20q10 -7 20 -12t19 -5q17 0 28 10t24 33l86 -42q-21 -56 -56 -91.5t-80 -35.5q-23 0 -39.5 7z" />
    <glyph glyph-name="itilde" unicode="&#x129;" horiz-adv-x="282" 
d="M230 533v-533h-178v533h178zM159.5 635q-16.5 7 -35.5 20q-10 7 -20 12t-19 5q-18 0 -29 -10t-24 -33l-86 42q20 55 55 91t80 36q24 0 41 -7t36 -20q10 -7 20 -12t19 -5q17 0 28 10t24 33l86 -42q-21 -56 -56 -91.5t-80 -35.5q-23 0 -39.5 7z" />
    <glyph glyph-name="Imacron" unicode="&#x12a;" horiz-adv-x="293" 
d="M239 695v-695h-185v695h185zM303 778h-315v121h315v-121z" />
    <glyph glyph-name="imacron" unicode="&#x12b;" horiz-adv-x="282" 
d="M230 533v-533h-178v533h178zM298 652h-315v121h315v-121z" />
    <glyph glyph-name="Ibreve" unicode="&#x12c;" horiz-adv-x="293" 
d="M239 695v-695h-185v695h185zM20 799q-46 51 -53 123l95 17q10 -31 30.5 -50t52.5 -19q33 0 54 19t30 50l95 -17q-7 -72 -53 -123t-126 -51q-79 0 -125 51z" />
    <glyph glyph-name="ibreve" unicode="&#x12d;" horiz-adv-x="282" 
d="M230 533v-533h-178v533h178zM14 681.5q-46 52.5 -52 131.5l95 17q20 -79 83 -79q33 0 54 21t30 58l95 -17q-6 -79 -52.5 -131.5t-126.5 -52.5t-126 52.5z" />
    <glyph glyph-name="Iogonek" unicode="&#x12e;" horiz-adv-x="293" 
d="M239 695v-695h-38q-116 -41 -116 -99q0 -44 52 -44q29 0 61 7l-12 -106q-34 -8 -72 -8q-67 0 -110 33t-43 88q0 87 93 139v685h185z" />
    <glyph glyph-name="iogonek" unicode="&#x12f;" horiz-adv-x="282" 
d="M67.5 652q-28.5 28 -28.5 70t28.5 70t73.5 28t73.5 -28t28.5 -70t-28.5 -70t-73.5 -28t-73.5 28zM52 533h178v-533h-32q-116 -41 -116 -99q0 -44 52 -44q29 0 61 7l-12 -106q-34 -8 -72 -8q-67 0 -110 33t-43 88q0 87 94 139v523z" />
    <glyph glyph-name="Idotaccent" unicode="&#x130;" horiz-adv-x="293" 
d="M239 695v-695h-185v695h185zM219.5 918q28.5 -28 28.5 -70t-28.5 -70t-73.5 -28t-73.5 28t-28.5 70t28.5 70t73.5 28t73.5 -28z" />
    <glyph glyph-name="dotlessi" unicode="&#x131;" horiz-adv-x="282" 
d="M230 533v-533h-178v533h178z" />
    <glyph glyph-name="IJ" unicode="&#x132;" horiz-adv-x="614" 
d="M239 695v-695h-185v695h185zM563 108q0 -87 -32.5 -143.5t-83 -88.5t-120.5 -55l-49 130q43 17 64.5 39.5t28.5 51t7 73.5v580h185v-587z" />
    <glyph glyph-name="ij" unicode="&#x133;" horiz-adv-x="564" 
d="M230 533v-533h-178v533h178zM214.5 792q28.5 -28 28.5 -70t-28.5 -70t-73.5 -28t-73.5 28t-28.5 70t28.5 70t73.5 28t73.5 -28zM512 69q0 -86 -29 -143t-78.5 -91t-120.5 -59l-60 129q38 18 61 35.5t36 45.5t13 72v475h178v-464zM496.5 792q28.5 -28 28.5 -70t-28.5 -70
t-73.5 -28t-73.5 28t-28.5 70t28.5 70t73.5 28t73.5 -28z" />
    <glyph glyph-name="Jcircumflex" unicode="&#x134;" horiz-adv-x="321" 
d="M270 108q0 -87 -32.5 -143.5t-83 -88.5t-120.5 -55l-49 130q43 17 64.5 39.5t28.5 51t7 73.5v580h185v-587zM43 753l-62 71l143 135h108l143 -135l-62 -71l-135 85z" />
    <glyph glyph-name="jcircumflex" unicode="&#x135;" horiz-adv-x="282" 
d="M230 69q0 -86 -29 -143t-78.5 -91t-120.5 -59l-60 129q38 18 61 35.5t36 45.5t13 72v475h178v-464zM6 616l-62 71l143 144h107l144 -144l-62 -71l-135 94z" />
    <glyph glyph-name="Kcommaaccent" unicode="&#x136;" horiz-adv-x="646" 
d="M239 695v-695h-185v695h185zM644 695l-209 -310l227 -385h-212l-205 370l206 325h193zM389 -89q24 -24 24 -60q0 -20 -6 -37t-21 -49l-48 -98h-86l25 114q-35 28 -35 70q0 35 24.5 59.5t61.5 24.5t61 -24z" />
    <glyph glyph-name="kcommaaccent" unicode="&#x137;" horiz-adv-x="564" 
d="M230 761v-761h-178v743zM565 533l-151 -234l162 -299h-198l-144 291l153 242h178zM344 -89q24 -24 24 -60q0 -20 -6 -37t-21 -49l-48 -98h-86l25 114q-35 28 -35 70q0 35 24.5 59.5t61.5 24.5t61 -24z" />
    <glyph glyph-name="kgreenlandic" unicode="&#x138;" horiz-adv-x="563" 
d="M230 533v-533h-178v533h178zM565 533l-151 -244l162 -289h-199l-143 281l152 252h179z" />
    <glyph glyph-name="Lacute" unicode="&#x139;" horiz-adv-x="517" 
d="M239 695v-551h267l-20 -144h-432v695h185zM228 970l64 -131l-247 -89l-45 90z" />
    <glyph glyph-name="lacute" unicode="&#x13a;" horiz-adv-x="299" 
d="M88 24q-41 42 -41 121v598l178 18v-610q0 -29 26 -29q11 0 23 4l33 -126q-41 -18 -103 -18q-75 0 -116 42zM218 1018l64 -131l-247 -89l-45 90z" />
    <glyph glyph-name="Lcommaaccent" unicode="&#x13b;" horiz-adv-x="517" 
d="M239 695v-551h267l-20 -144h-432v695h185zM332 -89q24 -24 24 -60q0 -20 -6 -37t-21 -49l-48 -98h-86l25 114q-35 28 -35 70q0 35 24.5 59.5t61.5 24.5t61 -24z" />
    <glyph glyph-name="lcommaaccent" unicode="&#x13c;" horiz-adv-x="299" 
d="M88 24q-41 42 -41 121v598l178 18v-610q0 -29 26 -29q11 0 23 4l33 -126q-41 -18 -103 -18q-75 0 -116 42zM246 -89q24 -24 24 -60q0 -20 -6 -37t-21 -49l-48 -98h-86l25 114q-35 28 -35 70q0 35 24.5 59.5t61.5 24.5t61 -24z" />
    <glyph glyph-name="Lcaron" unicode="&#x13d;" horiz-adv-x="517" 
d="M239 695v-551h267l-20 -144h-432v695h185zM375 469l56 225l-130 19l-24 -229z" />
    <glyph glyph-name="lcaron" unicode="&#x13e;" horiz-adv-x="392" 
d="M88 24q-41 42 -41 121v598l178 18v-610q0 -29 26 -29q11 0 23 4l33 -126q-41 -18 -103 -18q-75 0 -116 42zM359 517l56 225l-130 19l-24 -229z" />
    <glyph glyph-name="Ldot" unicode="&#x13f;" horiz-adv-x="517" 
d="M239 695v-551h267l-20 -144h-432v695h185zM475.5 473q28.5 -28 28.5 -70t-28.5 -70t-73.5 -28t-73.5 28t-28.5 70t28.5 70t73.5 28t73.5 -28z" />
    <glyph glyph-name="ldot" unicode="&#x140;" horiz-adv-x="475" 
d="M88 24q-41 42 -41 121v598l178 18v-610q0 -29 26 -29q11 0 23 4l33 -126q-41 -18 -103 -18q-75 0 -116 42zM446.5 446q28.5 -28 28.5 -70t-28.5 -70t-73.5 -28t-73.5 28t-28.5 70t28.5 70t73.5 28t73.5 -28z" />
    <glyph glyph-name="Lslash" unicode="&#x141;" horiz-adv-x="564" 
d="M286 144h267l-20 -144h-432v215l-39 -24l-58 95l97 60v349h185v-234l117 72l60 -94l-177 -109v-186z" />
    <glyph glyph-name="lslash" unicode="&#x142;" horiz-adv-x="372" 
d="M309 126l33 -126q-41 -18 -103 -18q-75 0 -116 42t-41 121v114l-39 -24l-57 94l96 60v354l178 18v-264l60 36l57 -95l-117 -71v-216q0 -29 26 -29q11 0 23 4z" />
    <glyph glyph-name="Nacute" unicode="&#x143;" horiz-adv-x="657" 
d="M603 0h-233l-176 523l3 -21q10 -69 15.5 -129.5t5.5 -137.5v-235h-164v695h228l182 -525q-12 75 -18.5 135t-6.5 138v252h164v-695zM413 970l64 -131l-247 -89l-45 90z" />
    <glyph glyph-name="nacute" unicode="&#x144;" horiz-adv-x="575" 
d="M489 509q39 -42 39 -118v-391h-178v359q0 35 -10 48.5t-30 13.5q-42 0 -80 -61v-360h-178v533h155l13 -60q36 40 75 59t87 19q68 0 107 -42zM362 846l68 -132l-244 -96l-48 89z" />
    <glyph glyph-name="Ncommaaccent" unicode="&#x145;" horiz-adv-x="657" 
d="M603 0h-233l-176 523l3 -21q10 -69 15.5 -129.5t5.5 -137.5v-235h-164v695h228l182 -525q-12 75 -18.5 135t-6.5 138v252h164v-695zM391 -89q24 -24 24 -60q0 -20 -6 -37t-21 -49l-48 -98h-86l25 114q-35 28 -35 70q0 35 24.5 59.5t61.5 24.5t61 -24z" />
    <glyph glyph-name="ncommaaccent" unicode="&#x146;" horiz-adv-x="575" 
d="M489 509q39 -42 39 -118v-391h-178v359q0 35 -10 48.5t-30 13.5q-42 0 -80 -61v-360h-178v533h155l13 -60q36 40 75 59t87 19q68 0 107 -42zM349 -89q24 -24 24 -60q0 -20 -6 -37t-21 -49l-48 -98h-86l25 114q-35 28 -35 70q0 35 24.5 59.5t61.5 24.5t61 -24z" />
    <glyph glyph-name="Ncaron" unicode="&#x147;" horiz-adv-x="657" 
d="M603 0h-233l-176 523l3 -21q10 -69 15.5 -129.5t5.5 -137.5v-235h-164v695h228l182 -525q-12 75 -18.5 135t-6.5 138v252h164v-695zM466 954l62 -71l-143 -135h-108l-143 135l62 71l135 -85z" />
    <glyph glyph-name="ncaron" unicode="&#x148;" horiz-adv-x="575" 
d="M489 509q39 -42 39 -118v-391h-178v359q0 35 -10 48.5t-30 13.5q-42 0 -80 -61v-360h-178v533h155l13 -60q36 40 75 59t87 19q68 0 107 -42zM427 822l62 -71l-143 -144h-108l-143 144l62 71l135 -94z" />
    <glyph glyph-name="napostrophe" unicode="&#x149;" horiz-adv-x="704" 
d="M154 741.5q21 -20.5 21 -50.5q0 -18 -5 -33.5t-18 -41.5l-41 -81h-74l22 96q-30 23 -30 60q0 29 21 50t52 21t52 -20.5zM618 509q39 -42 39 -118v-391h-178v359q0 35 -10 48.5t-30 13.5q-42 0 -80 -61v-360h-178v533h155l13 -60q36 40 75 59t87 19q68 0 107 -42z" />
    <glyph glyph-name="Eng" unicode="&#x14a;" horiz-adv-x="657" 
d="M603 695v-719q0 -98 -58 -149t-158 -51q-88 0 -149 43l59 109q22 -11 35.5 -15.5t33.5 -4.5q25 0 38.5 14.5t13.5 42.5v35h-48l-176 523l3 -21q10 -69 15.5 -129.5t5.5 -137.5v-235h-164v695h228l182 -525q-12 75 -18.5 135t-6.5 138v252h164z" />
    <glyph glyph-name="eng" unicode="&#x14b;" horiz-adv-x="575" 
d="M489 509q39 -42 39 -118v-415q0 -98 -56.5 -149t-153.5 -51q-89 0 -150 43l59 103q21 -10 35 -14.5t34 -4.5q26 0 40 14.5t14 42.5v399q0 35 -10 48.5t-30 13.5q-42 0 -80 -61v-360h-178v533h155l13 -60q36 40 75 59t87 19q68 0 107 -42z" />
    <glyph glyph-name="Omacron" unicode="&#x14c;" horiz-adv-x="690" 
d="M580 617q84 -96 84 -269q0 -113 -37.5 -195.5t-109.5 -126.5t-172 -44q-151 0 -234.5 96t-83.5 270q0 113 37.5 195t109 126t171.5 44q151 0 235 -96zM249.5 526q-30.5 -54 -30.5 -178t31 -178.5t95 -54.5q66 0 96 54t30 179q0 124 -30 178t-96 54q-65 0 -95.5 -54z
M502 778h-315v121h315v-121z" />
    <glyph glyph-name="omacron" unicode="&#x14d;" horiz-adv-x="584" 
d="M488 476q71 -75 71 -210q0 -86 -32 -150t-92.5 -99t-142.5 -35q-125 0 -196 75t-71 210q0 86 32 150t92.5 99t142.5 35q125 0 196 -75zM228.5 384.5q-20.5 -37.5 -20.5 -117.5q0 -83 20.5 -119.5t63.5 -36.5t63.5 37.5t20.5 117.5q0 82 -20.5 119t-63.5 37t-63.5 -37.5z
M449 652h-315v121h315v-121z" />
    <glyph glyph-name="Obreve" unicode="&#x14e;" horiz-adv-x="690" 
d="M580 617q84 -96 84 -269q0 -113 -37.5 -195.5t-109.5 -126.5t-172 -44q-151 0 -234.5 96t-83.5 270q0 113 37.5 195t109 126t171.5 44q151 0 235 -96zM249.5 526q-30.5 -54 -30.5 -178t31 -178.5t95 -54.5q66 0 96 54t30 179q0 124 -30 178t-96 54q-65 0 -95.5 -54z
M219 799q-46 51 -53 123l95 17q10 -31 30.5 -50t52.5 -19q33 0 54 19t30 50l95 -17q-7 -72 -53 -123t-126 -51q-79 0 -125 51z" />
    <glyph glyph-name="obreve" unicode="&#x14f;" horiz-adv-x="584" 
d="M488 476q71 -75 71 -210q0 -86 -32 -150t-92.5 -99t-142.5 -35q-125 0 -196 75t-71 210q0 86 32 150t92.5 99t142.5 35q125 0 196 -75zM228.5 384.5q-20.5 -37.5 -20.5 -117.5q0 -83 20.5 -119.5t63.5 -36.5t63.5 37.5t20.5 117.5q0 82 -20.5 119t-63.5 37t-63.5 -37.5z
M165 681.5q-46 52.5 -52 131.5l95 17q20 -79 83 -79q33 0 54 21t30 58l95 -17q-6 -79 -52.5 -131.5t-126.5 -52.5t-126 52.5z" />
    <glyph glyph-name="Ohungarumlaut" unicode="&#x150;" horiz-adv-x="690" 
d="M580 617q84 -96 84 -269q0 -113 -37.5 -195.5t-109.5 -126.5t-172 -44q-151 0 -234.5 96t-83.5 270q0 113 37.5 195t109 126t171.5 44q151 0 235 -96zM249.5 526q-30.5 -54 -30.5 -178t31 -178.5t95 -54.5q66 0 96 54t30 179q0 124 -30 178t-96 54q-65 0 -95.5 -54z
M298 995l116 -54l-118 -188l-90 36zM481 995l115 -58l-127 -188l-89 42z" />
    <glyph glyph-name="ohungarumlaut" unicode="&#x151;" horiz-adv-x="584" 
d="M488 476q71 -75 71 -210q0 -86 -32 -150t-92.5 -99t-142.5 -35q-125 0 -196 75t-71 210q0 86 32 150t92.5 99t142.5 35q125 0 196 -75zM228.5 384.5q-20.5 -37.5 -20.5 -117.5q0 -83 20.5 -119.5t63.5 -36.5t63.5 37.5t20.5 117.5q0 82 -20.5 119t-63.5 37t-63.5 -37.5z
M237 869l116 -54l-118 -188l-90 36zM420 869l115 -58l-127 -188l-89 42z" />
    <glyph glyph-name="OE" unicode="&#x152;" horiz-adv-x="908" 
d="M580 131h297v-131h-449q-43 -18 -100 -18q-92 0 -160 43.5t-104.5 126t-36.5 196.5q0 112 36.5 194.5t104.5 126.5t160 44q59 0 104 -18h448l-19 -131h-279q45 -64 57 -148h192v-127h-191q-13 -95 -60 -158zM422.5 169.5q28.5 54.5 28.5 178.5q0 123 -28.5 177.5
t-87.5 54.5q-58 0 -87 -54.5t-29 -177.5q0 -122 29.5 -177.5t86.5 -55.5q59 0 87.5 54.5z" />
    <glyph glyph-name="oe" unicode="&#x153;" horiz-adv-x="905" 
d="M881 215h-325q7 -61 34.5 -83.5t78.5 -22.5q30 0 59.5 11.5t64.5 35.5l72 -98q-94 -76 -213 -76q-116 0 -185 75q-67 -75 -176 -75q-125 0 -195.5 74.5t-70.5 210.5q0 85 32 149t92.5 99.5t141.5 35.5q105 0 175 -73q67 73 167 73q117 0 184.5 -72.5t67.5 -203.5
q0 -24 -4 -60zM710 325q-1 52 -18 81.5t-56 29.5q-37 0 -56.5 -26t-24.5 -91h155v6zM354 147.5q20 36.5 20 119.5q0 81 -20 118t-63 37q-42 0 -62.5 -37.5t-20.5 -117.5q0 -83 20 -119.5t63 -36.5t63 36.5z" />
    <glyph glyph-name="Racute" unicode="&#x154;" horiz-adv-x="620" 
d="M290 256h-51v-256h-185v695h241q147 0 219.5 -53t72.5 -163q0 -66 -30.5 -110t-97.5 -79l173 -290h-206zM239 382h62q96 0 96 97q0 45 -26.5 66t-79.5 21h-52v-184zM383 970l64 -131l-247 -89l-45 90z" />
    <glyph glyph-name="racute" unicode="&#x155;" horiz-adv-x="405" 
d="M412 540l-29 -172q-26 8 -48 8q-45 0 -68.5 -30.5t-36.5 -92.5v-253h-178v533h155l16 -101q16 53 53.5 85t81.5 32q26 0 54 -9zM302 846l68 -132l-244 -96l-48 89z" />
    <glyph glyph-name="Rcommaaccent" unicode="&#x156;" horiz-adv-x="620" 
d="M290 256h-51v-256h-185v695h241q147 0 219.5 -53t72.5 -163q0 -66 -30.5 -110t-97.5 -79l173 -290h-206zM239 382h62q96 0 96 97q0 45 -26.5 66t-79.5 21h-52v-184zM373 -89q24 -24 24 -60q0 -20 -6 -37t-21 -49l-48 -98h-86l25 114q-35 28 -35 70q0 35 24.5 59.5
t61.5 24.5t61 -24z" />
    <glyph glyph-name="rcommaaccent" unicode="&#x157;" horiz-adv-x="405" 
d="M412 540l-29 -172q-26 8 -48 8q-45 0 -68.5 -30.5t-36.5 -92.5v-253h-178v533h155l16 -101q16 53 53.5 85t81.5 32q26 0 54 -9zM203 -89q24 -24 24 -60q0 -20 -6 -37t-21 -49l-48 -98h-86l25 114q-35 28 -35 70q0 35 24.5 59.5t61.5 24.5t61 -24z" />
    <glyph glyph-name="Rcaron" unicode="&#x158;" horiz-adv-x="620" 
d="M290 256h-51v-256h-185v695h241q147 0 219.5 -53t72.5 -163q0 -66 -30.5 -110t-97.5 -79l173 -290h-206zM239 382h62q96 0 96 97q0 45 -26.5 66t-79.5 21h-52v-184zM436 954l62 -71l-143 -135h-108l-143 135l62 71l135 -85z" />
    <glyph glyph-name="rcaron" unicode="&#x159;" horiz-adv-x="405" 
d="M412 540l-29 -172q-26 8 -48 8q-45 0 -68.5 -30.5t-36.5 -92.5v-253h-178v533h155l16 -101q16 53 53.5 85t81.5 32q26 0 54 -9zM367 822l62 -71l-143 -144h-108l-143 144l62 71l135 -94z" />
    <glyph glyph-name="Sacute" unicode="&#x15a;" horiz-adv-x="580" 
d="M433.5 690q60.5 -23 108.5 -69l-83 -98q-72 57 -151 57q-41 0 -62.5 -15.5t-21.5 -43.5q0 -20 11 -33t37 -25t82 -30q107 -34 156.5 -85.5t49.5 -142.5q0 -66 -34 -116.5t-98.5 -78.5t-151.5 -28q-166 0 -271 101l91 101q83 -68 173 -68q47 0 73 20.5t26 54.5
q0 24 -10 39.5t-35.5 28t-74.5 27.5q-118 37 -166 89t-48 131q0 62 33.5 109t93 72.5t133.5 25.5q79 0 139.5 -23zM383 970l64 -131l-247 -89l-45 90z" />
    <glyph glyph-name="sacute" unicode="&#x15b;" horiz-adv-x="488" 
d="M363.5 533q52.5 -18 89.5 -49l-64 -98q-64 40 -129 40q-28 0 -41.5 -8.5t-13.5 -23.5q0 -13 7 -21t29.5 -17.5t71.5 -24.5q82 -24 121 -62.5t39 -107.5q0 -54 -31.5 -94.5t-87 -62.5t-125.5 -22q-68 0 -127.5 21.5t-100.5 59.5l85 95q31 -24 66.5 -38t71.5 -14
q32 0 49.5 10.5t17.5 31.5q0 16 -7.5 25t-28.5 17.5t-72 23.5q-155 46 -155 169q0 47 27 85.5t77.5 60.5t120.5 22q58 0 110.5 -18zM320 846l68 -132l-244 -96l-48 89z" />
    <glyph glyph-name="Scircumflex" unicode="&#x15c;" horiz-adv-x="580" 
d="M433.5 690q60.5 -23 108.5 -69l-83 -98q-72 57 -151 57q-41 0 -62.5 -15.5t-21.5 -43.5q0 -20 11 -33t37 -25t82 -30q107 -34 156.5 -85.5t49.5 -142.5q0 -66 -34 -116.5t-98.5 -78.5t-151.5 -28q-166 0 -271 101l91 101q83 -68 173 -68q47 0 73 20.5t26 54.5
q0 24 -10 39.5t-35.5 28t-74.5 27.5q-118 37 -166 89t-48 131q0 62 33.5 109t93 72.5t133.5 25.5q79 0 139.5 -23zM166 753l-62 71l143 135h108l143 -135l-62 -71l-135 85z" />
    <glyph glyph-name="scircumflex" unicode="&#x15d;" horiz-adv-x="488" 
d="M363.5 533q52.5 -18 89.5 -49l-64 -98q-64 40 -129 40q-28 0 -41.5 -8.5t-13.5 -23.5q0 -13 7 -21t29.5 -17.5t71.5 -24.5q82 -24 121 -62.5t39 -107.5q0 -54 -31.5 -94.5t-87 -62.5t-125.5 -22q-68 0 -127.5 21.5t-100.5 59.5l85 95q31 -24 66.5 -38t71.5 -14
q32 0 49.5 10.5t17.5 31.5q0 16 -7.5 25t-28.5 17.5t-72 23.5q-155 46 -155 169q0 47 27 85.5t77.5 60.5t120.5 22q58 0 110.5 -18zM115 616l-62 71l143 144h107l144 -144l-62 -71l-135 94z" />
    <glyph glyph-name="Scedilla" unicode="&#x15e;" horiz-adv-x="580" 
d="M499.5 57.5q-60.5 -59.5 -166.5 -72.5v-30q53 -7 80 -33.5t27 -70.5q0 -53 -42 -86.5t-114 -33.5q-36 0 -67 9.5t-52 23.5l40 79q31 -18 63 -18q46 0 46 28q0 16 -22 23.5t-71 7.5l13 100q-140 12 -229 99l91 101q83 -68 173 -68q47 0 73 20.5t26 54.5q0 24 -10 39.5
t-35.5 28t-74.5 27.5q-118 37 -166 89t-48 131q0 62 33.5 109t93 72.5t133.5 25.5q79 0 139.5 -23t108.5 -69l-83 -98q-72 57 -151 57q-41 0 -62.5 -15.5t-21.5 -43.5q0 -20 11 -33t37 -25t82 -30q107 -34 156.5 -85.5t49.5 -142.5q0 -88 -60.5 -147.5z" />
    <glyph glyph-name="scedilla" unicode="&#x15f;" horiz-adv-x="488" 
d="M424 47q-49 -46 -130 -60v-32q53 -7 80 -33.5t27 -70.5q0 -53 -42 -86.5t-114 -33.5q-36 0 -67 9.5t-52 23.5l40 79q31 -18 63 -18q46 0 46 28q0 16 -22 23.5t-71 7.5l13 99q-58 5 -108.5 26t-85.5 54l85 95q31 -24 66.5 -38t71.5 -14q32 0 49.5 10.5t17.5 31.5
q0 16 -7.5 25t-28.5 17.5t-72 23.5q-155 46 -155 169q0 47 27 85.5t77.5 60.5t120.5 22q58 0 110.5 -18t89.5 -49l-64 -98q-64 40 -129 40q-28 0 -41.5 -8.5t-13.5 -23.5q0 -13 7 -21t29.5 -17.5t71.5 -24.5q82 -24 121 -62.5t39 -107.5q0 -68 -49 -114z" />
    <glyph glyph-name="Scaron" unicode="&#x160;" horiz-adv-x="580" 
d="M433.5 690q60.5 -23 108.5 -69l-83 -98q-72 57 -151 57q-41 0 -62.5 -15.5t-21.5 -43.5q0 -20 11 -33t37 -25t82 -30q107 -34 156.5 -85.5t49.5 -142.5q0 -66 -34 -116.5t-98.5 -78.5t-151.5 -28q-166 0 -271 101l91 101q83 -68 173 -68q47 0 73 20.5t26 54.5
q0 24 -10 39.5t-35.5 28t-74.5 27.5q-118 37 -166 89t-48 131q0 62 33.5 109t93 72.5t133.5 25.5q79 0 139.5 -23zM436 954l62 -71l-143 -135h-108l-143 135l62 71l135 -85z" />
    <glyph glyph-name="scaron" unicode="&#x161;" horiz-adv-x="488" 
d="M363.5 533q52.5 -18 89.5 -49l-64 -98q-64 40 -129 40q-28 0 -41.5 -8.5t-13.5 -23.5q0 -13 7 -21t29.5 -17.5t71.5 -24.5q82 -24 121 -62.5t39 -107.5q0 -54 -31.5 -94.5t-87 -62.5t-125.5 -22q-68 0 -127.5 21.5t-100.5 59.5l85 95q31 -24 66.5 -38t71.5 -14
q32 0 49.5 10.5t17.5 31.5q0 16 -7.5 25t-28.5 17.5t-72 23.5q-155 46 -155 169q0 47 27 85.5t77.5 60.5t120.5 22q58 0 110.5 -18zM385 822l62 -71l-143 -144h-108l-143 144l62 71l135 -94z" />
    <glyph glyph-name="uni0162" unicode="&#x162;" horiz-adv-x="547" 
d="M446 -78.5q27 -26.5 27 -70.5q0 -53 -42.5 -86.5t-114.5 -33.5q-34 0 -65 9.5t-53 23.5l40 79q31 -18 61 -18q24 0 36 6.5t12 21.5q0 16 -22 23.5t-71 7.5l15 116h-88v554h-174v141h542l-19 -141h-164v-599q53 -7 80 -33.5z" />
    <glyph glyph-name="uni0163" unicode="&#x163;" horiz-adv-x="393" 
d="M364 -78.5q27 -26.5 27 -70.5q0 -53 -42 -86.5t-114 -33.5q-36 0 -67 9.5t-52 23.5l40 79q31 -18 63 -18q46 0 46 28q0 16 -22 23.5t-71 7.5l14 107q-117 33 -117 195v225h-69v122h69v113l178 21v-134h121l-18 -122h-103v-223q0 -36 11.5 -51t34.5 -15q28 0 54 15
l59 -111q-51 -35 -122 -42v-29q53 -7 80 -33.5z" />
    <glyph glyph-name="Tcaron" unicode="&#x164;" horiz-adv-x="547" 
d="M549 695l-19 -141h-164v-554h-185v554h-174v141h542zM409 954l62 -71l-143 -135h-108l-143 135l62 71l135 -85z" />
    <glyph glyph-name="tcaron" unicode="&#x165;" horiz-adv-x="393" 
d="M421 788l-56 -225l-98 15l24 229zM347 137l59 -111q-31 -22 -72 -33t-80 -11q-185 0 -185 204v225h-69v122h69v113l178 21v-134h121l-18 -122h-103v-223q0 -36 11.5 -51t34.5 -15q28 0 54 15z" />
    <glyph glyph-name="Tbar" unicode="&#x166;" horiz-adv-x="547" 
d="M530 554h-164v-164h112v-99h-112v-291h-185v291h-112v99h112v164h-174v141h542z" />
    <glyph glyph-name="tbar" unicode="&#x167;" horiz-adv-x="393" 
d="M406 26q-31 -22 -72 -33t-80 -11q-185 0 -185 204v63h-61v114h61v48h-69v122h69v113l178 21v-134h121l-18 -122h-103v-48h102v-114h-102v-61q0 -36 11.5 -51t34.5 -15q28 0 54 15z" />
    <glyph glyph-name="Utilde" unicode="&#x168;" horiz-adv-x="647" 
d="M604 233q0 -72 -31.5 -129t-94.5 -89.5t-154 -32.5q-138 0 -209 67.5t-71 183.5v462h185v-456q0 -63 22.5 -92.5t72.5 -29.5t72 30t22 92v456h186v-462zM342.5 761q-16.5 7 -35.5 20q-10 7 -20 12t-19 5q-18 0 -29 -10t-24 -33l-86 42q20 55 55 91t80 36q24 0 41 -7
t36 -20q10 -7 20 -12t19 -5q17 0 28 10t24 33l86 -42q-21 -56 -56 -91.5t-80 -35.5q-23 0 -39.5 7z" />
    <glyph glyph-name="utilde" unicode="&#x169;" horiz-adv-x="569" 
d="M517 0h-155l-7 63q-56 -81 -159 -81q-74 0 -111.5 44.5t-37.5 123.5v383h178v-360q0 -34 10.5 -47.5t31.5 -13.5q19 0 37.5 13.5t34.5 39.5v368h178v-533zM301.5 635q-16.5 7 -35.5 20q-10 7 -20 12t-19 5q-18 0 -29 -10t-24 -33l-86 42q20 55 55 91t80 36q24 0 41 -7
t36 -20q10 -7 20 -12t19 -5q17 0 28 10t24 33l86 -42q-21 -56 -56 -91.5t-80 -35.5q-23 0 -39.5 7z" />
    <glyph glyph-name="Umacron" unicode="&#x16a;" horiz-adv-x="647" 
d="M604 233q0 -72 -31.5 -129t-94.5 -89.5t-154 -32.5q-138 0 -209 67.5t-71 183.5v462h185v-456q0 -63 22.5 -92.5t72.5 -29.5t72 30t22 92v456h186v-462zM481 778h-315v121h315v-121z" />
    <glyph glyph-name="umacron" unicode="&#x16b;" horiz-adv-x="569" 
d="M517 0h-155l-7 63q-56 -81 -159 -81q-74 0 -111.5 44.5t-37.5 123.5v383h178v-360q0 -34 10.5 -47.5t31.5 -13.5q19 0 37.5 13.5t34.5 39.5v368h178v-533zM440 652h-315v121h315v-121z" />
    <glyph glyph-name="Ubreve" unicode="&#x16c;" horiz-adv-x="647" 
d="M604 233q0 -72 -31.5 -129t-94.5 -89.5t-154 -32.5q-138 0 -209 67.5t-71 183.5v462h185v-456q0 -63 22.5 -92.5t72.5 -29.5t72 30t22 92v456h186v-462zM198 799q-46 51 -53 123l95 17q10 -31 30.5 -50t52.5 -19q33 0 54 19t30 50l95 -17q-7 -72 -53 -123t-126 -51
q-79 0 -125 51z" />
    <glyph glyph-name="ubreve" unicode="&#x16d;" horiz-adv-x="569" 
d="M517 0h-155l-7 63q-56 -81 -159 -81q-74 0 -111.5 44.5t-37.5 123.5v383h178v-360q0 -34 10.5 -47.5t31.5 -13.5q19 0 37.5 13.5t34.5 39.5v368h178v-533zM156 681.5q-46 52.5 -52 131.5l95 17q20 -79 83 -79q33 0 54 21t30 58l95 -17q-6 -79 -52.5 -131.5t-126.5 -52.5
t-126 52.5z" />
    <glyph glyph-name="Uring" unicode="&#x16e;" horiz-adv-x="647" 
d="M604 233q0 -72 -31.5 -129t-94.5 -89.5t-154 -32.5q-138 0 -209 67.5t-71 183.5v462h185v-456q0 -63 22.5 -92.5t72.5 -29.5t72 30t22 92v456h186v-462zM431 962.5q40 -40.5 40 -98.5q0 -37 -18 -69t-51 -51t-78 -19q-44 0 -77 19t-51 51t-18 69q0 58 40 98.5t106 40.5
q67 0 107 -40.5zM293.5 900q-11.5 -12 -11.5 -36q0 -23 11.5 -35.5t30.5 -12.5t31 12.5t12 35.5q0 24 -11.5 36t-31.5 12q-19 0 -30.5 -12z" />
    <glyph glyph-name="uring" unicode="&#x16f;" horiz-adv-x="569" 
d="M517 0h-155l-7 63q-56 -81 -159 -81q-74 0 -111.5 44.5t-37.5 123.5v383h178v-360q0 -34 10.5 -47.5t31.5 -13.5q19 0 37.5 13.5t34.5 39.5v368h178v-533zM390 836.5q40 -40.5 40 -98.5q0 -37 -18 -69t-51 -51t-78 -19q-44 0 -77 19t-51 51t-18 69q0 58 40 98.5t106 40.5
q67 0 107 -40.5zM252.5 774q-11.5 -12 -11.5 -36q0 -23 11.5 -35.5t30.5 -12.5t31 12.5t12 35.5q0 24 -11.5 36t-31.5 12q-19 0 -30.5 -12z" />
    <glyph glyph-name="Uhungarumlaut" unicode="&#x170;" horiz-adv-x="647" 
d="M604 233q0 -72 -31.5 -129t-94.5 -89.5t-154 -32.5q-138 0 -209 67.5t-71 183.5v462h185v-456q0 -63 22.5 -92.5t72.5 -29.5t72 30t22 92v456h186v-462zM277 995l116 -54l-118 -188l-90 36zM460 995l115 -58l-127 -188l-89 42z" />
    <glyph glyph-name="uhungarumlaut" unicode="&#x171;" horiz-adv-x="569" 
d="M517 0h-155l-7 63q-56 -81 -159 -81q-74 0 -111.5 44.5t-37.5 123.5v383h178v-360q0 -34 10.5 -47.5t31.5 -13.5q19 0 37.5 13.5t34.5 39.5v368h178v-533zM228 869l116 -54l-118 -188l-90 36zM411 869l115 -58l-127 -188l-89 42z" />
    <glyph glyph-name="Uogonek" unicode="&#x172;" horiz-adv-x="647" 
d="M604 695v-462q0 -82 -41 -144t-119 -89q-117 -41 -117 -99q0 -44 52 -44q30 0 61 7l-11 -106q-35 -8 -72 -8q-67 0 -110 33t-43 88q0 73 80 113q-118 9 -179 75.5t-61 173.5v462h185v-456q0 -63 22.5 -92.5t72.5 -29.5t72 30t22 92v456h186z" />
    <glyph glyph-name="uogonek" unicode="&#x173;" horiz-adv-x="569" 
d="M401 -99q0 -44 52 -44q29 0 61 7l-12 -106q-34 -8 -72 -8q-67 0 -110 33t-43 88q0 82 84 134l-6 58q-56 -81 -159 -81q-74 0 -111.5 44.5t-37.5 123.5v383h178v-360q0 -34 10.5 -47.5t31.5 -13.5q19 0 37.5 13.5t34.5 39.5v368h178v-533q-116 -41 -116 -99z" />
    <glyph glyph-name="Wcircumflex" unicode="&#x174;" horiz-adv-x="853" 
d="M848 695l-108 -695h-241l-74 515l-80 -515h-235l-105 695h184l57 -558l85 558h194l76 -558l70 558h177zM293 753l-62 71l143 135h108l143 -135l-62 -71l-135 85z" />
    <glyph glyph-name="wcircumflex" unicode="&#x175;" horiz-adv-x="758" 
d="M759 533l-108 -533h-208l-64 374l-63 -374h-206l-110 533h179l44 -398l77 398h169l64 -398l55 398h171zM244 616l-62 71l143 144h107l144 -144l-62 -71l-135 94z" />
    <glyph glyph-name="Ycircumflex" unicode="&#x176;" horiz-adv-x="607" 
d="M618 695l-222 -436v-259h-185v258l-222 437h202l115 -295l116 295h196zM168 753l-62 71l143 135h108l143 -135l-62 -71l-135 85z" />
    <glyph glyph-name="ycircumflex" unicode="&#x177;" horiz-adv-x="526" 
d="M370 0q-33 -107 -110.5 -163.5t-204.5 -61.5l-19 123q76 8 113 30.5t58 71.5h-61l-156 533h189l81 -422l93 422h183zM128 616l-62 71l143 144h107l144 -144l-62 -71l-135 94z" />
    <glyph glyph-name="Ydieresis" unicode="&#x178;" horiz-adv-x="607" 
d="M618 695l-222 -436v-259h-185v258l-222 437h202l115 -295l116 295h196zM244.5 910q25.5 -25 25.5 -61t-25.5 -61t-62.5 -25q-36 0 -62 25t-26 61t26 61t62 25q37 0 62.5 -25zM482.5 910q25.5 -25 25.5 -61t-25.5 -61t-62.5 -25q-36 0 -62 25t-26 61t26 61t62 25
q37 0 62.5 -25z" />
    <glyph glyph-name="Zacute" unicode="&#x179;" horiz-adv-x="550" 
d="M522 695v-139l-289 -410h297l-19 -146h-497v137l297 416h-268v142h479zM360 970l64 -131l-247 -89l-45 90z" />
    <glyph glyph-name="zacute" unicode="&#x17a;" horiz-adv-x="465" 
d="M445 533v-125l-229 -275h236l-16 -133h-427v125l232 276h-212v132h416zM307 846l68 -132l-244 -96l-48 89z" />
    <glyph glyph-name="Zdotaccent" unicode="&#x17b;" horiz-adv-x="550" 
d="M522 695v-139l-289 -410h297l-19 -146h-497v137l297 416h-268v142h479zM351.5 918q28.5 -28 28.5 -70t-28.5 -70t-73.5 -28t-73.5 28t-28.5 70t28.5 70t73.5 28t73.5 -28z" />
    <glyph glyph-name="zdotaccent" unicode="&#x17c;" horiz-adv-x="465" 
d="M445 533v-125l-229 -275h236l-16 -133h-427v125l232 276h-212v132h416zM310.5 792q28.5 -28 28.5 -70t-28.5 -70t-73.5 -28t-73.5 28t-28.5 70t28.5 70t73.5 28t73.5 -28z" />
    <glyph glyph-name="Zcaron" unicode="&#x17d;" horiz-adv-x="550" 
d="M522 695v-139l-289 -410h297l-19 -146h-497v137l297 416h-268v142h479zM413 954l62 -71l-143 -135h-108l-143 135l62 71l135 -85z" />
    <glyph glyph-name="zcaron" unicode="&#x17e;" horiz-adv-x="465" 
d="M445 533v-125l-229 -275h236l-16 -133h-427v125l232 276h-212v132h416zM372 822l62 -71l-143 -144h-108l-143 144l62 71l135 -94z" />
    <glyph glyph-name="longs" unicode="&#x17f;" horiz-adv-x="363" 
d="M372 751.5q40 -9.5 70 -25.5l-48 -114q-39 20 -80 20q-32 0 -46 -15.5t-14 -53.5v-563h-178v411h-76v122h76v38q0 83 55.5 136.5t159.5 53.5q41 0 81 -9.5z" />
    <glyph glyph-name="uni0180" unicode="&#x180;" horiz-adv-x="607" 
d="M527 476q51 -75 51 -210q0 -82 -25.5 -146.5t-73.5 -101t-114 -36.5q-44 0 -79.5 17.5t-59.5 49.5l-7 -49h-158v593h-57v99h57v51l178 18v-69h127v-99h-127v-112q23 32 61 51t81 19q95 0 146 -75zM372.5 146q21.5 36 21.5 120q0 90 -19.5 123t-55.5 33q-47 0 -80 -56
v-211q27 -45 73 -45q39 0 60.5 36z" />
    <glyph glyph-name="uni0181" unicode="&#x181;" horiz-adv-x="779" 
d="M715 317q43 -37 43 -113q0 -113 -82 -158.5t-229 -45.5h-234v565h-26q-44 0 -44 -40q0 -15 4 -29t12 -34l-112 -48q-21 32 -33 61.5t-12 61.5q0 74 53 116t142 42h223q150 0 229.5 -41.5t79.5 -137.5q0 -61 -36.5 -97.5t-90.5 -50.5q70 -14 113 -51zM398 566v-145h48
q49 0 72 18t23 58q0 37 -24.5 53t-79.5 16h-39zM537 149.5q30 17.5 30 65.5q0 46 -28 66.5t-81 20.5h-60v-170h50q59 0 89 17.5z" />
    <glyph glyph-name="uni0182" unicode="&#x182;" horiz-adv-x="601" 
d="M514.5 395.5q72.5 -55.5 72.5 -163.5q0 -113 -75 -172.5t-198 -59.5h-260v695h450l-18 -139h-247v-105h69q134 0 206.5 -55.5zM368.5 157q25.5 25 25.5 73q0 95 -105 95h-50v-193h54q50 0 75.5 25z" />
    <glyph glyph-name="uni0183" unicode="&#x183;" horiz-adv-x="598" 
d="M518 461.5q51 -73.5 51 -203.5q0 -78 -25.5 -141t-74 -99t-113.5 -36q-44 0 -79.5 17.5t-59.5 49.5l-7 -49h-158v743h394l-19 -126h-197v-152q22 32 60 51t78 19q99 0 150 -73.5zM385 258q0 84 -19.5 116t-54.5 32q-48 0 -81 -57v-194q27 -45 75 -45q80 0 80 148z" />
    <glyph glyph-name="uni0184" unicode="&#x184;" horiz-adv-x="628" 
d="M543 406.5q72 -56.5 72 -168.5q0 -117 -74.5 -177.5t-198.5 -60.5h-260v482l-76 53q63 66 107 160h154v-232h69q135 0 207 -56.5zM423 236q0 50 -25.5 75.5t-79.5 25.5h-51v-205h54q102 0 102 104z" />
    <glyph glyph-name="uni0185" unicode="&#x185;" horiz-adv-x="547" 
d="M474 322q62 -46 62 -139q0 -88 -62.5 -135.5t-167.5 -47.5h-231v329l-77 54q64 66 107 150h148v-165h27q132 0 194 -46zM356 186q0 37 -18 54.5t-60 17.5h-25v-145h33q70 0 70 73z" />
    <glyph glyph-name="uni0186" unicode="&#x186;" horiz-adv-x="579" 
d="M405 670q70 -43 109 -125t39 -196q0 -117 -40 -199.5t-112.5 -125t-169.5 -42.5q-70 0 -127.5 26t-99.5 67l81 103q38 -28 68 -42t68 -14q139 0 139 227q0 121 -33 175t-95 54q-37 0 -68.5 -12.5t-63.5 -36.5l-88 105q47 39 103 59t128 20q92 0 162 -43z" />
    <glyph glyph-name="uni0187" unicode="&#x187;" horiz-adv-x="579" 
d="M730 820l-49 -110q-20 9 -34.5 13.5t-31.5 4.5q-24 0 -35.5 -14t-11.5 -44v-36l-79 -93q-32 18 -62 27.5t-69 9.5q-65 0 -102 -57t-37 -172q0 -114 37.5 -170.5t105.5 -56.5q35 0 64.5 14.5t67.5 43.5l82 -105q-41 -41 -98.5 -67t-125.5 -26q-99 0 -172 42.5t-113 125
t-40 199.5q0 112 40.5 194.5t109 126t149.5 43.5q53 0 88 -16q4 77 47.5 118.5t127.5 41.5q80 0 141 -37z" />
    <glyph glyph-name="uni0188" unicode="&#x188;" horiz-adv-x="479" 
d="M644 724l-49 -110q-34 18 -66 18q-48 0 -48 -58v-91l-65 -91q-48 24 -104 24q-51 0 -76.5 -35.5t-25.5 -117.5q0 -80 25 -111.5t72 -31.5q25 0 46 8t51 27l77 -109q-77 -64 -183 -64q-84 0 -145.5 35t-94.5 98.5t-33 146.5t32 149t88 103t124 37q32 0 59 -8v44
q0 84 43.5 129t131.5 45q80 0 141 -37z" />
    <glyph glyph-name="uni0189" unicode="&#x189;" horiz-adv-x="668" 
d="M541 620.5q100 -74.5 100 -270.5q0 -350 -351 -350h-222v299h-56v108h56v288h208q165 0 265 -74.5zM413.5 180q36.5 48 36.5 170q0 84 -17.5 130.5t-50 64.5t-82.5 18h-47v-156h128v-108h-128v-167h48q76 0 112.5 48z" />
    <glyph glyph-name="uni018A" unicode="&#x18a;" horiz-adv-x="813" 
d="M686 620.5q100 -74.5 100 -270.5q0 -350 -351 -350h-222v565h-26q-44 0 -44 -40q0 -15 4 -29t12 -34l-112 -48q-21 32 -33 61.5t-12 61.5q0 74 53 116t142 42h224q165 0 265 -74.5zM558.5 180q36.5 48 36.5 170q0 84 -17.5 130.5t-50 64.5t-82.5 18h-47v-431h48
q76 0 112.5 48z" />
    <glyph glyph-name="uni018B" unicode="&#x18b;" horiz-adv-x="601" 
d="M547 0h-264q-123 0 -196 57t-73 170q0 107 73 165.5t206 58.5h69v105h-258v139h443v-695zM362 132v193h-50q-105 0 -105 -98q0 -95 101 -95h54z" />
    <glyph glyph-name="uni018C" unicode="&#x18c;" horiz-adv-x="600" 
d="M548 0h-158l-7 59q-24 -34 -61.5 -55.5t-89.5 -21.5q-100 0 -151 75t-51 203q0 79 27 141.5t78 98t119 35.5q33 0 62.5 -12t53.5 -34v128h-206v126h384v-743zM370 163v207q-17 19 -33 28t-37 9q-40 0 -63.5 -36.5t-23.5 -111.5q0 -85 20.5 -117t58.5 -32q46 0 78 53z" />
    <glyph glyph-name="uni018D" unicode="&#x18d;" horiz-adv-x="577" 
d="M478.5 10.5q20.5 -32.5 20.5 -77.5q0 -69 -56.5 -113.5t-170.5 -44.5q-60 0 -110 17.5t-85 45.5l80 92q50 -33 104 -33q35 0 52 11t17 30q0 15 -6.5 25t-26 21.5t-61.5 28.5q-112 45 -161.5 106t-49.5 164q0 82 32.5 142.5t91.5 93t139 32.5q124 0 194 -69t70 -191
q0 -70 -38.5 -124.5t-114.5 -90.5q59 -33 79.5 -65.5zM215.5 208.5q7.5 -26.5 29 -46t65.5 -41.5q35 31 47.5 69t12.5 93q0 73 -19.5 106t-61.5 33q-41 0 -61 -33.5t-20 -106.5q0 -47 7.5 -73.5z" />
    <glyph glyph-name="uni018E" unicode="&#x18e;" horiz-adv-x="523" 
d="M36 695h433v-695h-439v131h254v158h-208v127h208v148h-248v131z" />
    <glyph glyph-name="uni018F" unicode="&#x18f;" horiz-adv-x="637" 
d="M531.5 620.5q78.5 -92.5 78.5 -269.5q0 -179 -79.5 -274t-219.5 -95q-150 0 -222 94.5t-72 262.5q0 41 6 71h401q-4 87 -38 128.5t-97 41.5q-46 0 -80.5 -14t-71.5 -40l-81 97q53 46 113.5 68t137.5 22q146 0 224.5 -92.5zM393 154q28 40 31 132h-230q1 -91 31 -131.5
t85 -40.5t83 40z" />
    <glyph glyph-name="uni0190" unicode="&#x190;" horiz-adv-x="547" 
d="M424 689.5q57 -23.5 107 -70.5l-87 -92q-61 55 -126 55q-46 0 -67 -20.5t-21 -53.5q0 -37 25 -57.5t71 -20.5h78l-21 -129h-54q-57 0 -86 -24.5t-29 -69.5t28 -68.5t78 -23.5q39 0 71 14.5t65 45.5l97 -95q-92 -98 -251 -98q-82 0 -146 26t-99.5 74t-35.5 112
q0 77 46.5 120.5t133.5 52.5q-80 17 -120 59.5t-40 102.5q0 53 32 95t90 65.5t132 23.5q72 0 129 -23.5z" />
    <glyph glyph-name="uni0191" unicode="&#x191;" horiz-adv-x="486" 
d="M239 564v-167h196v-131h-196v-290q0 -98 -58 -149t-158 -51q-88 0 -149 43l59 109q22 -11 35.5 -15.5t33.5 -4.5q25 0 38.5 14.5t13.5 42.5v730h427l-19 -131h-223z" />
    <glyph glyph-name="florin" unicode="&#x192;" horiz-adv-x="381" 
d="M274 617q-14 -15 -14 -54v-30h124l-19 -122h-105v-342q0 -86 -29 -143t-78.5 -91t-120.5 -59l-61 129q39 18 62 35.5t36 45.5t13 72v353h-81v122h81v38q0 84 55 137t159 53q89 0 164 -35l-47 -114q-45 20 -86 20q-39 0 -53 -15z" />
    <glyph glyph-name="uni0193" unicode="&#x193;" horiz-adv-x="619" 
d="M770 820l-49 -110q-19 9 -34 13.5t-32 4.5q-48 0 -48 -58v-45l-85 -89q-38 23 -72 34.5t-72 11.5q-75 0 -117.5 -58t-42.5 -177q0 -87 14 -137.5t42.5 -72.5t73.5 -22q46 0 82 20v142h-79l-18 127h276v-346q-55 -36 -123 -56t-134 -20q-325 0 -325 366q0 113 44 196
t117 126t159 43q59 0 107 -20q3 79 46.5 121.5t128.5 42.5q80 0 141 -37z" />
    <glyph glyph-name="uni0194" unicode="&#x194;" horiz-adv-x="574" 
d="M383 99q35 -55 51.5 -100t16.5 -92q0 -61 -39 -96t-122 -35q-82 0 -121 35t-39 96q0 41 15.5 84t52.5 108l-217 596h195l114 -477l114 477h189zM311.5 -44.5q-6.5 19.5 -21.5 50.5q-14 -31 -21 -51.5t-7 -36.5q0 -30 28 -30t28 31q0 17 -6.5 36.5z" />
    <glyph glyph-name="uni0195" unicode="&#x195;" horiz-adv-x="866" 
d="M824 391q8 -68 8 -145q0 -90 -38 -149.5t-98.5 -87t-131.5 -27.5q-93 0 -153.5 50.5t-60.5 153.5v173q0 35 -10.5 48.5t-30.5 13.5q-41 0 -79 -61v-360h-178v743l178 18v-280q33 36 70 53t82 17q68 0 107 -42.5t39 -117.5v-205q0 -41 12.5 -58t37.5 -17q33 0 54.5 35.5
t21.5 113.5q0 118 -27 273h175q14 -74 22 -142z" />
    <glyph glyph-name="uni0196" unicode="&#x196;" horiz-adv-x="398" 
d="M409 25q-61 -43 -149 -43q-100 0 -158 51t-58 149v513h185v-524q0 -28 14 -42.5t38 -14.5q20 0 33.5 4.5t35.5 15.5z" />
    <glyph glyph-name="uni0197" unicode="&#x197;" horiz-adv-x="335" 
d="M332 427v-134h-72v-293h-185v293h-72v134h72v268h185v-268h72z" />
    <glyph glyph-name="uni0198" unicode="&#x198;" horiz-adv-x="664" 
d="M245 370l129 216q41 70 82.5 98.5t107.5 28.5q69 0 116 -38l-46 -103q-22 11 -42 11t-33.5 -9.5t-32.5 -39.5l-91 -149l227 -385h-212zM239 695v-695h-185v695h185z" />
    <glyph glyph-name="uni0199" unicode="&#x199;" horiz-adv-x="564" 
d="M244 616.5q-14 -15.5 -14 -53.5v-563h-178v571q0 84 55 137t159 53q41 0 81.5 -9.5t70.5 -25.5l-48 -112q-40 18 -81 18q-31 0 -45 -15.5zM414 299l162 -299h-198l-144 291l153 242h178z" />
    <glyph glyph-name="uni019A" unicode="&#x19a;" horiz-adv-x="343" 
d="M339 0q-41 -18 -103 -18q-75 0 -116 42t-41 121v165h-76v123h76v310l178 18v-328h75v-123h-75v-159q0 -29 26 -29q11 0 23 4z" />
    <glyph glyph-name="uni019B" unicode="&#x19b;" horiz-adv-x="541" 
d="M479 194q31 -87 81 -157l-173 -55q-45 77 -71 160t-51 224l-85 -384l-176 39l156 465h87q-12 48 -23 71l-55 -43l-93 59l69 56l2 2q-35 12 -87 18l20 111q57 -8 99 -19.5t75 -29.5l73 58l68 -83l-62 -47q48 -68 75 -187q40 -171 71 -258z" />
    <glyph glyph-name="uni019C" unicode="&#x19c;" horiz-adv-x="909" 
d="M856 695v-695h-163l-13 60q-36 -41 -72.5 -59.5t-83.5 -18.5q-51 0 -88 23.5t-58 66.5q-40 -48 -78.5 -69t-88.5 -21q-78 0 -122.5 53t-44.5 139v521h185v-512q0 -31 12.5 -48.5t35.5 -17.5q20 0 37 14t43 46v518h185v-512q0 -31 13 -48.5t35 -17.5q23 0 41.5 14.5
t39.5 46.5v517h185z" />
    <glyph glyph-name="uni019D" unicode="&#x19d;" horiz-adv-x="657" 
d="M603 695v-695h-233l-176 523l3 -21q10 -69 15.5 -129.5t5.5 -137.5v-259q0 -98 -53 -149t-144 -51q-88 0 -149 43l58 105q21 -11 35.5 -16t33.5 -5q27 0 41 14.5t14 42.5v735h228l182 -525q-12 75 -18.5 135t-6.5 138v252h164z" />
    <glyph glyph-name="uni019E" unicode="&#x19e;" horiz-adv-x="575" 
d="M489 509q39 -42 39 -118v-615l-178 18v565q0 35 -10 48.5t-30 13.5q-42 0 -80 -61v-360h-178v533h155l13 -60q36 40 75 59t87 19q68 0 107 -42z" />
    <glyph glyph-name="uni019F" unicode="&#x19f;" horiz-adv-x="690" 
d="M580 617q84 -96 84 -269q0 -113 -37.5 -195.5t-109.5 -126.5t-172 -44q-151 0 -234.5 96t-83.5 270q0 113 37.5 195t109 126t171.5 44q151 0 235 -96zM255 537.5q-32 -42.5 -39 -136.5h258q-7 94 -38.5 136.5t-90.5 42.5q-58 0 -90 -42.5zM437 159q32 44 38 142h-260
q7 -97 39 -141.5t91 -44.5q60 0 92 44z" />
    <glyph glyph-name="Ohorn" unicode="&#x1a0;" horiz-adv-x="719" 
d="M699.5 598q-27.5 -32 -78.5 -42q43 -86 43 -208q0 -113 -37.5 -195.5t-109.5 -126.5t-172 -44q-151 0 -234.5 96t-83.5 270q0 113 37.5 195t109 126t171.5 44q137 0 220 -80q24 4 34.5 18t10.5 41q0 32 -12 66l110 15q19 -36 19 -90q0 -53 -27.5 -85zM441 169
q30 54 30 179q0 124 -30 178t-96 54q-65 0 -95.5 -54t-30.5 -178t31 -178.5t95 -54.5q66 0 96 54z" />
    <glyph glyph-name="ohorn" unicode="&#x1a1;" horiz-adv-x="634" 
d="M620.5 433.5q-28.5 -32.5 -81.5 -41.5q20 -55 20 -126q0 -86 -32 -150t-92.5 -99t-142.5 -35q-125 0 -196 75t-71 210q0 86 32 150t92.5 99t142.5 35q129 0 200 -79q21 4 30.5 17.5t9.5 39.5q0 32 -12 66l110 15q19 -36 19 -90t-28.5 -86.5zM355.5 148.5
q20.5 37.5 20.5 117.5q0 82 -20.5 119t-63.5 37t-63.5 -37.5t-20.5 -117.5q0 -83 20.5 -119.5t63.5 -36.5t63.5 37.5z" />
    <glyph glyph-name="uni01A2" unicode="&#x1a2;" horiz-adv-x="971" 
d="M859 662q58 -52 58 -150v-725h-185v732q0 67 -55 67q-34 0 -67 -15q54 -89 54 -223q0 -113 -37.5 -195.5t-109.5 -126.5t-172 -44q-151 0 -234.5 96t-83.5 270q0 113 37.5 195t109 126t171.5 44q105 0 184 -54q77 55 172 55q100 0 158 -52zM441 169q30 54 30 179
q0 124 -30 178t-96 54q-65 0 -95.5 -54t-30.5 -178t31 -178.5t95 -54.5q66 0 96 54z" />
    <glyph glyph-name="uni01A3" unicode="&#x1a3;" horiz-adv-x="841" 
d="M734 499.5q55 -51.5 55 -149.5v-574l-178 18v571q0 59 -53 59q-17 0 -33 -4q34 -65 34 -154q0 -86 -32 -150t-92.5 -99t-142.5 -35q-125 0 -196 75t-71 210q0 86 32 150t92.5 99t142.5 35t145 -37q34 20 68.5 28.5t79.5 8.5q94 0 149 -51.5zM355.5 148.5
q20.5 37.5 20.5 117.5q0 82 -20.5 119t-63.5 37t-63.5 -37.5t-20.5 -117.5q0 -83 20.5 -119.5t63.5 -36.5t63.5 37.5z" />
    <glyph glyph-name="uni01A4" unicode="&#x1a4;" horiz-adv-x="765" 
d="M668.5 636.5q77.5 -58.5 77.5 -171.5q0 -118 -75 -179.5t-202 -61.5h-71v-224h-185v565h-26q-44 0 -44 -40q0 -15 4 -29t12 -34l-112 -48q-21 32 -33 61.5t-12 61.5q0 74 53 116t142 42h254q140 0 217.5 -58.5zM530.5 382q26.5 26 26.5 82q0 101 -109 101h-50v-209h54
q52 0 78.5 26z" />
    <glyph glyph-name="uni01A5" unicode="&#x1a5;" horiz-adv-x="598" 
d="M518.5 477q50.5 -74 50.5 -209q0 -82 -26 -147t-74.5 -102t-111.5 -37q-79 0 -127 54v-242l-178 -18v795q0 84 55 137t159 53q41 0 81.5 -9.5t70.5 -25.5l-48 -112q-40 18 -81 18q-31 0 -45 -15.5t-14 -53.5v-77q30 34 66 49.5t70 15.5q102 0 152.5 -74zM385 266
q0 91 -19 123.5t-58 32.5q-21 0 -41.5 -14.5t-36.5 -41.5v-214q15 -22 31.5 -32t38.5 -10q85 0 85 156z" />
    <glyph glyph-name="uni01A6" unicode="&#x1a6;" horiz-adv-x="620" 
d="M290 144h-51v-144h-185v695h185v-113h56q147 0 219.5 -52.5t72.5 -163.5q0 -66 -30.5 -110t-97.5 -78l173 -290h-206zM239 270h62q48 0 72 23t24 73q0 45 -26.5 66.5t-79.5 21.5h-52v-184z" />
    <glyph glyph-name="uni01A7" unicode="&#x1a7;" horiz-adv-x="570" 
d="M428.5 688q57.5 -25 89.5 -71.5t32 -107.5q0 -78 -50.5 -128t-167.5 -86q-69 -22 -94.5 -45.5t-25.5 -58.5t24 -53.5t68 -18.5q89 0 170 65l92 -101q-50 -45 -119 -73t-157 -28q-82 0 -143 28t-94 78.5t-33 115.5q0 87 49.5 137t156.5 84q77 25 105.5 45.5t28.5 51.5
q0 28 -21 43t-58 15q-45 0 -82.5 -14t-73.5 -43l-83 98q104 92 253 92q76 0 133.5 -25z" />
    <glyph glyph-name="uni01A8" unicode="&#x1a8;" horiz-adv-x="479" 
d="M361 529q48 -22 73.5 -60.5t25.5 -86.5q0 -64 -39 -100.5t-120 -61.5q-45 -13 -67 -23.5t-29.5 -21t-7.5 -26.5q0 -21 16.5 -32t44.5 -11q34 0 69 14t66 38l85 -95q-41 -38 -100.5 -59.5t-127.5 -21.5t-121.5 21.5t-83.5 61.5t-30 92q0 69 39.5 106.5t123.5 62.5
q46 14 68.5 24t29.5 19.5t7 23.5q0 15 -13 24t-40 9q-67 0 -131 -40l-64 98q93 67 213 67q65 0 113 -22z" />
    <glyph glyph-name="uni01A9" unicode="&#x1a9;" horiz-adv-x="503" 
d="M487 695v-133h-268l158 -187v-67l-160 -173h270v-135h-471v132l183 208l-183 223v132h471z" />
    <glyph glyph-name="uni01AA" unicode="&#x1aa;" horiz-adv-x="431" 
d="M561 -181q-61 -43 -150 -43q-97 0 -153.5 51t-56.5 149v436q-33 -11 -63 -11q-74 0 -120 49t-46 130q0 52 23.5 93t68.5 64.5t106 23.5q99 0 154 -54t55 -143v-604q0 -28 14 -42.5t40 -14.5q20 0 34 4.5t35 14.5zM201 525v66q0 50 -38 50q-41 0 -41 -59q0 -61 49 -61
q17 0 30 4z" />
    <glyph glyph-name="uni01AB" unicode="&#x1ab;" horiz-adv-x="393" 
d="M406 26v-49q0 -99 -54.5 -150t-152.5 -51q-47 0 -87 12t-66 32l58 105q22 -11 40.5 -16t43.5 -5q65 0 65 57v21h-1q-183 0 -183 204v225h-69v122h69v113l178 21v-134h121l-18 -122h-103v-236q0 -34 13 -48t40 -14q24 0 56 8z" />
    <glyph glyph-name="uni01AC" unicode="&#x1ac;" horiz-adv-x="607" 
d="M590 554h-164v-554h-185v554h-54q-21 0 -32 -10t-11 -27q0 -15 3.5 -27t10.5 -28l-119 -49q-37 63 -37 124q0 74 54.5 116t148.5 42h404z" />
    <glyph glyph-name="uni01AD" unicode="&#x1ad;" horiz-adv-x="393" 
d="M406 26q-31 -22 -72 -33t-80 -11q-185 0 -185 204v225h-69v122h69v37q0 85 51.5 138t145.5 53q77 0 138 -37l-49 -102q-35 18 -63 18q-45 0 -45 -57v-50h121l-18 -122h-103v-223q0 -36 11.5 -51t34.5 -15q28 0 54 15z" />
    <glyph glyph-name="uni01AE" unicode="&#x1ae;" horiz-adv-x="549" 
d="M451.5 -87.5q13.5 4.5 35.5 15.5l59 -109q-61 -43 -149 -43q-100 0 -158 51t-58 149v578h-174v141h542l-19 -141h-164v-589q0 -28 14 -42.5t38 -14.5q20 0 33.5 4.5z" />
    <glyph glyph-name="Uhorn" unicode="&#x1af;" horiz-adv-x="740" 
d="M760 683q0 -65 -41 -98.5t-115 -33.5v-318q0 -72 -31.5 -129t-94.5 -89.5t-154 -32.5q-138 0 -209 67.5t-71 183.5v462h185v-456q0 -63 22.5 -92.5t72.5 -29.5t72 30t22 92v456h186v-60q21 4 30 18t9 39q0 32 -12 66l110 15q19 -36 19 -90z" />
    <glyph glyph-name="uhorn" unicode="&#x1b0;" horiz-adv-x="655" 
d="M673 520q0 -65 -41 -98.5t-115 -33.5v-388h-155l-7 63q-56 -81 -159 -81q-74 0 -111.5 44.5t-37.5 123.5v383h178v-360q0 -34 10.5 -47.5t31.5 -13.5q19 0 37.5 13.5t34.5 39.5v368h178v-61q21 4 30 18t9 39q0 32 -12 66l110 15q19 -36 19 -90z" />
    <glyph glyph-name="uni01B1" unicode="&#x1b1;" horiz-adv-x="690" 
d="M174 23.5q-72 41.5 -109.5 113.5t-37.5 161q0 95 34 159.5t98 107.5h-111v130h246v-122q-39 -51 -57 -110.5t-18 -164.5q0 -183 126 -183t126 183q0 104 -18 163.5t-56 111.5v122h246v-130h-111q132 -86 132 -267q0 -88 -38 -160t-110.5 -114t-170.5 -42q-99 0 -171 41.5
z" />
    <glyph glyph-name="uni01B2" unicode="&#x1b2;" horiz-adv-x="647" 
d="M562 669q42 -44 42 -134v-246q0 -96 -37.5 -165t-105.5 -105.5t-159 -36.5q-79 0 -137.5 30t-89.5 82.5t-31 120.5v480h185v-481q0 -46 20 -71.5t59 -25.5q51 0 80.5 40t29.5 127v261q0 19 -7 27.5t-21 8.5q-13 0 -24 -4l-26 119q43 17 101 17q79 0 121 -44z" />
    <glyph glyph-name="uni01B3" unicode="&#x1b3;" horiz-adv-x="647" 
d="M211 258l-222 437h202l115 -295l58 159q29 83 72.5 118.5t119.5 35.5q69 0 126 -36l-49 -107q-23 14 -51 14q-23 0 -36.5 -11t-26.5 -40l-123 -274v-259h-185v258z" />
    <glyph glyph-name="uni01B4" unicode="&#x1b4;" horiz-adv-x="534" 
d="M36 -102q76 8 113 30.5t58 71.5h-61l-156 533h189l81 -422l62 317q16 83 51.5 121t106.5 38q47 0 87 -14l-28 -118q-14 4 -25 4q-17 0 -27 -8.5t-15 -31.5l-89 -387q-29 -130 -111 -191t-217 -66z" />
    <glyph glyph-name="uni01B5" unicode="&#x1b5;" horiz-adv-x="550" 
d="M216 146h314l-19 -146h-497v129l120 162h-78v113h162l110 149h-285v142h479v-131l-117 -160h73v-113h-156z" />
    <glyph glyph-name="uni01B6" unicode="&#x1b6;" horiz-adv-x="465" 
d="M207 125h245l-16 -125h-427v117l89 108h-63v100h145l69 84h-220v124h416v-117l-74 -91h53v-100h-135z" />
    <glyph glyph-name="uni01B7" unicode="&#x1b7;" horiz-adv-x="556" 
d="M481 348q54 -52 54 -140q0 -64 -34 -115t-98.5 -81t-153.5 -30q-83 0 -143.5 27.5t-103.5 78.5l93 90q35 -33 67.5 -47.5t75.5 -14.5q49 0 77.5 26t28.5 73q0 87 -114 87h-103v99l167 162h-250v132h452v-128l-167 -163q98 -4 152 -56z" />
    <glyph glyph-name="uni01B8" unicode="&#x1b8;" horiz-adv-x="556" 
d="M554 88q-45 -52 -106 -79t-148 -27q-86 0 -149 29t-96.5 80t-33.5 115q0 85 55.5 138.5t149.5 59.5l-167 163v128h453v-132h-248l165 -164v-97h-103q-55 0 -85 -24t-30 -69q0 -43 27 -68t73 -25t80 14.5t70 47.5z" />
    <glyph glyph-name="uni01B9" unicode="&#x1b9;" horiz-adv-x="518" 
d="M535 -118q-88 -106 -245 -106q-85 0 -147.5 30t-95.5 82t-33 117q0 94 54.5 147t154.5 62l-175 198v121h444v-131h-246l163 -192v-96h-96q-117 0 -117 -98q0 -51 29 -78.5t76 -27.5q40 0 73 14t70 46z" />
    <glyph glyph-name="uni01BA" unicode="&#x1ba;" horiz-adv-x="520" 
d="M72 -163q-45 40 -45 94q0 57 42 90t131 51q66 13 91.5 27.5t25.5 40.5q0 23 -18.5 33.5t-60.5 10.5h-126v91l146 135h-237v123h443v-113l-162 -137h18q84 0 131.5 -40.5t47.5 -108.5q0 -78 -53 -118t-145 -57q-67 -12 -89.5 -22.5t-22.5 -25.5q0 -11 11.5 -20.5
t33.5 -19.5l-39 -96q-78 22 -123 62z" />
    <glyph glyph-name="uni01BB" unicode="&#x1bb;" horiz-adv-x="523" 
d="M498 135l-19 -135h-453v124l114 112h-82v113h186q32 40 44.5 69.5t12.5 59.5q0 37 -21 58.5t-58 21.5q-35 0 -62.5 -16.5t-55.5 -52.5l-103 83q43 57 103.5 89t136.5 32q77 0 131.5 -26.5t82.5 -71t28 -98.5q0 -39 -10.5 -73.5t-37.5 -74.5h51v-113h-149
q-40 -40 -109 -101h270z" />
    <glyph glyph-name="uni01BC" unicode="&#x1bc;" horiz-adv-x="552" 
d="M469 569h-245v-132q53 23 103 23q56 0 100.5 -27t70 -78.5t25.5 -123.5q0 -75 -34 -131.5t-97 -87t-148 -30.5q-76 0 -135 28.5t-101 78.5l99 91q53 -66 130 -66q50 0 77 29t27 87q0 110 -88 110q-36 0 -81 -24h-118v379h435z" />
    <glyph glyph-name="uni01BD" unicode="&#x1bd;" horiz-adv-x="488" 
d="M406 406h-193v-70q34 12 79 12q47 0 86 -20t62.5 -59.5t23.5 -94.5q0 -57 -30.5 -100.5t-85 -67.5t-124.5 -24q-69 0 -119 21t-91 62l89 94q35 -26 59 -36.5t56 -10.5q33 0 51.5 16.5t18.5 47.5q0 29 -15 43.5t-40 14.5q-23 0 -60 -13h-115v312h372z" />
    <glyph glyph-name="uni01BE" unicode="&#x1be;" horiz-adv-x="512" 
d="M488 225q0 -74 -32 -129t-90 -84.5t-133 -29.5q-138 0 -235 94l86 88q31 -28 59.5 -40.5t62.5 -12.5q46 0 72.5 29.5t26.5 84.5q0 63 -28.5 99.5t-90.5 52.5l-51 11v137h-68v99h68v119l178 18v-137h94v-99h-94v-84l34 -8q141 -45 141 -208z" />
    <glyph glyph-name="uni01BF" unicode="&#x1bf;" horiz-adv-x="593" 
d="M479 526.5q42 -24.5 66 -69.5t24 -105q0 -88 -34.5 -149t-92.5 -102.5t-149 -85.5l-63 -31v-190l-178 -18v757h158l9 -62q64 80 166 80q52 0 94 -24.5zM385 349q0 76 -62 76q-50 0 -93 -43v-272l31 22q124 86 124 217z" />
    <glyph glyph-name="uni01C0" unicode="&#x1c0;" horiz-adv-x="260" 
d="M206 759v-759h-152v743z" />
    <glyph glyph-name="uni01C1" unicode="&#x1c1;" horiz-adv-x="473" 
d="M206 759v-759h-152v743zM419 759v-759h-152v743z" />
    <glyph glyph-name="uni01C2" unicode="&#x1c2;" horiz-adv-x="335" 
d="M332 393h-88v-51h88v-98h-88v-244h-152v244h-89v98h89v51h-89v98h89v252l152 16v-268h88v-98z" />
    <glyph glyph-name="uni01C3" unicode="&#x1c3;" horiz-adv-x="301" 
d="M227 759v-517h-153v501zM218.5 146.5q28.5 -28.5 28.5 -68.5t-28.5 -68t-68.5 -28t-68 28t-28 68t28 68.5t68 28.5t68.5 -28.5z" />
    <glyph glyph-name="uni01C4" unicode="&#x1c4;" horiz-adv-x="1179" 
d="M527 620.5q100 -74.5 100 -270.5q0 -350 -351 -350h-222v695h208q165 0 265 -74.5zM239 563v-431h48q76 0 112.5 48t36.5 170q0 84 -17.5 130.5t-50 64.5t-82.5 18h-47zM1151 695v-139l-289 -410h297l-19 -146h-497v137l297 416h-268v142h479zM1042 954l62 -71l-143 -135
h-108l-143 135l62 71l135 -85z" />
    <glyph glyph-name="uni01C5" unicode="&#x1c5;" horiz-adv-x="1109" 
d="M527 620.5q100 -74.5 100 -270.5q0 -350 -351 -350h-222v695h208q165 0 265 -74.5zM239 563v-431h48q76 0 112.5 48t36.5 170q0 84 -17.5 130.5t-50 64.5t-82.5 18h-47zM1089 533v-125l-229 -275h236l-16 -133h-427v125l232 276h-212v132h416zM1016 822l62 -71l-143 -144
h-108l-143 144l62 71l135 -94z" />
    <glyph glyph-name="uni01C6" unicode="&#x1c6;" horiz-adv-x="1065" 
d="M548 743v-743h-158l-7 59q-24 -34 -61.5 -55.5t-89.5 -21.5q-100 0 -151 76t-51 210q0 82 27.5 146.5t77.5 100.5t115 36q72 0 120 -46v256zM370 163v223q-17 19 -33 28t-37 9q-40 0 -63.5 -37.5t-23.5 -118.5q0 -90 20 -123.5t57 -33.5q48 0 80 53zM1045 533v-125
l-229 -275h236l-16 -133h-427v125l232 276h-212v132h416zM972 822l62 -71l-143 -144h-108l-143 144l62 71l135 -94z" />
    <glyph glyph-name="uni01C7" unicode="&#x1c7;" horiz-adv-x="814" 
d="M239 695v-551h267l-20 -144h-432v695h185zM763 108q0 -87 -32.5 -143.5t-83 -88.5t-120.5 -55l-49 130q43 17 64.5 39.5t28.5 51t7 73.5v580h185v-587z" />
    <glyph glyph-name="uni01C8" unicode="&#x1c8;" horiz-adv-x="784" 
d="M239 695v-551h267l-20 -144h-432v695h185zM732 69q0 -86 -29 -143t-78.5 -91t-120.5 -59l-60 129q38 18 61 35.5t36 45.5t13 72v475h178v-464zM716.5 792q28.5 -28 28.5 -70t-28.5 -70t-73.5 -28t-73.5 28t-28.5 70t28.5 70t73.5 28t73.5 -28z" />
    <glyph glyph-name="uni01C9" unicode="&#x1c9;" horiz-adv-x="581" 
d="M88 24q-41 42 -41 121v598l178 18v-610q0 -29 26 -29q11 0 23 4l33 -126q-41 -18 -103 -18q-75 0 -116 42zM529 69q0 -86 -29 -143t-78.5 -91t-120.5 -59l-60 129q38 18 61 35.5t36 45.5t13 72v475h178v-464zM513.5 792q28.5 -28 28.5 -70t-28.5 -70t-73.5 -28t-73.5 28
t-28.5 70t28.5 70t73.5 28t73.5 -28z" />
    <glyph glyph-name="uni01CA" unicode="&#x1ca;" horiz-adv-x="978" 
d="M603 0h-233l-176 523l3 -21q10 -69 15.5 -129.5t5.5 -137.5v-235h-164v695h228l182 -525q-12 75 -18.5 135t-6.5 138v252h164v-695zM927 108q0 -87 -32.5 -143.5t-83 -88.5t-120.5 -55l-49 130q43 17 64.5 39.5t28.5 51t7 73.5v580h185v-587z" />
    <glyph glyph-name="uni01CB" unicode="&#x1cb;" horiz-adv-x="939" 
d="M603 0h-233l-176 523l3 -21q10 -69 15.5 -129.5t5.5 -137.5v-235h-164v695h228l182 -525q-12 75 -18.5 135t-6.5 138v252h164v-695zM887 69q0 -86 -29 -143t-78.5 -91t-120.5 -59l-60 129q38 18 61 35.5t36 45.5t13 72v475h178v-464zM871.5 792q28.5 -28 28.5 -70
t-28.5 -70t-73.5 -28t-73.5 28t-28.5 70t28.5 70t73.5 28t73.5 -28z" />
    <glyph glyph-name="uni01CC" unicode="&#x1cc;" horiz-adv-x="857" 
d="M489 509q39 -42 39 -118v-391h-178v359q0 35 -10 48.5t-30 13.5q-42 0 -80 -61v-360h-178v533h155l13 -60q36 40 75 59t87 19q68 0 107 -42zM805 69q0 -86 -29 -143t-78.5 -91t-120.5 -59l-60 129q38 18 61 35.5t36 45.5t13 72v475h178v-464zM789.5 792
q28.5 -28 28.5 -70t-28.5 -70t-73.5 -28t-73.5 28t-28.5 70t28.5 70t73.5 28t73.5 -28z" />
    <glyph glyph-name="uni01CD" unicode="&#x1cd;" horiz-adv-x="596" 
d="M419 0l-31 142h-184l-31 -142h-192l206 695h222l206 -695h-196zM233 274h126l-63 289zM433 954l62 -71l-143 -135h-108l-143 135l62 71l135 -85z" />
    <glyph glyph-name="uni01CE" unicode="&#x1ce;" horiz-adv-x="550" 
d="M501.5 121q7.5 -14 26.5 -21l-36 -115q-51 4 -83.5 21t-52.5 54q-51 -78 -161 -78q-79 0 -126.5 46.5t-47.5 120.5q0 88 65 135t188 47h46v18q0 43 -18 58.5t-65 15.5q-25 0 -62.5 -7.5t-76.5 -20.5l-39 115q48 20 103 30.5t102 10.5q120 0 175 -47.5t55 -145.5v-194
q0 -29 7.5 -43zM289.5 118.5q18.5 11.5 30.5 31.5v86h-30q-48 0 -71 -17.5t-23 -52.5q0 -27 14 -43t39 -16q22 0 40.5 11.5zM409 822l62 -71l-143 -144h-108l-143 144l62 71l135 -94z" />
    <glyph glyph-name="uni01CF" unicode="&#x1cf;" horiz-adv-x="293" 
d="M239 695v-695h-185v695h185zM281 954l62 -71l-143 -135h-108l-143 135l62 71l135 -85z" />
    <glyph glyph-name="uni01D0" unicode="&#x1d0;" horiz-adv-x="282" 
d="M230 533v-533h-178v533h178zM276 822l62 -71l-143 -144h-108l-143 144l62 71l135 -94z" />
    <glyph glyph-name="uni01D1" unicode="&#x1d1;" horiz-adv-x="690" 
d="M580 617q84 -96 84 -269q0 -113 -37.5 -195.5t-109.5 -126.5t-172 -44q-151 0 -234.5 96t-83.5 270q0 113 37.5 195t109 126t171.5 44q151 0 235 -96zM249.5 526q-30.5 -54 -30.5 -178t31 -178.5t95 -54.5q66 0 96 54t30 179q0 124 -30 178t-96 54q-65 0 -95.5 -54z
M480 954l62 -71l-143 -135h-108l-143 135l62 71l135 -85z" />
    <glyph glyph-name="uni01D2" unicode="&#x1d2;" horiz-adv-x="584" 
d="M488 476q71 -75 71 -210q0 -86 -32 -150t-92.5 -99t-142.5 -35q-125 0 -196 75t-71 210q0 86 32 150t92.5 99t142.5 35q125 0 196 -75zM228.5 384.5q-20.5 -37.5 -20.5 -117.5q0 -83 20.5 -119.5t63.5 -36.5t63.5 37.5t20.5 117.5q0 82 -20.5 119t-63.5 37t-63.5 -37.5z
M427 822l62 -71l-143 -144h-108l-143 144l62 71l135 -94z" />
    <glyph glyph-name="uni01D3" unicode="&#x1d3;" horiz-adv-x="647" 
d="M604 233q0 -72 -31.5 -129t-94.5 -89.5t-154 -32.5q-138 0 -209 67.5t-71 183.5v462h185v-456q0 -63 22.5 -92.5t72.5 -29.5t72 30t22 92v456h186v-462zM459 954l62 -71l-143 -135h-108l-143 135l62 71l135 -85z" />
    <glyph glyph-name="uni01D4" unicode="&#x1d4;" horiz-adv-x="569" 
d="M517 0h-155l-7 63q-56 -81 -159 -81q-74 0 -111.5 44.5t-37.5 123.5v383h178v-360q0 -34 10.5 -47.5t31.5 -13.5q19 0 37.5 13.5t34.5 39.5v368h178v-533zM418 822l62 -71l-143 -144h-108l-143 144l62 71l135 -94z" />
    <glyph glyph-name="uni01D5" unicode="&#x1d5;" horiz-adv-x="647" 
d="M604 233q0 -72 -31.5 -129t-94.5 -89.5t-154 -32.5q-138 0 -209 67.5t-71 183.5v462h185v-456q0 -63 22.5 -92.5t72.5 -29.5t72 30t22 92v456h186v-462zM266.5 892q25.5 -25 25.5 -61t-25.5 -61t-62.5 -25q-36 0 -62 25t-26 61t26 61t62 25q37 0 62.5 -25zM504.5 892
q25.5 -25 25.5 -61t-25.5 -61t-62.5 -25q-36 0 -62 25t-26 61t26 61t62 25q37 0 62.5 -25zM485 952h-315v121h315v-121z" />
    <glyph glyph-name="uni01D6" unicode="&#x1d6;" horiz-adv-x="569" 
d="M517 0h-155l-7 63q-56 -81 -159 -81q-74 0 -111.5 44.5t-37.5 123.5v383h178v-360q0 -34 10.5 -47.5t31.5 -13.5q19 0 37.5 13.5t34.5 39.5v368h178v-533zM225.5 742q25.5 -25 25.5 -61t-25.5 -61t-62.5 -25q-36 0 -62 25t-26 61t26 61t62 25q37 0 62.5 -25zM463.5 742
q25.5 -25 25.5 -61t-25.5 -61t-62.5 -25q-36 0 -62 25t-26 61t26 61t62 25q37 0 62.5 -25zM440 804h-315v121h315v-121z" />
    <glyph glyph-name="uni01D7" unicode="&#x1d7;" horiz-adv-x="647" 
d="M604 233q0 -72 -31.5 -129t-94.5 -89.5t-154 -32.5q-138 0 -209 67.5t-71 183.5v462h185v-456q0 -63 22.5 -92.5t72.5 -29.5t72 30t22 92v456h186v-462zM391 1121l95 -93l-165 -144l-66 59zM258 895q26 -25 26 -60q0 -36 -26 -61.5t-62 -25.5q-37 0 -62.5 25t-25.5 62
q0 35 25.5 60t62.5 25q36 0 62 -25zM512.5 895q25.5 -25 25.5 -60q0 -37 -25.5 -62t-62.5 -25t-62 25t-25 62q0 35 25 60t62 25t62.5 -25z" />
    <glyph glyph-name="uni01D8" unicode="&#x1d8;" horiz-adv-x="569" 
d="M517 0h-155l-7 63q-56 -81 -159 -81q-74 0 -111.5 44.5t-37.5 123.5v383h178v-360q0 -34 10.5 -47.5t31.5 -13.5q19 0 37.5 13.5t34.5 39.5v368h178v-533zM350 967l95 -93l-165 -144l-66 59zM217 741q26 -25 26 -61t-26 -61t-62 -25q-37 0 -62.5 25t-25.5 61t25.5 61
t62.5 25q36 0 62 -25zM471.5 741q25.5 -25 25.5 -61t-25.5 -61t-62.5 -25t-62 25t-25 61t25 61t62 25t62.5 -25z" />
    <glyph glyph-name="uni01D9" unicode="&#x1d9;" horiz-adv-x="647" 
d="M604 233q0 -72 -31.5 -129t-94.5 -89.5t-154 -32.5q-138 0 -209 67.5t-71 183.5v462h185v-456q0 -63 22.5 -92.5t72.5 -29.5t72 30t22 92v456h186v-462zM457 1123l62 -71l-143 -135h-108l-143 135l62 71l135 -85zM258 895q26 -25 26 -60q0 -36 -26 -61.5t-62 -25.5
q-37 0 -62.5 25t-25.5 62q0 35 25.5 60t62.5 25q36 0 62 -25zM513 895q26 -25 26 -60q0 -36 -26 -61.5t-62 -25.5q-37 0 -62.5 25t-25.5 62q0 35 25.5 60t62.5 25q36 0 62 -25z" />
    <glyph glyph-name="uni01DA" unicode="&#x1da;" horiz-adv-x="569" 
d="M517 0h-155l-7 63q-56 -81 -159 -81q-74 0 -111.5 44.5t-37.5 123.5v383h178v-360q0 -34 10.5 -47.5t31.5 -13.5q19 0 37.5 13.5t34.5 39.5v368h178v-533zM418 968l62 -71l-143 -135h-108l-143 135l62 71l135 -85zM218.5 741q25.5 -25 25.5 -61t-25.5 -61t-62.5 -25
t-62.5 25t-25.5 61t25.5 61t62.5 25t62.5 -25zM472.5 741q25.5 -25 25.5 -61t-25.5 -61t-62.5 -25q-36 0 -62 25t-26 61t26 61t62 25q37 0 62.5 -25z" />
    <glyph glyph-name="uni01DB" unicode="&#x1db;" horiz-adv-x="647" 
d="M604 233q0 -72 -31.5 -129t-94.5 -89.5t-154 -32.5q-138 0 -209 67.5t-71 183.5v462h185v-456q0 -63 22.5 -92.5t72.5 -29.5t72 30t22 92v456h186v-462zM258 1121l136 -178l-67 -59l-164 144zM258.5 895q25.5 -25 25.5 -60q0 -37 -25.5 -62t-62.5 -25q-36 0 -62 25.5
t-26 61.5q0 35 26 60t62 25q37 0 62.5 -25zM512.5 895q25.5 -25 25.5 -60q0 -37 -25.5 -62t-62.5 -25q-36 0 -61.5 25t-25.5 62q0 35 25.5 60t61.5 25q37 0 62.5 -25z" />
    <glyph glyph-name="uni01DC" unicode="&#x1dc;" horiz-adv-x="569" 
d="M517 0h-155l-7 63q-56 -81 -159 -81q-74 0 -111.5 44.5t-37.5 123.5v383h178v-360q0 -34 10.5 -47.5t31.5 -13.5q19 0 37.5 13.5t34.5 39.5v368h178v-533zM217 967l136 -178l-67 -59l-164 144zM217.5 741q25.5 -25 25.5 -61t-25.5 -61t-62.5 -25q-36 0 -62 25t-26 61
t26 61t62 25q37 0 62.5 -25zM471.5 741q25.5 -25 25.5 -61t-25.5 -61t-62.5 -25q-36 0 -61.5 25t-25.5 61t25.5 61t61.5 25q37 0 62.5 -25z" />
    <glyph glyph-name="uni01DD" unicode="&#x1dd;" horiz-adv-x="556" 
d="M466 474q66 -77 66 -207q0 -80 -30 -145t-88.5 -102.5t-140.5 -37.5q-116 0 -184.5 73t-68.5 203q0 33 3 60h339q-4 56 -29 82.5t-71 26.5q-36 0 -67.5 -10t-66.5 -32l-73 97q43 33 95 51t119 18q131 0 197 -77zM336 130.5q22 25.5 26 83.5h-175v-7q1 -48 23 -75t63 -27
t63 25.5z" />
    <glyph glyph-name="uni01DE" unicode="&#x1de;" horiz-adv-x="596" 
d="M419 0l-31 142h-184l-31 -142h-192l206 695h222l206 -695h-196zM233 274h126l-63 289zM240.5 892q25.5 -25 25.5 -61t-25.5 -61t-62.5 -25q-36 0 -62 25t-26 61t26 61t62 25q37 0 62.5 -25zM478.5 892q25.5 -25 25.5 -61t-25.5 -61t-62.5 -25q-36 0 -62 25t-26 61t26 61
t62 25q37 0 62.5 -25zM459 952h-315v121h315v-121z" />
    <glyph glyph-name="uni01DF" unicode="&#x1df;" horiz-adv-x="550" 
d="M501.5 121q7.5 -14 26.5 -21l-36 -115q-51 4 -83.5 21t-52.5 54q-51 -78 -161 -78q-79 0 -126.5 46.5t-47.5 120.5q0 88 65 135t188 47h46v18q0 43 -18 58.5t-65 15.5q-25 0 -62.5 -7.5t-76.5 -20.5l-39 115q48 20 103 30.5t102 10.5q120 0 175 -47.5t55 -145.5v-194
q0 -29 7.5 -43zM289.5 118.5q18.5 11.5 30.5 31.5v86h-30q-48 0 -71 -17.5t-23 -52.5q0 -27 14 -43t39 -16q22 0 40.5 11.5zM216.5 742q25.5 -25 25.5 -61t-25.5 -61t-62.5 -25q-36 0 -62 25t-26 61t26 61t62 25q37 0 62.5 -25zM454.5 742q25.5 -25 25.5 -61t-25.5 -61
t-62.5 -25q-36 0 -62 25t-26 61t26 61t62 25q37 0 62.5 -25zM431 804h-315v121h315v-121z" />
    <glyph glyph-name="uni01E0" unicode="&#x1e0;" horiz-adv-x="596" 
d="M419 0l-31 142h-184l-31 -142h-192l206 695h222l206 -695h-196zM233 274h126l-63 289zM368.5 902q28.5 -28 28.5 -70t-28.5 -70t-73.5 -28t-73.5 28t-28.5 70t28.5 70t73.5 28t73.5 -28zM454 952h-315v121h315v-121z" />
    <glyph glyph-name="uni01E1" unicode="&#x1e1;" horiz-adv-x="550" 
d="M501.5 121q7.5 -14 26.5 -21l-36 -115q-51 4 -83.5 21t-52.5 54q-51 -78 -161 -78q-79 0 -126.5 46.5t-47.5 120.5q0 88 65 135t188 47h46v18q0 43 -18 58.5t-65 15.5q-25 0 -62.5 -7.5t-76.5 -20.5l-39 115q48 20 103 30.5t102 10.5q120 0 175 -47.5t55 -145.5v-194
q0 -29 7.5 -43zM289.5 118.5q18.5 11.5 30.5 31.5v86h-30q-48 0 -71 -17.5t-23 -52.5q0 -27 14 -43t39 -16q22 0 40.5 11.5zM346.5 758q28.5 -28 28.5 -70t-28.5 -70t-73.5 -28t-73.5 28t-28.5 70t28.5 70t73.5 28t73.5 -28zM431 815h-315v121h315v-121z" />
    <glyph glyph-name="uni01E2" unicode="&#x1e2;" horiz-adv-x="854" 
d="M596 131h232v-131h-388l-22 142h-199l-46 -142h-200l272 695h547l-20 -131h-258l28 -149h241v-128h-217zM261 274h137l-45 287zM643 778h-315v121h315v-121z" />
    <glyph glyph-name="uni01E3" unicode="&#x1e3;" horiz-adv-x="857" 
d="M834 215h-326q7 -61 35 -83.5t78 -22.5q30 0 59.5 11.5t64.5 35.5l73 -98q-94 -76 -213 -76q-72 0 -127 23.5t-91 65.5q-62 -89 -188 -89q-82 0 -130 46t-48 121q0 88 66 135t194 47h46v16q0 43 -18.5 59t-64.5 16q-25 0 -62.5 -7.5t-76.5 -20.5l-39 116q48 20 103 30.5
t102 10.5q111 0 164 -64q64 64 163 64q70 0 124.5 -32.5t85 -95t30.5 -148.5q0 -24 -4 -60zM662 325q-1 53 -17.5 82t-56.5 29q-37 0 -56.5 -26.5t-24.5 -90.5h155v6zM301 121q19 14 39 42q-8 28 -10 64v5h-32q-46 0 -68.5 -16.5t-22.5 -52.5q0 -26 13.5 -41t37.5 -15t43 14
zM586 652h-315v121h315v-121z" />
    <glyph glyph-name="uni01E4" unicode="&#x1e4;" horiz-adv-x="673" 
d="M672 178h-63v-120q-54 -36 -122 -56t-134 -20q-326 0 -326 366q0 114 44.5 196.5t121.5 125.5t174 43q140 0 240 -88l-91 -95q-38 27 -68.5 39.5t-69.5 12.5q-75 0 -117.5 -58t-42.5 -177q0 -87 14 -137.5t42.5 -72.5t73.5 -22q46 0 99 19v44h-105v100h105v39h-99
l-15 107h276v-146h63v-100z" />
    <glyph glyph-name="uni01E5" unicode="&#x1e5;" horiz-adv-x="561" 
d="M598 -86h-53q-18 -66 -90 -102t-192 -36q-101 0 -158.5 21t-80.5 59t-23 94h159q0 -27 8.5 -41t31.5 -20t68 -6q95 0 119 31h-118v65h119q-20 27 -83 27h-76q-87 0 -129.5 27t-42.5 69q0 30 17.5 54.5t48.5 42.5q-52 28 -75 65t-23 89q0 93 66 145.5t176 52.5
q78 -3 136 17.5t118 58.5l40 -128q-55 -23 -153 -23q53 -21 77.5 -53.5t24.5 -84.5q0 -51 -28 -91t-80 -63t-122 -23q-35 0 -59 5q-15 -10 -15 -25q0 -12 11 -18t45 -6h78q87 0 143 -38t65 -100h50v-65zM221 414.5q-19 -20.5 -19 -57.5q0 -40 19 -61t52 -21q70 0 70 84
q0 39 -17.5 57.5t-53.5 18.5q-32 0 -51 -20.5z" />
    <glyph glyph-name="Gcaron" unicode="&#x1e6;" horiz-adv-x="649" 
d="M607 625l-91 -95q-38 27 -68.5 39.5t-69.5 12.5q-75 0 -117.5 -58t-42.5 -177q0 -87 14 -137.5t42.5 -72.5t73.5 -22t82 19v143h-79l-18 127h276v-346q-54 -36 -122 -56t-134 -20q-326 0 -326 366q0 114 44.5 196.5t121.5 125.5t175 43q139 0 239 -88zM486 954l62 -71
l-143 -135h-108l-143 135l62 71l135 -85z" />
    <glyph glyph-name="gcaron" unicode="&#x1e7;" horiz-adv-x="561" 
d="M561 499q-55 -23 -153 -23q53 -21 77.5 -53.5t24.5 -84.5q0 -51 -28 -91t-80 -63t-122 -23q-35 0 -59 5q-15 -10 -15 -25q0 -13 11.5 -21t44.5 -8h78q63 0 111 -20t73.5 -55.5t25.5 -80.5q0 -85 -74 -132.5t-213 -47.5q-101 0 -158.5 21t-80.5 59t-23 94h159
q0 -23 8.5 -35.5t31.5 -18t68 -5.5q59 0 81 14t22 38q0 20 -16 33t-50 13h-76q-87 0 -129.5 29.5t-42.5 76.5q0 30 18 58t48 46q-52 28 -75 65t-23 89q0 93 66 145.5t176 52.5q78 -3 136 17.5t118 58.5zM221 414.5q-19 -20.5 -19 -57.5q0 -40 19 -61t52 -21q70 0 70 84
q0 39 -17.5 57.5t-53.5 18.5q-32 0 -51 -20.5zM415 822l62 -71l-143 -144h-108l-143 144l62 71l135 -94z" />
    <glyph glyph-name="uni01E8" unicode="&#x1e8;" horiz-adv-x="646" 
d="M239 695v-695h-185v695h185zM644 695l-209 -310l227 -385h-212l-205 370l206 325h193zM465 954l62 -71l-143 -135h-108l-143 135l62 71l135 -85z" />
    <glyph glyph-name="uni01E9" unicode="&#x1e9;" horiz-adv-x="564" 
d="M230 761v-761h-178v743zM565 533l-151 -234l162 -299h-198l-144 291l153 242h178zM437 1002l62 -71l-143 -135h-108l-143 135l62 71l135 -85z" />
    <glyph glyph-name="uni01EA" unicode="&#x1ea;" horiz-adv-x="690" 
d="M612 125q-52 -90 -149 -124v-1q-116 -41 -116 -99q0 -44 52 -44q29 0 61 7l-12 -106q-34 -8 -72 -8q-67 0 -110 33t-43 88q0 68 59 116q-122 20 -188.5 113.5t-66.5 247.5q0 113 37.5 195t109 126t171.5 44q151 0 235 -96t84 -269q0 -133 -52 -223zM441 169q30 54 30 179
q0 124 -30 178t-96 54q-65 0 -95.5 -54t-30.5 -178t31 -178.5t95 -54.5q66 0 96 54z" />
    <glyph glyph-name="uni01EB" unicode="&#x1eb;" horiz-adv-x="584" 
d="M282 -99q0 -44 52 -44q29 0 61 7l-12 -106q-34 -8 -72 -8q-67 0 -110 33t-43 88q0 70 62 118q-93 20 -144 92t-51 186q0 86 32 150t92.5 99t142.5 35q125 0 196 -75t71 -210q0 -101 -44.5 -171.5t-124.5 -97.5q-108 -40 -108 -96zM228.5 384.5q-20.5 -37.5 -20.5 -117.5
q0 -83 20.5 -119.5t63.5 -36.5t63.5 37.5t20.5 117.5q0 82 -20.5 119t-63.5 37t-63.5 -37.5z" />
    <glyph glyph-name="uni01EC" unicode="&#x1ec;" horiz-adv-x="690" 
d="M502 899v-121h-315v121h315zM612 125q-52 -90 -149 -124v-1q-116 -41 -116 -99q0 -44 52 -44q29 0 61 7l-12 -106q-34 -8 -72 -8q-67 0 -110 33t-43 88q0 68 59 116q-122 20 -188.5 113.5t-66.5 247.5q0 113 37.5 195t109 126t171.5 44q151 0 235 -96t84 -269
q0 -133 -52 -223zM441 169q30 54 30 179q0 124 -30 178t-96 54q-65 0 -95.5 -54t-30.5 -178t31 -178.5t95 -54.5q66 0 96 54z" />
    <glyph glyph-name="uni01ED" unicode="&#x1ed;" horiz-adv-x="584" 
d="M449 773v-121h-315v121h315zM282 -99q0 -44 52 -44q29 0 61 7l-12 -106q-34 -8 -72 -8q-67 0 -110 33t-43 88q0 70 62 118q-93 20 -144 92t-51 186q0 86 32 150t92.5 99t142.5 35q125 0 196 -75t71 -210q0 -101 -44.5 -171.5t-124.5 -97.5q-108 -40 -108 -96z
M228.5 384.5q-20.5 -37.5 -20.5 -117.5q0 -83 20.5 -119.5t63.5 -36.5t63.5 37.5t20.5 117.5q0 82 -20.5 119t-63.5 37t-63.5 -37.5z" />
    <glyph glyph-name="uni01EE" unicode="&#x1ee;" horiz-adv-x="556" 
d="M481 348q54 -52 54 -140q0 -64 -34 -115t-98.5 -81t-153.5 -30q-83 0 -143.5 27.5t-103.5 78.5l93 90q35 -33 67.5 -47.5t75.5 -14.5q49 0 77.5 26t28.5 73q0 87 -114 87h-103v99l167 162h-250v132h452v-128l-167 -163q98 -4 152 -56zM406 954l62 -71l-143 -135h-108
l-143 135l62 71l135 -85z" />
    <glyph glyph-name="uni01EF" unicode="&#x1ef;" horiz-adv-x="518" 
d="M450.5 155q54.5 -51 54.5 -145q0 -67 -33 -120t-96 -83.5t-149 -30.5q-157 0 -243 106l93 90q36 -33 67.5 -47.5t70.5 -14.5q49 0 78 28t29 84q0 50 -29 71t-87 21h-97v100l160 188h-243v131h444v-121l-175 -198q101 -8 155.5 -59zM383 822l62 -71l-143 -144h-108
l-143 144l62 71l135 -94z" />
    <glyph glyph-name="uni01F0" unicode="&#x1f0;" horiz-adv-x="282" 
d="M230 69q0 -86 -29 -143t-78.5 -91t-120.5 -59l-60 129q38 18 61 35.5t36 45.5t13 72v475h178v-464zM276 822l62 -71l-143 -144h-108l-143 144l62 71l135 -94z" />
    <glyph glyph-name="uni01F1" unicode="&#x1f1;" horiz-adv-x="1179" 
d="M527 620.5q100 -74.5 100 -270.5q0 -350 -351 -350h-222v695h208q165 0 265 -74.5zM239 563v-431h48q76 0 112.5 48t36.5 170q0 84 -17.5 130.5t-50 64.5t-82.5 18h-47zM1151 695v-139l-289 -410h297l-19 -146h-497v137l297 416h-268v142h479z" />
    <glyph glyph-name="uni01F2" unicode="&#x1f2;" horiz-adv-x="1109" 
d="M527 620.5q100 -74.5 100 -270.5q0 -350 -351 -350h-222v695h208q165 0 265 -74.5zM239 563v-431h48q76 0 112.5 48t36.5 170q0 84 -17.5 130.5t-50 64.5t-82.5 18h-47zM1089 533v-125l-229 -275h236l-16 -133h-427v125l232 276h-212v132h416z" />
    <glyph glyph-name="uni01F3" unicode="&#x1f3;" horiz-adv-x="1065" 
d="M548 743v-743h-158l-7 59q-24 -34 -61.5 -55.5t-89.5 -21.5q-100 0 -151 76t-51 210q0 82 27.5 146.5t77.5 100.5t115 36q72 0 120 -46v256zM370 163v223q-17 19 -33 28t-37 9q-40 0 -63.5 -37.5t-23.5 -118.5q0 -90 20 -123.5t57 -33.5q48 0 80 53zM1045 533v-125
l-229 -275h236l-16 -133h-427v125l232 276h-212v132h416z" />
    <glyph glyph-name="uni01F4" unicode="&#x1f4;" horiz-adv-x="649" 
d="M607 625l-91 -95q-38 27 -68.5 39.5t-69.5 12.5q-75 0 -117.5 -58t-42.5 -177q0 -87 14 -137.5t42.5 -72.5t73.5 -22t82 19v143h-79l-18 127h276v-346q-54 -36 -122 -56t-134 -20q-326 0 -326 366q0 114 44.5 196.5t121.5 125.5t175 43q139 0 239 -88zM433 970l64 -131
l-247 -89l-45 90z" />
    <glyph glyph-name="uni01F5" unicode="&#x1f5;" horiz-adv-x="561" 
d="M561 499q-55 -23 -153 -23q53 -21 77.5 -53.5t24.5 -84.5q0 -51 -28 -91t-80 -63t-122 -23q-35 0 -59 5q-15 -10 -15 -25q0 -13 11.5 -21t44.5 -8h78q63 0 111 -20t73.5 -55.5t25.5 -80.5q0 -85 -74 -132.5t-213 -47.5q-101 0 -158.5 21t-80.5 59t-23 94h159
q0 -23 8.5 -35.5t31.5 -18t68 -5.5q59 0 81 14t22 38q0 20 -16 33t-50 13h-76q-87 0 -129.5 29.5t-42.5 76.5q0 30 18 58t48 46q-52 28 -75 65t-23 89q0 93 66 145.5t176 52.5q78 -3 136 17.5t118 58.5zM221 414.5q-19 -20.5 -19 -57.5q0 -40 19 -61t52 -21q70 0 70 84
q0 39 -17.5 57.5t-53.5 18.5q-32 0 -51 -20.5zM350 846l68 -132l-244 -96l-48 89z" />
    <glyph glyph-name="uni01F6" unicode="&#x1f6;" horiz-adv-x="945" 
d="M904 391q8 -68 8 -145q0 -90 -38 -149.5t-98.5 -87t-131.5 -27.5q-98 0 -159.5 50.5t-61.5 153.5v103h-184v-289h-185v695h185v-263h184v263h185v-509q0 -41 12.5 -58t37.5 -17q33 0 54.5 35.5t21.5 113.5q0 118 -27 273h175q14 -74 22 -142z" />
    <glyph glyph-name="uni01F7" unicode="&#x1f7;" horiz-adv-x="605" 
d="M492.5 689q43.5 -24 69 -68.5t25.5 -101.5q0 -80 -35.5 -134.5t-94.5 -89t-147 -66.5l-71 -26v-203h-185v695h185v-41q61 59 157 59q53 0 96.5 -24zM367 412.5q31 40.5 31 94.5q0 37 -19.5 56t-52.5 19q-49 0 -87 -33v-221l28 13q69 31 100 71.5z" />
    <glyph glyph-name="uni01F8" unicode="&#x1f8;" horiz-adv-x="657" 
d="M603 0h-233l-176 523l3 -21q10 -69 15.5 -129.5t5.5 -137.5v-235h-164v695h228l182 -525q-12 75 -18.5 135t-6.5 138v252h164v-695zM248 970l227 -130l-45 -90l-247 89z" />
    <glyph glyph-name="uni01F9" unicode="&#x1f9;" horiz-adv-x="575" 
d="M489 509q39 -42 39 -118v-391h-178v359q0 35 -10 48.5t-30 13.5q-42 0 -80 -61v-360h-178v533h155l13 -60q36 40 75 59t87 19q68 0 107 -42zM224 846l224 -139l-48 -89l-244 96z" />
    <glyph glyph-name="Aringacute" unicode="&#x1fa;" horiz-adv-x="596" 
d="M419 0l-31 142h-184l-31 -142h-192l206 695h222l206 -695h-196zM233 274h126l-63 289zM404 954.5q40 -40.5 40 -98.5q0 -37 -18 -69t-51 -51t-78 -19q-44 0 -77 19t-51 51t-18 69q0 58 40 98.5t106 40.5q67 0 107 -40.5zM266.5 892q-11.5 -12 -11.5 -36q0 -23 11.5 -35.5
t30.5 -12.5t31 12.5t12 35.5q0 24 -11.5 36t-31.5 12q-19 0 -30.5 -12zM380 1218l64 -131l-247 -89l-45 90z" />
    <glyph glyph-name="aringacute" unicode="&#x1fb;" horiz-adv-x="550" 
d="M420 945l-247 -89l-45 90l228 130zM195 594q-33 19 -51 51t-18 69q0 58 40 98.5t106 40.5q67 0 107 -40.5t40 -98.5q0 -37 -18 -69t-51 -51t-78 -19q-44 0 -77 19zM241.5 750q-11.5 -12 -11.5 -36q0 -23 11.5 -35.5t30.5 -12.5t31 12.5t12 35.5q0 24 -11.5 36t-31.5 12
q-19 0 -30.5 -12zM501.5 121q7.5 -14 26.5 -21l-36 -115q-51 4 -83.5 21t-52.5 54q-51 -78 -161 -78q-79 0 -126.5 46.5t-47.5 120.5q0 88 65 135t188 47h46v18q0 43 -18 58.5t-65 15.5q-25 0 -62.5 -7.5t-76.5 -20.5l-39 115q48 20 103 30.5t102 10.5q120 0 175 -47.5
t55 -145.5v-194q0 -29 7.5 -43zM289.5 118.5q18.5 11.5 30.5 31.5v86h-30q-48 0 -71 -17.5t-23 -52.5q0 -27 14 -43t39 -16q22 0 40.5 11.5z" />
    <glyph glyph-name="AEacute" unicode="&#x1fc;" horiz-adv-x="854" 
d="M596 131h232v-131h-388l-22 142h-199l-46 -142h-200l272 695h547l-20 -131h-258l28 -149h241v-128h-217zM261 274h137l-45 287zM568 970l64 -131l-247 -89l-45 90z" />
    <glyph glyph-name="aeacute" unicode="&#x1fd;" horiz-adv-x="857" 
d="M834 215h-326q7 -61 35 -83.5t78 -22.5q30 0 59.5 11.5t64.5 35.5l73 -98q-94 -76 -213 -76q-72 0 -127 23.5t-91 65.5q-62 -89 -188 -89q-82 0 -130 46t-48 121q0 88 66 135t194 47h46v16q0 43 -18.5 59t-64.5 16q-25 0 -62.5 -7.5t-76.5 -20.5l-39 116q48 20 103 30.5
t102 10.5q111 0 164 -64q64 64 163 64q70 0 124.5 -32.5t85 -95t30.5 -148.5q0 -24 -4 -60zM662 325q-1 53 -17.5 82t-56.5 29q-37 0 -56.5 -26.5t-24.5 -90.5h155v6zM301 121q19 14 39 42q-8 28 -10 64v5h-32q-46 0 -68.5 -16.5t-22.5 -52.5q0 -26 13.5 -41t37.5 -15t43 14
zM499 846l68 -132l-244 -96l-48 89z" />
    <glyph glyph-name="Oslashacute" unicode="&#x1fe;" horiz-adv-x="690" 
d="M627.5 542q36.5 -81 36.5 -194t-37.5 -195.5t-109.5 -126.5t-172 -44q-16 0 -44 2l-37 -121l-136 37l40 129q-69 44 -105 125t-36 194t37.5 195t109 126t171.5 44q16 0 44 -2l37 119l137 -36l-41 -127q69 -44 105.5 -125zM249.5 526q-30.5 -54 -30.5 -178q0 -129 27 -181
l123 412q-7 1 -24 1q-65 0 -95.5 -54zM441 169q30 54 30 179q0 129 -26 180l-123 -412q7 -1 23 -1q66 0 96 54zM426 1009l64 -131l-247 -89l-45 90z" />
    <glyph glyph-name="oslashacute" unicode="&#x1ff;" horiz-adv-x="584" 
d="M530 414q29 -62 29 -148t-32 -150t-92.5 -99t-142.5 -35q-19 0 -28 1l-37 -119l-128 37l39 121q-55 35 -84 97.5t-29 147.5q0 86 32 150t92.5 99t142.5 35q19 0 28 -1l39 120l127 -38l-40 -121q55 -35 84 -97zM217 384.5q-25 -37.5 -25 -117.5q0 -85 19 -121l91 276h-10
q-50 0 -75 -37.5zM367 148.5q25 37.5 25 117.5q0 85 -18 119l-91 -274h9q50 0 75 37.5zM362 846l68 -132l-244 -96l-48 89z" />
    <glyph glyph-name="uni0200" unicode="&#x200;" horiz-adv-x="596" 
d="M419 0l-31 142h-184l-31 -142h-192l206 695h222l206 -695h-196zM233 274h126l-63 289zM165 995l100 -204l-89 -42l-126 188zM347 995l93 -206l-91 -36l-118 188z" />
    <glyph glyph-name="uni0201" unicode="&#x201;" horiz-adv-x="550" 
d="M501.5 121q7.5 -14 26.5 -21l-36 -115q-51 4 -83.5 21t-52.5 54q-51 -78 -161 -78q-79 0 -126.5 46.5t-47.5 120.5q0 88 65 135t188 47h46v18q0 43 -18 58.5t-65 15.5q-25 0 -62.5 -7.5t-76.5 -20.5l-39 115q48 20 103 30.5t102 10.5q120 0 175 -47.5t55 -145.5v-194
q0 -29 7.5 -43zM289.5 118.5q18.5 11.5 30.5 31.5v86h-30q-48 0 -71 -17.5t-23 -52.5q0 -27 14 -43t39 -16q22 0 40.5 11.5zM154 869l100 -204l-89 -42l-126 188zM336 869l93 -206l-91 -36l-118 188z" />
    <glyph glyph-name="uni0202" unicode="&#x202;" horiz-adv-x="596" 
d="M419 0l-31 142h-184l-31 -142h-192l206 695h222l206 -695h-196zM233 274h126l-63 289zM423.5 907.5q46.5 -52.5 52.5 -131.5l-95 -17q-9 37 -30 58t-54 21q-63 0 -83 -79l-95 17q6 79 52 131.5t126 52.5t126.5 -52.5z" />
    <glyph glyph-name="uni0203" unicode="&#x203;" horiz-adv-x="550" 
d="M501.5 121q7.5 -14 26.5 -21l-36 -115q-51 4 -83.5 21t-52.5 54q-51 -78 -161 -78q-79 0 -126.5 46.5t-47.5 120.5q0 88 65 135t188 47h46v18q0 43 -18 58.5t-65 15.5q-25 0 -62.5 -7.5t-76.5 -20.5l-39 115q48 20 103 30.5t102 10.5q120 0 175 -47.5t55 -145.5v-194
q0 -29 7.5 -43zM289.5 118.5q18.5 11.5 30.5 31.5v86h-30q-48 0 -71 -17.5t-23 -52.5q0 -27 14 -43t39 -16q22 0 40.5 11.5zM399.5 745.5q46.5 -52.5 52.5 -131.5l-95 -17q-9 37 -30 58t-54 21q-63 0 -83 -79l-95 17q6 79 52 131.5t126 52.5t126.5 -52.5z" />
    <glyph glyph-name="uni0204" unicode="&#x204;" horiz-adv-x="523" 
d="M495 695l-19 -131h-237v-148h207v-127h-207v-158h253v-131h-438v695h441zM142 995l100 -204l-89 -42l-126 188zM324 995l93 -206l-91 -36l-118 188z" />
    <glyph glyph-name="uni0205" unicode="&#x205;" horiz-adv-x="555" 
d="M532 215h-326q7 -61 34.5 -83.5t78.5 -22.5q30 0 59.5 11.5t64.5 35.5l72 -98q-42 -35 -96 -55.5t-117 -20.5q-136 0 -206.5 76.5t-70.5 205.5q0 81 29.5 146t87.5 103t140 38q117 0 185 -72.5t68 -203.5q0 -6 -3 -60zM360 325q-1 53 -18 82t-57 29q-37 0 -56 -26
t-24 -91h155v6zM164 869l100 -204l-89 -42l-126 188zM346 869l93 -206l-91 -36l-118 188z" />
    <glyph glyph-name="uni0206" unicode="&#x206;" horiz-adv-x="523" 
d="M495 695l-19 -131h-237v-148h207v-127h-207v-158h253v-131h-438v695h441zM400.5 907.5q46.5 -52.5 52.5 -131.5l-95 -17q-9 37 -30 58t-54 21q-63 0 -83 -79l-95 17q6 79 52 131.5t126 52.5t126.5 -52.5z" />
    <glyph glyph-name="uni0207" unicode="&#x207;" horiz-adv-x="555" 
d="M532 215h-326q7 -61 34.5 -83.5t78.5 -22.5q30 0 59.5 11.5t64.5 35.5l72 -98q-42 -35 -96 -55.5t-117 -20.5q-136 0 -206.5 76.5t-70.5 205.5q0 81 29.5 146t87.5 103t140 38q117 0 185 -72.5t68 -203.5q0 -6 -3 -60zM360 325q-1 53 -18 82t-57 29q-37 0 -56 -26
t-24 -91h155v6zM409.5 745.5q46.5 -52.5 52.5 -131.5l-95 -17q-9 37 -30 58t-54 21q-63 0 -83 -79l-95 17q6 79 52 131.5t126 52.5t126.5 -52.5z" />
    <glyph glyph-name="uni0208" unicode="&#x208;" horiz-adv-x="293" 
d="M239 695v-695h-185v695h185zM13 995l100 -204l-89 -42l-126 188zM195 995l93 -206l-91 -36l-118 188z" />
    <glyph glyph-name="uni0209" unicode="&#x209;" horiz-adv-x="282" 
d="M230 533v-533h-178v533h178zM21 869l100 -204l-89 -42l-126 188zM203 869l93 -206l-91 -36l-118 188z" />
    <glyph glyph-name="uni020A" unicode="&#x20a;" horiz-adv-x="293" 
d="M239 695v-695h-185v695h185zM271.5 907.5q46.5 -52.5 52.5 -131.5l-95 -17q-9 37 -30 58t-54 21q-63 0 -83 -79l-95 17q6 79 52 131.5t126 52.5t126.5 -52.5z" />
    <glyph glyph-name="uni020B" unicode="&#x20b;" horiz-adv-x="282" 
d="M230 533v-533h-178v533h178zM266.5 745.5q46.5 -52.5 52.5 -131.5l-95 -17q-9 37 -30 58t-54 21q-63 0 -83 -79l-95 17q6 79 52 131.5t126 52.5t126.5 -52.5z" />
    <glyph glyph-name="uni020C" unicode="&#x20c;" horiz-adv-x="690" 
d="M580 617q84 -96 84 -269q0 -113 -37.5 -195.5t-109.5 -126.5t-172 -44q-151 0 -234.5 96t-83.5 270q0 113 37.5 195t109 126t171.5 44q151 0 235 -96zM249.5 526q-30.5 -54 -30.5 -178t31 -178.5t95 -54.5q66 0 96 54t30 179q0 124 -30 178t-96 54q-65 0 -95.5 -54z
M212 995l100 -204l-89 -42l-126 188zM394 995l93 -206l-91 -36l-118 188z" />
    <glyph glyph-name="uni020D" unicode="&#x20d;" horiz-adv-x="584" 
d="M488 476q71 -75 71 -210q0 -86 -32 -150t-92.5 -99t-142.5 -35q-125 0 -196 75t-71 210q0 86 32 150t92.5 99t142.5 35q125 0 196 -75zM228.5 384.5q-20.5 -37.5 -20.5 -117.5q0 -83 20.5 -119.5t63.5 -36.5t63.5 37.5t20.5 117.5q0 82 -20.5 119t-63.5 37t-63.5 -37.5z
M172 869l100 -204l-89 -42l-126 188zM354 869l93 -206l-91 -36l-118 188z" />
    <glyph glyph-name="uni020E" unicode="&#x20e;" horiz-adv-x="690" 
d="M580 617q84 -96 84 -269q0 -113 -37.5 -195.5t-109.5 -126.5t-172 -44q-151 0 -234.5 96t-83.5 270q0 113 37.5 195t109 126t171.5 44q151 0 235 -96zM249.5 526q-30.5 -54 -30.5 -178t31 -178.5t95 -54.5q66 0 96 54t30 179q0 124 -30 178t-96 54q-65 0 -95.5 -54z
M470.5 907.5q46.5 -52.5 52.5 -131.5l-95 -17q-9 37 -30 58t-54 21q-63 0 -83 -79l-95 17q6 79 52 131.5t126 52.5t126.5 -52.5z" />
    <glyph glyph-name="uni020F" unicode="&#x20f;" horiz-adv-x="584" 
d="M488 476q71 -75 71 -210q0 -86 -32 -150t-92.5 -99t-142.5 -35q-125 0 -196 75t-71 210q0 86 32 150t92.5 99t142.5 35q125 0 196 -75zM228.5 384.5q-20.5 -37.5 -20.5 -117.5q0 -83 20.5 -119.5t63.5 -36.5t63.5 37.5t20.5 117.5q0 82 -20.5 119t-63.5 37t-63.5 -37.5z
M417.5 745.5q46.5 -52.5 52.5 -131.5l-95 -17q-9 37 -30 58t-54 21q-63 0 -83 -79l-95 17q6 79 52 131.5t126 52.5t126.5 -52.5z" />
    <glyph glyph-name="uni0210" unicode="&#x210;" horiz-adv-x="620" 
d="M290 256h-51v-256h-185v695h241q147 0 219.5 -53t72.5 -163q0 -66 -30.5 -110t-97.5 -79l173 -290h-206zM239 382h62q96 0 96 97q0 45 -26.5 66t-79.5 21h-52v-184zM168 995l100 -204l-89 -42l-126 188zM350 995l93 -206l-91 -36l-118 188z" />
    <glyph glyph-name="uni0211" unicode="&#x211;" horiz-adv-x="405" 
d="M412 540l-29 -172q-26 8 -48 8q-45 0 -68.5 -30.5t-36.5 -92.5v-253h-178v533h155l16 -101q16 53 53.5 85t81.5 32q26 0 54 -9zM112 869l100 -204l-89 -42l-126 188zM294 869l93 -206l-91 -36l-118 188z" />
    <glyph glyph-name="uni0212" unicode="&#x212;" horiz-adv-x="620" 
d="M290 256h-51v-256h-185v695h241q147 0 219.5 -53t72.5 -163q0 -66 -30.5 -110t-97.5 -79l173 -290h-206zM239 382h62q96 0 96 97q0 45 -26.5 66t-79.5 21h-52v-184zM426.5 907.5q46.5 -52.5 52.5 -131.5l-95 -17q-9 37 -30 58t-54 21q-63 0 -83 -79l-95 17q6 79 52 131.5
t126 52.5t126.5 -52.5z" />
    <glyph glyph-name="uni0213" unicode="&#x213;" horiz-adv-x="405" 
d="M412 540l-29 -172q-26 8 -48 8q-45 0 -68.5 -30.5t-36.5 -92.5v-253h-178v533h155l16 -101q16 53 53.5 85t81.5 32q26 0 54 -9zM357.5 745.5q46.5 -52.5 52.5 -131.5l-95 -17q-9 37 -30 58t-54 21q-63 0 -83 -79l-95 17q6 79 52 131.5t126 52.5t126.5 -52.5z" />
    <glyph glyph-name="uni0214" unicode="&#x214;" horiz-adv-x="647" 
d="M604 233q0 -72 -31.5 -129t-94.5 -89.5t-154 -32.5q-138 0 -209 67.5t-71 183.5v462h185v-456q0 -63 22.5 -92.5t72.5 -29.5t72 30t22 92v456h186v-462zM191 995l100 -204l-89 -42l-126 188zM373 995l93 -206l-91 -36l-118 188z" />
    <glyph glyph-name="uni0215" unicode="&#x215;" horiz-adv-x="569" 
d="M517 0h-155l-7 63q-56 -81 -159 -81q-74 0 -111.5 44.5t-37.5 123.5v383h178v-360q0 -34 10.5 -47.5t31.5 -13.5q19 0 37.5 13.5t34.5 39.5v368h178v-533zM163 869l100 -204l-89 -42l-126 188zM345 869l93 -206l-91 -36l-118 188z" />
    <glyph glyph-name="uni0216" unicode="&#x216;" horiz-adv-x="647" 
d="M604 233q0 -72 -31.5 -129t-94.5 -89.5t-154 -32.5q-138 0 -209 67.5t-71 183.5v462h185v-456q0 -63 22.5 -92.5t72.5 -29.5t72 30t22 92v456h186v-462zM449.5 907.5q46.5 -52.5 52.5 -131.5l-95 -17q-9 37 -30 58t-54 21q-63 0 -83 -79l-95 17q6 79 52 131.5t126 52.5
t126.5 -52.5z" />
    <glyph glyph-name="uni0217" unicode="&#x217;" horiz-adv-x="569" 
d="M517 0h-155l-7 63q-56 -81 -159 -81q-74 0 -111.5 44.5t-37.5 123.5v383h178v-360q0 -34 10.5 -47.5t31.5 -13.5q19 0 37.5 13.5t34.5 39.5v368h178v-533zM408.5 745.5q46.5 -52.5 52.5 -131.5l-95 -17q-9 37 -30 58t-54 21q-63 0 -83 -79l-95 17q6 79 52 131.5t126 52.5
t126.5 -52.5z" />
    <glyph glyph-name="Scommaaccent" unicode="&#x218;" horiz-adv-x="580" 
d="M433.5 690q60.5 -23 108.5 -69l-83 -98q-72 57 -151 57q-41 0 -62.5 -15.5t-21.5 -43.5q0 -20 11 -33t37 -25t82 -30q107 -34 156.5 -85.5t49.5 -142.5q0 -66 -34 -116.5t-98.5 -78.5t-151.5 -28q-166 0 -271 101l91 101q83 -68 173 -68q47 0 73 20.5t26 54.5
q0 24 -10 39.5t-35.5 28t-74.5 27.5q-118 37 -166 89t-48 131q0 62 33.5 109t93 72.5t133.5 25.5q79 0 139.5 -23zM350 -89q24 -24 24 -60q0 -20 -6 -37t-21 -49l-48 -98h-86l25 114q-35 28 -35 70q0 35 24.5 59.5t61.5 24.5t61 -24z" />
    <glyph glyph-name="scommaaccent" unicode="&#x219;" horiz-adv-x="488" 
d="M363.5 533q52.5 -18 89.5 -49l-64 -98q-64 40 -129 40q-28 0 -41.5 -8.5t-13.5 -23.5q0 -13 7 -21t29.5 -17.5t71.5 -24.5q82 -24 121 -62.5t39 -107.5q0 -54 -31.5 -94.5t-87 -62.5t-125.5 -22q-68 0 -127.5 21.5t-100.5 59.5l85 95q31 -24 66.5 -38t71.5 -14
q32 0 49.5 10.5t17.5 31.5q0 16 -7.5 25t-28.5 17.5t-72 23.5q-155 46 -155 169q0 47 27 85.5t77.5 60.5t120.5 22q58 0 110.5 -18zM306 -89q24 -24 24 -60q0 -20 -6 -37t-21 -49l-48 -98h-86l25 114q-35 28 -35 70q0 35 24.5 59.5t61.5 24.5t61 -24z" />
    <glyph glyph-name="uni021A" unicode="&#x21a;" horiz-adv-x="547" 
d="M549 695l-19 -141h-164v-554h-185v554h-174v141h542zM336 -89q24 -24 24 -60q0 -20 -6 -37t-21 -49l-48 -98h-86l25 114q-35 28 -35 70q0 35 24.5 59.5t61.5 24.5t61 -24z" />
    <glyph glyph-name="uni021B" unicode="&#x21b;" horiz-adv-x="393" 
d="M406 26q-31 -22 -72 -33t-80 -11q-185 0 -185 204v225h-69v122h69v113l178 21v-134h121l-18 -122h-103v-223q0 -36 11.5 -51t34.5 -15q28 0 54 15zM296 -89q24 -24 24 -60q0 -20 -6 -37t-21 -49l-48 -98h-86l25 114q-35 28 -35 70q0 35 24.5 59.5t61.5 24.5t61 -24z" />
    <glyph glyph-name="uni021C" unicode="&#x21c;" horiz-adv-x="525" 
d="M368.5 689q55.5 -24 85.5 -66.5t30 -98.5q0 -64 -39.5 -107t-120.5 -60q88 -9 134 -48.5t46 -114.5q0 -106 -105 -187.5t-330 -123.5l-14 134q104 28 160 56.5t76.5 59t20.5 70.5q0 88 -116 88h-75l21 129h58q46 0 70.5 21.5t24.5 61.5q0 37 -20 58t-63 21
q-64 0 -134 -55l-84 92q99 94 245 94q74 0 129.5 -24z" />
    <glyph glyph-name="uni021D" unicode="&#x21d;" horiz-adv-x="481" 
d="M370.5 510q60.5 -41 60.5 -112q0 -49 -30 -79.5t-90 -44.5q71 -5 108 -35.5t37 -84.5q0 -88 -103.5 -156.5t-295.5 -105.5l-16 114q124 38 177.5 73t54.5 81q0 47 -62 47h-92l10 111h49q39 0 56 14.5t17 44.5q0 53 -60 53q-31 0 -57 -8t-54 -24l-81 91q91 62 218 62
q93 0 153.5 -41z" />
    <glyph glyph-name="uni021E" unicode="&#x21e;" horiz-adv-x="661" 
d="M423 0v289h-184v-289h-185v695h185v-263h184v263h185v-695h-185zM466 954l62 -71l-143 -135h-108l-143 135l62 71l135 -85z" />
    <glyph glyph-name="uni021F" unicode="&#x21f;" horiz-adv-x="575" 
d="M489 508.5q39 -42.5 39 -117.5v-391h-178v359q0 35 -10.5 48.5t-30.5 13.5q-41 0 -79 -61v-360h-178v743l178 18v-280q33 36 70 53t82 17q68 0 107 -42.5zM422 1002l62 -71l-143 -135h-108l-143 135l62 71l135 -85z" />
    <glyph glyph-name="uni0220" unicode="&#x220;" horiz-adv-x="648" 
d="M554.5 662.5q45.5 -50.5 45.5 -131.5v-744h-185v715q0 39 -14.5 57.5t-46.5 18.5q-34 0 -60 -14.5t-55 -46.5v-517h-185v695h162l14 -62q44 42 88 61t104 19q87 0 132.5 -50.5z" />
    <glyph glyph-name="uni0221" unicode="&#x221;" horiz-adv-x="804" 
d="M771.5 220q35.5 -32 35.5 -86q0 -76 -54.5 -114t-142.5 -38q-23 0 -46 3l-32 -72l-83 32l30 64q-51 25 -79 72q-32 -48 -72.5 -73.5t-95.5 -25.5q-100 0 -151 76t-51 210q0 83 27 147t77.5 100t119.5 36q33 0 62.5 -12t53.5 -34v256l178 -18v-538q0 -31 4 -47
q23 50 53.5 72t77.5 22q53 0 88.5 -32zM372 167q-2 24 -2 40v179q-17 19 -33 28t-37 9q-40 0 -63.5 -37.5t-23.5 -118.5q0 -91 20 -124t59 -33q48 0 80 57zM675 114q13 8 13 23q0 24 -23 24q-15 0 -25 -11.5t-23 -42.5q7 -1 23 -1q22 0 35 8z" />
    <glyph glyph-name="uni0222" unicode="&#x222;" horiz-adv-x="650" 
d="M590.5 332.5q33.5 -46.5 33.5 -112.5q0 -65 -36.5 -119t-104.5 -86.5t-158 -32.5q-91 0 -158.5 31.5t-103.5 85.5t-36 121q0 63 33 109t94 72q-88 48 -88 151v143h185v-153q0 -43 16 -63.5t58 -20.5t58.5 21.5t16.5 62.5v153h185v-143q0 -49 -23 -87t-67 -62
q62 -24 95.5 -70.5zM404 143.5q27 28.5 27 79.5q0 49 -27.5 78.5t-78.5 29.5t-78.5 -29.5t-27.5 -78.5q0 -51 27.5 -79.5t78.5 -28.5q52 0 79 28.5z" />
    <glyph glyph-name="uni0223" unicode="&#x223;" horiz-adv-x="578" 
d="M553 228q0 -69 -31 -125t-90.5 -88.5t-142.5 -32.5t-143 31.5t-90.5 87.5t-30.5 127q0 138 113 190q-75 41 -75 140v185h174v-218q0 -60 52 -60q30 0 41 14t11 46v218h175v-185q0 -46 -20 -81t-59 -57q116 -49 116 -192zM352.5 139.5q19.5 29.5 19.5 90.5q0 60 -20 91
t-63 31q-83 0 -83 -122q0 -120 83 -120q44 0 63.5 29.5z" />
    <glyph glyph-name="uni0224" unicode="&#x224;" horiz-adv-x="543" 
d="M522 556l-289 -410h288v-170q0 -98 -58 -149t-158 -51q-88 0 -149 43l59 109q22 -11 36.5 -15.5t37.5 -4.5q56 0 56 57v35h-331v137l297 416h-268v142h479v-139z" />
    <glyph glyph-name="uni0225" unicode="&#x225;" horiz-adv-x="459" 
d="M445 408l-229 -275h229v-157q0 -98 -57 -149t-155 -51q-87 0 -148 43l59 105q20 -11 35.5 -16t38.5 -5q27 0 42.5 14.5t15.5 42.5v40h-267v125l232 276h-212v132h416v-125z" />
    <glyph glyph-name="uni0226" unicode="&#x226;" horiz-adv-x="596" 
d="M419 0l-31 142h-184l-31 -142h-192l206 695h222l206 -695h-196zM233 274h126l-63 289zM371.5 918q28.5 -28 28.5 -70t-28.5 -70t-73.5 -28t-73.5 28t-28.5 70t28.5 70t73.5 28t73.5 -28z" />
    <glyph glyph-name="uni0227" unicode="&#x227;" horiz-adv-x="550" 
d="M501.5 121q7.5 -14 26.5 -21l-36 -115q-51 4 -83.5 21t-52.5 54q-51 -78 -161 -78q-79 0 -126.5 46.5t-47.5 120.5q0 88 65 135t188 47h46v18q0 43 -18 58.5t-65 15.5q-25 0 -62.5 -7.5t-76.5 -20.5l-39 115q48 20 103 30.5t102 10.5q120 0 175 -47.5t55 -145.5v-194
q0 -29 7.5 -43zM289.5 118.5q18.5 11.5 30.5 31.5v86h-30q-48 0 -71 -17.5t-23 -52.5q0 -27 14 -43t39 -16q22 0 40.5 11.5zM347.5 792q28.5 -28 28.5 -70t-28.5 -70t-73.5 -28t-73.5 28t-28.5 70t28.5 70t73.5 28t73.5 -28z" />
    <glyph glyph-name="uni0228" unicode="&#x228;" horiz-adv-x="523" 
d="M239 131h253v-131h-174v-45q53 -7 80 -33.5t27 -70.5q0 -53 -42 -86.5t-114 -33.5q-36 0 -67 9.5t-52 23.5l40 79q31 -18 63 -18q46 0 46 28q0 16 -22 23.5t-71 7.5l15 116h-167v695h441l-19 -131h-237v-148h207v-127h-207v-158z" />
    <glyph glyph-name="uni0229" unicode="&#x229;" horiz-adv-x="555" 
d="M532 215h-326q7 -61 34.5 -83.5t78.5 -22.5q30 0 59.5 11.5t64.5 35.5l72 -98q-76 -62 -171 -73v-30q53 -7 80 -33.5t27 -70.5q0 -53 -42 -86.5t-114 -33.5q-36 0 -67 9.5t-52 23.5l40 79q31 -18 63 -18q46 0 46 28q0 16 -22 23.5t-71 7.5l13 102q-108 16 -164 90
t-56 188q0 81 29.5 146t87.5 103t140 38q117 0 185 -72.5t68 -203.5q0 -6 -3 -60zM360 325q-1 53 -18 82t-57 29q-37 0 -56 -26t-24 -91h155v6z" />
    <glyph glyph-name="uni022A" unicode="&#x22a;" horiz-adv-x="690" 
d="M580 617q84 -96 84 -269q0 -113 -37.5 -195.5t-109.5 -126.5t-172 -44q-151 0 -234.5 96t-83.5 270q0 113 37.5 195t109 126t171.5 44q151 0 235 -96zM249.5 526q-30.5 -54 -30.5 -178t31 -178.5t95 -54.5q66 0 96 54t30 179q0 124 -30 178t-96 54q-65 0 -95.5 -54z
M287.5 892q25.5 -25 25.5 -61t-25.5 -61t-62.5 -25q-36 0 -62 25t-26 61t26 61t62 25q37 0 62.5 -25zM525.5 892q25.5 -25 25.5 -61t-25.5 -61t-62.5 -25q-36 0 -62 25t-26 61t26 61t62 25q37 0 62.5 -25zM506 952h-315v121h315v-121z" />
    <glyph glyph-name="uni022B" unicode="&#x22b;" horiz-adv-x="584" 
d="M488 476q71 -75 71 -210q0 -86 -32 -150t-92.5 -99t-142.5 -35q-125 0 -196 75t-71 210q0 86 32 150t92.5 99t142.5 35q125 0 196 -75zM228.5 384.5q-20.5 -37.5 -20.5 -117.5q0 -83 20.5 -119.5t63.5 -36.5t63.5 37.5t20.5 117.5q0 82 -20.5 119t-63.5 37t-63.5 -37.5z
M234.5 742q25.5 -25 25.5 -61t-25.5 -61t-62.5 -25q-36 0 -62 25t-26 61t26 61t62 25q37 0 62.5 -25zM472.5 742q25.5 -25 25.5 -61t-25.5 -61t-62.5 -25q-36 0 -62 25t-26 61t26 61t62 25q37 0 62.5 -25zM449 804h-315v121h315v-121z" />
    <glyph glyph-name="uni022C" unicode="&#x22c;" horiz-adv-x="690" 
d="M580 617q84 -96 84 -269q0 -113 -37.5 -195.5t-109.5 -126.5t-172 -44q-151 0 -234.5 96t-83.5 270q0 113 37.5 195t109 126t171.5 44q151 0 235 -96zM249.5 526q-30.5 -54 -30.5 -178t31 -178.5t95 -54.5q66 0 96 54t30 179q0 124 -30 178t-96 54q-65 0 -95.5 -54z
M363.5 761q-16.5 7 -35.5 20q-10 7 -20 12t-19 5q-18 0 -29 -10t-24 -33l-86 42q20 55 55 91t80 36q24 0 41 -7t36 -20q10 -7 20 -12t19 -5q17 0 28 10t24 33l86 -42q-21 -56 -56 -91.5t-80 -35.5q-23 0 -39.5 7zM501 953h-315v121h315v-121z" />
    <glyph glyph-name="uni022D" unicode="&#x22d;" horiz-adv-x="584" 
d="M488 476q71 -75 71 -210q0 -86 -32 -150t-92.5 -99t-142.5 -35q-125 0 -196 75t-71 210q0 86 32 150t92.5 99t142.5 35q125 0 196 -75zM228.5 384.5q-20.5 -37.5 -20.5 -117.5q0 -83 20.5 -119.5t63.5 -36.5t63.5 37.5t20.5 117.5q0 82 -20.5 119t-63.5 37t-63.5 -37.5z
M310.5 599q-16.5 7 -35.5 20q-10 7 -20 12t-19 5q-18 0 -29 -10t-24 -33l-86 42q20 55 55 91t80 36q24 0 41 -7t36 -20q10 -7 20 -12t19 -5q17 0 28 10t24 33l86 -42q-21 -56 -56 -91.5t-80 -35.5q-23 0 -39.5 7zM449 837h-315v121h315v-121z" />
    <glyph glyph-name="uni022E" unicode="&#x22e;" horiz-adv-x="690" 
d="M580 617q84 -96 84 -269q0 -113 -37.5 -195.5t-109.5 -126.5t-172 -44q-151 0 -234.5 96t-83.5 270q0 113 37.5 195t109 126t171.5 44q151 0 235 -96zM249.5 526q-30.5 -54 -30.5 -178t31 -178.5t95 -54.5q66 0 96 54t30 179q0 124 -30 178t-96 54q-65 0 -95.5 -54z
M418.5 918q28.5 -28 28.5 -70t-28.5 -70t-73.5 -28t-73.5 28t-28.5 70t28.5 70t73.5 28t73.5 -28z" />
    <glyph glyph-name="uni022F" unicode="&#x22f;" horiz-adv-x="584" 
d="M488 476q71 -75 71 -210q0 -86 -32 -150t-92.5 -99t-142.5 -35q-125 0 -196 75t-71 210q0 86 32 150t92.5 99t142.5 35q125 0 196 -75zM228.5 384.5q-20.5 -37.5 -20.5 -117.5q0 -83 20.5 -119.5t63.5 -36.5t63.5 37.5t20.5 117.5q0 82 -20.5 119t-63.5 37t-63.5 -37.5z
M365.5 792q28.5 -28 28.5 -70t-28.5 -70t-73.5 -28t-73.5 28t-28.5 70t28.5 70t73.5 28t73.5 -28z" />
    <glyph glyph-name="uni0230" unicode="&#x230;" horiz-adv-x="690" 
d="M580 617q84 -96 84 -269q0 -113 -37.5 -195.5t-109.5 -126.5t-172 -44q-151 0 -234.5 96t-83.5 270q0 113 37.5 195t109 126t171.5 44q151 0 235 -96zM249.5 526q-30.5 -54 -30.5 -178t31 -178.5t95 -54.5q66 0 96 54t30 179q0 124 -30 178t-96 54q-65 0 -95.5 -54z
M415.5 902q28.5 -28 28.5 -70t-28.5 -70t-73.5 -28t-73.5 28t-28.5 70t28.5 70t73.5 28t73.5 -28zM501 952h-315v121h315v-121z" />
    <glyph glyph-name="uni0231" unicode="&#x231;" horiz-adv-x="584" 
d="M488 476q71 -75 71 -210q0 -86 -32 -150t-92.5 -99t-142.5 -35q-125 0 -196 75t-71 210q0 86 32 150t92.5 99t142.5 35q125 0 196 -75zM228.5 384.5q-20.5 -37.5 -20.5 -117.5q0 -83 20.5 -119.5t63.5 -36.5t63.5 37.5t20.5 117.5q0 82 -20.5 119t-63.5 37t-63.5 -37.5z
M364.5 758q28.5 -28 28.5 -70t-28.5 -70t-73.5 -28t-73.5 28t-28.5 70t28.5 70t73.5 28t73.5 -28zM449 815h-315v121h315v-121z" />
    <glyph glyph-name="uni0232" unicode="&#x232;" horiz-adv-x="607" 
d="M618 695l-222 -436v-259h-185v258l-222 437h202l115 -295l116 295h196zM460 778h-315v121h315v-121z" />
    <glyph glyph-name="uni0233" unicode="&#x233;" horiz-adv-x="526" 
d="M370 0q-33 -107 -110.5 -163.5t-204.5 -61.5l-19 123q76 8 113 30.5t58 71.5h-61l-156 533h189l81 -422l93 422h183zM420 652h-315v121h315v-121z" />
    <glyph glyph-name="uni0234" unicode="&#x234;" horiz-adv-x="480" 
d="M448.5 220q35.5 -32 35.5 -86q0 -76 -55 -114t-143 -38q-22 0 -45 3l-32 -72l-84 32l30 64q-50 25 -79 74t-29 124v536l178 18v-556q0 -30 4 -46q23 49 53.5 71t77.5 22q53 0 88.5 -32zM352 114q13 8 13 23q0 11 -6.5 17.5t-17.5 6.5q-14 0 -24.5 -11.5t-23.5 -42.5
q7 -1 23 -1q23 0 36 8z" />
    <glyph glyph-name="uni0235" unicode="&#x235;" horiz-adv-x="783" 
d="M751 220q36 -32 36 -86q0 -76 -55 -114t-143 -38q-23 0 -46 3l-32 -72l-83 32l30 64q-50 25 -79 74t-29 124v152q0 35 -10 48.5t-30 13.5q-42 0 -80 -61v-360h-178v533h155l13 -60q36 40 75 59t87 19q68 0 107 -42t39 -118v-186q0 -30 4 -46q24 49 53.5 71t76.5 22
q53 0 89 -32zM655 114q13 8 13 23q0 11 -6.5 17.5t-17.5 6.5q-14 0 -24.5 -11.5t-23.5 -42.5q7 -1 23 -1q23 0 36 8z" />
    <glyph glyph-name="uni0236" unicode="&#x236;" horiz-adv-x="503" 
d="M470.5 220q35.5 -32 35.5 -86q0 -76 -54.5 -114t-142.5 -38q-23 0 -46 3l-32 -72l-83 32l30 64q-51 24 -80 73t-29 125v204h-69v122h69v113l178 21v-134h121l-18 -122h-103v-206q0 -30 4 -46q23 49 53.5 71t77.5 22q53 0 88.5 -32zM374 114q13 8 13 23q0 24 -24 24
q-14 0 -24 -11.5t-23 -42.5q7 -1 23 -1q22 0 35 8z" />
    <glyph glyph-name="uni0237" unicode="&#x237;" horiz-adv-x="282" 
d="M230 69q0 -86 -29 -143t-78.5 -91t-120.5 -59l-60 129q38 18 61 35.5t36 45.5t13 72v475h178v-464z" />
    <glyph glyph-name="uni0238" unicode="&#x238;" horiz-adv-x="876" 
d="M799.5 475.5q47.5 -75.5 47.5 -209.5q0 -82 -25 -146.5t-71.5 -101t-106.5 -36.5q-38 0 -71.5 19t-55.5 54l-8 -55h-139l-8 58q-24 -34 -59.5 -55t-80.5 -21q-93 0 -142.5 77t-49.5 209q0 82 26 146.5t72.5 100.5t106.5 36q33 0 62.5 -15t52.5 -45v252l178 18v-280
q24 33 59.5 51.5t77.5 18.5q87 0 134.5 -75.5zM350 163v218q-30 42 -64 42q-33 0 -53 -37.5t-20 -118.5q0 -89 18.5 -123t50.5 -34q36 0 68 53zM644 147q20 37 20 119q0 88 -18 122t-47 34q-39 0 -71 -50v-209q28 -53 66 -53q30 0 50 37z" />
    <glyph glyph-name="uni0239" unicode="&#x239;" horiz-adv-x="876" 
d="M799 476q48 -75 48 -208q0 -82 -25.5 -147t-70 -102t-101.5 -37q-35 0 -67.5 16t-54.5 48v-252l-178 -18v266q-50 -60 -131 -60q-91 0 -140 77t-49 209q0 82 26 146.5t73.5 100.5t108.5 36q76 0 126 -74l8 56h136l9 -62q30 44 64 62t78 18q92 0 140 -75zM350 163v212
q-16 25 -31 36.5t-34 11.5q-32 0 -52 -37.5t-20 -118.5q0 -157 66 -157q39 0 71 53zM644 148q20 38 20 118q0 91 -16 123.5t-47 32.5q-18 0 -37 -13.5t-36 -37.5v-210q15 -27 30.5 -39t35.5 -12q30 0 50 38z" />
    <glyph glyph-name="uni023A" unicode="&#x23a;" horiz-adv-x="596" 
d="M436 0l-34 142h-107l-57 -218l-62 15l54 203h-39l-34 -142h-176l206 695h190l16 62l61 -14l-28 -106l189 -637h-179zM220 265h42l58 217l-24 99zM328 265h44l-21 88z" />
    <glyph glyph-name="uni023B" unicode="&#x23b;" horiz-adv-x="579" 
d="M477.5 8q-57.5 -26 -124.5 -26q-41 0 -75 7l-17 -65l-62 15l18 68q-90 36 -140 123.5t-50 218.5q0 114 41 196t114 125t168 43q30 0 53 -4l13 48l61 -14l-13 -48q58 -21 104 -61l-87 -103q-28 21 -52 32l-114 -433q22 -8 46 -8q36 0 66.5 14.5t66.5 42.5l82 -104
q-41 -41 -98.5 -67zM261 172l107 406h-9q-66 0 -103 -57t-37 -172q0 -119 42 -177z" />
    <glyph glyph-name="uni023C" unicode="&#x23c;" horiz-adv-x="479" 
d="M353 128q21 8 51 27l77 -109q-77 -64 -183 -64q-23 0 -44 3l-16 -61l-59 15l16 59q-81 28 -125.5 97t-44.5 167q0 84 33 149.5t93.5 102.5t141.5 37q26 0 48 -3l14 54l59 -14l-15 -55q45 -17 82 -50l-75 -104q-21 16 -41 25l-75 -283q6 -1 17 -1q25 0 46 8zM235 151
l71 265q-48 -1 -72 -36.5t-24 -116.5q0 -78 25 -112z" />
    <glyph glyph-name="uni023D" unicode="&#x23d;" horiz-adv-x="538" 
d="M260 144h267l-20 -144h-432v295h-72v136h72v264h185v-264h72v-136h-72v-151z" />
    <glyph glyph-name="uni023E" unicode="&#x23e;" horiz-adv-x="547" 
d="M530 563h-84l-92 -188v-375h-161v45l-59 -121l-51 26l110 225v388h-186v132h440l31 63l51 -25l-19 -38h39zM354 504l29 59h-29v-59z" />
    <glyph glyph-name="uni023F" unicode="&#x23f;" horiz-adv-x="489" 
d="M436 -86l33 -108q-43 -30 -107 -30q-50 0 -86 17.5t-61.5 44t-62.5 74.5q-31 41 -57 70.5t-59 55.5q-19 12 -34 25l75 95q78 -52 148 -52q31 0 48.5 10.5t17.5 30.5q0 17 -7.5 26t-28.5 17.5t-72 23.5q-155 46 -155 170q0 47 27 85t77.5 60t120.5 22q58 0 110.5 -18
t89.5 -49l-64 -98q-64 40 -129 40q-28 0 -41.5 -8.5t-13.5 -23.5q0 -13 7 -21t29.5 -17.5t71.5 -24.5q82 -24 121 -62.5t39 -107.5q0 -78 -62 -126t-160 -53q31 -16 60 -43q21 -18 36.5 -26.5t39.5 -8.5q23 0 49 10z" />
    <glyph glyph-name="uni0240" unicode="&#x240;" horiz-adv-x="447" 
d="M311 -210q-33 14 -54.5 35t-48.5 56q-30 37 -53 59t-59 39t-87 21v125l232 276h-212v132h416v-125l-270 -314q52 -19 83 -48.5t62 -73.5q27 -36 45.5 -52t46.5 -16q22 0 36.5 4.5t16.5 5.5l32 -108q-41 -30 -107 -30q-46 0 -79 14z" />
    <glyph glyph-name="uni0241" unicode="&#x241;" horiz-adv-x="522" 
d="M146 334l50 14q62 17 88.5 48t26.5 88q0 46 -24 72t-68 26q-34 0 -64 -13t-66 -42l-87 92q100 94 244 94q78 0 136 -27.5t89 -77t31 -115.5q0 -79 -35.5 -126t-109.5 -77l-26 -10v-280h-185v334z" />
    <glyph glyph-name="uni0242" unicode="&#x242;" horiz-adv-x="469" 
d="M109 204l46 14q53 15 80 42t27 72q0 41 -22 65t-59 24q-30 0 -53.5 -11t-51.5 -34l-83 88q44 43 94.5 65t114.5 22q73 0 128 -27.5t85.5 -76.5t30.5 -113q0 -70 -33 -111t-97 -63l-29 -10v-150h-178v204z" />
    <glyph glyph-name="uni0243" unicode="&#x243;" horiz-adv-x="635" 
d="M571 317q43 -37 43 -113q0 -113 -82 -158.5t-229 -45.5h-234v178h-57v83h57v434h207q150 0 229.5 -41.5t79.5 -137.5q0 -61 -36.5 -97.5t-90.5 -50.5q70 -14 113 -51zM254 566v-145h48q49 0 72 18t23 58q0 37 -24.5 53t-79.5 16h-39zM393 149.5q30 17.5 30 65.5
q0 46 -28 66.5t-81 20.5h-60v-41h103v-83h-103v-46h50q59 0 89 17.5z" />
    <glyph glyph-name="uni0244" unicode="&#x244;" horiz-adv-x="679" 
d="M672 497h-52v-264q0 -72 -31.5 -129t-94.5 -89.5t-154 -32.5q-138 0 -209 67.5t-71 183.5v264h-53v99h53v99h185v-99h189v99h186v-99h52v-99zM434 497h-189v-258q0 -63 22.5 -92.5t72.5 -29.5t72 30t22 92v258z" />
    <glyph glyph-name="uni0245" unicode="&#x245;" horiz-adv-x="596" 
d="M409 695l206 -695h-196l-123 563l-123 -563h-192l206 695h222z" />
    <glyph glyph-name="uni0246" unicode="&#x246;" horiz-adv-x="523" 
d="M342 289l-41 -158h191v-131h-226l-20 -76l-62 15l16 61h-146v695h331l16 62l61 -14l-13 -48h46l-19 -131h-61l-39 -148h70v-127h-104zM239 564v-148h72l39 148h-111zM239 289v-143l38 143h-38z" />
    <glyph glyph-name="uni0247" unicode="&#x247;" horiz-adv-x="555" 
d="M296 219l-28 -106q20 -4 51 -4q30 0 59.5 11.5t64.5 35.5l72 -98q-42 -35 -96 -55.5t-117 -20.5q-35 0 -67 6l-17 -64l-56 15l17 64q-76 30 -115 98t-39 163q0 81 29.5 146t87.5 103t140 38q22 0 43 -3l14 54l55 -14l-14 -53q74 -26 114.5 -93t40.5 -167q0 -2 -3 -56
h-236zM215.5 412q-22.5 -28 -27.5 -97h74l34 125h-11q-47 0 -69.5 -28zM372.5 380.5q-6.5 24.5 -23.5 39.5l-27 -105h58v6q-1 35 -7.5 59.5zM237 219h-49q6 -50 28 -77z" />
    <glyph glyph-name="uni0248" unicode="&#x248;" horiz-adv-x="344" 
d="M342 275h-72v-167q0 -87 -32.5 -143.5t-83 -88.5t-120.5 -55l-49 130q43 17 64.5 39.5t28.5 51t7 73.5v160h-72v136h72v284h185v-284h72v-136z" />
    <glyph glyph-name="uni0249" unicode="&#x249;" horiz-adv-x="337" 
d="M334 198h-74v-129q0 -86 -29 -143t-78.5 -91t-120.5 -59l-60 129q38 18 61 35.5t36 45.5t13 72v140h-78v123h78v212h178v-212h74v-123zM244.5 792q28.5 -28 28.5 -70t-28.5 -70t-73.5 -28t-73.5 28t-28.5 70t28.5 70t73.5 28t73.5 -28z" />
    <glyph glyph-name="uni024A" unicode="&#x24a;" horiz-adv-x="674" 
d="M800 -181q-61 -43 -149 -43q-100 0 -158 51t-58 149v56q-53 -50 -135 -50t-143.5 42.5t-95.5 122.5t-34 190q0 116 35.5 201t98 130t142.5 45q86 0 146 -57l6 39h165v-730q0 -28 14 -42.5t38 -14.5q20 0 33.5 4.5t35.5 15.5zM435 146v397q-39 37 -93 37q-61 0 -92 -57
t-31 -186q0 -123 31 -174.5t91 -51.5q55 0 94 35z" />
    <glyph glyph-name="uni024B" unicode="&#x24b;" horiz-adv-x="600" 
d="M631 -206q-17 -8 -45 -13t-59 -5q-75 0 -116 42.5t-41 120.5v106q-51 -63 -138 -63q-100 0 -151 76t-51 210q0 83 27 147t77.5 100t119.5 36q75 0 131 -59l8 41h155v-588q0 -30 26 -30q9 0 24 5zM370 163v223q-17 19 -33 28t-37 9q-40 0 -63.5 -37.5t-23.5 -118.5
q0 -91 20 -124t59 -33q46 0 78 53z" />
    <glyph glyph-name="uni024C" unicode="&#x24c;" horiz-adv-x="635" 
d="M441 0l-136 256h-51v-256h-185v256h-57v126h57v313h241q147 0 219.5 -53t72.5 -163q0 -66 -30.5 -110t-97.5 -79l173 -290h-206zM254 566v-184h62q96 0 96 97q0 45 -26.5 66t-79.5 21h-52z" />
    <glyph glyph-name="uni024D" unicode="&#x24d;" horiz-adv-x="431" 
d="M437 540l-29 -172q-26 8 -48 8q-44 0 -67 -28.5t-36 -85.5h75v-123h-77v-139h-178v139h-74v123h74v271h155l16 -101q16 53 53.5 85t81.5 32q26 0 54 -9z" />
    <glyph glyph-name="uni024E" unicode="&#x24e;" horiz-adv-x="608" 
d="M580 618h39v-99h-90l-132 -260v-259h-185v258l-133 261h-89v99h39l-39 77h194l30 -77h186l31 77h188zM307 384l54 135h-107z" />
    <glyph glyph-name="uni024F" unicode="&#x24f;" horiz-adv-x="552" 
d="M507 397h40v-98h-71l-93 -299q-33 -107 -110.5 -163.5t-204.5 -61.5l-19 123q76 8 113 30.5t58 71.5h-61l-88 299h-68v98h40l-40 136h189l26 -136h118l30 136h183zM273 111l41 188h-77z" />
    <glyph glyph-name="uni0250" unicode="&#x250;" horiz-adv-x="550" 
d="M375.5 117.5q37.5 7.5 76.5 20.5l39 -115q-48 -20 -103 -30.5t-102 -10.5q-120 0 -175 47.5t-55 145.5v194q0 29 -7.5 43t-26.5 21l36 115q51 -4 83.5 -21t52.5 -54q51 78 161 78q79 0 126.5 -46.5t47.5 -120.5q0 -88 -65 -135t-188 -47h-46v-18q0 -43 18 -58.5t65 -15.5
q25 0 62.5 7.5zM260.5 414.5q-18.5 -11.5 -30.5 -31.5v-86h30q48 0 71 17.5t23 52.5q0 27 -14 43t-39 16q-22 0 -40.5 -11.5z" />
    <glyph glyph-name="uni0251" unicode="&#x251;" horiz-adv-x="597" 
d="M549 138.5q9 -17.5 33 -29.5l-51 -127q-56 8 -90.5 27.5t-54.5 52.5q-28 -37 -68 -58.5t-88 -21.5q-100 0 -152.5 76.5t-52.5 209.5q0 83 27 147t77.5 100t118.5 36q79 0 128 -60l9 42h155v-343q0 -34 9 -51.5zM362 163v222q-17 19 -34 28.5t-38 9.5q-82 0 -82 -156
q0 -90 19.5 -123.5t54.5 -33.5q48 0 80 53z" />
    <glyph glyph-name="uni0252" unicode="&#x252;" horiz-adv-x="597" 
d="M519.5 474.5q52.5 -76.5 52.5 -209.5q0 -83 -27 -147t-77.5 -100t-118.5 -36q-78 0 -128 60l-9 -42h-155v343q0 34 -9 51.5t-33 29.5l51 127q56 -8 90.5 -27.5t54.5 -52.5q28 37 68 58.5t88 21.5q100 0 152.5 -76.5zM389 266q0 90 -19.5 123.5t-54.5 33.5q-48 0 -80 -53
v-222q17 -19 34 -28.5t38 -9.5q82 0 82 156z" />
    <glyph glyph-name="uni0253" unicode="&#x253;" horiz-adv-x="598" 
d="M518 476.5q51 -74.5 51 -210.5q0 -82 -25.5 -146.5t-73.5 -101t-114 -36.5q-44 0 -79.5 17.5t-59.5 49.5l-7 -49h-158v571q0 84 55 137t159 53q41 0 81.5 -9.5t70.5 -25.5l-48 -112q-40 18 -81 18q-31 0 -45 -15.5t-14 -53.5v-81q22 31 60 50t78 19q99 0 150 -74.5z
M364 146q21 36 21 120q0 90 -19 123t-55 33q-48 0 -81 -56v-211q27 -45 75 -45q38 0 59 36z" />
    <glyph glyph-name="uni0254" unicode="&#x254;" horiz-adv-x="473" 
d="M80 -3q-44 15 -82 45l79 103q25 -18 46.5 -26t48.5 -8q48 0 71 37.5t23 117.5q0 82 -21.5 119t-67.5 37q-52 0 -100 -34l-74 99q75 64 187 64q120 0 189.5 -74.5t69.5 -210.5q0 -86 -32 -150t-92.5 -99t-143.5 -35q-57 0 -101 15z" />
    <glyph glyph-name="uni0255" unicode="&#x255;" horiz-adv-x="505" 
d="M467 228q37 -33 37 -91q0 -76 -54.5 -115.5t-139.5 -39.5q-32 0 -70 6l-34 -75l-84 32l34 73q-63 32 -97 95.5t-34 148.5q0 84 33 149.5t93.5 102.5t141.5 37q58 0 104 -17t84 -51l-75 -105q-45 38 -97 38q-49 0 -74 -35.5t-25 -117.5q0 -62 16 -101q24 53 60 76t88 23
q56 0 93 -33zM385 143q0 27 -28 27q-19 0 -34.5 -14t-30.5 -45q22 -5 40 -5q53 0 53 37z" />
    <glyph glyph-name="uni0256" unicode="&#x256;" horiz-adv-x="600" 
d="M730 -181q-61 -43 -150 -43q-97 0 -153.5 51t-56.5 149v67q-52 -61 -138 -61q-100 0 -151 76t-51 210q0 83 27 147t77.5 100t119.5 36q33 0 62.5 -12t53.5 -34v256l178 -18v-783q0 -28 14 -42.5t40 -14.5q20 0 34 4.5t35 14.5zM370 163v223q-17 19 -33 28t-37 9
q-40 0 -63.5 -37.5t-23.5 -118.5q0 -91 20 -124t59 -33q46 0 78 53z" />
    <glyph glyph-name="uni0257" unicode="&#x257;" horiz-adv-x="600" 
d="M711 724l-49 -110q-35 18 -66 18q-25 0 -36.5 -14t-11.5 -44v-574h-158l-7 59q-24 -34 -61.5 -55.5t-89.5 -21.5q-100 0 -151 76t-51 210q0 83 27 147t77.5 100t119.5 36q33 0 62.5 -12t53.5 -34v65q0 85 51.5 138t148.5 53q80 0 141 -37zM370 163v223q-17 19 -33 28
t-37 9q-40 0 -63.5 -37.5t-23.5 -118.5q0 -91 20 -124t59 -33q46 0 78 53z" />
    <glyph glyph-name="uni0258" unicode="&#x258;" horiz-adv-x="555" 
d="M465.5 473q64.5 -78 64.5 -209q0 -128 -71 -205t-206 -77q-120 0 -214 76l73 98q35 -25 64.5 -36t61.5 -11q50 0 77 22.5t34 83.5h-326q-3 27 -3 60q0 130 68.5 203t184.5 73q128 0 192.5 -78zM195 319h155q-4 67 -22 92t-56 25q-42 0 -59 -29t-18 -82v-6z" />
    <glyph glyph-name="uni0259" unicode="&#x259;" horiz-adv-x="556" 
d="M466 474q66 -77 66 -207q0 -80 -30 -145t-88.5 -102.5t-140.5 -37.5q-116 0 -184.5 73t-68.5 203q0 33 3 60h339q-4 56 -29 82.5t-71 26.5q-36 0 -67.5 -10t-66.5 -32l-73 97q43 33 95 51t119 18q131 0 197 -77zM336 130.5q22 25.5 26 83.5h-175v-7q1 -48 23 -75t63 -27
t63 25.5z" />
    <glyph glyph-name="uni025A" unicode="&#x25a;" horiz-adv-x="841" 
d="M854 342q-54 -37 -128 -37q-70 0 -110.5 31.5t-51.5 86.5l-1 5l-52 -30q21 -58 21 -131q0 -80 -30 -145t-88.5 -102.5t-140.5 -37.5q-116 0 -184.5 73t-68.5 203q0 33 3 60h339q-4 56 -29 82.5t-71 26.5q-36 0 -67.5 -10t-66.5 -32l-73 97q43 33 95 51t119 18
q123 0 190 -69l96 51h144v-57q0 -25 13 -37.5t35 -12.5q15 0 26 3t20.5 6.5t12.5 4.5zM336 130.5q22 25.5 26 83.5h-175v-7q1 -48 23 -75t63 -27t63 25.5z" />
    <glyph glyph-name="uni025B" unicode="&#x25b;" horiz-adv-x="484" 
d="M471 488l-71 -90q-30 17 -56 24.5t-56 7.5q-29 0 -46.5 -12.5t-17.5 -35.5q0 -25 16.5 -39.5t49.5 -14.5h68l-16 -111h-60q-74 0 -74 -55q0 -56 80 -56q30 0 59 9t65 30l73 -99q-41 -31 -98 -47.5t-126 -16.5q-105 0 -170.5 43t-65.5 122q0 120 145 136q-125 26 -125 121
q0 68 60 107.5t159 39.5q123 0 207 -63z" />
    <glyph glyph-name="uni025C" unicode="&#x25c;" horiz-adv-x="497" 
d="M386.5 511q60.5 -40 60.5 -108q0 -90 -120 -119q73 -11 109 -42.5t36 -88.5q0 -84 -68 -127.5t-184 -43.5q-135 0 -221 63l83 98q35 -21 64.5 -29t66.5 -8q76 0 76 57q0 54 -77 54h-87l10 111h64q68 0 68 54q0 24 -15.5 36t-44.5 12q-32 0 -57.5 -8.5t-53.5 -25.5l-81 93
q91 62 218 62q93 0 153.5 -40z" />
    <glyph glyph-name="uni025D" unicode="&#x25d;" horiz-adv-x="772" 
d="M784 342q-54 -37 -128 -37q-70 0 -110.5 31.5t-51.5 86.5l-1 5l-46 -27q-1 -88 -120 -117q73 -11 109 -42.5t36 -88.5q0 -84 -68 -127.5t-184 -43.5q-135 0 -221 63l83 98q35 -21 64.5 -29t66.5 -8q76 0 76 57q0 54 -77 54h-87l10 111h64q68 0 68 54q0 24 -15.5 36
t-44.5 12q-32 0 -57.5 -8.5t-53.5 -25.5l-81 93q91 62 218 62q56 0 102 -15t74 -43l76 40h144v-57q0 -25 13 -37.5t35 -12.5q15 0 26 3t20.5 6.5t12.5 4.5z" />
    <glyph glyph-name="uni025E" unicode="&#x25e;" horiz-adv-x="575" 
d="M95.5 56q-70.5 74 -70.5 211q0 131 72 207.5t200 76.5q102 0 165 -40.5t63 -108.5q0 -89 -120 -118q73 -11 109 -42.5t36 -88.5q0 -83 -68 -127t-184 -44q-132 0 -202.5 74zM371 165q0 28 -18.5 40t-56.5 12h-33l10 111h10q33 0 49.5 13.5t16.5 39.5q0 24 -14.5 36.5
t-41.5 12.5q-48 0 -70 -38t-22 -125q0 -60 8.5 -94.5t29.5 -50.5t59 -16q73 0 73 59z" />
    <glyph glyph-name="uni025F" unicode="&#x25f;" horiz-adv-x="337" 
d="M334 198h-74v-129q0 -86 -29 -143t-78.5 -91t-120.5 -59l-60 129q38 18 61 35.5t36 45.5t13 72v140h-78v123h78v212h178v-212h74v-123z" />
    <glyph glyph-name="uni0260" unicode="&#x260;" horiz-adv-x="600" 
d="M711 724l-49 -110q-35 18 -66 18q-25 0 -36.5 -14t-11.5 -44v-554q0 -124 -68.5 -184t-197.5 -60q-122 0 -202 51l53 108q62 -32 133 -32q55 0 79.5 23t24.5 70v67q-52 -61 -138 -61q-100 0 -151 74.5t-51 201.5q0 78 27 140t78 97.5t119 35.5q62 0 116 -46v65
q0 85 51.5 138t148.5 53q80 0 141 -37zM370 183v203q-17 19 -33 28t-37 9q-40 0 -63.5 -36t-23.5 -110q0 -84 20.5 -115.5t58.5 -31.5q46 0 78 53z" />
    <glyph glyph-name="uni0261" unicode="&#x261;" horiz-adv-x="600" 
d="M548 533v-513q0 -124 -68.5 -184t-197.5 -60q-122 0 -202 51l53 108q62 -32 133 -32q55 0 79.5 23t24.5 70v67q-52 -61 -138 -61q-100 0 -151 74.5t-51 201.5q0 78 27 140t78 97.5t119 35.5q73 0 130 -59l9 41h155zM370 183v203q-17 19 -33 28t-37 9q-40 0 -63.5 -36
t-23.5 -110q0 -84 20.5 -115.5t58.5 -31.5q46 0 78 53z" />
    <glyph glyph-name="uni0262" unicode="&#x262;" 
d="M427.5 531.5q51.5 -19.5 94.5 -55.5l-84 -91q-31 21 -59 31.5t-60 10.5q-54 0 -82.5 -41t-28.5 -118q0 -90 22.5 -125.5t67.5 -35.5q35 0 65 12v83h-61l-16 114h242v-266q-48 -30 -107.5 -48.5t-124.5 -18.5q-137 0 -204 71t-67 215q0 85 36.5 149t100.5 98.5t145 34.5
q69 0 120.5 -19.5z" />
    <glyph glyph-name="uni0263" unicode="&#x263;" horiz-adv-x="526" 
d="M351 88q38 -60 54.5 -100.5t16.5 -83.5q0 -60 -38 -94t-118 -34q-79 0 -117.5 34t-38.5 94q0 40 16 80.5t55 102.5l-191 446h189l87 -333l87 333h183zM288 -56q-6 15 -22 50q-28 -54 -28 -83q0 -14 7.5 -21.5t20.5 -7.5t20.5 8t7.5 22q0 17 -6 32z" />
    <glyph glyph-name="uni0264" unicode="&#x264;" horiz-adv-x="571" 
d="M532 543q25 -8 51 -23l-49 -102q-9 4 -19 6.5t-22 2.5q-16 0 -27 -8t-21 -29l-76 -144q32 -46 45.5 -78t13.5 -69q0 -53 -35.5 -85t-107.5 -32q-69 0 -106 32.5t-37 84.5q0 33 13 65t45 83l-74 143q-11 21 -21.5 29t-26.5 8q-12 0 -22 -2.5t-19 -6.5l-49 102q26 15 51 23
t58 8q60 0 94 -31t63 -101l31 -74l32 74q29 71 63 101.5t94 30.5q33 0 58 -8zM304.5 130q-4.5 11 -11 22t-8.5 15q-3 -5 -10 -18t-10 -22.5t-3 -18.5q0 -24 23 -24q24 0 24 24q0 11 -4.5 22z" />
    <glyph glyph-name="uni0265" unicode="&#x265;" horiz-adv-x="575" 
d="M523 533v-757l-178 18v259q-33 -36 -70 -53.5t-82 -17.5q-69 0 -107.5 42t-38.5 118v391h178v-360q0 -35 10 -48t30 -13q40 0 80 60v361h178z" />
    <glyph glyph-name="uni0266" unicode="&#x266;" horiz-adv-x="575" 
d="M489 508.5q39 -42.5 39 -117.5v-391h-178v359q0 35 -10.5 48.5t-30.5 13.5q-41 0 -79 -61v-360h-178v571q0 84 55 137t159 53q41 0 81.5 -9.5t70.5 -25.5l-48 -112q-40 18 -81 18q-31 0 -45 -15.5t-14 -53.5v-82q33 36 70 53t82 17q68 0 107 -42.5z" />
    <glyph glyph-name="uni0267" unicode="&#x267;" horiz-adv-x="575" 
d="M489 508.5q39 -42.5 39 -117.5v-415q0 -98 -56.5 -149t-153.5 -51q-89 0 -150 43l59 103q21 -10 35 -14.5t34 -4.5q26 0 40 14.5t14 42.5v399q0 35 -10.5 48.5t-30.5 13.5q-41 0 -79 -61v-360h-178v571q0 84 55 137t159 53q41 0 81.5 -9.5t70.5 -25.5l-48 -112
q-40 18 -81 18q-31 0 -45 -15.5t-14 -53.5v-82q33 36 70 53t82 17q68 0 107 -42.5z" />
    <glyph glyph-name="uni0268" unicode="&#x268;" horiz-adv-x="335" 
d="M93.5 652q-28.5 28 -28.5 70t28.5 70t73.5 28t73.5 -28t28.5 -70t-28.5 -70t-73.5 -28t-73.5 28zM332 343v-123h-76v-220h-178v220h-75v123h75v190h178v-190h76z" />
    <glyph glyph-name="uni0269" unicode="&#x269;" horiz-adv-x="299" 
d="M88 24q-41 42 -41 121v388h178v-382q0 -29 26 -29q11 0 23 3l33 -125q-41 -18 -103 -18q-75 0 -116 42z" />
    <glyph glyph-name="uni026A" unicode="&#x26a;" horiz-adv-x="339" 
d="M326 407h-68v-280h68v-127h-313v127h67v280h-67v126h313v-126z" />
    <glyph glyph-name="uni026B" unicode="&#x26b;" horiz-adv-x="479" 
d="M422 306.5q-38 -36.5 -95 -38.5v-117q0 -29 26 -29q11 0 23 4l33 -126q-41 -18 -103 -18q-75 0 -116 42t-41 121v184q-17 0 -28.5 -6.5t-21.5 -19t-19 -25.5l-91 46q29 60 66.5 96.5t93.5 39.5v283l178 18v-361h3q20 0 32.5 9.5t22.5 21.5t14 17l90 -45
q-29 -60 -67 -96.5z" />
    <glyph glyph-name="uni026C" unicode="&#x26c;" horiz-adv-x="446" 
d="M389 126l33 -126q-41 -18 -103 -18q-75 0 -116 42t-41 121v92q-85 2 -127 36.5t-42 93.5q0 57 36 88.5t95 31.5q18 0 38 -4v260l178 18v-428q33 3 70 10l12 -88q-41 -11 -82 -14v-90q0 -29 26 -29q11 0 23 4zM162 330v66q-13 3 -25 3q-14 0 -22.5 -8t-8.5 -22
q0 -39 56 -39z" />
    <glyph glyph-name="uni026D" unicode="&#x26d;" horiz-adv-x="282" 
d="M412 -181q-61 -43 -150 -43q-97 0 -153.5 51t-56.5 149v767l178 18v-801q0 -28 14 -42.5t40 -14.5q20 0 34 4.5t35 14.5z" />
    <glyph glyph-name="uni026E" unicode="&#x26e;" horiz-adv-x="722" 
d="M654 155q54 -51 54 -145q0 -67 -33 -120t-95.5 -83.5t-148.5 -30.5q-128 0 -210 72l81 105q29 -23 56.5 -33t60.5 -10q48 0 77.5 28t29.5 83q0 51 -29 72t-88 21h-97v100l161 188h-248v-251q0 -29 26 -29q11 0 23 4l33 -126q-41 -18 -103 -18q-75 0 -116 42t-41 121v598
l178 18v-228h449v-121l-175 -198q101 -8 155 -59z" />
    <glyph glyph-name="uni026F" unicode="&#x26f;" horiz-adv-x="841" 
d="M789 533v-533h-155l-13 59q-31 -39 -68.5 -58t-86.5 -19q-42 0 -74 20.5t-48 59.5q-33 -41 -71 -60.5t-88 -19.5q-62 0 -100 42.5t-38 117.5v391h178v-359q0 -62 36 -62q38 0 68 61v360h178v-359q0 -62 36 -62q38 0 68 61v360h178z" />
    <glyph glyph-name="uni0270" unicode="&#x270;" horiz-adv-x="841" 
d="M789 533v-757l-178 18v253q-29 -33 -64.5 -49t-80.5 -16q-42 0 -74 20.5t-48 59.5q-33 -41 -71 -60.5t-88 -19.5q-62 0 -100 42.5t-38 117.5v391h178v-359q0 -62 36 -62q38 0 68 61v360h178v-359q0 -62 36 -62q38 0 68 61v360h178z" />
    <glyph glyph-name="uni0271" unicode="&#x271;" horiz-adv-x="841" 
d="M756 508.5q38 -42.5 38 -117.5v-415q0 -98 -57 -149t-155 -51q-87 0 -148 43l58 105q21 -11 35.5 -16t34.5 -5q26 0 40 14.5t14 42.5v399q0 62 -36 62q-37 0 -68 -61v-360h-178v359q0 62 -36 62q-37 0 -68 -61v-360h-178v533h155l13 -59q31 39 68.5 58t86.5 19
q42 0 74 -20.5t48 -59.5q33 41 71 60.5t88 19.5q62 0 100 -42.5z" />
    <glyph glyph-name="uni0272" unicode="&#x272;" horiz-adv-x="575" 
d="M489 509q39 -42 39 -118v-391h-178v359q0 35 -10 48.5t-30 13.5q-42 0 -80 -61v-384q0 -98 -56.5 -149t-153.5 -51q-89 0 -150 43l59 103q21 -10 35 -14.5t34 -4.5q26 0 40 14.5t14 42.5v573h155l13 -60q36 40 75 59t87 19q68 0 107 -42z" />
    <glyph glyph-name="uni0273" unicode="&#x273;" horiz-adv-x="575" 
d="M710 -181q-61 -43 -150 -43q-97 0 -153.5 51t-56.5 149v383q0 35 -10 48.5t-30 13.5q-42 0 -80 -61v-360h-178v533h155l13 -60q36 40 75 59t87 19q68 0 107 -42t39 -118v-431q0 -28 14 -42.5t40 -14.5q20 0 34 4.5t35 14.5z" />
    <glyph glyph-name="uni0274" unicode="&#x274;" horiz-adv-x="585" 
d="M533 0h-211l-141 381q13 -63 20 -120t7 -128v-133h-156v533h209l143 -381q-15 80 -21 124.5t-6 115.5v141h156v-533z" />
    <glyph glyph-name="uni0275" unicode="&#x275;" horiz-adv-x="584" 
d="M488 476q71 -75 71 -210q0 -86 -32 -150t-92.5 -99t-142.5 -35q-125 0 -196 75t-71 210q0 86 32 150t92.5 99t142.5 35q125 0 196 -75zM232.5 399q-21.5 -26 -27.5 -81h174q-6 56 -27 81.5t-60 25.5q-38 0 -59.5 -26zM353.5 135.5q21.5 27.5 25.5 87.5h-174
q4 -61 25.5 -88t61.5 -27t61.5 27.5z" />
    <glyph glyph-name="uni0276" unicode="&#x276;" horiz-adv-x="772" 
d="M506 121h243v-121h-355q-48 -18 -102 -18q-125 0 -196 75t-71 210q0 86 32 150t92.5 99t142.5 35q48 0 104 -18h358l-18 -121h-228q26 -39 38 -84h165v-117h-164q-12 -52 -41 -90zM354.5 148q20.5 37 20.5 119t-20.5 118.5t-62.5 36.5q-43 0 -63.5 -37.5t-20.5 -117.5
q0 -83 20.5 -119.5t63.5 -36.5q42 0 62.5 37z" />
    <glyph glyph-name="uni0277" unicode="&#x277;" horiz-adv-x="765" 
d="M646.5 473.5q94.5 -77.5 94.5 -230.5q0 -130 -54.5 -195.5t-147.5 -65.5q-66 0 -104 27.5t-53 90.5q-17 -64 -54 -91t-102 -27q-94 0 -147.5 65t-53.5 196q0 154 95 231t264 77q168 0 262.5 -77.5zM552.5 143.5q14.5 32.5 14.5 109.5q0 85 -42.5 131t-140.5 46
q-99 0 -142.5 -46t-43.5 -131q0 -75 14.5 -108.5t43.5 -33.5q22 0 33 15.5t11 61.5v109l165 22v-131q0 -45 11.5 -61t34.5 -16q27 0 41.5 32.5z" />
    <glyph glyph-name="uni0278" unicode="&#x278;" horiz-adv-x="673" 
d="M589.5 82q-63.5 -65 -164.5 -76l-1 -212l-178 -18l1 230q-100 11 -163.5 74t-63.5 184q0 122 63 187t163 76v216l178 18v-234q101 -11 165 -73.5t64 -184.5t-63.5 -187zM463.5 157.5q18.5 36.5 18.5 111.5t-19 109t-56 40v-302q38 5 56.5 41.5zM264 116v300
q-37 -5 -55 -40.5t-18 -111.5q0 -133 73 -148z" />
    <glyph glyph-name="uni0279" unicode="&#x279;" horiz-adv-x="405" 
d="M353 533v-533h-155l-16 101q-16 -53 -53.5 -85t-81.5 -32q-25 0 -54 9l29 172q26 -8 48 -8q45 0 68.5 30.5t36.5 92.5v253h178z" />
    <glyph glyph-name="uni027A" unicode="&#x27a;" horiz-adv-x="405" 
d="M353 743v-743h-155l-16 101q-16 -53 -53.5 -85t-81.5 -32q-25 0 -54 9l29 172q26 -8 48 -8q45 0 68.5 30.5t36.5 92.5v481z" />
    <glyph glyph-name="uni027B" unicode="&#x27b;" horiz-adv-x="405" 
d="M535 -181q-61 -43 -150 -43q-97 0 -153.5 51t-56.5 149v103q-20 -44 -54 -69.5t-74 -25.5q-24 0 -53 8l28 172q30 -7 49 -7q44 0 67.5 29.5t36.5 88.5v258h178v-573q0 -28 14 -42.5t40 -14.5q20 0 34 4.5t35 14.5z" />
    <glyph glyph-name="uni027C" unicode="&#x27c;" horiz-adv-x="405" 
d="M412 540l-29 -172q-26 8 -48 8q-45 0 -68.5 -30.5t-36.5 -92.5v-459l-178 -18v757h155l16 -101q16 53 53.5 85t81.5 32q26 0 54 -9z" />
    <glyph glyph-name="uni027D" unicode="&#x27d;" horiz-adv-x="405" 
d="M318 -92.5q14 4.5 35 14.5l59 -103q-61 -43 -150 -43q-97 0 -153.5 51t-56.5 149v557h155l16 -101q16 53 53.5 85t81.5 32q26 0 54 -9l-29 -172q-26 8 -48 8q-45 0 -68.5 -30.5t-36.5 -92.5v-293q0 -28 14 -42.5t40 -14.5q20 0 34 4.5z" />
    <glyph glyph-name="uni027E" unicode="&#x27e;" horiz-adv-x="400" 
d="M407 508l-59 -103q-21 10 -35 14.5t-34 4.5q-26 0 -40 -14.5t-14 -42.5v-367h-178v351q0 98 56.5 149t153.5 51q89 0 150 -43z" />
    <glyph glyph-name="uni027F" unicode="&#x27f;" horiz-adv-x="400" 
d="M296.5 500q56.5 -51 56.5 -149v-351h-178v367q0 28 -14 42.5t-40 14.5q-20 0 -34 -4.5t-35 -14.5l-59 103q61 43 150 43q97 0 153.5 -51z" />
    <glyph glyph-name="uni0280" unicode="&#x280;" horiz-adv-x="531" 
d="M256 178h-34v-178h-170v533h205q238 0 238 -180q0 -50 -21 -88.5t-64 -61.5l127 -203h-186zM222 281h33q36 0 52.5 16t16.5 57q0 39 -17 53.5t-54 14.5h-31v-141z" />
    <glyph glyph-name="uni0281" unicode="&#x281;" horiz-adv-x="531" 
d="M474 270q21 -38 21 -87q0 -183 -238 -183h-205v533h170v-178h34l95 178h186l-126 -203q42 -22 63 -60zM307 126q17 15 17 56q0 39 -16.5 54.5t-52.5 15.5h-33v-141h31q37 0 54 15z" />
    <glyph glyph-name="uni0282" unicode="&#x282;" horiz-adv-x="488" 
d="M154 -4v-35q0 -57 64 -57q26 0 44.5 5t39.5 16l59 -105q-27 -20 -66.5 -32t-87.5 -12q-98 0 -152 51t-54 150v86l71 80q71 -37 151 -37q32 0 50 11t18 30q0 17 -7.5 26t-28.5 17.5t-72 23.5q-155 46 -155 170q0 47 27 85t77.5 60t120.5 22q58 0 110.5 -18t89.5 -49
l-65 -98q-29 19 -61.5 29.5t-60.5 10.5q-61 0 -61 -32q0 -13 7 -21t29.5 -17.5t71.5 -24.5q82 -24 121 -62.5t39 -107.5q0 -54 -30 -94.5t-81 -62.5t-113 -22q-57 0 -95 14z" />
    <glyph glyph-name="uni0283" unicode="&#x283;" horiz-adv-x="282" 
d="M393 724l-49 -110q-34 18 -66 18q-25 0 -36.5 -14t-11.5 -44v-598q0 -98 -56.5 -149t-153.5 -51q-89 0 -150 43l59 103q21 -10 35 -14.5t34 -4.5q26 0 40 14.5t14 42.5v610q0 85 51.5 138t148.5 53q80 0 141 -37z" />
    <glyph glyph-name="uni0284" unicode="&#x284;" horiz-adv-x="337" 
d="M330 123v-123h-76q-15 -90 -71.5 -141t-150.5 -83l-58 119q47 19 73 42.5t33 62.5h-79v123h81v447q0 85 51.5 138t148.5 53q80 0 141 -37l-49 -110q-34 18 -66 18q-25 0 -36.5 -14t-11.5 -44v-451h70z" />
    <glyph glyph-name="uni0285" unicode="&#x285;" horiz-adv-x="498" 
d="M510 25q-61 -43 -150 -43q-97 0 -153.5 51t-56.5 149v182q0 30 -11.5 44t-36.5 14q-31 0 -66 -18l-49 110q61 37 141 37q97 0 148.5 -53t51.5 -138v-194q0 -28 14 -42.5t40 -14.5q20 0 34 4.5t35 14.5z" />
    <glyph glyph-name="uni0286" unicode="&#x286;" horiz-adv-x="349" 
d="M308.5 618q-11.5 -14 -11.5 -44v-41l1 -490q0 -17 -2 -45q55 -18 98 -40l-31 -71q-30 14 -81 30q-21 -72 -71.5 -106.5t-134.5 -34.5q-74 0 -114 31.5t-40 88.5q0 63 43 97.5t117 34.5q25 0 37 -1v543q0 85 51.5 138t148.5 53q80 0 141 -37l-49 -110q-35 18 -66 18
q-25 0 -36.5 -14zM103 -117.5q14 18.5 16 62.5q-11 2 -38 2q-59 0 -59 -45q0 -18 10.5 -28t29.5 -10q27 0 41 18.5z" />
    <glyph glyph-name="uni0287" unicode="&#x287;" horiz-adv-x="393" 
d="M393 0h-69v-113l-178 -21v134h-121l18 122h103v223q0 36 -11.5 51t-34.5 15q-28 0 -54 -15l-59 111q31 22 72 33t80 11q185 0 185 -204v-225h69v-122z" />
    <glyph glyph-name="uni0288" unicode="&#x288;" horiz-adv-x="393" 
d="M429 -181q-61 -43 -150 -43q-97 0 -153.5 51t-56.5 149v435h-69v122h69v113l178 21v-134h121l-18 -122h-103v-451q0 -28 14 -42.5t40 -14.5q20 0 34 4.5t35 14.5z" />
    <glyph glyph-name="uni0289" unicode="&#x289;" horiz-adv-x="619" 
d="M614 290h-72v-290h-155l-7 63q-56 -81 -159 -81q-74 0 -111.5 44.5t-37.5 123.5v140h-73v107h73v136h178v-136h114v136h178v-136h72v-107zM364 290h-114v-117q0 -34 10.5 -47.5t31.5 -13.5q19 0 37.5 13.5t34.5 39.5v125z" />
    <glyph glyph-name="uni028A" unicode="&#x28a;" horiz-adv-x="583" 
d="M149.5 14q-60.5 32 -92.5 86t-32 120t27.5 112.5t78.5 79.5h-91v121h216v-112q-49 -63 -49 -179q0 -136 85 -136t85 136q0 118 -50 179v112h216v-121h-90q50 -33 77.5 -79.5t27.5 -112.5t-31.5 -120t-91.5 -86t-143 -32q-82 0 -142.5 32z" />
    <glyph glyph-name="uni028B" unicode="&#x28b;" horiz-adv-x="564" 
d="M108.5 31.5q-61.5 49.5 -61.5 146.5v355h178v-347q0 -41 13 -58t40 -17q77 0 77 130v148q0 30 -26 30q-11 0 -19 -3l-25 121q39 14 90 14q75 0 116.5 -42.5t41.5 -126.5v-134q0 -136 -75 -201t-193 -65q-95 0 -156.5 49.5z" />
    <glyph glyph-name="uni028C" unicode="&#x28c;" horiz-adv-x="520" 
d="M-10 0l163 533h211l166 -533h-193l-80 402l-86 -402h-181z" />
    <glyph glyph-name="uni028D" unicode="&#x28d;" horiz-adv-x="758" 
d="M-1 0l108 533h208l64 -374l63 374h206l110 -533h-179l-44 398l-77 -398h-169l-64 398l-55 -398h-171z" />
    <glyph glyph-name="uni028E" unicode="&#x28e;" horiz-adv-x="526" 
d="M156 532q34 110 111 166.5t205 61.5l15 -118q-79 -8 -116 -32.5t-57 -76.5h66l156 -533h-189l-80 422l-94 -422h-183z" />
    <glyph glyph-name="uni028F" unicode="&#x28f;" horiz-adv-x="510" 
d="M526 533l-182 -342v-191h-178v190l-182 343h189l85 -231l84 231h184z" />
    <glyph glyph-name="uni0290" unicode="&#x290;" horiz-adv-x="465" 
d="M634 -181q-61 -43 -149 -43q-94 0 -148.5 51t-54.5 149v24h-273v125l232 276h-212v132h416v-125l-229 -275h236v-173q0 -28 14 -42.5t40 -14.5q20 0 34 5t35 16z" />
    <glyph glyph-name="uni0291" unicode="&#x291;" horiz-adv-x="571" 
d="M550.5 248q36.5 -33 36.5 -91q0 -76 -53.5 -117t-164.5 -40q-6 -35 -6 -130h-98q0 74 6 130h-262v125l232 276h-212v132h416v-117l-237 -283h82q22 79 64 113.5t103 34.5q57 0 93.5 -33zM452.5 141q16.5 8 16.5 26q0 12 -6.5 18.5t-19.5 6.5q-41 0 -55 -59h15
q33 0 49.5 8zM371 11l3 11l-2 -5z" />
    <glyph glyph-name="uni0292" unicode="&#x292;" horiz-adv-x="518" 
d="M450.5 155q54.5 -51 54.5 -145q0 -67 -33 -120t-96 -83.5t-149 -30.5q-157 0 -243 106l93 90q36 -33 67.5 -47.5t70.5 -14.5q49 0 78 28t29 84q0 50 -29 71t-87 21h-97v100l160 188h-243v131h444v-121l-175 -198q101 -8 155.5 -59z" />
    <glyph glyph-name="uni0293" unicode="&#x293;" horiz-adv-x="518" 
d="M461.5 -122q-43.5 -58 -127.5 -84l26 -55l-85 -33l-32 72q-30 -2 -46 -2q-102 0 -161 42t-59 119q0 60 37 93.5t94 33.5q54 0 89 -28.5t67 -98.5l6 -13q52 25 52 101q0 53 -29 75.5t-87 22.5h-97v99l163 180h-246v131h444v-121l-175 -190q101 -9 155.5 -60t54.5 -148
q0 -78 -43.5 -136zM115.5 -82.5q19.5 -7.5 70.5 -7.5q-16 35 -29.5 49.5t-31.5 14.5q-14 0 -21.5 -7.5t-7.5 -21.5q0 -20 19.5 -27.5z" />
    <glyph glyph-name="uni0294" unicode="&#x294;" horiz-adv-x="489" 
d="M130 355l37 12q63 19 93 54.5t30 96.5q0 55 -27 84.5t-73 29.5q-33 0 -62 -12.5t-60 -40.5l-86 88q49 47 107 70.5t129 23.5q75 0 132.5 -29.5t89.5 -84t32 -126.5q0 -85 -36.5 -132.5t-107.5 -77.5l-20 -9v-302h-178v355z" />
    <glyph glyph-name="uni0295" unicode="&#x295;" horiz-adv-x="489" 
d="M181 0v302l-20 9q-71 29 -107.5 77t-36.5 133q0 73 33 127t92 83.5t134 29.5q71 0 126.5 -23t104.5 -71l-86 -88q-30 27 -58 40t-62 13q-46 0 -74 -30.5t-28 -86.5q0 -59 30.5 -94t92.5 -54l37 -12v-355h-178z" />
    <glyph glyph-name="uni0296" unicode="&#x296;" horiz-adv-x="512" 
d="M313 761v-320l34 -8q141 -45 141 -208q0 -74 -32 -129t-90 -84.5t-133 -29.5q-138 0 -235 94l86 88q31 -28 59.5 -40.5t62.5 -12.5q46 0 72.5 29.5t26.5 84.5q0 63 -28.5 99.5t-90.5 52.5l-51 11v355z" />
    <glyph glyph-name="uni0297" unicode="&#x297;" horiz-adv-x="486" 
d="M489 483l-72 -100q-48 33 -92 33q-54 0 -80.5 -59.5t-26.5 -196.5q0 -134 25.5 -189.5t74.5 -55.5q25 0 45.5 8t47.5 26l78 -108q-80 -65 -176 -65q-136 0 -208.5 100.5t-72.5 283.5q0 121 33.5 209t97.5 135t152 47q101 0 174 -68z" />
    <glyph glyph-name="uni0298" unicode="&#x298;" horiz-adv-x="799" 
d="M595.5 668q84.5 -45 131 -127.5t46.5 -192.5q0 -106 -47 -189t-131.5 -130t-194.5 -47q-111 0 -195.5 45t-131 128t-46.5 193q0 106 47 189t131.5 129.5t194.5 46.5q111 0 195.5 -45zM253 532.5q-52 -59.5 -52 -184.5t52 -185t147 -60q199 0 199 245q0 123 -53.5 183.5
t-145.5 60.5q-95 0 -147 -59.5zM463 405.5q24 -23.5 24 -58.5t-24 -58.5t-61 -23.5q-38 0 -62 23.5t-24 58.5t24 58.5t62 23.5q37 0 61 -23.5z" />
    <glyph glyph-name="uni0299" unicode="&#x299;" horiz-adv-x="554" 
d="M530 161q0 -81 -65.5 -121t-177.5 -40h-235v527q131 24 221 24q111 0 172.5 -36.5t61.5 -107.5q0 -45 -28.5 -74.5t-85.5 -39.5q137 -16 137 -132zM230 439v-113h43q28 0 43.5 14.5t15.5 43.5q0 57 -63 57q-23 0 -39 -2zM348 178q0 61 -67 61h-51v-126h51q67 0 67 65z
" />
    <glyph glyph-name="uni029A" unicode="&#x29a;" horiz-adv-x="575" 
d="M93 26q-68 44 -68 127q0 57 36 88.5t109 42.5q-120 29 -120 118q0 68 63 108.5t165 40.5q128 0 200 -76.5t72 -207.5q0 -137 -70.5 -211t-202.5 -74q-116 0 -184 44zM336 122q21 16 29.5 50.5t8.5 94.5q0 87 -22 125t-70 38q-27 0 -41.5 -12.5t-14.5 -36.5
q0 -26 16.5 -39.5t49.5 -13.5h10l10 -111h-33q-38 0 -56.5 -12t-18.5 -40q0 -59 73 -59q38 0 59 16z" />
    <glyph glyph-name="uni029B" unicode="&#x29b;" 
d="M683 724l-48 -110q-34 18 -66 18q-24 0 -35.5 -14t-11.5 -44v-98l-75 -81q-35 17 -62 24.5t-64 7.5q-56 0 -84.5 -41t-28.5 -118q0 -90 22.5 -125.5t67.5 -35.5q35 0 65 12v83h-61l-16 114h242v-266q-44 -31 -103 -49t-127 -18q-273 0 -273 286q0 85 35.5 149t96 98.5
t132.5 34.5q45 0 79 -12v48q0 84 43.5 129t131.5 45q81 0 140 -37z" />
    <glyph glyph-name="uni029C" unicode="&#x29c;" horiz-adv-x="584" 
d="M354 0v205h-124v-205h-178v533h178v-199h124v199h178v-533h-178z" />
    <glyph glyph-name="uni029D" unicode="&#x29d;" horiz-adv-x="351" 
d="M363 -113q-27 12 -80 30q-21 -72 -72 -106.5t-135 -34.5q-74 0 -114 31.5t-40 88.5q0 63 43 97.5t117 34.5q26 0 38 -1v506h178v-489q0 -18 -2 -46q55 -18 98 -40zM103 -117q14 19 16 62q-10 2 -38 2q-59 0 -59 -45q0 -18 10.5 -28t29.5 -10q27 0 41 19zM282.5 792
q28.5 -28 28.5 -70t-28.5 -70t-73.5 -28t-73.5 28t-28.5 70t28.5 70t73.5 28t73.5 -28z" />
    <glyph glyph-name="uni029E" unicode="&#x29e;" horiz-adv-x="564" 
d="M-2 0l151 234l-161 299h198l144 -292l-153 -241h-179zM334 -206v739h178v-757z" />
    <glyph glyph-name="uni029F" unicode="&#x29f;" horiz-adv-x="455" 
d="M230 533v-398h218l-19 -135h-377v533h178z" />
    <glyph glyph-name="uni02A0" unicode="&#x2a0;" horiz-adv-x="600" 
d="M711 724l-49 -110q-35 18 -66 18q-25 0 -36.5 -14t-11.5 -44v-798l-178 18v251q-51 -63 -138 -63q-100 0 -151 76t-51 210q0 82 26.5 146.5t75.5 100.5t113 36q80 0 125 -55v74q0 85 51.5 138t148.5 53q80 0 141 -37zM370 163v223q-17 19 -33 28t-37 9q-40 0 -63.5 -37.5
t-23.5 -118.5q0 -91 20 -124t59 -33q46 0 78 53z" />
    <glyph glyph-name="uni02A1" unicode="&#x2a1;" horiz-adv-x="489" 
d="M308 302v-78h93v-99h-93v-125h-178v125h-67v99h67v131l37 12q63 19 93 54.5t30 96.5q0 55 -27 84.5t-73 29.5q-33 0 -62 -12.5t-60 -40.5l-86 88q49 47 107 70.5t129 23.5q75 0 132.5 -29.5t89.5 -84t32 -126.5q0 -85 -36.5 -132.5t-107.5 -77.5z" />
    <glyph glyph-name="uni02A2" unicode="&#x2a2;" horiz-adv-x="489" 
d="M359 224h67v-99h-67v-125h-178v125h-93v99h93v78l-20 9q-71 29 -107.5 77t-36.5 133q0 73 33 127t92 83.5t134 29.5q71 0 126.5 -23t104.5 -71l-86 -88q-30 27 -58 40t-62 13q-46 0 -74 -30.5t-28 -86.5q0 -59 30.5 -94t92.5 -54l37 -12v-131z" />
    <glyph glyph-name="uni02A3" unicode="&#x2a3;" horiz-adv-x="1002" 
d="M988 133l-16 -133h-582l-7 59q-24 -34 -61.5 -55.5t-89.5 -21.5q-100 0 -151 76t-51 210q0 82 27.5 146.5t77.5 100.5t115 36q72 0 120 -46v256l178 -18v-210h434v-125l-239 -275h245zM370 163v223q-17 19 -33 28t-37 9q-40 0 -63.5 -37.5t-23.5 -118.5q0 -90 20 -123.5
t57 -33.5q48 0 80 53zM548 401v-277l238 277h-238z" />
    <glyph glyph-name="uni02A4" unicode="&#x2a4;" horiz-adv-x="1040" 
d="M971.5 155q54.5 -51 54.5 -145q0 -67 -33 -120t-96 -83.5t-149 -30.5q-157 0 -243 106l93 90q36 -33 67.5 -47.5t70.5 -14.5q49 0 78 28t29 84q0 50 -29 71t-87 21h-97v100l160 188h-242v-402h-158l-7 59q-24 -34 -61.5 -55.5t-89.5 -21.5q-100 0 -151 76t-51 210
q0 82 27.5 146.5t77.5 100.5t115 36q72 0 120 -46v256l178 -18v-210h443v-121l-175 -198q101 -8 155.5 -59zM370 163v223q-17 19 -33 28t-37 9q-40 0 -63.5 -37.5t-23.5 -118.5q0 -90 20 -123.5t57 -33.5q48 0 80 53z" />
    <glyph glyph-name="uni02A5" unicode="&#x2a5;" horiz-adv-x="1107" 
d="M1086.5 247.5q36.5 -33.5 36.5 -91.5q0 -76 -54 -116.5t-164 -39.5q-5 -33 -5 -94v-36h-98q0 84 5 130h-417l-7 59q-24 -34 -61.5 -55.5t-89.5 -21.5q-100 0 -151 76t-51 210q0 82 27.5 146.5t77.5 100.5t115 36q72 0 120 -46v256l178 -18v-210h434v-117l-246 -283h90
q22 79 64 113.5t103 34.5q57 0 93.5 -33.5zM370 163v223q-17 19 -33 28t-37 9q-40 0 -63.5 -37.5t-23.5 -118.5q0 -90 20 -123.5t57 -33.5q48 0 80 53zM548 401v-273l237 273h-237zM989 141q16 8 16 26q0 12 -6.5 18.5t-19.5 6.5q-41 0 -55 -59h16q33 0 49 8zM907 10l3 12
l-2 -6z" />
    <glyph glyph-name="uni02A6" unicode="&#x2a6;" horiz-adv-x="761" 
d="M711.5 268.5q34.5 -38.5 34.5 -99.5q0 -92 -84 -139.5t-245 -47.5q-183 0 -265.5 62.5t-82.5 193.5v173h-69v122h69v113l178 21v-134h93l-18 -122h-75v-171q0 -73 40.5 -103.5t130.5 -30.5q79 0 112 11.5t33 37.5q0 21 -15 34.5t-65 28.5q-76 25 -109 61.5t-33 101.5
q0 48 24.5 87t71 61t109.5 22q53 0 100 -16.5t83 -47.5l-58 -94q-58 33 -115 33q-26 0 -39 -9t-13 -25q0 -17 19 -29.5t79 -31.5q75 -24 109.5 -62.5z" />
    <glyph glyph-name="uni02A7" unicode="&#x2a7;" horiz-adv-x="597" 
d="M708 724l-49 -110q-34 18 -66 18q-25 0 -36.5 -14t-11.5 -44v-598q0 -98 -56.5 -149t-153.5 -51q-89 0 -150 43l59 103q21 -10 35 -14.5t34 -4.5q26 0 40 14.5t14 42.5v39q-49 -17 -100 -17q-99 0 -148.5 52t-49.5 154v223h-69v122h69v113l178 21v-134h120v37
q0 85 51.5 138t148.5 53q80 0 141 -37zM263 136.5q16 -14.5 50 -14.5q31 0 54 4v285h-120v-224q0 -36 16 -50.5z" />
    <glyph glyph-name="uni02A8" unicode="&#x2a8;" horiz-adv-x="835" 
d="M797.5 228.5q36.5 -32.5 36.5 -90.5q0 -77 -55 -116.5t-140 -39.5q-115 0 -190 61q-110 -61 -194 -61q-186 0 -186 204v225h-69v122h69v113l178 21v-134h121l-18 -122h-103v-223q0 -37 13 -51.5t43 -14.5q36 0 77 11q-26 57 -26 129q0 84 33 149.5t94 102.5t142 37
q57 0 103 -17t85 -51l-75 -105q-46 38 -97 38q-49 0 -74 -35.5t-25 -117.5q0 -36 4 -59q39 31 77.5 44t82.5 13q57 0 93.5 -32.5zM715 143q0 27 -28 27q-20 0 -42.5 -10t-57.5 -35q28 -19 75 -19q53 0 53 37z" />
    <glyph glyph-name="uni02A9" unicode="&#x2a9;" horiz-adv-x="885" 
d="M799 509q39 -42 39 -118v-415q0 -98 -56.5 -149t-153.5 -51q-89 0 -150 43l59 103q21 -10 35 -14.5t34 -4.5q26 0 40 14.5t14 42.5v399q0 35 -10 48.5t-30 13.5q-42 0 -80 -61v-360h-178v411h-108v-411h-178v411h-76v122h76v38q0 83 55.5 136.5t159.5 53.5q41 0 81 -9.5
t70 -25.5l-48 -114q-39 20 -80 20q-32 0 -46 -15.5t-14 -53.5v-30h263l13 -60q36 40 75 59t87 19q68 0 107 -42z" />
    <glyph glyph-name="uni02AA" unicode="&#x2aa;" horiz-adv-x="699" 
d="M116.5 43.5q-69.5 61.5 -69.5 175.5v524l178 18v-549q0 -57 32.5 -81.5t105.5 -24.5q81 0 117.5 11.5t36.5 37.5q0 14 -6.5 22.5t-26.5 18t-63 22.5q-76 25 -109 61.5t-33 101.5q0 48 24.5 87t71 61t109.5 22q107 0 183 -64l-59 -94q-58 33 -114 33q-27 0 -40 -9t-13 -25
t19.5 -28.5t79.5 -32.5q75 -24 109.5 -62.5t34.5 -99.5q0 -91 -82.5 -139t-238.5 -48q-177 0 -246.5 61.5z" />
    <glyph glyph-name="uni02AB" unicode="&#x2ab;" horiz-adv-x="730" 
d="M700 0h-394q-42 -18 -102 -18q-75 0 -116 42t-41 121v598l178 18v-610q0 -29 26 -29q11 0 23 4l231 275h-211v132h416v-125l-231 -275h237z" />
    <glyph glyph-name="uni02AC" unicode="&#x2ac;" horiz-adv-x="469" 
d="M439 668l-59 -268h-109l-32 194l-36 -194h-108l-64 268h81l41 -209l38 209h99l36 -210l37 210h76zM439 268l-59 -268h-109l-32 194l-36 -194h-108l-64 268h81l41 -209l38 209h99l36 -210l37 210h76z" />
    <glyph glyph-name="uni02AD" unicode="&#x2ad;" horiz-adv-x="372" 
d="M30 401v169h312v-169h-103v81h-105v-81h-104zM30 1v169h312v-169h-103v81h-105v-81h-104z" />
    <glyph glyph-name="uni02AE" unicode="&#x2ae;" horiz-adv-x="702" 
d="M650 533v-757l-178 18v258q-33 -36 -70 -53t-82 -17q-68 0 -106.5 42t-38.5 118v226q0 28 -14 42.5t-40 14.5q-20 0 -34 -4.5t-35 -14.5l-59 103q61 43 150 43q97 0 153.5 -51t56.5 -149v-179q0 -35 10 -48t30 -13q41 0 79 60v361h178z" />
    <glyph glyph-name="uni02AF" unicode="&#x2af;" horiz-adv-x="702" 
d="M832 -181q-61 -43 -150 -43q-97 0 -153.5 51t-56.5 149v76q-33 -36 -70 -53t-82 -17q-68 0 -106.5 42t-38.5 118v226q0 28 -14 42.5t-40 14.5q-20 0 -34 -4.5t-35 -14.5l-59 103q61 43 150 43q97 0 153.5 -51t56.5 -149v-179q0 -35 10 -48t30 -13q41 0 79 60v361h178
v-573q0 -28 14 -42.5t40 -14.5q20 0 34 4.5t35 14.5z" />
    <glyph glyph-name="uni02B0" unicode="&#x2b0;" horiz-adv-x="313" 
d="M260.5 652.5q22.5 -20.5 22.5 -59.5v-193h-85v175q0 20 -7.5 27.5t-21.5 7.5t-26 -6.5t-28 -19.5v-184h-85v372l85 9v-140q33 32 82 32q41 0 63.5 -20.5z" />
    <glyph glyph-name="uni02B1" unicode="&#x2b1;" horiz-adv-x="313" 
d="M260.5 652.5q22.5 -20.5 22.5 -59.5v-193h-85v175q0 20 -7.5 27.5t-21.5 7.5t-26 -6.5t-28 -19.5v-184h-85v293q0 38 28.5 62t79.5 24q19 0 41.5 -4.5t39.5 -11.5l-23 -55q-27 8 -50 8q-16 0 -23.5 -6.5t-7.5 -21.5v-47q33 32 82 32q41 0 63.5 -20.5z" />
    <glyph glyph-name="uni02B2" unicode="&#x2b2;" horiz-adv-x="214" 
d="M169.5 795.5q14.5 -14.5 14.5 -35.5t-14.5 -35.5t-38.5 -14.5q-23 0 -38.5 14.5t-15.5 35.5t15.5 35.5t38.5 14.5q24 0 38.5 -14.5zM173 427q0 -61 -29 -89.5t-91 -46.5l-23 55q33 15 45.5 30t12.5 49v240h85v-238z" />
    <glyph glyph-name="uni02B4" unicode="&#x2b4;" horiz-adv-x="250" 
d="M220 666v-266h-64l-16 56q-10 -30 -29.5 -46.5t-47.5 -16.5q-21 0 -33 5l13 77q11 -4 27 -4q26 0 40.5 19t24.5 57v119h85z" />
    <glyph glyph-name="uni02B7" unicode="&#x2b7;" horiz-adv-x="469" 
d="M439 668l-59 -268h-109l-32 194l-36 -194h-108l-64 268h81l41 -209l38 209h99l36 -210l37 210h76z" />
    <glyph glyph-name="uni02B8" unicode="&#x2b8;" horiz-adv-x="361" 
d="M225 395q-20 -52 -56.5 -79.5t-101.5 -33.5l-11 56q43 8 61.5 20.5t32.5 41.5h-23l-97 268h85l63 -215l70 215h83z" />
    <glyph glyph-name="uni02B9" unicode="&#x2b9;" horiz-adv-x="323" 
d="M44 410l79 285h157l-121 -285h-115z" />
    <glyph glyph-name="uni02BA" unicode="&#x2ba;" horiz-adv-x="530" 
d="M44 410l79 285h157l-121 -285h-115zM251 410l79 285h157l-121 -285h-115z" />
    <glyph glyph-name="uni02BB" unicode="&#x2bb;" horiz-adv-x="243" 
d="M55.5 610.5q-25.5 24.5 -25.5 61.5q0 21 7.5 44.5t25.5 60.5l62 128h87l-41 -159q40 -28 40 -75q0 -36 -26.5 -60.5t-64.5 -24.5q-39 0 -64.5 24.5z" />
    <glyph glyph-name="uni02BC" unicode="&#x2bc;" horiz-adv-x="247" 
d="M185.5 745.5q25.5 -24.5 25.5 -61.5q0 -21 -7.5 -44.5t-25.5 -60.5l-62 -128h-87l41 159q-40 28 -40 75q0 36 26.5 60.5t64.5 24.5q39 0 64.5 -24.5z" />
    <glyph glyph-name="uni02BF" unicode="&#x2bf;" horiz-adv-x="206" 
d="M176 690q-19 0 -30.5 12.5t-11.5 35.5q0 48 42 48v91q-66 0 -106 -40.5t-40 -98.5q0 -37 18 -69t51 -51t77 -19v91z" />
    <glyph glyph-name="uni02C0" unicode="&#x2c0;" horiz-adv-x="303" 
d="M86 704q38 2 54.5 10t16.5 27q0 14 -10.5 21.5t-27.5 7.5t-30.5 -3t-30.5 -10l-28 70q46 27 113 27q62 0 96 -29t34 -76q0 -39 -22 -63t-63 -32v-51h-102v101z" />
    <glyph glyph-name="circumflex" unicode="&#x2c6;" horiz-adv-x="454" 
d="M92 616l-62 71l143 144h107l144 -144l-62 -71l-135 94z" />
    <glyph glyph-name="caron" unicode="&#x2c7;" horiz-adv-x="454" 
d="M362 822l62 -71l-143 -144h-108l-143 144l62 71l135 -94z" />
    <glyph glyph-name="uni02C8" unicode="&#x2c8;" horiz-adv-x="214" 
d="M30 618v271h154v-271h-154z" />
    <glyph glyph-name="uni02CA" unicode="&#x2ca;" horiz-adv-x="352" 
d="M254 846l68 -132l-244 -96l-48 89z" />
    </font>
</defs>
</svg>
