<?xml version="1.0" standalone="no"?>
<!DOCTYPE svg PUBLIC "-//W3C//DTD SVG 1.1//EN" "http://www.w3.org/Graphics/SVG/1.1/DTD/svg11.dtd" >
<svg xmlns="http://www.w3.org/2000/svg" xmlns:xlink="http://www.w3.org/1999/xlink" version="1.1">
<metadata>
Created by FontForge 20170731 at Fri Dec  2 11:32:35 2016
 By Aleksey,,,
Digitized data copyright 2012-2016, The Mozilla Foundation and Telefonica S.A.
</metadata>
<defs>
<font id="FiraSans-ExtraBoldItalic" horiz-adv-x="560" >
  <font-face 
    font-family="Fira Sans ExtraBold"
    font-weight="800"
    font-style="italic"
    font-stretch="normal"
    units-per-em="1000"
    panose-1="2 11 9 3 5 0 0 2 0 4"
    ascent="800"
    descent="-200"
    x-height="533"
    cap-height="695"
    bbox="-787 -355 1416 1219"
    underline-thickness="50"
    underline-position="-150"
    slope="-8"
    unicode-range="U+000D-FEFF"
  />
<missing-glyph horiz-adv-x="655" 
d="M644 1050l-197 -1400h-413l197 1400h413zM585 998h-306l-183 -1296h306zM416.5 426q23.5 -25 23.5 -66q0 -9 -2 -27q-7 -52 -32.5 -80t-75.5 -35l-8 -46q-1 -11 -8.5 -17t-16.5 -6q-11 0 -18 7t-6 18l11 83q53 3 74.5 20.5t26.5 59.5q2 14 2 21q0 45 -50 45
q-28 0 -53 -12q-6 -2 -12 -2q-12 0 -18.5 7.5t-4.5 18.5q2 17 31.5 26.5t61.5 9.5q51 0 74.5 -25zM313 109.5q9 -10.5 7 -27.5q-2 -14 -13 -24t-25 -10q-15 0 -24 11.5t-6 28.5q1 13 11.5 22.5t24.5 9.5q16 0 25 -10.5z" />
    <glyph glyph-name="fi" unicode="fi" horiz-adv-x="588" 
d="M500 0h-175l57 410h-113l-49 -343q-12 -86 -48 -142.5t-88.5 -90t-126.5 -58.5l-43 127q61 22 91.5 56t39.5 100l48 351h-74l16 123h75l6 40q11 83 75.5 135.5t168.5 52.5q54 0 97.5 -10t86.5 -33l-60 -112q-59 26 -107 26q-41 0 -61.5 -16.5t-25.5 -53.5l-4 -29h288z
" />
    <glyph glyph-name="fl" unicode="fl" horiz-adv-x="616" 
d="M575 126l18 -124q-22 -10 -51 -15.5t-57 -5.5q-63 0 -97.5 33t-34.5 96q0 17 3 36l68 486q-28 6 -55 6q-39 0 -56 -18t-23 -58l-4 -29h90l-37 -123h-70l-49 -343q-12 -86 -48 -142.5t-88.5 -90t-126.5 -58.5l-43 127q61 22 91.5 56t39.5 100l48 351h-74l16 123h75l6 40
q11 83 71.5 135.5t160.5 52.5q68 0 121 -17l147 15l-84 -601q-1 -5 -1 -12q0 -24 21 -24q7 0 23 4z" />
    <glyph glyph-name=".notdef" horiz-adv-x="655" 
d="M644 1050l-197 -1400h-413l197 1400h413zM585 998h-306l-183 -1296h306zM416.5 426q23.5 -25 23.5 -66q0 -9 -2 -27q-7 -52 -32.5 -80t-75.5 -35l-8 -46q-1 -11 -8.5 -17t-16.5 -6q-11 0 -18 7t-6 18l11 83q53 3 74.5 20.5t26.5 59.5q2 14 2 21q0 45 -50 45
q-28 0 -53 -12q-6 -2 -12 -2q-12 0 -18.5 7.5t-4.5 18.5q2 17 31.5 26.5t61.5 9.5q51 0 74.5 -25zM313 109.5q9 -10.5 7 -27.5q-2 -14 -13 -24t-25 -10q-15 0 -24 11.5t-6 28.5q1 13 11.5 22.5t24.5 9.5q16 0 25 -10.5z" />
    <glyph glyph-name=".null" horiz-adv-x="0" 
 />
    <glyph glyph-name="nonmarkingreturn" unicode="&#xd;" horiz-adv-x="217" 
 />
    <glyph glyph-name="space" unicode=" " horiz-adv-x="217" 
 />
    <glyph glyph-name="exclam" unicode="!" horiz-adv-x="229" 
d="M44 263l38 432h185l-84 -432h-139zM22 6q-24 25 -24 63q0 43 31 74.5t76 31.5q37 0 60.5 -24t23.5 -62q0 -44 -31 -76t-75 -32q-37 0 -61 25z" />
    <glyph glyph-name="quotedbl" unicode="&#x22;" horiz-adv-x="441" 
d="M80 410l20 285h154l-60 -285h-114zM288 410l20 285h154l-60 -285h-114z" />
    <glyph glyph-name="numbersign" unicode="#" horiz-adv-x="558" 
d="M568 438h-67l-50 -186h54l-16 -115h-69l-37 -137h-145l37 137h-81l-37 -137h-145l37 137h-53l16 115h68l50 186h-55l16 116h70l33 124h145l-33 -124h81l33 124h146l-33 -124h51zM306 252l50 186h-81l-50 -186h81z" />
    <glyph glyph-name="dollar" unicode="$" horiz-adv-x="544" 
d="M476.5 340q41.5 -48 41.5 -118q0 -51 -22.5 -98t-71.5 -81.5t-124 -46.5l-22 -159h-123l22 156q-64 7 -114.5 33.5t-82.5 64.5l100 94q32 -32 71.5 -49t80.5 -17q47 0 75 22t28 56q0 30 -20 48t-72 38q-91 33 -131.5 79.5t-40.5 110.5q0 79 55 138t156 73l20 148h123
l-22 -149q95 -17 163 -85l-89 -90q-68 53 -133 53q-43 0 -66.5 -16.5t-23.5 -45.5q0 -26 20.5 -42.5t79.5 -39.5q81 -29 122.5 -77z" />
    <glyph glyph-name="percent" unicode="%" horiz-adv-x="858" 
d="M668 722l-551 -697l96 -67l553 697zM103.5 369.5q-44.5 42.5 -44.5 112.5q0 50 22.5 98.5t69 80.5t112.5 32q70 0 114 -42.5t44 -112.5q0 -50 -22.5 -98.5t-68.5 -80.5t-113 -32q-69 0 -113.5 42.5zM283 463q17 31 17 72q0 53 -47 53q-42 0 -58 -32.5t-16 -69.5
q0 -54 48 -54q39 0 56 31zM501.5 23.5q-44.5 42.5 -44.5 113.5q0 50 23 98.5t69.5 80t112.5 31.5q70 0 114 -42t44 -112q0 -50 -22.5 -99t-68.5 -81t-113 -32q-70 0 -114.5 42.5zM682 117.5q17 31.5 17 71.5q0 54 -47 54q-42 0 -58 -32.5t-16 -70.5q0 -54 48 -54
q39 0 56 31.5z" />
    <glyph glyph-name="ampersand" unicode="&#x26;" horiz-adv-x="765" 
d="M475.5 693q47.5 -20 72.5 -55.5t25 -79.5q0 -54 -35.5 -99.5t-119.5 -99.5l103 -114q32 51 61 123l138 -45q-48 -93 -114 -171l97 -102l-149 -69l-62 70q-51 -36 -105 -53t-116 -17q-69 0 -120.5 23t-79 64t-27.5 92q0 68 36 117.5t121 98.5q-39 46 -55.5 79.5
t-16.5 74.5q0 44 23 85.5t75.5 69.5t134.5 28q66 0 113.5 -20zM311.5 583q-17.5 -18 -17.5 -49q0 -21 9 -39t30 -42q42 28 59 51.5t17 50.5q0 22 -14 34t-37 12q-29 0 -46.5 -18zM243.5 228q-12.5 -24 -12.5 -55q0 -32 19.5 -49.5t57.5 -17.5q53 0 105 30l-125 141
q-32 -25 -44.5 -49z" />
    <glyph glyph-name="quotesingle" unicode="'" horiz-adv-x="233" 
d="M80 410l20 285h154l-60 -285h-114z" />
    <glyph glyph-name="parenleft" unicode="(" horiz-adv-x="314" 
d="M387 785q-201 -240 -201 -566q0 -90 18.5 -164.5t58.5 -146.5l-121 -70q-42 72 -68.5 127.5t-43.5 123.5t-17 149q0 128 31 232t88 195t149 199z" />
    <glyph glyph-name="parenright" unicode=")" horiz-adv-x="314" 
d="M263.5 734.5q26.5 -55.5 43.5 -124.5t17 -151q0 -126 -31 -230.5t-89 -196t-149 -196.5l-105 79q201 241 201 564q0 92 -18.5 166.5t-59.5 146.5l122 70q42 -72 68.5 -127.5z" />
    <glyph glyph-name="asterisk" unicode="*" horiz-adv-x="441" 
d="M476 528l-140 -21l86 -97l-131 -89l-45 124l-78 -125l-107 89l111 98l-134 20l63 138l115 -62l-6 140h156l-44 -139l127 64z" />
    <glyph glyph-name="plus" unicode="+" horiz-adv-x="528" 
d="M376 558l-22 -158h151l-19 -136h-151l-22 -158h-143l23 158h-151l19 136h151l21 158h143z" />
    <glyph glyph-name="comma" unicode="," horiz-adv-x="240" 
d="M166 151.5q24 -23.5 24 -60.5q0 -25 -10.5 -49t-41.5 -81l-82 -142h-95l70 181q-32 23 -32 66q0 45 31 77t75 32q37 0 61 -23.5z" />
    <glyph glyph-name="hyphen" unicode="-" horiz-adv-x="399" 
d="M35 245l18 136h324l-18 -136h-324z" />
    <glyph glyph-name="period" unicode="." horiz-adv-x="240" 
d="M22 6q-24 25 -24 63q0 43 31 74.5t76 31.5q37 0 60.5 -24t23.5 -62q0 -44 -31 -76t-75 -32q-37 0 -61 25z" />
    <glyph glyph-name="slash" unicode="/" horiz-adv-x="509" 
d="M370 820l150 -37l-357 -898l-150 37z" />
    <glyph glyph-name="zero" unicode="0" horiz-adv-x="583" 
d="M164 623q-70 -70 -100 -172.5t-30 -206.5q0 -126 57 -194.5t164 -68.5q113 0 183.5 71t100.5 174.5t30 206.5q0 126 -57 193t-164 67q-114 0 -184 -70zM381 542.5q14 -20.5 14 -72.5q0 -76 -13.5 -159t-42.5 -141t-73 -58q-29 0 -43 22t-14 74q0 77 13 159t42 139t74 57
q29 0 43 -20.5z" />
    <glyph glyph-name="one" unicode="1" horiz-adv-x="462" 
d="M449 678l-95 -678h-171l71 498l-153 -87l-59 126l250 141h157z" />
    <glyph glyph-name="two" unicode="2" horiz-adv-x="513" 
d="M408.5 669q49.5 -24 74.5 -65t25 -92t-21 -99t-87 -116.5t-195 -162.5l265 1l-37 -135h-445l16 126q146 126 211.5 189.5t88 100.5t22.5 77q0 30 -18.5 47.5t-50.5 17.5q-33 0 -61.5 -16t-64.5 -52l-94 89q53 56 114.5 85t137.5 29q70 0 119.5 -24z" />
    <glyph glyph-name="three" unicode="3" horiz-adv-x="515" 
d="M449.5 647.5q54.5 -45.5 54.5 -116.5q0 -57 -36.5 -104t-118.5 -70q58 -6 95 -41t37 -98q0 -54 -30.5 -108.5t-96 -91.5t-165.5 -37q-77 0 -133 28.5t-91 79.5l107 87q25 -31 54 -45.5t67 -14.5q48 0 79 29.5t31 81.5q0 35 -22 51t-67 16h-59l36 120h38q54 0 78 27t24 63
q0 29 -18.5 44t-51.5 15q-70 0 -137 -59l-76 99q56 45 116 67.5t131 22.5q100 0 154.5 -45.5z" />
    <glyph glyph-name="four" unicode="4" horiz-adv-x="564" 
d="M548 272l-19 -132h-71l-20 -140h-171l19 140h-281l16 117l242 440l146 -55l-197 -370h93l42 154h151l-22 -154h72z" />
    <glyph glyph-name="five" unicode="5" horiz-adv-x="536" 
d="M496 552h-235l-18 -125q45 22 99 22q74 0 119 -49t45 -139q0 -63 -31.5 -127.5t-100 -108.5t-172.5 -44q-140 0 -220 106l106 90q48 -63 119 -63q55 0 87.5 38t32.5 99q0 78 -70 78q-21 0 -40 -5t-42 -19h-118l52 373h424z" />
    <glyph glyph-name="six" unicode="6" horiz-adv-x="564" 
d="M498 411q45 -49 45 -136q0 -63 -28.5 -131t-91.5 -115.5t-159 -47.5q-117 0 -175 65.5t-58 181.5q0 122 44 228.5t126 171.5t190 65q93 0 151 -48l-77 -101q-35 24 -81 24q-52 0 -91 -41t-58 -119q66 52 141 52q77 0 122 -49zM344.5 158.5q22.5 51.5 22.5 111.5
q0 37 -13.5 53t-39.5 16q-47 0 -95 -43q-8 -64 -8 -97q0 -49 14 -70.5t46 -21.5q51 0 73.5 51.5z" />
    <glyph glyph-name="seven" unicode="7" horiz-adv-x="464" 
d="M509 678l-16 -119l-321 -577l-154 54l289 509h-261l19 133h444z" />
    <glyph glyph-name="eight" unicode="8" horiz-adv-x="579" 
d="M546 204q0 -61 -35.5 -112t-102.5 -81t-158 -30q-76 0 -130 24.5t-82 66.5t-28 95q0 55 36 103.5t113 78.5q-77 53 -77 137q0 51 28.5 98.5t87.5 78t146 30.5q101 0 162 -43.5t61 -117.5q0 -105 -129 -170q108 -60 108 -158zM270.5 550q-19.5 -25 -19.5 -57
q0 -25 13.5 -43t42.5 -32l20 -8q42 27 56 54t14 55q0 26 -16 41t-46 15q-45 0 -64.5 -25zM343.5 135.5q27.5 28.5 27.5 70.5q0 27 -17 44.5t-59 35.5l-33 12q-41 -22 -58 -54t-17 -65t21.5 -52.5t58.5 -19.5q49 0 76.5 28.5z" />
    <glyph glyph-name="nine" unicode="9" 
d="M501.5 633.5q61.5 -59.5 61.5 -158.5q0 -177 -110.5 -318.5t-388.5 -186.5l-22 124q132 30 201.5 72.5t105.5 121.5q-30 -28 -63.5 -42t-75.5 -14q-47 0 -84.5 22.5t-59 64t-21.5 98.5q0 65 30.5 128.5t94 105.5t158.5 42q112 0 173.5 -59.5zM278 354q25 0 50.5 14
t47.5 41q8 50 8 78q0 44 -15.5 62.5t-49.5 18.5q-52 0 -75 -43.5t-23 -97.5q0 -73 57 -73z" />
    <glyph glyph-name="colon" unicode=":" horiz-adv-x="240" 
d="M22 6q-24 25 -24 63q0 43 31 74.5t76 31.5q37 0 60.5 -24t23.5 -62q0 -44 -31 -76t-75 -32q-37 0 -61 25zM69 345q-24 25 -24 63q0 43 31 74.5t76 31.5q37 0 60.5 -24t23.5 -62q0 -44 -31 -76t-75 -32q-37 0 -61 25z" />
    <glyph glyph-name="semicolon" unicode=";" horiz-adv-x="242" 
d="M168 151.5q24 -23.5 24 -60.5q0 -25 -10.5 -49t-41.5 -81l-82 -142h-95l70 181q-32 23 -32 66q0 45 31 77t75 32q37 0 61 -23.5zM71 345q-24 25 -24 63q0 43 31 74.5t76 31.5q37 0 60.5 -24t23.5 -62q0 -44 -31 -76t-75 -32q-37 0 -61 25z" />
    <glyph glyph-name="less" unicode="&#x3c;" horiz-adv-x="516" 
d="M475 584l44 -131l-331 -120l290 -123l-72 -128l-378 174l21 153z" />
    <glyph glyph-name="equal" unicode="=" horiz-adv-x="514" 
d="M57 371l19 136h429l-19 -136h-429zM27 156l19 136h429l-19 -136h-429z" />
    <glyph glyph-name="greater" unicode="&#x3e;" horiz-adv-x="514" 
d="M127 584l378 -175l-22 -153l-426 -174l-41 137l329 117l-289 126z" />
    <glyph glyph-name="question" unicode="?" horiz-adv-x="477" 
d="M456.5 668.5q52.5 -44.5 52.5 -112.5q0 -51 -19.5 -85t-46.5 -54t-70 -43q-45 -24 -67 -43.5t-22 -50.5q0 -8 2 -20l-154 -23q-7 22 -7 48q0 47 17.5 78.5t41.5 50t63 39.5q39 22 57.5 39t18.5 43q0 19 -13 29t-37 10q-56 0 -120 -59l-97 90q105 108 250 108
q98 0 150.5 -44.5zM132 6q-24 25 -24 63q0 43 31 74.5t76 31.5q37 0 60.5 -24t23.5 -62q0 -44 -31 -76t-75 -32q-37 0 -61 25z" />
    <glyph glyph-name="at" unicode="@" horiz-adv-x="1009" 
d="M788.5 665q91.5 -48 139.5 -130.5t48 -185.5q0 -81 -28.5 -161t-85.5 -133t-138 -53q-55 0 -91.5 29t-43.5 70q-55 -94 -151 -94q-76 0 -117.5 47.5t-41.5 125.5q0 73 26.5 148t88 126.5t159.5 51.5q42 0 88 -13t83 -35l-39 -296q-1 -6 -1 -17q0 -36 32 -36q33 0 57 37.5
t36.5 93.5t12.5 111q0 115 -66 175t-198 60t-214 -62t-117 -154t-35 -188q0 -127 75.5 -202t216.5 -75q42 0 94 10t93 25l26 -122q-49 -19 -111.5 -30.5t-115.5 -11.5q-133 0 -231.5 51.5t-151.5 144t-53 211.5q0 120 58.5 242.5t180 205t299.5 82.5q125 0 216.5 -48z
M534 157l34 232q-15 7 -34 7q-53 0 -76.5 -68.5t-23.5 -151.5q0 -60 40 -60q34 0 60 41z" />
    <glyph glyph-name="A" unicode="A" horiz-adv-x="585" 
d="M374 0l-11 142h-181l-49 -142h-190l299 695h220l104 -695h-192zM227 274h127l-23 301z" />
    <glyph glyph-name="B" unicode="B" horiz-adv-x="609" 
d="M544.5 322q37.5 -33 37.5 -101q0 -100 -78.5 -160.5t-256.5 -60.5h-231l97 695h207q134 0 205.5 -37.5t71.5 -122.5q0 -70 -43 -111t-109 -57q62 -12 99.5 -45zM385 447q24 26 24 66q0 28 -21 40.5t-66 12.5h-46l-20 -145h47q58 0 82 26zM367 159q28 27 28 77
q0 66 -94 66h-61l-24 -170h48q75 0 103 27z" />
    <glyph glyph-name="C" unicode="C" horiz-adv-x="568" 
d="M607 627l-97 -94q-26 22 -53 33.5t-60 11.5q-63 0 -102.5 -50t-57 -120.5t-17.5 -136.5q0 -75 29 -111.5t83 -36.5q36 0 67.5 15t69.5 43l69 -107q-45 -41 -105 -67t-131 -26q-81 0 -142 33.5t-94.5 98.5t-33.5 157q0 106 37.5 207.5t119 168.5t206.5 67q135 0 212 -86z
" />
    <glyph glyph-name="D" unicode="D" horiz-adv-x="643" 
d="M547 637q87 -58 87 -206q0 -191 -93.5 -311t-305.5 -120h-219l97 695h203q144 0 231 -58zM277 562l-60 -430h45q102 0 143.5 89.5t41.5 208.5q0 75 -30.5 103.5t-91.5 28.5h-48z" />
    <glyph glyph-name="E" unicode="E" horiz-adv-x="514" 
d="M548 695l-38 -131h-233l-21 -147h204l-17 -128h-204l-22 -158h249l-18 -131h-432l97 695h435z" />
    <glyph glyph-name="F" unicode="F" horiz-adv-x="477" 
d="M534 695l-37 -131h-220l-23 -167h193l-18 -131h-193l-38 -266h-182l97 695h421z" />
    <glyph glyph-name="G" unicode="G" horiz-adv-x="637" 
d="M550 688.5q56 -24.5 95 -66.5l-100 -90q-32 26 -60.5 37.5t-66.5 11.5q-74 0 -119 -51t-63 -127.5t-18 -158.5q0 -70 24.5 -99.5t75.5 -29.5q42 0 86 19l20 142h-79l2 128h271l-48 -347q-58 -36 -127 -56t-134 -20q-140 0 -209 70.5t-69 207.5q0 114 40.5 217.5t128 170
t221.5 66.5q73 0 129 -24.5z" />
    <glyph glyph-name="H" unicode="H" horiz-adv-x="650" 
d="M198 0h-182l97 695h182l-37 -263h179l37 263h182l-97 -695h-182l39 289h-177z" />
    <glyph glyph-name="I" unicode="I" horiz-adv-x="290" 
d="M295 695l-97 -695h-182l97 695h182z" />
    <glyph glyph-name="J" unicode="J" horiz-adv-x="314" 
d="M241 107q-13 -87 -52.5 -143.5t-93.5 -88.5t-126 -55l-33 132q45 16 70 38.5t36 51.5t17 74l81 579h182z" />
    <glyph glyph-name="K" unicode="K" horiz-adv-x="635" 
d="M16 0l97 695h183l-97 -695h-183zM408 0l-152 370l246 325h192l-251 -320l172 -375h-207z" />
    <glyph glyph-name="L" unicode="L" horiz-adv-x="510" 
d="M295 695l-76 -551h261l-39 -144h-425l97 695h182z" />
    <glyph glyph-name="M" unicode="M" horiz-adv-x="776" 
d="M715 0h-179l27 260q14 141 43 299l-159 -488h-175l-34 486q-3 -90 -10 -158t-20 -142l-43 -257h-179l147 695h221l25 -476l149 476h233z" />
    <glyph glyph-name="N" unicode="N" horiz-adv-x="647" 
d="M556 0h-230l-106 542q3 -51 3 -107q0 -106 -15 -210l-32 -225h-160l97 695h227l109 -542q-4 55 -4 117q0 88 13 183l35 242h160z" />
    <glyph glyph-name="O" unicode="O" horiz-adv-x="679" 
d="M601 638.5q70 -74.5 70 -210.5q0 -106 -35.5 -207.5t-118.5 -170.5t-215 -69q-130 0 -200 75.5t-70 210.5q0 106 35.5 207.5t118 170t214.5 68.5q131 0 201 -74.5zM285.5 524.5q-37.5 -55.5 -52 -130t-14.5 -141.5q0 -73 24 -105.5t73 -32.5q64 0 101.5 55t51.5 129.5
t14 143.5q0 73 -23.5 105t-72.5 32q-64 0 -101.5 -55.5z" />
    <glyph glyph-name="P" unicode="P" horiz-adv-x="595" 
d="M540 644.5q69 -50.5 69 -147.5q0 -68 -31.5 -130t-100.5 -102.5t-176 -40.5h-72l-31 -224h-182l97 695h234q124 0 193 -50.5zM393.5 396q27.5 40 27.5 91q0 39 -23 58t-70 19h-51l-29 -208h52q66 0 93.5 40z" />
    <glyph glyph-name="Q" unicode="Q" horiz-adv-x="679" 
d="M624.5 202.5q-46.5 -106.5 -150.5 -158.5q71 -3 115.5 -18.5t81.5 -46.5l-126 -142q-45 67 -100.5 105.5t-142.5 38.5q-130 0 -200 75.5t-70 210.5q0 106 35.5 207.5t118 170t214.5 68.5q131 0 201 -74.5t70 -210.5q0 -119 -46.5 -225.5zM243 146.5q24 -31.5 73 -31.5
q64 0 101.5 55.5t51.5 131t14 147.5q0 69 -23.5 100t-72.5 31q-64 0 -101.5 -55.5t-52 -131.5t-14.5 -145q0 -70 24 -101.5z" />
    <glyph glyph-name="R" unicode="R" horiz-adv-x="610" 
d="M577.5 381q-32.5 -54 -120.5 -95l127 -286h-198l-98 256h-54l-36 -256h-182l97 695h238q126 0 192.5 -50.5t66.5 -137.5q0 -72 -32.5 -126zM251 382h62q57 0 83 33.5t26 80.5q0 36 -23 53t-70 17h-52z" />
    <glyph glyph-name="S" unicode="S" horiz-adv-x="569" 
d="M582 620l-94 -96q-32 29 -66 42.5t-74 13.5q-43 0 -68 -18t-25 -49q0 -27 23 -43t89 -38q90 -30 133.5 -77t43.5 -122q0 -64 -30.5 -121.5t-98.5 -94t-175 -36.5q-159 0 -261 104l104 104q66 -68 161 -68q51 0 79.5 21t28.5 59q0 30 -23 50.5t-81 40.5q-99 33 -142 81
t-43 117q0 58 30.5 109t93.5 82.5t155 31.5q147 0 240 -93z" />
    <glyph glyph-name="T" unicode="T" horiz-adv-x="536" 
d="M600 695l-39 -141h-161l-78 -554h-182l78 554h-171l19 141h534z" />
    <glyph glyph-name="U" unicode="U" horiz-adv-x="636" 
d="M589 232q-10 -72 -48.5 -129t-104.5 -89.5t-155 -32.5q-122 0 -183.5 55.5t-61.5 151.5q0 23 3 47l64 460h182l-64 -457q-3 -22 -3 -40q0 -42 18.5 -61.5t57.5 -19.5q50 0 77 30.5t36 93.5l64 454h182z" />
    <glyph glyph-name="V" unicode="V" horiz-adv-x="564" 
d="M643 695l-278 -695h-231l-93 695h190l38 -559l186 559h188z" />
    <glyph glyph-name="W" unicode="W" horiz-adv-x="842" 
d="M896 695l-204 -695h-236l-1 514l-151 -514h-231l-7 695h180l-22 -558l161 558h192l-4 -558l147 558h176z" />
    <glyph glyph-name="X" unicode="X" horiz-adv-x="583" 
d="M634 695l-223 -321l141 -374h-195l-70 259l-137 -259h-195l238 369l-127 326h194l55 -219l124 219h195z" />
    <glyph glyph-name="Y" unicode="Y" horiz-adv-x="596" 
d="M668 695l-279 -437l-37 -258h-182l36 257l-157 438h195l73 -295l156 295h195z" />
    <glyph glyph-name="Z" unicode="Z" horiz-adv-x="540" 
d="M-24 0l18 137l349 416h-260l19 142h471l-19 -139l-344 -410h293l-38 -146h-489z" />
    <glyph glyph-name="bracketleft" unicode="[" horiz-adv-x="314" 
d="M378 825l-19 -131h-111l-97 -689h112l-19 -130h-278l134 950h278z" />
    <glyph glyph-name="backslash" unicode="\" horiz-adv-x="509" 
d="M292 819l107 -898l-159 -36l-106 898z" />
    <glyph glyph-name="bracketright" unicode="]" horiz-adv-x="314" 
d="M372 825l-134 -950h-278l19 131h112l97 689h-112l18 130h278z" />
    <glyph glyph-name="asciicircum" unicode="^" horiz-adv-x="554" 
d="M438 846l141 -319h-168l-71 188l-120 -188h-173l231 319h160z" />
    <glyph glyph-name="underscore" unicode="_" horiz-adv-x="509" 
d="M-56 -180l19 137h496l-19 -137h-496z" />
    <glyph glyph-name="grave" unicode="`" horiz-adv-x="345" 
d="M167 846l207 -141l-49 -85l-232 94z" />
    <glyph glyph-name="a" unicode="a" horiz-adv-x="573" 
d="M446.5 536.5q58.5 -14.5 110.5 -44.5l-48 -330q-2 -18 -2 -23q0 -16 5.5 -25t20.5 -15l-50 -114q-48 3 -83.5 25t-48.5 63q-64 -92 -159 -92q-83 0 -128.5 57.5t-45.5 157.5q0 85 32 166t102 135t178 54q58 0 116.5 -14.5zM229.5 356q-30.5 -71 -30.5 -160
q0 -48 13.5 -66.5t37.5 -18.5q48 0 89 67l35 241q-27 8 -50 8q-64 0 -94.5 -71z" />
    <glyph glyph-name="b" unicode="b" horiz-adv-x="582" 
d="M521.5 497.5q41.5 -53.5 41.5 -153.5q0 -89 -28 -171t-99 -137t-192 -55q-113 0 -227 48l100 714l177 18l-38 -271q28 28 66.5 44.5t77.5 16.5q80 0 121.5 -53.5zM239 365l-34 -244q31 -11 59 -11q41 0 68 35.5t39 88t12 104.5q0 47 -14.5 65.5t-39.5 18.5q-48 0 -90 -57
z" />
    <glyph glyph-name="c" unicode="c" horiz-adv-x="470" 
d="M501 480l-85 -101q-40 37 -89 37q-68 0 -96 -63t-28 -144q0 -49 19.5 -68.5t56.5 -19.5q25 0 47.5 8.5t52.5 27.5l64 -113q-87 -63 -188 -63q-111 0 -173.5 63t-62.5 170q0 76 32.5 154t101.5 130.5t173 52.5q106 0 175 -71z" />
    <glyph glyph-name="d" unicode="d" horiz-adv-x="585" 
d="M602 743l-104 -743h-156l1 72q-64 -91 -158 -91q-82 0 -124.5 56.5t-42.5 159.5q0 80 28 162t86 137t144 55q36 0 66 -12.5t51 -34.5l35 257zM247 386.5q-26 -36.5 -37 -88.5t-11 -101t13 -67.5t36 -18.5q47 0 102 90l27 192q-26 30 -62 30q-42 0 -68 -36.5z" />
    <glyph glyph-name="e" unicode="e" horiz-adv-x="537" 
d="M195 192q5 -82 87 -82q33 0 64 11.5t70 37.5l62 -104q-104 -74 -218 -74q-119 0 -180 61.5t-61 166.5q0 80 31.5 158.5t101.5 131t178 52.5q97 0 151 -42t54 -107q0 -178 -340 -210zM323.5 330q35.5 29 35.5 64q0 18 -10.5 30t-34.5 12q-45 0 -72.5 -39.5t-39.5 -100.5
q86 5 121.5 34z" />
    <glyph glyph-name="f" unicode="f" horiz-adv-x="352" 
d="M312.5 615.5q-17.5 -16.5 -22.5 -53.5l-4 -29h122l-36 -123h-103l-49 -343q-12 -86 -48 -142.5t-88.5 -90t-126.5 -58.5l-43 127q61 22 91.5 56t39.5 100l48 351h-74l16 123h75l6 40q11 83 71 135.5t159 52.5q47 0 86.5 -12.5t68.5 -32.5l-60 -105q-35 21 -79 21
q-32 0 -49.5 -16.5z" />
    <glyph glyph-name="g" unicode="g" horiz-adv-x="576" 
d="M452 536.5q59 -14.5 110 -44.5l-63 -442q-21 -146 -89 -210.5t-203 -64.5q-50 0 -105 16.5t-99 44.5l57 114q77 -42 146 -42q48 0 78.5 23t40.5 89l7 46q-58 -66 -137 -66q-85 0 -130.5 56.5t-45.5 152.5q0 80 32 158.5t103.5 131t180.5 52.5q58 0 117 -14.5zM255 393.5
q-29 -33.5 -42 -82.5t-13 -97q0 -83 54 -83q46 0 91 65l35 223q-29 8 -50 8q-46 0 -75 -33.5z" />
    <glyph glyph-name="h" unicode="h" horiz-adv-x="563" 
d="M505.5 517q31.5 -34 31.5 -94q0 -22 -2 -34l-55 -389h-175l49 346l2 24q0 36 -25 36q-45 0 -103 -121l-40 -285h-175l104 743l177 18l-44 -314q27 47 72.5 75.5t95.5 28.5q56 0 87.5 -34z" />
    <glyph glyph-name="i" unicode="i" horiz-adv-x="277" 
d="M263 533l-74 -533h-175l74 533h175zM124.5 648q-24.5 24 -24.5 62q0 47 32.5 78.5t80.5 31.5q41 0 65.5 -24t24.5 -62q0 -47 -32.5 -78.5t-80.5 -31.5q-41 0 -65.5 24z" />
    <glyph glyph-name="j" unicode="j" horiz-adv-x="275" 
d="M-109 -99q61 24 91 58t39 100l66 474h175l-65 -466q-12 -86 -48 -142.5t-89 -90t-126 -58.5zM124.5 648q-24.5 24 -24.5 62q0 47 32.5 78.5t80.5 31.5q41 0 65.5 -24t24.5 -62q0 -47 -32.5 -78.5t-80.5 -31.5q-41 0 -65.5 24z" />
    <glyph glyph-name="k" unicode="k" horiz-adv-x="573" 
d="M254 470q75 81 174 81q68 0 108 -35.5t40 -93.5q0 -124 -139 -185l92 -237h-191l-87 256q81 27 114 59.5t33 73.5q0 40 -42 40q-61 0 -122 -96l-45 -333h-176l104 743l178 18z" />
    <glyph glyph-name="l" unicode="l" horiz-adv-x="288" 
d="M204 155q-4 -33 20 -33q7 0 23 4l19 -124q-23 -10 -52 -15.5t-57 -5.5q-63 0 -97.5 33t-34.5 96q0 17 3 36l84 597l177 18z" />
    <glyph glyph-name="m" unicode="m" horiz-adv-x="826" 
d="M768.5 517.5q31.5 -33.5 31.5 -93.5q0 -22 -2 -34l-55 -390h-175l50 346q2 20 2 25q0 35 -25 35q-42 0 -89 -115l-40 -291h-175l49 346q2 18 2 23q0 21 -6.5 29t-19.5 8q-20 0 -43.5 -32t-42.5 -87l-41 -287h-175l74 533h152l-1 -83q31 48 73.5 74.5t90.5 26.5
q47 0 78 -24.5t39 -70.5q31 44 74 69.5t87 25.5q56 0 87.5 -33.5z" />
    <glyph glyph-name="n" unicode="n" horiz-adv-x="564" 
d="M506.5 518q31.5 -33 31.5 -93q0 -16 -3 -36l-54 -389h-175l49 346q2 18 2 22q0 38 -26 38q-23 0 -48 -31t-53 -90l-41 -285h-175l74 533h152l-1 -91q33 50 81 79.5t99 29.5q56 0 87.5 -33z" />
    <glyph glyph-name="o" unicode="o" horiz-adv-x="573" 
d="M80 41.5q-60 60.5 -60 168.5q0 85 30 162.5t98 128t175 50.5t168 -60.5t61 -165.5q0 -84 -29.5 -162.5t-98 -130t-176.5 -51.5t-168 60.5zM349 183q24 72 24 154q0 44 -15.5 64.5t-47.5 20.5q-63 0 -87 -70.5t-24 -151.5q0 -47 15 -68t48 -21q63 0 87 72z" />
    <glyph glyph-name="p" unicode="p" horiz-adv-x="582" 
d="M88 533h155l1 -57q37 39 77 57t78 18q82 0 123.5 -53.5t41.5 -153.5q0 -86 -28 -169t-91.5 -138.5t-163.5 -55.5q-55 0 -94 15l-30 -202l-175 -19zM333 145.5q27 35.5 39 88t12 104.5q0 47 -14.5 65.5t-39.5 18.5q-48 0 -90 -57l-34 -244q29 -11 58 -11q42 0 69 35.5z
" />
    <glyph glyph-name="q" unicode="q" horiz-adv-x="574" 
d="M324 41q-15 -22 -52 -41t-81 -19q-83 0 -128 57.5t-45 157.5q0 88 32.5 169t103 133.5t179.5 52.5q57 0 116 -14.5t111 -44.5l-98 -698l-176 -19zM341 178l36 241q-29 8 -51 8q-44 0 -72.5 -35t-41.5 -88t-13 -108q0 -48 14 -66.5t39 -18.5q48 0 89 67z" />
    <glyph glyph-name="r" unicode="r" horiz-adv-x="396" 
d="M442 540l-50 -172q-24 7 -46 7q-45 0 -72.5 -36t-51.5 -104l-33 -235h-175l74 533h152v-97q27 54 66 83.5t83 29.5q28 0 53 -9z" />
    <glyph glyph-name="s" unicode="s" horiz-adv-x="477" 
d="M383.5 532.5q51.5 -18.5 90.5 -50.5l-76 -95q-28 19 -60.5 29t-63.5 10q-60 0 -60 -35q0 -12 7.5 -19.5t27.5 -15.5t66 -23q67 -22 101 -61.5t34 -100.5q0 -50 -24.5 -93t-79.5 -70t-140 -27q-70 0 -131 25t-97 66l86 91q63 -56 143 -56q32 0 51 11.5t19 31.5q0 14 -8 23
t-28 17.5t-67 25.5q-68 24 -101 61.5t-33 96.5q0 49 27.5 89t80 64t125.5 24q59 0 110.5 -18.5z" />
    <glyph glyph-name="t" unicode="t" horiz-adv-x="383" 
d="M319 137l45 -115q-33 -20 -75 -30.5t-79 -10.5q-77 0 -117.5 41t-40.5 119q0 22 3 46l31 223h-67l16 123h76l33 116l153 18l-18 -134h120l-36 -123h-101l-31 -223q-2 -18 -2 -24q0 -22 9 -31.5t26 -9.5q22 0 55 15z" />
    <glyph glyph-name="u" unicode="u" horiz-adv-x="558" 
d="M58.5 16q-32.5 35 -32.5 97q0 19 3 38l54 382h175l-49 -350q-2 -16 -2 -22q0 -37 31 -37q37 0 84 71l47 338h175l-74 -533h-152l3 73q-74 -92 -167 -92q-63 0 -95.5 35z" />
    <glyph glyph-name="v" unicode="v" horiz-adv-x="509" 
d="M558 533l-232 -533h-210l-89 533h188l25 -401l135 401h183z" />
    <glyph glyph-name="w" unicode="w" horiz-adv-x="748" 
d="M784 533l-179 -533h-203l-11 374l-113 -374h-205l-34 533h177l-13 -398l130 398h167l8 -398l108 398h168z" />
    <glyph glyph-name="x" unicode="x" horiz-adv-x="511" 
d="M535 533l-171 -252l124 -281h-190l-54 186l-104 -186h-192l202 283l-114 250h191l39 -164l81 164h188z" />
    <glyph glyph-name="y" unicode="y" horiz-adv-x="514" 
d="M331 -1q-92 -214 -346 -224l-4 123q77 9 117 31t70 71h-62l-79 533h182l23 -421l148 421h183z" />
    <glyph glyph-name="z" unicode="z" horiz-adv-x="455" 
d="M474 533l-17 -125l-250 -275h217l-34 -133h-420l16 125l253 276h-193l18 132h410z" />
    <glyph glyph-name="braceleft" unicode="{" horiz-adv-x="314" 
d="M360 719q-41 0 -56.5 -13t-21.5 -45l-23 -170q-9 -67 -40 -97.5t-90 -45.5q46 -9 70 -32.5t24 -73.5q0 -16 -3 -36l-24 -169q-2 -14 -2 -19q0 -21 13 -29t47 -8l-14 -122q-111 0 -161 35t-50 103q0 21 2 33l23 166q3 20 3 34q0 26 -12 36.5t-43 10.5l21 146q36 0 52.5 19
t22.5 65l23 166q9 59 32.5 95t76 54.5t145.5 18.5z" />
    <glyph glyph-name="bar" unicode="|" horiz-adv-x="357" 
d="M336 811l-127 -917h-164l128 917h163z" />
    <glyph glyph-name="braceright" unicode="}" horiz-adv-x="314" 
d="M-22 -19q41 0 56.5 13t20.5 45l24 170q9 67 40 97.5t90 45.5q-46 9 -70 32t-24 72q0 17 3 38l24 169q1 6 1 18q0 21 -13 29.5t-47 8.5l14 122q112 0 161.5 -34.5t49.5 -103.5q0 -21 -2 -33l-22 -166q-3 -19 -3 -34q0 -26 12 -36.5t43 -10.5l-21 -146q-37 0 -53.5 -19
t-22.5 -65l-23 -166q-8 -59 -31.5 -95t-76.5 -54.5t-146 -18.5z" />
    <glyph glyph-name="asciitilde" unicode="~" horiz-adv-x="511" 
d="M276 235.5q-23 9.5 -48 27.5q-17 12 -29 18t-26 6q-25 0 -40.5 -13.5t-34.5 -42.5l-86 52q37 61 80.5 98t101.5 37q34 0 56 -9t48 -27q17 -12 29 -18t27 -6q24 0 40.5 14t33.5 41l87 -53q-37 -61 -80.5 -97.5t-101.5 -36.5q-34 0 -57 9.5z" />
    <glyph glyph-name="uni00A0" unicode="&#xa0;" horiz-adv-x="217" 
 />
    <glyph glyph-name="exclamdown" unicode="&#xa1;" horiz-adv-x="227" 
d="M67 345q-24 25 -24 63q0 43 31 74.5t76 31.5q37 0 60.5 -24t23.5 -62q0 -44 -31 -76t-75 -32q-37 0 -61 25zM180 232l-39 -438h-185l85 438h139z" />
    <glyph glyph-name="cent" unicode="&#xa2;" horiz-adv-x="470" 
d="M443 44q-72 -52 -151 -61l-20 -146h-123l22 155q-73 22 -112.5 80t-39.5 142q0 65 24.5 133t76 122t128.5 73l22 152h121l-21 -147q77 -12 131 -67l-85 -101q-40 37 -89 37q-68 0 -96 -63t-28 -144q0 -49 19.5 -68.5t56.5 -19.5q25 0 47.5 8.5t52.5 27.5z" />
    <glyph glyph-name="sterling" unicode="&#xa3;" horiz-adv-x="534" 
d="M251.5 180q-16.5 -27 -56.5 -48h297l-38 -132h-468l17 127q39 11 59 26.5t27.5 35.5t11.5 54l9 64h-67l14 89h66l13 93q13 95 74 149.5t166 54.5q70 0 118.5 -26.5t79.5 -79.5l-113 -74q-14 28 -31 38.5t-43 10.5q-36 0 -55.5 -19t-24.5 -59l-12 -88h175l-13 -89h-174
l-8 -56q-7 -44 -23.5 -71z" />
    <glyph glyph-name="currency" unicode="&#xa4;" 
d="M472 224l75 -74l-74 -75l-78 76q-50 -29 -115 -29q-64 0 -113 29l-79 -76l-74 75l76 75q-32 54 -32 117q0 64 32 116l-76 77l74 75l78 -78q53 29 114 29q63 0 116 -29l77 78l74 -75l-75 -76q32 -54 32 -117q0 -64 -32 -118zM347.5 266q22.5 27 22.5 76t-22.5 75t-66.5 26
t-67 -26t-23 -75t23 -76t67 -27t66.5 27z" />
    <glyph glyph-name="yen" unicode="&#xa5;" horiz-adv-x="568" 
d="M637 678l-215 -324h91l-12 -89h-129l-9 -65h129l-13 -89h-129l-15 -111h-174l15 111h-128l12 89h129l9 65h-129l13 89h90l-125 324h181l75 -277l150 277h184z" />
    <glyph glyph-name="brokenbar" unicode="&#xa6;" horiz-adv-x="357" 
d="M336 811l-51 -368h-164l52 368h163zM260 262l-51 -368h-164l51 368h164z" />
    <glyph glyph-name="section" unicode="&#xa7;" horiz-adv-x="544" 
d="M472 411.5q34 -32.5 34 -86.5q0 -50 -27 -85t-76 -61q24 -20 35.5 -43.5t11.5 -52.5q0 -72 -59.5 -121t-183.5 -49q-57 0 -107 16.5t-86 43.5l67 102q61 -41 122 -41q44 0 61.5 11t17.5 32q0 14 -8 23.5t-29 19t-66 24.5q-65 20 -98 52t-33 86q0 85 104 140
q-46 42 -46 101q0 77 63 123t170 46q55 0 107.5 -17t92.5 -45l-71 -97q-56 39 -123 39q-72 0 -72 -44q0 -13 8 -22t29 -19t64 -24q64 -19 98 -51.5zM319 229q33 33 33 62q0 20 -17 35.5t-57 28.5q-29 10 -49 19q-26 -29 -26 -60q0 -39 59 -61q32 -12 57 -24z" />
    <glyph glyph-name="dieresis" unicode="&#xa8;" horiz-adv-x="471" 
d="M115.5 659q-21.5 21 -21.5 54q0 41 28.5 68.5t70.5 27.5q36 0 57.5 -21.5t21.5 -54.5q0 -41 -28.5 -68t-70.5 -27q-36 0 -57.5 21zM349.5 659q-21.5 21 -21.5 54q0 41 28.5 68.5t70.5 27.5q36 0 57.5 -21.5t21.5 -54.5q0 -41 -28.5 -68t-70.5 -27q-36 0 -57.5 21z" />
    <glyph glyph-name="copyright" unicode="&#xa9;" horiz-adv-x="810" 
d="M604 728.5q79 -43.5 124.5 -121t45.5 -175.5t-45.5 -175.5t-124.5 -121t-175 -43.5t-175 43.5t-125 121t-46 175.5t46 175.5t125.5 121t174.5 43.5q96 0 175 -43.5zM303 652q-56 -32 -87.5 -89t-31.5 -131t31.5 -131t87.5 -88.5t126 -31.5t125.5 31.5t87 88.5t31.5 131
t-31.5 131t-87 89t-125.5 32t-126 -32zM504 617.5q36 -14.5 62 -39.5l-52 -65q-19 14 -34 18.5t-35 4.5q-32 0 -51 -24.5t-19 -78.5q0 -105 68 -105q42 0 79 30l48 -70q-28 -26 -63 -40.5t-75 -14.5q-84 0 -133 52.5t-49 147.5q0 60 23 105t64 69.5t94 24.5q37 0 73 -14.5z
" />
    <glyph glyph-name="ordfeminine" unicode="&#xaa;" horiz-adv-x="477" 
d="M85.5 296.5q-34.5 34.5 -34.5 85.5q0 64 51.5 105.5t170.5 41.5h32l1 11q1 5 1 12q0 17 -10 24.5t-35 7.5q-49 0 -120 -21l-22 100q42 15 89 23.5t88 8.5q80 0 120 -32t40 -102q0 -19 -3 -40l-15 -111q-2 -12 -2 -17q0 -10 4.5 -16.5t16.5 -10.5l-44 -101q-39 3 -64.5 16
t-41.5 39q-49 -58 -130 -58q-58 0 -92.5 34.5zM265 379q13 6 21 16l8 52h-17q-34 0 -50 -11.5t-16 -35.5q0 -27 26 -27q15 0 28 6zM-6 0l19 136h411l-18 -136h-412z" />
    <glyph glyph-name="guillemotleft" unicode="&#xab;" horiz-adv-x="633" 
d="M258 563l100 -73l-153 -206l95 -206l-117 -73l-160 223l15 111zM537 563l100 -73l-153 -206l95 -206l-117 -73l-160 223l15 111z" />
    <glyph glyph-name="logicalnot" unicode="&#xac;" horiz-adv-x="528" 
d="M505 399l-42 -294h-151l22 157h-292l19 137h444z" />
    <glyph glyph-name="uni00AD" unicode="&#xad;" horiz-adv-x="399" 
d="M35 245l18 136h324l-18 -136h-324z" />
    <glyph glyph-name="registered" unicode="&#xae;" horiz-adv-x="636" 
d="M493.5 725.5q63.5 -35.5 100 -99t36.5 -144.5t-36.5 -144t-100 -98.5t-143.5 -35.5t-144.5 35.5t-101.5 98.5t-37 144t37 144.5t101.5 99t144.5 35.5t143.5 -35.5zM451 301.5q44 25.5 69 72t25 108.5t-25 109t-69 72.5t-101 25.5t-102 -25.5t-70 -72.5t-25 -109
t25 -108.5t70 -72t102 -25.5t101 25.5zM449 498q-15 -20 -41 -31l73 -118h-86l-57 102h-21v-102h-76v284h87q68 0 102 -22t34 -67q0 -26 -15 -46zM317 513h29q18 0 29.5 8.5t11.5 25.5q0 30 -42 30h-28v-64z" />
    <glyph glyph-name="macron" unicode="&#xaf;" horiz-adv-x="371" 
d="M395 652h-310l17 122h310z" />
    <glyph glyph-name="degree" unicode="&#xb0;" horiz-adv-x="509" 
d="M114.5 407q-44.5 41 -44.5 110q0 58 27 102.5t72.5 69t99.5 24.5q70 0 115 -41t45 -111q0 -58 -27 -102.5t-73 -68.5t-100 -24q-70 0 -114.5 41zM292.5 490q20.5 25 20.5 65q0 28 -13 43.5t-38 15.5q-35 0 -55.5 -25t-20.5 -65q0 -28 13 -43.5t38 -15.5q35 0 55.5 25z
" />
    <glyph glyph-name="plusminus" unicode="&#xb1;" horiz-adv-x="528" 
d="M13 0l19 136h429l-19 -136h-429zM388 646l-22 -158h151l-19 -136h-151l-22 -158h-143l23 158h-151l19 136h151l21 158h143z" />
    <glyph glyph-name="uni00B2" unicode="&#xb2;" horiz-adv-x="389" 
d="M364 719.5q38 -33.5 38 -82.5q0 -41 -21.5 -75.5t-58 -64t-107.5 -79.5h167l-26 -98h-302l13 91l39 32q86 69 124.5 108t38.5 73q0 16 -10.5 24.5t-27.5 8.5q-20 0 -38 -10t-39 -32l-70 59q74 79 173 79q69 0 107 -33.5z" />
    <glyph glyph-name="uni00B3" unicode="&#xb3;" horiz-adv-x="389" 
d="M366 724.5q38 -28.5 38 -74.5q0 -41 -29.5 -68t-80.5 -40q44 -3 69.5 -25t25.5 -64q0 -44 -26 -77t-70.5 -51t-97.5 -18q-105 0 -154 71l75 63q33 -38 79 -38q28 0 46 14.5t18 43.5q0 19 -13 27.5t-41 8.5h-40l26 87h25q27 0 43 11.5t16 33.5q0 29 -39 29q-45 0 -90 -35
l-55 70q75 60 170 60q67 0 105 -28.5z" />
    <glyph glyph-name="acute" unicode="&#xb4;" horiz-adv-x="346" 
d="M325 846l55 -132l-253 -96l-39 89z" />
    <glyph glyph-name="uni00B5" unicode="&#xb5;" horiz-adv-x="571" 
d="M492 80q0 -48 6 -81l-163 -16q-10 37 -10 80q-23 -38 -48.5 -55.5t-59.5 -17.5q-37 0 -58 21q8 -36 8 -61q0 -26 -6 -69l-13 -87l-166 -17l106 756h175l-52 -369q-1 -5 -1 -13q0 -36 33 -36q19 0 40 13.5t40 40.5l50 364h175l-49 -351q-7 -55 -7 -102z" />
    <glyph glyph-name="paragraph" unicode="&#xb6;" horiz-adv-x="793" 
d="M745 695l-126 -901l-154 -20l111 799h-85l-109 -779l-153 -20l67 484q-103 1 -157 51t-54 135q0 79 38 135.5t106.5 86t158.5 29.5h357z" />
    <glyph glyph-name="periodcentered" unicode="&#xb7;" horiz-adv-x="240" 
d="M54 235q-24 25 -24 63q0 43 31 74.5t76 31.5q37 0 60.5 -24t23.5 -62q0 -44 -31 -76t-75 -32q-37 0 -61 25z" />
    <glyph glyph-name="cedilla" unicode="&#xb8;" horiz-adv-x="331" 
d="M149 -45q46 -6 70 -30.5t24 -63.5q0 -30 -17 -60t-55 -50t-97 -20q-67 0 -114 34l49 77q29 -16 60 -16q50 0 50 30q0 16 -20 22t-67 6l33 132h95z" />
    <glyph glyph-name="uni00B9" unicode="&#xb9;" horiz-adv-x="389" 
d="M366 743l-59 -423h-125l42 302l-95 -56l-46 86l167 91h116z" />
    <glyph glyph-name="ordmasculine" unicode="&#xba;" horiz-adv-x="489" 
d="M442.5 649q50.5 -46 50.5 -132q0 -74 -30.5 -132t-86.5 -90.5t-129 -32.5q-90 0 -140.5 45.5t-50.5 130.5q0 75 30.5 133.5t86.5 91t129 32.5q90 0 140.5 -46zM232.5 538q-18.5 -44 -18.5 -103q0 -31 10.5 -46t33.5 -15q40 0 58.5 45t18.5 104q0 31 -11 45t-33 14
q-40 0 -58.5 -44zM-8 0l19 136h429l-19 -136h-429z" />
    <glyph glyph-name="guillemotright" unicode="&#xbb;" horiz-adv-x="633" 
d="M177 563l160 -224l-15 -111l-221 -223l-100 73l155 206l-97 206zM456 563l160 -224l-15 -111l-221 -223l-100 73l155 206l-97 206z" />
    <glyph glyph-name="onequarter" unicode="&#xbc;" horiz-adv-x="947" 
d="M359 695l-59 -423h-125l42 302l-95 -56l-46 86l167 91h116zM695 761l94 -50l-517 -799l-94 50zM916 175l-14 -94h-43l-11 -81h-120l11 81h-190l12 85l154 267l102 -40l-123 -218h60l37 91h94l-13 -91h44z" />
    <glyph glyph-name="onehalf" unicode="&#xbd;" horiz-adv-x="947" 
d="M359 695l-59 -423h-125l42 302l-95 -56l-46 86l167 91h116zM695 761l94 -50l-517 -799l-94 50zM877 399.5q38 -33.5 38 -82.5q0 -41 -21.5 -75.5t-58 -64t-107.5 -79.5h167l-26 -98h-302l13 91l39 32q86 69 124.5 108t38.5 73q0 16 -10.5 24.5t-27.5 8.5q-20 0 -38 -10
t-39 -32l-70 59q74 79 173 79q69 0 107 -33.5z" />
    <glyph glyph-name="threequarters" unicode="&#xbe;" horiz-adv-x="947" 
d="M359 676.5q38 -28.5 38 -74.5q0 -41 -29.5 -68t-80.5 -40q44 -3 69.5 -25t25.5 -64q0 -44 -26 -77t-70.5 -51t-97.5 -18q-105 0 -154 71l75 63q33 -38 79 -38q28 0 46 14.5t18 43.5q0 19 -13 27.5t-41 8.5h-40l26 87h25q27 0 43 11.5t16 33.5q0 29 -39 29q-45 0 -90 -35
l-55 70q75 60 170 60q67 0 105 -28.5zM695 761l94 -50l-517 -799l-94 50zM916 175l-14 -94h-43l-11 -81h-120l11 81h-190l12 85l154 267l102 -40l-123 -218h60l37 91h94l-13 -91h44z" />
    <glyph glyph-name="questiondown" unicode="&#xbf;" horiz-adv-x="476" 
d="M338 484q24 -25 24 -63q0 -43 -31 -74.5t-76 -31.5q-37 0 -60.5 24t-23.5 62q0 44 31 76t75 32q37 0 61 -25zM14.5 -182.5q-52.5 42.5 -52.5 107.5q0 52 19 87t46 55t69 42q46 25 68 45t22 54q0 14 -2 20l155 23q7 -26 7 -48q0 -45 -17 -76t-41 -49.5t-62 -40.5
q-40 -23 -59 -40.5t-19 -45.5q0 -36 51 -36q57 0 118 58l98 -90q-105 -108 -250 -108q-98 0 -150.5 42.5z" />
    <glyph glyph-name="Agrave" unicode="&#xc0;" horiz-adv-x="585" 
d="M374 0l-11 142h-181l-49 -142h-190l299 695h220l104 -695h-192zM227 274h127l-23 301zM313 962l204 -130l-45 -86l-232 84z" />
    <glyph glyph-name="Aacute" unicode="&#xc1;" horiz-adv-x="585" 
d="M374 0l-11 142h-181l-49 -142h-190l299 695h220l104 -695h-192zM227 274h127l-23 301zM474 963l55 -132l-253 -87l-38 88z" />
    <glyph glyph-name="Acircumflex" unicode="&#xc2;" horiz-adv-x="585" 
d="M374 0l-11 142h-181l-49 -142h-190l299 695h220l104 -695h-192zM227 274h127l-23 301zM224 753l-55 71l160 136h106l121 -136l-67 -71l-121 86z" />
    <glyph glyph-name="Atilde" unicode="&#xc3;" horiz-adv-x="585" 
d="M374 0l-11 142h-181l-49 -142h-190l299 695h220l104 -695h-192zM227 274h127l-23 301zM389.5 761q-15.5 7 -33.5 19q-14 9 -23 13.5t-18 4.5q-18 0 -31 -10.5t-29 -34.5l-79 45q28 55 66.5 90.5t81.5 35.5q22 0 37 -7t35 -20q11 -9 19 -13t17 -4q16 0 29.5 10.5
t29.5 33.5l79 -44q-28 -56 -66.5 -91t-80.5 -35q-18 0 -33.5 7z" />
    <glyph glyph-name="Adieresis" unicode="&#xc4;" horiz-adv-x="585" 
d="M374 0l-11 142h-181l-49 -142h-190l299 695h220l104 -695h-192zM227 274h127l-23 301zM186.5 785q-21.5 21 -21.5 54q0 41 28.5 68.5t70.5 27.5q36 0 57.5 -21.5t21.5 -54.5q0 -41 -28.5 -68t-70.5 -27q-36 0 -57.5 21zM420.5 785q-21.5 21 -21.5 54q0 41 28.5 68.5
t70.5 27.5q36 0 57.5 -21.5t21.5 -54.5q0 -41 -28.5 -68t-70.5 -27q-36 0 -57.5 21z" />
    <glyph glyph-name="Aring" unicode="&#xc5;" horiz-adv-x="585" 
d="M374 0l-11 142h-181l-49 -142h-190l299 695h220l104 -695h-192zM227 274h127l-23 301zM488.5 968q33.5 -35 33.5 -91q0 -39 -20 -74t-57.5 -56.5t-85.5 -21.5q-59 0 -93 35t-34 90q0 39 20.5 74t57.5 57t84 22q61 0 94.5 -35zM346.5 895.5q-14.5 -18.5 -14.5 -41.5
q0 -19 9.5 -29t26.5 -10q25 0 39.5 17.5t14.5 40.5q0 20 -9.5 30.5t-26.5 10.5q-25 0 -39.5 -18.5z" />
    <glyph glyph-name="AE" unicode="&#xc6;" horiz-adv-x="840" 
d="M803 564h-255l7 -149h236l-17 -128h-213l7 -156h228l-18 -131h-373l-4 142h-200l-65 -142h-197l354 695h546zM261 274h137l-7 287z" />
    <glyph glyph-name="Ccedilla" unicode="&#xc7;" horiz-adv-x="568" 
d="M345 -16l-5 -29q46 -6 70 -30.5t24 -63.5q0 -30 -17 -60t-55 -50t-97 -20q-67 0 -114 34l49 77q29 -16 60 -16q50 0 50 30q0 16 -20 22t-67 6l25 101q-101 16 -158.5 89.5t-57.5 195.5q0 106 37.5 207.5t119 168.5t206.5 67q135 0 212 -86l-97 -94q-26 22 -53 33.5
t-60 11.5q-63 0 -102.5 -50t-57 -120.5t-17.5 -136.5q0 -75 29 -111.5t83 -36.5q36 0 67.5 15t69.5 43l69 -107q-84 -77 -193 -90z" />
    <glyph glyph-name="Egrave" unicode="&#xc8;" horiz-adv-x="514" 
d="M548 695l-38 -131h-233l-21 -147h204l-17 -128h-204l-22 -158h249l-18 -131h-432l97 695h435zM293 962l204 -130l-45 -86l-232 84z" />
    <glyph glyph-name="Eacute" unicode="&#xc9;" horiz-adv-x="514" 
d="M548 695l-38 -131h-233l-21 -147h204l-17 -128h-204l-22 -158h249l-18 -131h-432l97 695h435zM454 963l55 -132l-253 -87l-38 88z" />
    <glyph glyph-name="Ecircumflex" unicode="&#xca;" horiz-adv-x="514" 
d="M548 695l-38 -131h-233l-21 -147h204l-17 -128h-204l-22 -158h249l-18 -131h-432l97 695h435zM204 753l-55 71l160 136h106l121 -136l-67 -71l-121 86z" />
    <glyph glyph-name="Edieresis" unicode="&#xcb;" horiz-adv-x="514" 
d="M548 695l-38 -131h-233l-21 -147h204l-17 -128h-204l-22 -158h249l-18 -131h-432l97 695h435zM166.5 785q-21.5 21 -21.5 54q0 41 28.5 68.5t70.5 27.5q36 0 57.5 -21.5t21.5 -54.5q0 -41 -28.5 -68t-70.5 -27q-36 0 -57.5 21zM400.5 785q-21.5 21 -21.5 54
q0 41 28.5 68.5t70.5 27.5q36 0 57.5 -21.5t21.5 -54.5q0 -41 -28.5 -68t-70.5 -27q-36 0 -57.5 21z" />
    <glyph glyph-name="Igrave" unicode="&#xcc;" horiz-adv-x="290" 
d="M295 695l-97 -695h-182l97 695h182zM165 962l204 -130l-45 -86l-232 84z" />
    <glyph glyph-name="Iacute" unicode="&#xcd;" horiz-adv-x="290" 
d="M295 695l-97 -695h-182l97 695h182zM326 963l55 -132l-253 -87l-38 88z" />
    <glyph glyph-name="Icircumflex" unicode="&#xce;" horiz-adv-x="290" 
d="M295 695l-97 -695h-182l97 695h182zM76 753l-55 71l160 136h106l121 -136l-67 -71l-121 86z" />
    <glyph glyph-name="Idieresis" unicode="&#xcf;" horiz-adv-x="290" 
d="M295 695l-97 -695h-182l97 695h182zM38.5 785q-21.5 21 -21.5 54q0 41 28.5 68.5t70.5 27.5q36 0 57.5 -21.5t21.5 -54.5q0 -41 -28.5 -68t-70.5 -27q-36 0 -57.5 21zM272.5 785q-21.5 21 -21.5 54q0 41 28.5 68.5t70.5 27.5q36 0 57.5 -21.5t21.5 -54.5q0 -41 -28.5 -68
t-70.5 -27q-36 0 -57.5 21z" />
    <glyph glyph-name="Eth" unicode="&#xd0;" horiz-adv-x="652" 
d="M556 637q87 -58 87 -206q0 -191 -93.5 -311t-305.5 -120h-219l42 299h-55l15 108h55l40 288h203q144 0 231 -58zM414.5 221.5q41.5 89.5 41.5 208.5q0 75 -30.5 103.5t-91.5 28.5h-48l-22 -155h125l-14 -108h-126l-23 -167h45q102 0 143.5 89.5z" />
    <glyph glyph-name="Ntilde" unicode="&#xd1;" horiz-adv-x="647" 
d="M556 0h-230l-106 542q3 -51 3 -107q0 -106 -15 -210l-32 -225h-160l97 695h227l109 -542q-4 55 -4 117q0 88 13 183l35 242h160zM423.5 761q-15.5 7 -33.5 19q-14 9 -23 13.5t-18 4.5q-18 0 -31 -10.5t-29 -34.5l-79 45q28 55 66.5 90.5t81.5 35.5q22 0 37 -7t35 -20
q11 -9 19 -13t17 -4q16 0 29.5 10.5t29.5 33.5l79 -44q-28 -56 -66.5 -91t-80.5 -35q-18 0 -33.5 7z" />
    <glyph glyph-name="Ograve" unicode="&#xd2;" horiz-adv-x="679" 
d="M601 638.5q70 -74.5 70 -210.5q0 -106 -35.5 -207.5t-118.5 -170.5t-215 -69q-130 0 -200 75.5t-70 210.5q0 106 35.5 207.5t118 170t214.5 68.5q131 0 201 -74.5zM285.5 524.5q-37.5 -55.5 -52 -130t-14.5 -141.5q0 -73 24 -105.5t73 -32.5q64 0 101.5 55t51.5 129.5
t14 143.5q0 73 -23.5 105t-72.5 32q-64 0 -101.5 -55.5zM361 962l204 -130l-45 -86l-232 84z" />
    <glyph glyph-name="Oacute" unicode="&#xd3;" horiz-adv-x="679" 
d="M601 638.5q70 -74.5 70 -210.5q0 -106 -35.5 -207.5t-118.5 -170.5t-215 -69q-130 0 -200 75.5t-70 210.5q0 106 35.5 207.5t118 170t214.5 68.5q131 0 201 -74.5zM285.5 524.5q-37.5 -55.5 -52 -130t-14.5 -141.5q0 -73 24 -105.5t73 -32.5q64 0 101.5 55t51.5 129.5
t14 143.5q0 73 -23.5 105t-72.5 32q-64 0 -101.5 -55.5zM522 963l55 -132l-253 -87l-38 88z" />
    <glyph glyph-name="Ocircumflex" unicode="&#xd4;" horiz-adv-x="679" 
d="M601 638.5q70 -74.5 70 -210.5q0 -106 -35.5 -207.5t-118.5 -170.5t-215 -69q-130 0 -200 75.5t-70 210.5q0 106 35.5 207.5t118 170t214.5 68.5q131 0 201 -74.5zM285.5 524.5q-37.5 -55.5 -52 -130t-14.5 -141.5q0 -73 24 -105.5t73 -32.5q64 0 101.5 55t51.5 129.5
t14 143.5q0 73 -23.5 105t-72.5 32q-64 0 -101.5 -55.5zM272 753l-55 71l160 136h106l121 -136l-67 -71l-121 86z" />
    <glyph glyph-name="Otilde" unicode="&#xd5;" horiz-adv-x="679" 
d="M601 638.5q70 -74.5 70 -210.5q0 -106 -35.5 -207.5t-118.5 -170.5t-215 -69q-130 0 -200 75.5t-70 210.5q0 106 35.5 207.5t118 170t214.5 68.5q131 0 201 -74.5zM285.5 524.5q-37.5 -55.5 -52 -130t-14.5 -141.5q0 -73 24 -105.5t73 -32.5q64 0 101.5 55t51.5 129.5
t14 143.5q0 73 -23.5 105t-72.5 32q-64 0 -101.5 -55.5zM437.5 761q-15.5 7 -33.5 19q-14 9 -23 13.5t-18 4.5q-18 0 -31 -10.5t-29 -34.5l-79 45q28 55 66.5 90.5t81.5 35.5q22 0 37 -7t35 -20q11 -9 19 -13t17 -4q16 0 29.5 10.5t29.5 33.5l79 -44q-28 -56 -66.5 -91
t-80.5 -35q-18 0 -33.5 7z" />
    <glyph glyph-name="Odieresis" unicode="&#xd6;" horiz-adv-x="679" 
d="M601 638.5q70 -74.5 70 -210.5q0 -106 -35.5 -207.5t-118.5 -170.5t-215 -69q-130 0 -200 75.5t-70 210.5q0 106 35.5 207.5t118 170t214.5 68.5q131 0 201 -74.5zM285.5 524.5q-37.5 -55.5 -52 -130t-14.5 -141.5q0 -73 24 -105.5t73 -32.5q64 0 101.5 55t51.5 129.5
t14 143.5q0 73 -23.5 105t-72.5 32q-64 0 -101.5 -55.5zM234.5 785q-21.5 21 -21.5 54q0 41 28.5 68.5t70.5 27.5q36 0 57.5 -21.5t21.5 -54.5q0 -41 -28.5 -68t-70.5 -27q-36 0 -57.5 21zM468.5 785q-21.5 21 -21.5 54q0 41 28.5 68.5t70.5 27.5q36 0 57.5 -21.5
t21.5 -54.5q0 -41 -28.5 -68t-70.5 -27q-36 0 -57.5 21z" />
    <glyph glyph-name="multiply" unicode="&#xd7;" horiz-adv-x="515" 
d="M403 518l84 -97l-130 -112l99 -121l-106 -93l-95 119l-131 -119l-85 97l129 113l-98 119l107 94l94 -118z" />
    <glyph glyph-name="Oslash" unicode="&#xd8;" horiz-adv-x="679" 
d="M645 570q26 -60 26 -142q0 -106 -35.5 -207.5t-118.5 -170.5t-215 -69q-24 0 -45 3l-53 -121l-131 37l59 130q-49 36 -74.5 96t-25.5 141q0 106 35.5 207.5t118 170t214.5 68.5q16 0 44 -2l54 119l130 -36l-59 -128q50 -36 76 -96zM284.5 524q-38.5 -56 -54 -132
t-15.5 -144q0 -52 10 -84l181 415q-6 1 -19 1q-64 0 -102.5 -56zM418 170.5q38 55.5 53 131.5t15 147q0 52 -9 80l-180 -414h19q64 0 102 55.5z" />
    <glyph glyph-name="Ugrave" unicode="&#xd9;" horiz-adv-x="636" 
d="M589 232q-10 -72 -48.5 -129t-104.5 -89.5t-155 -32.5q-122 0 -183.5 55.5t-61.5 151.5q0 23 3 47l64 460h182l-64 -457q-3 -22 -3 -40q0 -42 18.5 -61.5t57.5 -19.5q50 0 77 30.5t36 93.5l64 454h182zM339 962l204 -130l-45 -86l-232 84z" />
    <glyph glyph-name="Uacute" unicode="&#xda;" horiz-adv-x="636" 
d="M589 232q-10 -72 -48.5 -129t-104.5 -89.5t-155 -32.5q-122 0 -183.5 55.5t-61.5 151.5q0 23 3 47l64 460h182l-64 -457q-3 -22 -3 -40q0 -42 18.5 -61.5t57.5 -19.5q50 0 77 30.5t36 93.5l64 454h182zM500 963l55 -132l-253 -87l-38 88z" />
    <glyph glyph-name="Ucircumflex" unicode="&#xdb;" horiz-adv-x="636" 
d="M589 232q-10 -72 -48.5 -129t-104.5 -89.5t-155 -32.5q-122 0 -183.5 55.5t-61.5 151.5q0 23 3 47l64 460h182l-64 -457q-3 -22 -3 -40q0 -42 18.5 -61.5t57.5 -19.5q50 0 77 30.5t36 93.5l64 454h182zM250 753l-55 71l160 136h106l121 -136l-67 -71l-121 86z" />
    <glyph glyph-name="Udieresis" unicode="&#xdc;" horiz-adv-x="636" 
d="M589 232q-10 -72 -48.5 -129t-104.5 -89.5t-155 -32.5q-122 0 -183.5 55.5t-61.5 151.5q0 23 3 47l64 460h182l-64 -457q-3 -22 -3 -40q0 -42 18.5 -61.5t57.5 -19.5q50 0 77 30.5t36 93.5l64 454h182zM212.5 785q-21.5 21 -21.5 54q0 41 28.5 68.5t70.5 27.5
q36 0 57.5 -21.5t21.5 -54.5q0 -41 -28.5 -68t-70.5 -27q-36 0 -57.5 21zM446.5 785q-21.5 21 -21.5 54q0 41 28.5 68.5t70.5 27.5q36 0 57.5 -21.5t21.5 -54.5q0 -41 -28.5 -68t-70.5 -27q-36 0 -57.5 21z" />
    <glyph glyph-name="Yacute" unicode="&#xdd;" horiz-adv-x="596" 
d="M668 695l-279 -437l-37 -258h-182l36 257l-157 438h195l73 -295l156 295h195zM481 963l55 -132l-253 -87l-38 88z" />
    <glyph glyph-name="Thorn" unicode="&#xde;" horiz-adv-x="595" 
d="M525.5 538q68.5 -51 68.5 -152q0 -66 -29 -128.5t-98.5 -105t-181.5 -42.5h-72l-15 -110h-182l97 695h182l-15 -106h51q126 0 194.5 -51zM378 285q28 43 28 96q0 78 -93 78h-51l-30 -217h52q66 0 94 43z" />
    <glyph glyph-name="germandbls" unicode="&#xdf;" horiz-adv-x="597" 
d="M-109 -97q59 22 89.5 52t38.5 86l68 492q15 108 85.5 168t186.5 60q92 0 142.5 -41.5t50.5 -105.5q0 -41 -18.5 -66.5t-53.5 -54.5q-25 -20 -37 -35t-12 -34q0 -18 11.5 -31.5t38.5 -35.5q29 -24 47.5 -43.5t32 -50.5t13.5 -73q0 -51 -24.5 -99t-76 -79t-129.5 -31
q-34 0 -66.5 8.5t-57.5 22.5l65 116q24 -11 45 -11q34 0 48.5 20t14.5 42q0 27 -13.5 46t-41.5 45q-31 27 -47 50.5t-16 60.5q0 44 15.5 71t45.5 58q25 25 36.5 43.5t11.5 45.5q0 18 -11 28.5t-30 10.5q-66 0 -80 -102l-65 -469q-12 -86 -48 -142.5t-89 -90t-126 -58.5z" />
    <glyph glyph-name="agrave" unicode="&#xe0;" horiz-adv-x="573" 
d="M446.5 536.5q58.5 -14.5 110.5 -44.5l-48 -330q-2 -18 -2 -23q0 -16 5.5 -25t20.5 -15l-50 -114q-48 3 -83.5 25t-48.5 63q-64 -92 -159 -92q-83 0 -128.5 57.5t-45.5 157.5q0 85 32 166t102 135t178 54q58 0 116.5 -14.5zM229.5 356q-30.5 -71 -30.5 -160
q0 -48 13.5 -66.5t37.5 -18.5q48 0 89 67l35 241q-27 8 -50 8q-64 0 -94.5 -71zM314 846l207 -141l-49 -85l-232 94z" />
    <glyph glyph-name="aacute" unicode="&#xe1;" horiz-adv-x="573" 
d="M446.5 536.5q58.5 -14.5 110.5 -44.5l-48 -330q-2 -18 -2 -23q0 -16 5.5 -25t20.5 -15l-50 -114q-48 3 -83.5 25t-48.5 63q-64 -92 -159 -92q-83 0 -128.5 57.5t-45.5 157.5q0 85 32 166t102 135t178 54q58 0 116.5 -14.5zM229.5 356q-30.5 -71 -30.5 -160
q0 -48 13.5 -66.5t37.5 -18.5q48 0 89 67l35 241q-27 8 -50 8q-64 0 -94.5 -71zM462 846l55 -132l-253 -96l-39 89z" />
    <glyph glyph-name="acircumflex" unicode="&#xe2;" horiz-adv-x="573" 
d="M446.5 536.5q58.5 -14.5 110.5 -44.5l-48 -330q-2 -18 -2 -23q0 -16 5.5 -25t20.5 -15l-50 -114q-48 3 -83.5 25t-48.5 63q-64 -92 -159 -92q-83 0 -128.5 57.5t-45.5 157.5q0 85 32 166t102 135t178 54q58 0 116.5 -14.5zM229.5 356q-30.5 -71 -30.5 -160
q0 -48 13.5 -66.5t37.5 -18.5q48 0 89 67l35 241q-27 8 -50 8q-64 0 -94.5 -71zM225 616l-54 71l160 144h106l121 -144l-70 -71l-118 94z" />
    <glyph glyph-name="atilde" unicode="&#xe3;" horiz-adv-x="573" 
d="M446.5 536.5q58.5 -14.5 110.5 -44.5l-48 -330q-2 -18 -2 -23q0 -16 5.5 -25t20.5 -15l-50 -114q-48 3 -83.5 25t-48.5 63q-64 -92 -159 -92q-83 0 -128.5 57.5t-45.5 157.5q0 85 32 166t102 135t178 54q58 0 116.5 -14.5zM229.5 356q-30.5 -71 -30.5 -160
q0 -48 13.5 -66.5t37.5 -18.5q48 0 89 67l35 241q-27 8 -50 8q-64 0 -94.5 -71zM387.5 635q-15.5 7 -33.5 19q-14 9 -23 13.5t-18 4.5q-18 0 -31 -10.5t-29 -34.5l-79 45q28 55 66.5 90.5t81.5 35.5q22 0 37 -7t35 -20q11 -9 19 -13t17 -4q16 0 29.5 10.5t29.5 33.5l79 -44
q-28 -56 -66.5 -91t-80.5 -35q-18 0 -33.5 7z" />
    <glyph glyph-name="adieresis" unicode="&#xe4;" horiz-adv-x="573" 
d="M446.5 536.5q58.5 -14.5 110.5 -44.5l-48 -330q-2 -18 -2 -23q0 -16 5.5 -25t20.5 -15l-50 -114q-48 3 -83.5 25t-48.5 63q-64 -92 -159 -92q-83 0 -128.5 57.5t-45.5 157.5q0 85 32 166t102 135t178 54q58 0 116.5 -14.5zM229.5 356q-30.5 -71 -30.5 -160
q0 -48 13.5 -66.5t37.5 -18.5q48 0 89 67l35 241q-27 8 -50 8q-64 0 -94.5 -71zM187.5 659q-21.5 21 -21.5 54q0 41 28.5 68.5t70.5 27.5q36 0 57.5 -21.5t21.5 -54.5q0 -41 -28.5 -68t-70.5 -27q-36 0 -57.5 21zM421.5 659q-21.5 21 -21.5 54q0 41 28.5 68.5t70.5 27.5
q36 0 57.5 -21.5t21.5 -54.5q0 -41 -28.5 -68t-70.5 -27q-36 0 -57.5 21z" />
    <glyph glyph-name="aring" unicode="&#xe5;" horiz-adv-x="573" 
d="M446.5 536.5q58.5 -14.5 110.5 -44.5l-48 -330q-2 -18 -2 -23q0 -16 5.5 -25t20.5 -15l-50 -114q-48 3 -83.5 25t-48.5 63q-64 -92 -159 -92q-83 0 -128.5 57.5t-45.5 157.5q0 85 32 166t102 135t178 54q58 0 116.5 -14.5zM229.5 356q-30.5 -71 -30.5 -160
q0 -48 13.5 -66.5t37.5 -18.5q48 0 89 67l35 241q-27 8 -50 8q-64 0 -94.5 -71zM484.5 842q33.5 -35 33.5 -91q0 -39 -20 -74t-57.5 -56.5t-85.5 -21.5q-59 0 -93 35t-34 90q0 39 20.5 74t57.5 57t84 22q61 0 94.5 -35zM342.5 769.5q-14.5 -18.5 -14.5 -41.5q0 -19 9.5 -29
t26.5 -10q25 0 39.5 17.5t14.5 40.5q0 20 -9.5 30.5t-26.5 10.5q-25 0 -39.5 -18.5z" />
    <glyph glyph-name="ae" unicode="&#xe6;" horiz-adv-x="838" 
d="M387 534q37 -17 63 -51q31 31 79 49.5t101 18.5q97 0 151.5 -42t54.5 -107q0 -177 -341 -209q3 -47 25.5 -65t62.5 -18q33 0 64 11.5t70 37.5l62 -104q-104 -74 -219 -74q-70 0 -120 22.5t-77 64.5q-43 -47 -91 -67t-104 -20q-75 0 -120 40t-45 106q0 85 64 142t218 57
h52q5 18 17 47q-5 23 -29.5 36t-60.5 13q-65 0 -143 -26l-27 116q101 39 195 39q61 0 98 -17zM540 396q-27 -40 -37 -100q59 4 94 20.5t49 36.5t14 38q0 45 -49 45q-44 0 -71 -40zM287 226q-47 0 -73 -18.5t-26 -54.5q0 -45 46 -45q24 0 45 13t47 39q-5 25 -3 66h-36z" />
    <glyph glyph-name="ccedilla" unicode="&#xe7;" horiz-adv-x="470" 
d="M282 -18l-5 -27q46 -6 70 -30.5t24 -63.5q0 -30 -17 -60t-55 -50t-97 -20q-67 0 -114 34l49 77q29 -16 60 -16q50 0 50 30q0 16 -20 22t-67 6l26 104q-80 19 -123.5 78t-43.5 148q0 76 32.5 154t101.5 130.5t173 52.5q106 0 175 -71l-85 -101q-40 37 -89 37
q-68 0 -96 -63t-28 -144q0 -49 19.5 -68.5t56.5 -19.5q25 0 47.5 8.5t52.5 27.5l64 -113q-76 -55 -161 -62z" />
    <glyph glyph-name="egrave" unicode="&#xe8;" horiz-adv-x="537" 
d="M195 192q5 -82 87 -82q33 0 64 11.5t70 37.5l62 -104q-104 -74 -218 -74q-119 0 -180 61.5t-61 166.5q0 80 31.5 158.5t101.5 131t178 52.5q97 0 151 -42t54 -107q0 -178 -340 -210zM323.5 330q35.5 29 35.5 64q0 18 -10.5 30t-34.5 12q-45 0 -72.5 -39.5t-39.5 -100.5
q86 5 121.5 34zM285 846l207 -141l-49 -85l-232 94z" />
    <glyph glyph-name="eacute" unicode="&#xe9;" horiz-adv-x="537" 
d="M195 192q5 -82 87 -82q33 0 64 11.5t70 37.5l62 -104q-104 -74 -218 -74q-119 0 -180 61.5t-61 166.5q0 80 31.5 158.5t101.5 131t178 52.5q97 0 151 -42t54 -107q0 -178 -340 -210zM323.5 330q35.5 29 35.5 64q0 18 -10.5 30t-34.5 12q-45 0 -72.5 -39.5t-39.5 -100.5
q86 5 121.5 34zM433 846l55 -132l-253 -96l-39 89z" />
    <glyph glyph-name="ecircumflex" unicode="&#xea;" horiz-adv-x="537" 
d="M195 192q5 -82 87 -82q33 0 64 11.5t70 37.5l62 -104q-104 -74 -218 -74q-119 0 -180 61.5t-61 166.5q0 80 31.5 158.5t101.5 131t178 52.5q97 0 151 -42t54 -107q0 -178 -340 -210zM323.5 330q35.5 29 35.5 64q0 18 -10.5 30t-34.5 12q-45 0 -72.5 -39.5t-39.5 -100.5
q86 5 121.5 34zM196 616l-54 71l160 144h106l121 -144l-70 -71l-118 94z" />
    <glyph glyph-name="edieresis" unicode="&#xeb;" horiz-adv-x="537" 
d="M195 192q5 -82 87 -82q33 0 64 11.5t70 37.5l62 -104q-104 -74 -218 -74q-119 0 -180 61.5t-61 166.5q0 80 31.5 158.5t101.5 131t178 52.5q97 0 151 -42t54 -107q0 -178 -340 -210zM323.5 330q35.5 29 35.5 64q0 18 -10.5 30t-34.5 12q-45 0 -72.5 -39.5t-39.5 -100.5
q86 5 121.5 34zM158.5 659q-21.5 21 -21.5 54q0 41 28.5 68.5t70.5 27.5q36 0 57.5 -21.5t21.5 -54.5q0 -41 -28.5 -68t-70.5 -27q-36 0 -57.5 21zM392.5 659q-21.5 21 -21.5 54q0 41 28.5 68.5t70.5 27.5q36 0 57.5 -21.5t21.5 -54.5q0 -41 -28.5 -68t-70.5 -27
q-36 0 -57.5 21z" />
    <glyph glyph-name="igrave" unicode="&#xec;" horiz-adv-x="277" 
d="M263 533l-74 -533h-175l74 533h175zM144 846l207 -141l-49 -85l-232 94z" />
    <glyph glyph-name="iacute" unicode="&#xed;" horiz-adv-x="277" 
d="M263 533l-74 -533h-175l74 533h175zM292 846l55 -132l-253 -96l-39 89z" />
    <glyph glyph-name="icircumflex" unicode="&#xee;" horiz-adv-x="277" 
d="M263 533l-74 -533h-175l74 533h175zM55 616l-54 71l160 144h106l121 -144l-70 -71l-118 94z" />
    <glyph glyph-name="idieresis" unicode="&#xef;" horiz-adv-x="277" 
d="M263 533l-74 -533h-175l74 533h175zM17.5 659q-21.5 21 -21.5 54q0 41 28.5 68.5t70.5 27.5q36 0 57.5 -21.5t21.5 -54.5q0 -41 -28.5 -68t-70.5 -27q-36 0 -57.5 21zM251.5 659q-21.5 21 -21.5 54q0 41 28.5 68.5t70.5 27.5q36 0 57.5 -21.5t21.5 -54.5q0 -41 -28.5 -68
t-70.5 -27q-36 0 -57.5 21z" />
    <glyph glyph-name="eth" unicode="&#xf0;" horiz-adv-x="574" 
d="M518.5 540q33.5 -73 33.5 -166q0 -112 -36.5 -201.5t-105.5 -140.5t-164 -51q-66 0 -118.5 25.5t-82 74t-29.5 115.5q0 69 28 134.5t83.5 108t131.5 42.5q39 0 68 -11t55 -32q-9 43 -26 75t-50 62l-57 -51l-103 51l58 54q-31 9 -79 18l48 113q75 -12 136 -35l85 80
l79 -78l-62 -57q74 -57 107.5 -130zM320.5 136.5q22.5 26.5 33.5 71.5t20 119q-30 31 -78 31q-54 0 -77.5 -50.5t-23.5 -117.5q0 -80 64 -80q39 0 61.5 26.5z" />
    <glyph glyph-name="ntilde" unicode="&#xf1;" horiz-adv-x="564" 
d="M506.5 518q31.5 -33 31.5 -93q0 -16 -3 -36l-54 -389h-175l49 346q2 18 2 22q0 38 -26 38q-23 0 -48 -31t-53 -90l-41 -285h-175l74 533h152l-1 -91q33 50 81 79.5t99 29.5q56 0 87.5 -33zM365.5 635q-15.5 7 -33.5 19q-14 9 -23 13.5t-18 4.5q-18 0 -31 -10.5t-29 -34.5
l-79 45q28 55 66.5 90.5t81.5 35.5q22 0 37 -7t35 -20q11 -9 19 -13t17 -4q16 0 29.5 10.5t29.5 33.5l79 -44q-28 -56 -66.5 -91t-80.5 -35q-18 0 -33.5 7z" />
    <glyph glyph-name="ograve" unicode="&#xf2;" horiz-adv-x="573" 
d="M80 41.5q-60 60.5 -60 168.5q0 85 30 162.5t98 128t175 50.5t168 -60.5t61 -165.5q0 -84 -29.5 -162.5t-98 -130t-176.5 -51.5t-168 60.5zM349 183q24 72 24 154q0 44 -15.5 64.5t-47.5 20.5q-63 0 -87 -70.5t-24 -151.5q0 -47 15 -68t48 -21q63 0 87 72zM285 846
l207 -141l-49 -85l-232 94z" />
    <glyph glyph-name="oacute" unicode="&#xf3;" horiz-adv-x="573" 
d="M80 41.5q-60 60.5 -60 168.5q0 85 30 162.5t98 128t175 50.5t168 -60.5t61 -165.5q0 -84 -29.5 -162.5t-98 -130t-176.5 -51.5t-168 60.5zM349 183q24 72 24 154q0 44 -15.5 64.5t-47.5 20.5q-63 0 -87 -70.5t-24 -151.5q0 -47 15 -68t48 -21q63 0 87 72zM433 846
l55 -132l-253 -96l-39 89z" />
    <glyph glyph-name="ocircumflex" unicode="&#xf4;" horiz-adv-x="573" 
d="M80 41.5q-60 60.5 -60 168.5q0 85 30 162.5t98 128t175 50.5t168 -60.5t61 -165.5q0 -84 -29.5 -162.5t-98 -130t-176.5 -51.5t-168 60.5zM349 183q24 72 24 154q0 44 -15.5 64.5t-47.5 20.5q-63 0 -87 -70.5t-24 -151.5q0 -47 15 -68t48 -21q63 0 87 72zM196 616l-54 71
l160 144h106l121 -144l-70 -71l-118 94z" />
    <glyph glyph-name="otilde" unicode="&#xf5;" horiz-adv-x="573" 
d="M80 41.5q-60 60.5 -60 168.5q0 85 30 162.5t98 128t175 50.5t168 -60.5t61 -165.5q0 -84 -29.5 -162.5t-98 -130t-176.5 -51.5t-168 60.5zM349 183q24 72 24 154q0 44 -15.5 64.5t-47.5 20.5q-63 0 -87 -70.5t-24 -151.5q0 -47 15 -68t48 -21q63 0 87 72zM358.5 635
q-15.5 7 -33.5 19q-14 9 -23 13.5t-18 4.5q-18 0 -31 -10.5t-29 -34.5l-79 45q28 55 66.5 90.5t81.5 35.5q22 0 37 -7t35 -20q11 -9 19 -13t17 -4q16 0 29.5 10.5t29.5 33.5l79 -44q-28 -56 -66.5 -91t-80.5 -35q-18 0 -33.5 7z" />
    <glyph glyph-name="odieresis" unicode="&#xf6;" horiz-adv-x="573" 
d="M80 41.5q-60 60.5 -60 168.5q0 85 30 162.5t98 128t175 50.5t168 -60.5t61 -165.5q0 -84 -29.5 -162.5t-98 -130t-176.5 -51.5t-168 60.5zM349 183q24 72 24 154q0 44 -15.5 64.5t-47.5 20.5q-63 0 -87 -70.5t-24 -151.5q0 -47 15 -68t48 -21q63 0 87 72zM158.5 659
q-21.5 21 -21.5 54q0 41 28.5 68.5t70.5 27.5q36 0 57.5 -21.5t21.5 -54.5q0 -41 -28.5 -68t-70.5 -27q-36 0 -57.5 21zM392.5 659q-21.5 21 -21.5 54q0 41 28.5 68.5t70.5 27.5q36 0 57.5 -21.5t21.5 -54.5q0 -41 -28.5 -68t-70.5 -27q-36 0 -57.5 21z" />
    <glyph glyph-name="divide" unicode="&#xf7;" horiz-adv-x="514" 
d="M164 15q-24 25 -24 63q0 43 31 74.5t76 31.5q37 0 60.5 -24t23.5 -62q0 -44 -31 -76t-75 -32q-37 0 -61 25zM232 505q-24 25 -24 63q0 43 31 74.5t76 31.5q37 0 60.5 -24t23.5 -62q0 -44 -31 -76t-75 -32q-37 0 -61 25zM42 264l19 136h429l-19 -136h-429z" />
    <glyph glyph-name="oslash" unicode="&#xf8;" horiz-adv-x="573" 
d="M531 429.5q21 -46.5 21 -102.5q0 -85 -29.5 -164t-98 -130.5t-176.5 -51.5q-19 0 -29 1l-52 -119l-121 38l56 125q-39 30 -60.5 77.5t-21.5 106.5q0 85 30 162.5t98 128t175 50.5q11 0 31 -2l54 121l122 -38l-60 -126q40 -30 61 -76.5zM234.5 385q-29.5 -37 -41.5 -87
t-12 -94q0 -36 9 -57l128 275h-5q-49 0 -78.5 -37zM337.5 147.5q28.5 36.5 40.5 86t12 91.5q0 33 -8 55l-125 -269h4q48 0 76.5 36.5z" />
    <glyph glyph-name="ugrave" unicode="&#xf9;" horiz-adv-x="558" 
d="M58.5 16q-32.5 35 -32.5 97q0 19 3 38l54 382h175l-49 -350q-2 -16 -2 -22q0 -37 31 -37q37 0 84 71l47 338h175l-74 -533h-152l3 73q-74 -92 -167 -92q-63 0 -95.5 35zM283 846l207 -141l-49 -85l-232 94z" />
    <glyph glyph-name="uacute" unicode="&#xfa;" horiz-adv-x="558" 
d="M58.5 16q-32.5 35 -32.5 97q0 19 3 38l54 382h175l-49 -350q-2 -16 -2 -22q0 -37 31 -37q37 0 84 71l47 338h175l-74 -533h-152l3 73q-74 -92 -167 -92q-63 0 -95.5 35zM431 846l55 -132l-253 -96l-39 89z" />
    <glyph glyph-name="ucircumflex" unicode="&#xfb;" horiz-adv-x="558" 
d="M58.5 16q-32.5 35 -32.5 97q0 19 3 38l54 382h175l-49 -350q-2 -16 -2 -22q0 -37 31 -37q37 0 84 71l47 338h175l-74 -533h-152l3 73q-74 -92 -167 -92q-63 0 -95.5 35zM194 616l-54 71l160 144h106l121 -144l-70 -71l-118 94z" />
    <glyph glyph-name="udieresis" unicode="&#xfc;" horiz-adv-x="558" 
d="M58.5 16q-32.5 35 -32.5 97q0 19 3 38l54 382h175l-49 -350q-2 -16 -2 -22q0 -37 31 -37q37 0 84 71l47 338h175l-74 -533h-152l3 73q-74 -92 -167 -92q-63 0 -95.5 35zM156.5 659q-21.5 21 -21.5 54q0 41 28.5 68.5t70.5 27.5q36 0 57.5 -21.5t21.5 -54.5
q0 -41 -28.5 -68t-70.5 -27q-36 0 -57.5 21zM390.5 659q-21.5 21 -21.5 54q0 41 28.5 68.5t70.5 27.5q36 0 57.5 -21.5t21.5 -54.5q0 -41 -28.5 -68t-70.5 -27q-36 0 -57.5 21z" />
    <glyph glyph-name="yacute" unicode="&#xfd;" horiz-adv-x="514" 
d="M331 -1q-92 -214 -346 -224l-4 123q77 9 117 31t70 71h-62l-79 533h182l23 -421l148 421h183zM412 846l55 -132l-253 -96l-39 89z" />
    <glyph glyph-name="thorn" unicode="&#xfe;" horiz-adv-x="582" 
d="M521.5 497.5q41.5 -53.5 41.5 -153.5q0 -87 -27 -169.5t-90.5 -138t-167.5 -55.5q-26 0 -50.5 4t-40.5 10l-29 -201l-177 -19l136 968l177 18l-38 -270q28 27 67 43.5t75 16.5q82 0 123.5 -53.5zM332 145.5q27 35.5 39 88t12 104.5q0 47 -14.5 65.5t-40.5 18.5
q-47 0 -89 -57l-34 -244q31 -11 59 -11q41 0 68 35.5z" />
    <glyph glyph-name="ydieresis" unicode="&#xff;" horiz-adv-x="514" 
d="M331 -1q-92 -214 -346 -224l-4 123q77 9 117 31t70 71h-62l-79 533h182l23 -421l148 421h183zM137.5 659q-21.5 21 -21.5 54q0 41 28.5 68.5t70.5 27.5q36 0 57.5 -21.5t21.5 -54.5q0 -41 -28.5 -68t-70.5 -27q-36 0 -57.5 21zM371.5 659q-21.5 21 -21.5 54
q0 41 28.5 68.5t70.5 27.5q36 0 57.5 -21.5t21.5 -54.5q0 -41 -28.5 -68t-70.5 -27q-36 0 -57.5 21z" />
    <glyph glyph-name="Amacron" unicode="&#x100;" horiz-adv-x="585" 
d="M374 0l-11 142h-181l-49 -142h-190l299 695h220l104 -695h-192zM227 274h127l-23 301zM519 778h-310l17 122h310z" />
    <glyph glyph-name="amacron" unicode="&#x101;" horiz-adv-x="573" 
d="M446.5 536.5q58.5 -14.5 110.5 -44.5l-48 -330q-2 -18 -2 -23q0 -16 5.5 -25t20.5 -15l-50 -114q-48 3 -83.5 25t-48.5 63q-64 -92 -159 -92q-83 0 -128.5 57.5t-45.5 157.5q0 85 32 166t102 135t178 54q58 0 116.5 -14.5zM229.5 356q-30.5 -71 -30.5 -160
q0 -48 13.5 -66.5t37.5 -18.5q48 0 89 67l35 241q-27 8 -50 8q-64 0 -94.5 -71zM517 652h-310l17 122h310z" />
    <glyph glyph-name="Abreve" unicode="&#x102;" horiz-adv-x="585" 
d="M374 0l-11 142h-181l-49 -142h-190l299 695h220l104 -695h-192zM227 274h127l-23 301zM273.5 772.5q-35.5 24.5 -51 65t-12.5 86.5l92 14q4 -30 22 -49t49 -19q32 0 55.5 19.5t36.5 50.5l95 -19q-16 -72 -68 -122.5t-130 -50.5q-53 0 -88.5 24.5z" />
    <glyph glyph-name="abreve" unicode="&#x103;" horiz-adv-x="573" 
d="M446.5 536.5q58.5 -14.5 110.5 -44.5l-48 -330q-2 -18 -2 -23q0 -16 5.5 -25t20.5 -15l-50 -114q-48 3 -83.5 25t-48.5 63q-64 -92 -159 -92q-83 0 -128.5 57.5t-45.5 157.5q0 85 32 166t102 135t178 54q58 0 116.5 -14.5zM229.5 356q-30.5 -71 -30.5 -160
q0 -48 13.5 -66.5t37.5 -18.5q48 0 89 67l35 241q-27 8 -50 8q-64 0 -94.5 -71zM234.5 682q-38.5 53 -33.5 133l95 14q2 -37 19.5 -57.5t49.5 -20.5q33 0 57.5 21.5t37.5 58.5l91 -19q-16 -79 -67.5 -131t-130.5 -52q-80 0 -118.5 53z" />
    <glyph glyph-name="Aogonek" unicode="&#x104;" horiz-adv-x="585" 
d="M377.5 -55q-27.5 -29 -27.5 -55q0 -33 43 -33q26 0 63 8l-24 -107q-35 -8 -71 -8q-61 0 -99.5 29t-38.5 79q0 108 149 170l-9 114h-181l-49 -142h-190l299 695h220l104 -695h-85q-76 -26 -103.5 -55zM227 274h127l-23 301z" />
    <glyph glyph-name="aogonek" unicode="&#x105;" horiz-adv-x="573" 
d="M507 139q0 -16 5.5 -25t20.5 -15l-50 -114q-76 -26 -103.5 -55t-27.5 -55q0 -33 43 -33q26 0 63 8l-24 -107q-35 -8 -71 -8q-61 0 -99.5 29t-38.5 79q0 114 163 175q-27 22 -37 55q-64 -92 -159 -92q-83 0 -128.5 57.5t-45.5 157.5q0 85 32 166t102 135t178 54
q58 0 116.5 -14.5t110.5 -44.5l-48 -330q-2 -18 -2 -23zM374 419q-27 8 -50 8q-64 0 -94.5 -71t-30.5 -160q0 -48 13.5 -66.5t37.5 -18.5q48 0 89 67z" />
    <glyph glyph-name="Cacute" unicode="&#x106;" horiz-adv-x="568" 
d="M607 627l-97 -94q-26 22 -53 33.5t-60 11.5q-63 0 -102.5 -50t-57 -120.5t-17.5 -136.5q0 -75 29 -111.5t83 -36.5q36 0 67.5 15t69.5 43l69 -107q-45 -41 -105 -67t-131 -26q-81 0 -142 33.5t-94.5 98.5t-33.5 157q0 106 37.5 207.5t119 168.5t206.5 67q135 0 212 -86z
M531 963l55 -132l-253 -87l-38 88z" />
    <glyph glyph-name="cacute" unicode="&#x107;" horiz-adv-x="470" 
d="M501 480l-85 -101q-40 37 -89 37q-68 0 -96 -63t-28 -144q0 -49 19.5 -68.5t56.5 -19.5q25 0 47.5 8.5t52.5 27.5l64 -113q-87 -63 -188 -63q-111 0 -173.5 63t-62.5 170q0 76 32.5 154t101.5 130.5t173 52.5q106 0 175 -71zM440 846l55 -132l-253 -96l-39 89z" />
    <glyph glyph-name="Ccircumflex" unicode="&#x108;" horiz-adv-x="568" 
d="M607 627l-97 -94q-26 22 -53 33.5t-60 11.5q-63 0 -102.5 -50t-57 -120.5t-17.5 -136.5q0 -75 29 -111.5t83 -36.5q36 0 67.5 15t69.5 43l69 -107q-45 -41 -105 -67t-131 -26q-81 0 -142 33.5t-94.5 98.5t-33.5 157q0 106 37.5 207.5t119 168.5t206.5 67q135 0 212 -86z
M281 753l-55 71l160 136h106l121 -136l-67 -71l-121 86z" />
    <glyph glyph-name="ccircumflex" unicode="&#x109;" horiz-adv-x="470" 
d="M501 480l-85 -101q-40 37 -89 37q-68 0 -96 -63t-28 -144q0 -49 19.5 -68.5t56.5 -19.5q25 0 47.5 8.5t52.5 27.5l64 -113q-87 -63 -188 -63q-111 0 -173.5 63t-62.5 170q0 76 32.5 154t101.5 130.5t173 52.5q106 0 175 -71zM203 616l-54 71l160 144h106l121 -144
l-70 -71l-118 94z" />
    <glyph glyph-name="Cdotaccent" unicode="&#x10a;" horiz-adv-x="568" 
d="M607 627l-97 -94q-26 22 -53 33.5t-60 11.5q-63 0 -102.5 -50t-57 -120.5t-17.5 -136.5q0 -75 29 -111.5t83 -36.5q36 0 67.5 15t69.5 43l69 -107q-45 -41 -105 -67t-131 -26q-81 0 -142 33.5t-94.5 98.5t-33.5 157q0 106 37.5 207.5t119 168.5t206.5 67q135 0 212 -86z
M356.5 774q-24.5 24 -24.5 62q0 47 32.5 78.5t80.5 31.5q41 0 65.5 -24t24.5 -62q0 -47 -32.5 -78.5t-80.5 -31.5q-41 0 -65.5 24z" />
    <glyph glyph-name="cdotaccent" unicode="&#x10b;" horiz-adv-x="470" 
d="M501 480l-85 -101q-40 37 -89 37q-68 0 -96 -63t-28 -144q0 -49 19.5 -68.5t56.5 -19.5q25 0 47.5 8.5t52.5 27.5l64 -113q-87 -63 -188 -63q-111 0 -173.5 63t-62.5 170q0 76 32.5 154t101.5 130.5t173 52.5q106 0 175 -71zM272.5 648q-24.5 24 -24.5 62q0 47 32.5 78.5
t80.5 31.5q41 0 65.5 -24t24.5 -62q0 -47 -32.5 -78.5t-80.5 -31.5q-41 0 -65.5 24z" />
    <glyph glyph-name="Ccaron" unicode="&#x10c;" horiz-adv-x="568" 
d="M607 627l-97 -94q-26 22 -53 33.5t-60 11.5q-63 0 -102.5 -50t-57 -120.5t-17.5 -136.5q0 -75 29 -111.5t83 -36.5q36 0 67.5 15t69.5 43l69 -107q-45 -41 -105 -67t-131 -26q-81 0 -142 33.5t-94.5 98.5t-33.5 157q0 106 37.5 207.5t119 168.5t206.5 67q135 0 212 -86z
M574 954l54 -70l-158 -136h-106l-123 136l69 70l120 -85z" />
    <glyph glyph-name="ccaron" unicode="&#x10d;" horiz-adv-x="470" 
d="M501 480l-85 -101q-40 37 -89 37q-68 0 -96 -63t-28 -144q0 -49 19.5 -68.5t56.5 -19.5q25 0 47.5 8.5t52.5 27.5l64 -113q-87 -63 -188 -63q-111 0 -173.5 63t-62.5 170q0 76 32.5 154t101.5 130.5t173 52.5q106 0 175 -71zM490 822l56 -71l-160 -144h-106l-121 144
l66 71l119 -94z" />
    <glyph glyph-name="Dcaron" unicode="&#x10e;" horiz-adv-x="643" 
d="M547 637q87 -58 87 -206q0 -191 -93.5 -311t-305.5 -120h-219l97 695h203q144 0 231 -58zM277 562l-60 -430h45q102 0 143.5 89.5t41.5 208.5q0 75 -30.5 103.5t-91.5 28.5h-48zM514 954l54 -70l-158 -136h-106l-123 136l69 70l120 -85z" />
    <glyph glyph-name="dcaron" unicode="&#x10f;" horiz-adv-x="683" 
d="M602 743l-104 -743h-156l1 72q-64 -91 -158 -91q-82 0 -124.5 56.5t-42.5 159.5q0 80 28 162t86 137t144 55q36 0 66 -12.5t51 -34.5l35 257zM247 386.5q-26 -36.5 -37 -88.5t-11 -101t13 -67.5t36 -18.5q47 0 102 90l27 192q-26 30 -62 30q-42 0 -68 -36.5zM649 758
l126 -16l-78 -225l-88 8z" />
    <glyph glyph-name="Dcroat" unicode="&#x110;" horiz-adv-x="652" 
d="M556 637q87 -58 87 -206q0 -191 -93.5 -311t-305.5 -120h-219l42 299h-55l15 108h55l40 288h203q144 0 231 -58zM414.5 221.5q41.5 89.5 41.5 208.5q0 75 -30.5 103.5t-91.5 28.5h-48l-22 -155h125l-14 -108h-126l-23 -167h45q102 0 143.5 89.5z" />
    <glyph glyph-name="dcroat" unicode="&#x111;" horiz-adv-x="596" 
d="M636 593h-55l-83 -593h-156l1 72q-64 -91 -158 -91q-82 0 -124.5 56.5t-42.5 159.5q0 80 28 162t86 137t144 55q36 0 66 -12.5t51 -34.5l12 89h-121l1 99h134l9 69l174 -18l-7 -51h55zM377 393q-26 30 -62 30q-42 0 -68 -36.5t-37 -88.5t-11 -101t13 -67.5t36 -18.5
q47 0 102 90z" />
    <glyph glyph-name="Emacron" unicode="&#x112;" horiz-adv-x="514" 
d="M548 695l-38 -131h-233l-21 -147h204l-17 -128h-204l-22 -158h249l-18 -131h-432l97 695h435zM499 778h-310l17 122h310z" />
    <glyph glyph-name="emacron" unicode="&#x113;" horiz-adv-x="537" 
d="M195 192q5 -82 87 -82q33 0 64 11.5t70 37.5l62 -104q-104 -74 -218 -74q-119 0 -180 61.5t-61 166.5q0 80 31.5 158.5t101.5 131t178 52.5q97 0 151 -42t54 -107q0 -178 -340 -210zM323.5 330q35.5 29 35.5 64q0 18 -10.5 30t-34.5 12q-45 0 -72.5 -39.5t-39.5 -100.5
q86 5 121.5 34zM488 652h-310l17 122h310z" />
    <glyph glyph-name="Ebreve" unicode="&#x114;" horiz-adv-x="514" 
d="M548 695l-38 -131h-233l-21 -147h204l-17 -128h-204l-22 -158h249l-18 -131h-432l97 695h435zM253.5 772.5q-35.5 24.5 -51 65t-12.5 86.5l92 14q4 -30 22 -49t49 -19q32 0 55.5 19.5t36.5 50.5l95 -19q-16 -72 -68 -122.5t-130 -50.5q-53 0 -88.5 24.5z" />
    <glyph glyph-name="ebreve" unicode="&#x115;" horiz-adv-x="537" 
d="M195 192q5 -82 87 -82q33 0 64 11.5t70 37.5l62 -104q-104 -74 -218 -74q-119 0 -180 61.5t-61 166.5q0 80 31.5 158.5t101.5 131t178 52.5q97 0 151 -42t54 -107q0 -178 -340 -210zM323.5 330q35.5 29 35.5 64q0 18 -10.5 30t-34.5 12q-45 0 -72.5 -39.5t-39.5 -100.5
q86 5 121.5 34zM205.5 682q-38.5 53 -33.5 133l95 14q2 -37 19.5 -57.5t49.5 -20.5q33 0 57.5 21.5t37.5 58.5l91 -19q-16 -79 -67.5 -131t-130.5 -52q-80 0 -118.5 53z" />
    <glyph glyph-name="Edotaccent" unicode="&#x116;" horiz-adv-x="514" 
d="M548 695l-38 -131h-233l-21 -147h204l-17 -128h-204l-22 -158h249l-18 -131h-432l97 695h435zM279.5 774q-24.5 24 -24.5 62q0 47 32.5 78.5t80.5 31.5q41 0 65.5 -24t24.5 -62q0 -47 -32.5 -78.5t-80.5 -31.5q-41 0 -65.5 24z" />
    <glyph glyph-name="edotaccent" unicode="&#x117;" horiz-adv-x="537" 
d="M195 192q5 -82 87 -82q33 0 64 11.5t70 37.5l62 -104q-104 -74 -218 -74q-119 0 -180 61.5t-61 166.5q0 80 31.5 158.5t101.5 131t178 52.5q97 0 151 -42t54 -107q0 -178 -340 -210zM323.5 330q35.5 29 35.5 64q0 18 -10.5 30t-34.5 12q-45 0 -72.5 -39.5t-39.5 -100.5
q86 5 121.5 34zM265.5 648q-24.5 24 -24.5 62q0 47 32.5 78.5t80.5 31.5q41 0 65.5 -24t24.5 -62q0 -47 -32.5 -78.5t-80.5 -31.5q-41 0 -65.5 24z" />
    <glyph glyph-name="Eogonek" unicode="&#x118;" horiz-adv-x="514" 
d="M277 564l-21 -147h204l-17 -128h-204l-22 -158h249l-18 -131h-38q-76 -26 -103.5 -55t-27.5 -55q0 -33 43 -33q26 0 63 8l-24 -107q-35 -8 -71 -8q-61 0 -99.5 29t-38.5 79q0 86 93 142h-229l97 695h435l-38 -131h-233z" />
    <glyph glyph-name="eogonek" unicode="&#x119;" horiz-adv-x="537" 
d="M195 192q5 -82 87 -82q33 0 64 11.5t70 37.5l62 -104q-60 -44 -129 -62q-85 -40 -85 -90q0 -36 46 -36q27 0 62 8l-23 -107q-34 -8 -72 -8q-63 0 -102.5 29t-39.5 80q0 73 75 115q-95 13 -143 72.5t-48 152.5q0 80 31.5 158.5t101.5 131t178 52.5q97 0 151 -42t54 -107
q0 -178 -340 -210zM323.5 330q35.5 29 35.5 64q0 18 -10.5 30t-34.5 12q-45 0 -72.5 -39.5t-39.5 -100.5q86 5 121.5 34z" />
    <glyph glyph-name="Ecaron" unicode="&#x11a;" horiz-adv-x="514" 
d="M548 695l-38 -131h-233l-21 -147h204l-17 -128h-204l-22 -158h249l-18 -131h-432l97 695h435zM497 954l54 -70l-158 -136h-106l-123 136l69 70l120 -85z" />
    <glyph glyph-name="ecaron" unicode="&#x11b;" horiz-adv-x="537" 
d="M195 192q5 -82 87 -82q33 0 64 11.5t70 37.5l62 -104q-104 -74 -218 -74q-119 0 -180 61.5t-61 166.5q0 80 31.5 158.5t101.5 131t178 52.5q97 0 151 -42t54 -107q0 -178 -340 -210zM323.5 330q35.5 29 35.5 64q0 18 -10.5 30t-34.5 12q-45 0 -72.5 -39.5t-39.5 -100.5
q86 5 121.5 34zM483 822l56 -71l-160 -144h-106l-121 144l66 71l119 -94z" />
    <glyph glyph-name="Gcircumflex" unicode="&#x11c;" horiz-adv-x="637" 
d="M550 688.5q56 -24.5 95 -66.5l-100 -90q-32 26 -60.5 37.5t-66.5 11.5q-74 0 -119 -51t-63 -127.5t-18 -158.5q0 -70 24.5 -99.5t75.5 -29.5q42 0 86 19l20 142h-79l2 128h271l-48 -347q-58 -36 -127 -56t-134 -20q-140 0 -209 70.5t-69 207.5q0 114 40.5 217.5t128 170
t221.5 66.5q73 0 129 -24.5zM281 753l-55 71l160 136h106l121 -136l-67 -71l-121 86z" />
    <glyph glyph-name="gcircumflex" unicode="&#x11d;" horiz-adv-x="576" 
d="M452 536.5q59 -14.5 110 -44.5l-63 -442q-21 -146 -89 -210.5t-203 -64.5q-50 0 -105 16.5t-99 44.5l57 114q77 -42 146 -42q48 0 78.5 23t40.5 89l7 46q-58 -66 -137 -66q-85 0 -130.5 56.5t-45.5 152.5q0 80 32 158.5t103.5 131t180.5 52.5q58 0 117 -14.5zM255 393.5
q-29 -33.5 -42 -82.5t-13 -97q0 -83 54 -83q46 0 91 65l35 223q-29 8 -50 8q-46 0 -75 -33.5zM215 616l-54 71l160 144h106l121 -144l-70 -71l-118 94z" />
    <glyph glyph-name="Gbreve" unicode="&#x11e;" horiz-adv-x="637" 
d="M550 688.5q56 -24.5 95 -66.5l-100 -90q-32 26 -60.5 37.5t-66.5 11.5q-74 0 -119 -51t-63 -127.5t-18 -158.5q0 -70 24.5 -99.5t75.5 -29.5q42 0 86 19l20 142h-79l2 128h271l-48 -347q-58 -36 -127 -56t-134 -20q-140 0 -209 70.5t-69 207.5q0 114 40.5 217.5t128 170
t221.5 66.5q73 0 129 -24.5zM330.5 772.5q-35.5 24.5 -51 65t-12.5 86.5l92 14q4 -30 22 -49t49 -19q32 0 55.5 19.5t36.5 50.5l95 -19q-16 -72 -68 -122.5t-130 -50.5q-53 0 -88.5 24.5z" />
    <glyph glyph-name="gbreve" unicode="&#x11f;" horiz-adv-x="576" 
d="M452 536.5q59 -14.5 110 -44.5l-63 -442q-21 -146 -89 -210.5t-203 -64.5q-50 0 -105 16.5t-99 44.5l57 114q77 -42 146 -42q48 0 78.5 23t40.5 89l7 46q-58 -66 -137 -66q-85 0 -130.5 56.5t-45.5 152.5q0 80 32 158.5t103.5 131t180.5 52.5q58 0 117 -14.5zM255 393.5
q-29 -33.5 -42 -82.5t-13 -97q0 -83 54 -83q46 0 91 65l35 223q-29 8 -50 8q-46 0 -75 -33.5zM224.5 682q-38.5 53 -33.5 133l95 14q2 -37 19.5 -57.5t49.5 -20.5q33 0 57.5 21.5t37.5 58.5l91 -19q-16 -79 -67.5 -131t-130.5 -52q-80 0 -118.5 53z" />
    <glyph glyph-name="Gdotaccent" unicode="&#x120;" horiz-adv-x="637" 
d="M550 688.5q56 -24.5 95 -66.5l-100 -90q-32 26 -60.5 37.5t-66.5 11.5q-74 0 -119 -51t-63 -127.5t-18 -158.5q0 -70 24.5 -99.5t75.5 -29.5q42 0 86 19l20 142h-79l2 128h271l-48 -347q-58 -36 -127 -56t-134 -20q-140 0 -209 70.5t-69 207.5q0 114 40.5 217.5t128 170
t221.5 66.5q73 0 129 -24.5zM356.5 774q-24.5 24 -24.5 62q0 47 32.5 78.5t80.5 31.5q41 0 65.5 -24t24.5 -62q0 -47 -32.5 -78.5t-80.5 -31.5q-41 0 -65.5 24z" />
    <glyph glyph-name="gdotaccent" unicode="&#x121;" horiz-adv-x="576" 
d="M452 536.5q59 -14.5 110 -44.5l-63 -442q-21 -146 -89 -210.5t-203 -64.5q-50 0 -105 16.5t-99 44.5l57 114q77 -42 146 -42q48 0 78.5 23t40.5 89l7 46q-58 -66 -137 -66q-85 0 -130.5 56.5t-45.5 152.5q0 80 32 158.5t103.5 131t180.5 52.5q58 0 117 -14.5zM255 393.5
q-29 -33.5 -42 -82.5t-13 -97q0 -83 54 -83q46 0 91 65l35 223q-29 8 -50 8q-46 0 -75 -33.5zM284.5 648q-24.5 24 -24.5 62q0 47 32.5 78.5t80.5 31.5q41 0 65.5 -24t24.5 -62q0 -47 -32.5 -78.5t-80.5 -31.5q-41 0 -65.5 24z" />
    <glyph glyph-name="Gcommaaccent" unicode="&#x122;" horiz-adv-x="637" 
d="M550 688.5q56 -24.5 95 -66.5l-100 -90q-32 26 -60.5 37.5t-66.5 11.5q-74 0 -119 -51t-63 -127.5t-18 -158.5q0 -70 24.5 -99.5t75.5 -29.5q42 0 86 19l20 142h-79l2 128h271l-48 -347q-58 -36 -127 -56t-134 -20q-140 0 -209 70.5t-69 207.5q0 114 40.5 217.5t128 170
t221.5 66.5q73 0 129 -24.5zM354 -86q22 -21 22 -54q0 -24 -9 -45t-30 -53l-60 -96h-85l44 117q-29 21 -29 57q0 42 26 68.5t64 26.5q35 0 57 -21z" />
    <glyph glyph-name="gcommaaccent" unicode="&#x123;" horiz-adv-x="576" 
d="M452 536.5q59 -14.5 110 -44.5l-63 -442q-21 -146 -89 -210.5t-203 -64.5q-50 0 -105 16.5t-99 44.5l57 114q77 -42 146 -42q48 0 78.5 23t40.5 89l7 46q-58 -66 -137 -66q-85 0 -130.5 56.5t-45.5 152.5q0 80 32 158.5t103.5 131t180.5 52.5q58 0 117 -14.5zM255 393.5
q-29 -33.5 -42 -82.5t-13 -97q0 -83 54 -83q46 0 91 65l35 223q-29 8 -50 8q-46 0 -75 -33.5zM289 608q-22 21 -22 54q0 24 9 45t30 53l60 96h85l-44 -117q29 -21 29 -57q0 -42 -26 -68.5t-64 -26.5q-35 0 -57 21z" />
    <glyph glyph-name="Hcircumflex" unicode="&#x124;" horiz-adv-x="650" 
d="M198 0h-182l97 695h182l-37 -263h179l37 263h182l-97 -695h-182l39 289h-177zM257 753l-55 71l160 136h106l121 -136l-67 -71l-121 86z" />
    <glyph glyph-name="hcircumflex" unicode="&#x125;" horiz-adv-x="563" 
d="M505.5 517q31.5 -34 31.5 -94q0 -22 -2 -34l-55 -389h-175l49 346l2 24q0 36 -25 36q-45 0 -103 -121l-40 -285h-175l104 743l177 18l-44 -314q27 47 72.5 75.5t95.5 28.5q56 0 87.5 -34zM220 801l-55 71l160 136h106l121 -136l-67 -71l-121 86z" />
    <glyph glyph-name="Hbar" unicode="&#x126;" horiz-adv-x="671" 
d="M705 597l-14 -100h-54l-69 -497h-182l39 289h-177l-41 -289h-182l69 497h-52l14 100h52l14 98h182l-14 -98h179l14 98h182l-14 -98h54zM446 432l9 65h-179l-9 -65h179z" />
    <glyph glyph-name="hbar" unicode="&#x127;" horiz-adv-x="573" 
d="M515.5 517q31.5 -34 31.5 -94q0 -22 -2 -34l-55 -389h-175l49 346l2 24q0 36 -25 36q-45 0 -103 -121l-40 -285h-175l83 593h-55l14 99h55l7 51l177 18l-10 -69h134l-28 -99h-120l-20 -146q27 47 72.5 75.5t95.5 28.5q56 0 87.5 -34z" />
    <glyph glyph-name="Itilde" unicode="&#x128;" horiz-adv-x="290" 
d="M295 695l-97 -695h-182l97 695h182zM241.5 761q-15.5 7 -33.5 19q-14 9 -23 13.5t-18 4.5q-18 0 -31 -10.5t-29 -34.5l-79 45q28 55 66.5 90.5t81.5 35.5q22 0 37 -7t35 -20q11 -9 19 -13t17 -4q16 0 29.5 10.5t29.5 33.5l79 -44q-28 -56 -66.5 -91t-80.5 -35
q-18 0 -33.5 7z" />
    <glyph glyph-name="itilde" unicode="&#x129;" horiz-adv-x="277" 
d="M263 533l-74 -533h-175l74 533h175zM217.5 635q-15.5 7 -33.5 19q-14 9 -23 13.5t-18 4.5q-18 0 -31 -10.5t-29 -34.5l-79 45q28 55 66.5 90.5t81.5 35.5q22 0 37 -7t35 -20q11 -9 19 -13t17 -4q16 0 29.5 10.5t29.5 33.5l79 -44q-28 -56 -66.5 -91t-80.5 -35
q-18 0 -33.5 7z" />
    <glyph glyph-name="Imacron" unicode="&#x12a;" horiz-adv-x="290" 
d="M295 695l-97 -695h-182l97 695h182zM371 778h-310l17 122h310z" />
    <glyph glyph-name="imacron" unicode="&#x12b;" horiz-adv-x="277" 
d="M263 533l-74 -533h-175l74 533h175zM347 652h-310l17 122h310z" />
    <glyph glyph-name="Ibreve" unicode="&#x12c;" horiz-adv-x="290" 
d="M295 695l-97 -695h-182l97 695h182zM125.5 772.5q-35.5 24.5 -51 65t-12.5 86.5l92 14q4 -30 22 -49t49 -19q32 0 55.5 19.5t36.5 50.5l95 -19q-16 -72 -68 -122.5t-130 -50.5q-53 0 -88.5 24.5z" />
    <glyph glyph-name="ibreve" unicode="&#x12d;" horiz-adv-x="277" 
d="M263 533l-74 -533h-175l74 533h175zM64.5 682q-38.5 53 -33.5 133l95 14q2 -37 19.5 -57.5t49.5 -20.5q33 0 57.5 21.5t37.5 58.5l91 -19q-16 -79 -67.5 -131t-130.5 -52q-80 0 -118.5 53z" />
    <glyph glyph-name="Iogonek" unicode="&#x12e;" horiz-adv-x="290" 
d="M295 695l-97 -695h-38q-76 -26 -103.5 -55t-27.5 -55q0 -33 43 -33q26 0 63 8l-24 -107q-35 -8 -71 -8q-61 0 -99.5 29t-38.5 79q0 95 116 154l95 683h182z" />
    <glyph glyph-name="iogonek" unicode="&#x12f;" horiz-adv-x="277" 
d="M278.5 796q24.5 -24 24.5 -62q0 -47 -32.5 -78.5t-80.5 -31.5q-41 0 -65.5 24t-24.5 62q0 47 32.5 78.5t80.5 31.5q41 0 65.5 -24zM88 533h175l-74 -533h-36q-76 -26 -103.5 -55t-27.5 -55q0 -33 43 -33q26 0 63 8l-24 -107q-35 -8 -71 -8q-61 0 -99.5 29t-38.5 79
q0 97 121 157z" />
    <glyph glyph-name="Idotaccent" unicode="&#x130;" horiz-adv-x="290" 
d="M295 695l-97 -695h-182l97 695h182zM151.5 774q-24.5 24 -24.5 62q0 47 32.5 78.5t80.5 31.5q41 0 65.5 -24t24.5 -62q0 -47 -32.5 -78.5t-80.5 -31.5q-41 0 -65.5 24z" />
    <glyph glyph-name="dotlessi" unicode="&#x131;" horiz-adv-x="277" 
d="M263 533l-74 -533h-175l74 533h175z" />
    <glyph glyph-name="IJ" unicode="&#x132;" horiz-adv-x="604" 
d="M295 695l-97 -695h-182l97 695h182zM531 107q-13 -87 -52.5 -143.5t-93.5 -88.5t-126 -55l-33 132q45 16 70 38.5t36 51.5t17 74l81 579h182z" />
    <glyph glyph-name="ij" unicode="&#x133;" horiz-adv-x="552" 
d="M263 533l-74 -533h-175l74 533h175zM124.5 648q-24.5 24 -24.5 62q0 47 32.5 78.5t80.5 31.5q41 0 65.5 -24t24.5 -62q0 -47 -32.5 -78.5t-80.5 -31.5q-41 0 -65.5 24zM168 -99q61 24 91 58t39 100l66 474h175l-65 -466q-12 -86 -48 -142.5t-89 -90t-126 -58.5z
M401.5 648q-24.5 24 -24.5 62q0 47 32.5 78.5t80.5 31.5q41 0 65.5 -24t24.5 -62q0 -47 -32.5 -78.5t-80.5 -31.5q-41 0 -65.5 24z" />
    <glyph glyph-name="Jcircumflex" unicode="&#x134;" horiz-adv-x="314" 
d="M241 107q-13 -87 -52.5 -143.5t-93.5 -88.5t-126 -55l-33 132q45 16 70 38.5t36 51.5t17 74l81 579h182zM103 753l-55 71l160 136h106l121 -136l-67 -71l-121 86z" />
    <glyph glyph-name="jcircumflex" unicode="&#x135;" horiz-adv-x="275" 
d="M-109 -99q61 24 91 58t39 100l66 474h175l-65 -466q-12 -86 -48 -142.5t-89 -90t-126 -58.5zM55 616l-54 71l160 144h106l121 -144l-70 -71l-118 94z" />
    <glyph glyph-name="Kcommaaccent" unicode="&#x136;" horiz-adv-x="635" 
d="M16 0l97 695h183l-97 -695h-183zM408 0l-152 370l246 325h192l-251 -320l172 -375h-207zM335 -86q22 -21 22 -54q0 -24 -9 -45t-30 -53l-60 -96h-85l44 117q-29 21 -29 57q0 42 26 68.5t64 26.5q35 0 57 -21z" />
    <glyph glyph-name="kcommaaccent" unicode="&#x137;" horiz-adv-x="573" 
d="M254 470q75 81 174 81q68 0 108 -35.5t40 -93.5q0 -124 -139 -185l92 -237h-191l-87 256q81 27 114 59.5t33 73.5q0 40 -42 40q-61 0 -122 -96l-45 -333h-176l104 743l178 18zM303 -86q22 -21 22 -54q0 -24 -9 -45t-30 -53l-60 -96h-85l44 117q-29 21 -29 57
q0 42 26 68.5t64 26.5q35 0 57 -21z" />
    <glyph glyph-name="kgreenlandic" unicode="&#x138;" horiz-adv-x="552" 
d="M264 533l-74 -533h-176l74 533h176zM593 533l-181 -249l117 -284h-191l-106 281l174 252h187z" />
    <glyph glyph-name="Lacute" unicode="&#x139;" horiz-adv-x="510" 
d="M295 695l-76 -551h261l-39 -144h-425l97 695h182zM326 963l55 -132l-253 -87l-38 88z" />
    <glyph glyph-name="lacute" unicode="&#x13a;" horiz-adv-x="288" 
d="M204 155q-4 -33 20 -33q7 0 23 4l19 -124q-23 -10 -52 -15.5t-57 -5.5q-63 0 -97.5 33t-34.5 96q0 17 3 36l84 597l177 18zM322 1011l55 -132l-253 -87l-38 88z" />
    <glyph glyph-name="Lcommaaccent" unicode="&#x13b;" horiz-adv-x="510" 
d="M295 695l-76 -551h261l-39 -144h-425l97 695h182zM278 -86q22 -21 22 -54q0 -24 -9 -45t-30 -53l-60 -96h-85l44 117q-29 21 -29 57q0 42 26 68.5t64 26.5q35 0 57 -21z" />
    <glyph glyph-name="lcommaaccent" unicode="&#x13c;" horiz-adv-x="288" 
d="M204 155q-4 -33 20 -33q7 0 23 4l19 -124q-23 -10 -52 -15.5t-57 -5.5q-63 0 -97.5 33t-34.5 96q0 17 3 36l84 597l177 18zM189 -86q22 -21 22 -54q0 -24 -9 -45t-30 -53l-60 -96h-85l44 117q-29 21 -29 57q0 42 26 68.5t64 26.5q35 0 57 -21z" />
    <glyph glyph-name="Lcaron" unicode="&#x13d;" horiz-adv-x="510" 
d="M295 695l-76 -551h261l-39 -144h-425l97 695h182zM350 710l126 -16l-78 -225l-88 8z" />
    <glyph glyph-name="lcaron" unicode="&#x13e;" horiz-adv-x="375" 
d="M204 155q-4 -33 20 -33q7 0 23 4l19 -124q-23 -10 -52 -15.5t-57 -5.5q-63 0 -97.5 33t-34.5 96q0 17 3 36l84 597l177 18zM338 758l126 -16l-78 -225l-88 8z" />
    <glyph glyph-name="Ldot" unicode="&#x13f;" horiz-adv-x="510" 
d="M295 695l-76 -551h261l-39 -144h-425l97 695h182zM335.5 327q-24.5 24 -24.5 62q0 47 32.5 78.5t80.5 31.5q41 0 65.5 -24t24.5 -62q0 -47 -32.5 -78.5t-80.5 -31.5q-41 0 -65.5 24z" />
    <glyph glyph-name="ldot" unicode="&#x140;" horiz-adv-x="467" 
d="M204 155q-4 -33 20 -33q7 0 23 4l19 -124q-23 -10 -52 -15.5t-57 -5.5q-63 0 -97.5 33t-34.5 96q0 17 3 36l84 597l177 18zM302.5 300q-24.5 24 -24.5 62q0 47 32.5 78.5t80.5 31.5q41 0 65.5 -24t24.5 -62q0 -47 -32.5 -78.5t-80.5 -31.5q-41 0 -65.5 24z" />
    <glyph glyph-name="Lslash" unicode="&#x141;" horiz-adv-x="551" 
d="M260 144h261l-39 -144h-425l30 213l-39 -22l-44 95l101 59l49 350h182l-32 -235l126 73l45 -94l-190 -110z" />
    <glyph glyph-name="lslash" unicode="&#x142;" horiz-adv-x="347" 
d="M276 126l19 -124q-23 -10 -52 -15.5t-57 -5.5q-63 0 -97.5 33t-34.5 96q0 17 3 36l16 116l-45 -26l-27 107l91 53l49 347l177 18l-36 -256l64 37l25 -109l-108 -62l-30 -216q-4 -33 20 -33q7 0 23 4z" />
    <glyph glyph-name="Nacute" unicode="&#x143;" horiz-adv-x="647" 
d="M556 0h-230l-106 542q3 -51 3 -107q0 -106 -15 -210l-32 -225h-160l97 695h227l109 -542q-4 55 -4 117q0 88 13 183l35 242h160zM508 963l55 -132l-253 -87l-38 88z" />
    <glyph glyph-name="nacute" unicode="&#x144;" horiz-adv-x="564" 
d="M506.5 518q31.5 -33 31.5 -93q0 -16 -3 -36l-54 -389h-175l49 346q2 18 2 22q0 38 -26 38q-23 0 -48 -31t-53 -90l-41 -285h-175l74 533h152l-1 -91q33 50 81 79.5t99 29.5q56 0 87.5 -33zM440 846l55 -132l-253 -96l-39 89z" />
    <glyph glyph-name="Ncommaaccent" unicode="&#x145;" horiz-adv-x="647" 
d="M556 0h-230l-106 542q3 -51 3 -107q0 -106 -15 -210l-32 -225h-160l97 695h227l109 -542q-4 55 -4 117q0 88 13 183l35 242h160zM336 -86q22 -21 22 -54q0 -24 -9 -45t-30 -53l-60 -96h-85l44 117q-29 21 -29 57q0 42 26 68.5t64 26.5q35 0 57 -21z" />
    <glyph glyph-name="ncommaaccent" unicode="&#x146;" horiz-adv-x="564" 
d="M506.5 518q31.5 -33 31.5 -93q0 -16 -3 -36l-54 -389h-175l49 346q2 18 2 22q0 38 -26 38q-23 0 -48 -31t-53 -90l-41 -285h-175l74 533h152l-1 -91q33 50 81 79.5t99 29.5q56 0 87.5 -33zM290 -86q22 -21 22 -54q0 -24 -9 -45t-30 -53l-60 -96h-85l44 117q-29 21 -29 57
q0 42 26 68.5t64 26.5q35 0 57 -21z" />
    <glyph glyph-name="Ncaron" unicode="&#x147;" horiz-adv-x="647" 
d="M556 0h-230l-106 542q3 -51 3 -107q0 -106 -15 -210l-32 -225h-160l97 695h227l109 -542q-4 55 -4 117q0 88 13 183l35 242h160zM551 954l54 -70l-158 -136h-106l-123 136l69 70l120 -85z" />
    <glyph glyph-name="ncaron" unicode="&#x148;" horiz-adv-x="564" 
d="M506.5 518q31.5 -33 31.5 -93q0 -16 -3 -36l-54 -389h-175l49 346q2 18 2 22q0 38 -26 38q-23 0 -48 -31t-53 -90l-41 -285h-175l74 533h152l-1 -91q33 50 81 79.5t99 29.5q56 0 87.5 -33zM490 822l56 -71l-160 -144h-106l-121 144l66 71l119 -94z" />
    <glyph glyph-name="napostrophe" unicode="&#x149;" horiz-adv-x="692" 
d="M215 744q18 -18 18 -46q0 -20 -7.5 -37t-26.5 -46l-52 -80h-73l37 97q-23 19 -23 50t24 55.5t56 24.5q29 0 47 -18zM635.5 518q31.5 -33 31.5 -93q0 -16 -3 -36l-54 -389h-175l49 346q2 18 2 22q0 38 -26 38q-23 0 -48 -31t-53 -90l-41 -285h-175l74 533h152l-1 -91
q34 50 81.5 79.5t98.5 29.5q56 0 87.5 -33z" />
    <glyph glyph-name="Eng" unicode="&#x14a;" horiz-adv-x="647" 
d="M653 695l-97 -695l-4 -26q-16 -98 -78 -148t-159 -50q-88 0 -143 44l72 107q18 -10 31 -14.5t32 -4.5q53 0 62 58l5 34h-48l-106 542q3 -51 3 -107q0 -106 -15 -210l-32 -225h-160l97 695h227l109 -542q-4 55 -4 117q0 88 13 183l35 242h160z" />
    <glyph glyph-name="eng" unicode="&#x14b;" horiz-adv-x="564" 
d="M506.5 518q31.5 -33 31.5 -93q0 -16 -3 -36l-54 -389l-4 -26q-15 -97 -76.5 -147.5t-155.5 -50.5q-88 0 -143 44l70 103q21 -11 34 -15.5t31 -4.5q27 0 43 15t20 44l6 38l49 346q2 18 2 22q0 38 -26 38q-23 0 -48 -31t-53 -90l-41 -285h-175l74 533h152l-1 -91
q33 50 81 79.5t99 29.5q56 0 87.5 -33z" />
    <glyph glyph-name="Omacron" unicode="&#x14c;" horiz-adv-x="679" 
d="M601 638.5q70 -74.5 70 -210.5q0 -106 -35.5 -207.5t-118.5 -170.5t-215 -69q-130 0 -200 75.5t-70 210.5q0 106 35.5 207.5t118 170t214.5 68.5q131 0 201 -74.5zM285.5 524.5q-37.5 -55.5 -52 -130t-14.5 -141.5q0 -73 24 -105.5t73 -32.5q64 0 101.5 55t51.5 129.5
t14 143.5q0 73 -23.5 105t-72.5 32q-64 0 -101.5 -55.5zM567 778h-310l17 122h310z" />
    <glyph glyph-name="omacron" unicode="&#x14d;" horiz-adv-x="573" 
d="M80 41.5q-60 60.5 -60 168.5q0 85 30 162.5t98 128t175 50.5t168 -60.5t61 -165.5q0 -84 -29.5 -162.5t-98 -130t-176.5 -51.5t-168 60.5zM349 183q24 72 24 154q0 44 -15.5 64.5t-47.5 20.5q-63 0 -87 -70.5t-24 -151.5q0 -47 15 -68t48 -21q63 0 87 72zM488 652h-310
l17 122h310z" />
    <glyph glyph-name="Obreve" unicode="&#x14e;" horiz-adv-x="679" 
d="M601 638.5q70 -74.5 70 -210.5q0 -106 -35.5 -207.5t-118.5 -170.5t-215 -69q-130 0 -200 75.5t-70 210.5q0 106 35.5 207.5t118 170t214.5 68.5q131 0 201 -74.5zM285.5 524.5q-37.5 -55.5 -52 -130t-14.5 -141.5q0 -73 24 -105.5t73 -32.5q64 0 101.5 55t51.5 129.5
t14 143.5q0 73 -23.5 105t-72.5 32q-64 0 -101.5 -55.5zM321.5 772.5q-35.5 24.5 -51 65t-12.5 86.5l92 14q4 -30 22 -49t49 -19q32 0 55.5 19.5t36.5 50.5l95 -19q-16 -72 -68 -122.5t-130 -50.5q-53 0 -88.5 24.5z" />
    <glyph glyph-name="obreve" unicode="&#x14f;" horiz-adv-x="573" 
d="M80 41.5q-60 60.5 -60 168.5q0 85 30 162.5t98 128t175 50.5t168 -60.5t61 -165.5q0 -84 -29.5 -162.5t-98 -130t-176.5 -51.5t-168 60.5zM349 183q24 72 24 154q0 44 -15.5 64.5t-47.5 20.5q-63 0 -87 -70.5t-24 -151.5q0 -47 15 -68t48 -21q63 0 87 72zM205.5 682
q-38.5 53 -33.5 133l95 14q2 -37 19.5 -57.5t49.5 -20.5q33 0 57.5 21.5t37.5 58.5l91 -19q-16 -79 -67.5 -131t-130.5 -52q-80 0 -118.5 53z" />
    <glyph glyph-name="Ohungarumlaut" unicode="&#x150;" horiz-adv-x="679" 
d="M601 638.5q70 -74.5 70 -210.5q0 -106 -35.5 -207.5t-118.5 -170.5t-215 -69q-130 0 -200 75.5t-70 210.5q0 106 35.5 207.5t118 170t214.5 68.5q131 0 201 -74.5zM285.5 524.5q-37.5 -55.5 -52 -130t-14.5 -141.5q0 -73 24 -105.5t73 -32.5q64 0 101.5 55t51.5 129.5
t14 143.5q0 73 -23.5 105t-72.5 32q-64 0 -101.5 -55.5zM385 995l107 -54l-141 -188l-85 36zM565 995l105 -58l-149 -188l-83 42z" />
    <glyph glyph-name="ohungarumlaut" unicode="&#x151;" horiz-adv-x="573" 
d="M80 41.5q-60 60.5 -60 168.5q0 85 30 162.5t98 128t175 50.5t168 -60.5t61 -165.5q0 -84 -29.5 -162.5t-98 -130t-176.5 -51.5t-168 60.5zM349 183q24 72 24 154q0 44 -15.5 64.5t-47.5 20.5q-63 0 -87 -70.5t-24 -151.5q0 -47 15 -68t48 -21q63 0 87 72zM308 869
l107 -54l-141 -188l-85 36zM488 869l105 -58l-149 -188l-83 42z" />
    <glyph glyph-name="OE" unicode="&#x152;" horiz-adv-x="890" 
d="M614 564q30 -61 32 -147h191l-17 -128h-186q-21 -94 -75 -158h284l-18 -131h-436q-48 -19 -104 -19q-120 0 -186.5 75t-66.5 210q0 103 35.5 205.5t114 172t201.5 69.5q56 0 100 -18h441l-37 -131h-273zM240.5 146q21.5 -31 64.5 -31q84 0 120.5 101t36.5 236
q0 67 -22 97.5t-65 30.5q-85 0 -120.5 -100t-35.5 -234q0 -69 21.5 -100z" />
    <glyph glyph-name="oe" unicode="&#x153;" horiz-adv-x="885" 
d="M543 192q5 -82 87 -82q33 0 64 11.5t70 37.5l61 -104q-102 -74 -218 -74q-118 0 -177 75q-67 -75 -180 -75q-108 0 -169 61t-61 168q0 84 30 162t96.5 128.5t170.5 50.5q56 0 98 -21.5t71 -57.5q76 79 191 79q97 0 151 -42t54 -107q0 -178 -339 -210zM643 315.5
q35 16.5 49.5 37t14.5 38.5q0 45 -49 45q-46 0 -72.5 -39t-36.5 -102q59 4 94 20.5zM351.5 183q24.5 72 24.5 154q0 85 -65 85q-62 0 -87 -71t-25 -151q0 -46 16 -67.5t49 -21.5q63 0 87.5 72z" />
    <glyph glyph-name="Racute" unicode="&#x154;" horiz-adv-x="610" 
d="M577.5 381q-32.5 -54 -120.5 -95l127 -286h-198l-98 256h-54l-36 -256h-182l97 695h238q126 0 192.5 -50.5t66.5 -137.5q0 -72 -32.5 -126zM251 382h62q57 0 83 33.5t26 80.5q0 36 -23 53t-70 17h-52zM487 963l55 -132l-253 -87l-38 88z" />
    <glyph glyph-name="racute" unicode="&#x155;" horiz-adv-x="396" 
d="M442 540l-50 -172q-24 7 -46 7q-45 0 -72.5 -36t-51.5 -104l-33 -235h-175l74 533h152v-97q27 54 66 83.5t83 29.5q28 0 53 -9zM382 846l55 -132l-253 -96l-39 89z" />
    <glyph glyph-name="Rcommaaccent" unicode="&#x156;" horiz-adv-x="610" 
d="M577.5 381q-32.5 -54 -120.5 -95l127 -286h-198l-98 256h-54l-36 -256h-182l97 695h238q126 0 192.5 -50.5t66.5 -137.5q0 -72 -32.5 -126zM251 382h62q57 0 83 33.5t26 80.5q0 36 -23 53t-70 17h-52zM319 -86q22 -21 22 -54q0 -24 -9 -45t-30 -53l-60 -96h-85l44 117
q-29 21 -29 57q0 42 26 68.5t64 26.5q35 0 57 -21z" />
    <glyph glyph-name="rcommaaccent" unicode="&#x157;" horiz-adv-x="396" 
d="M442 540l-50 -172q-24 7 -46 7q-45 0 -72.5 -36t-51.5 -104l-33 -235h-175l74 533h152v-97q27 54 66 83.5t83 29.5q28 0 53 -9zM143 -86q22 -21 22 -54q0 -24 -9 -45t-30 -53l-60 -96h-85l44 117q-29 21 -29 57q0 42 26 68.5t64 26.5q35 0 57 -21z" />
    <glyph glyph-name="Rcaron" unicode="&#x158;" horiz-adv-x="610" 
d="M577.5 381q-32.5 -54 -120.5 -95l127 -286h-198l-98 256h-54l-36 -256h-182l97 695h238q126 0 192.5 -50.5t66.5 -137.5q0 -72 -32.5 -126zM251 382h62q57 0 83 33.5t26 80.5q0 36 -23 53t-70 17h-52zM530 954l54 -70l-158 -136h-106l-123 136l69 70l120 -85z" />
    <glyph glyph-name="rcaron" unicode="&#x159;" horiz-adv-x="396" 
d="M442 540l-50 -172q-24 7 -46 7q-45 0 -72.5 -36t-51.5 -104l-33 -235h-175l74 533h152v-97q27 54 66 83.5t83 29.5q28 0 53 -9zM432 822l56 -71l-160 -144h-106l-121 144l66 71l119 -94z" />
    <glyph glyph-name="Sacute" unicode="&#x15a;" horiz-adv-x="569" 
d="M582 620l-94 -96q-32 29 -66 42.5t-74 13.5q-43 0 -68 -18t-25 -49q0 -27 23 -43t89 -38q90 -30 133.5 -77t43.5 -122q0 -64 -30.5 -121.5t-98.5 -94t-175 -36.5q-159 0 -261 104l104 104q66 -68 161 -68q51 0 79.5 21t28.5 59q0 30 -23 50.5t-81 40.5q-99 33 -142 81
t-43 117q0 58 30.5 109t93.5 82.5t155 31.5q147 0 240 -93zM478 963l55 -132l-253 -87l-38 88z" />
    <glyph glyph-name="sacute" unicode="&#x15b;" horiz-adv-x="477" 
d="M383.5 532.5q51.5 -18.5 90.5 -50.5l-76 -95q-28 19 -60.5 29t-63.5 10q-60 0 -60 -35q0 -12 7.5 -19.5t27.5 -15.5t66 -23q67 -22 101 -61.5t34 -100.5q0 -50 -24.5 -93t-79.5 -70t-140 -27q-70 0 -131 25t-97 66l86 91q63 -56 143 -56q32 0 51 11.5t19 31.5q0 14 -8 23
t-28 17.5t-67 25.5q-68 24 -101 61.5t-33 96.5q0 49 27.5 89t80 64t125.5 24q59 0 110.5 -18.5zM398 846l55 -132l-253 -96l-39 89z" />
    <glyph glyph-name="Scircumflex" unicode="&#x15c;" horiz-adv-x="569" 
d="M582 620l-94 -96q-32 29 -66 42.5t-74 13.5q-43 0 -68 -18t-25 -49q0 -27 23 -43t89 -38q90 -30 133.5 -77t43.5 -122q0 -64 -30.5 -121.5t-98.5 -94t-175 -36.5q-159 0 -261 104l104 104q66 -68 161 -68q51 0 79.5 21t28.5 59q0 30 -23 50.5t-81 40.5q-99 33 -142 81
t-43 117q0 58 30.5 109t93.5 82.5t155 31.5q147 0 240 -93zM228 753l-55 71l160 136h106l121 -136l-67 -71l-121 86z" />
    <glyph glyph-name="scircumflex" unicode="&#x15d;" horiz-adv-x="477" 
d="M383.5 532.5q51.5 -18.5 90.5 -50.5l-76 -95q-28 19 -60.5 29t-63.5 10q-60 0 -60 -35q0 -12 7.5 -19.5t27.5 -15.5t66 -23q67 -22 101 -61.5t34 -100.5q0 -50 -24.5 -93t-79.5 -70t-140 -27q-70 0 -131 25t-97 66l86 91q63 -56 143 -56q32 0 51 11.5t19 31.5q0 14 -8 23
t-28 17.5t-67 25.5q-68 24 -101 61.5t-33 96.5q0 49 27.5 89t80 64t125.5 24q59 0 110.5 -18.5zM161 616l-54 71l160 144h106l121 -144l-70 -71l-118 94z" />
    <glyph glyph-name="Scedilla" unicode="&#x15e;" horiz-adv-x="569" 
d="M500.5 355q43.5 -47 43.5 -122q0 -58 -25 -111t-81 -91t-143 -47l-5 -29q46 -6 70 -30.5t24 -63.5q0 -30 -17 -60t-55 -50t-97 -20q-67 0 -114 34l49 77q29 -16 60 -16q50 0 50 30q0 16 -20 22t-67 6l25 99q-132 13 -219 102l104 104q66 -68 161 -68q51 0 79.5 21
t28.5 59q0 30 -23 50.5t-81 40.5q-99 33 -142 81t-43 117q0 58 30.5 109t93.5 82.5t155 31.5q147 0 240 -93l-94 -96q-32 29 -66 42.5t-74 13.5q-43 0 -68 -18t-25 -49q0 -27 23 -43t89 -38q90 -30 133.5 -77z" />
    <glyph glyph-name="scedilla" unicode="&#x15f;" horiz-adv-x="477" 
d="M416 271.5q34 -39.5 34 -100.5q0 -72 -49.5 -125t-153.5 -63l-5 -28q46 -6 70 -30.5t24 -63.5q0 -30 -17 -60t-55 -50t-97 -20q-67 0 -114 34l49 77q29 -16 60 -16q50 0 50 30q0 16 -20 22t-67 6l25 101q-53 9 -98 32t-74 55l86 91q63 -56 143 -56q32 0 51 11.5t19 31.5
q0 14 -8 23t-28 17.5t-67 25.5q-68 24 -101 61.5t-33 96.5q0 49 27.5 89t80 64t125.5 24q59 0 110.5 -18.5t90.5 -50.5l-76 -95q-28 19 -60.5 29t-63.5 10q-60 0 -60 -35q0 -12 7.5 -19.5t27.5 -15.5t66 -23q67 -22 101 -61.5z" />
    <glyph glyph-name="Scaron" unicode="&#x160;" horiz-adv-x="569" 
d="M582 620l-94 -96q-32 29 -66 42.5t-74 13.5q-43 0 -68 -18t-25 -49q0 -27 23 -43t89 -38q90 -30 133.5 -77t43.5 -122q0 -64 -30.5 -121.5t-98.5 -94t-175 -36.5q-159 0 -261 104l104 104q66 -68 161 -68q51 0 79.5 21t28.5 59q0 30 -23 50.5t-81 40.5q-99 33 -142 81
t-43 117q0 58 30.5 109t93.5 82.5t155 31.5q147 0 240 -93zM521 954l54 -70l-158 -136h-106l-123 136l69 70l120 -85z" />
    <glyph glyph-name="scaron" unicode="&#x161;" horiz-adv-x="477" 
d="M383.5 532.5q51.5 -18.5 90.5 -50.5l-76 -95q-28 19 -60.5 29t-63.5 10q-60 0 -60 -35q0 -12 7.5 -19.5t27.5 -15.5t66 -23q67 -22 101 -61.5t34 -100.5q0 -50 -24.5 -93t-79.5 -70t-140 -27q-70 0 -131 25t-97 66l86 91q63 -56 143 -56q32 0 51 11.5t19 31.5q0 14 -8 23
t-28 17.5t-67 25.5q-68 24 -101 61.5t-33 96.5q0 49 27.5 89t80 64t125.5 24q59 0 110.5 -18.5zM448 822l56 -71l-160 -144h-106l-121 144l66 71l119 -94z" />
    <glyph glyph-name="uni0162" unicode="&#x162;" horiz-adv-x="536" 
d="M322 0l-7 -45q45 -6 68.5 -30t23.5 -64q0 -29 -17 -59t-54.5 -50.5t-97.5 -20.5q-67 0 -114 34l49 77q29 -16 59 -16q51 0 51 30q0 16 -19.5 22t-67.5 6l29 116h-85l78 554h-171l19 141h534l-39 -141h-161z" />
    <glyph glyph-name="uni0163" unicode="&#x163;" horiz-adv-x="383" 
d="M246 -17l-5 -28q46 -6 70 -30.5t24 -63.5q0 -30 -17 -60t-55 -50t-97 -20q-67 0 -114 34l49 77q29 -16 60 -16q50 0 50 30q0 16 -20 22t-67 6l26 105q-48 14 -73 52.5t-25 98.5q0 22 3 47l31 223h-67l16 123h76l33 116l153 18l-18 -134h120l-36 -123h-101l-31 -223
q-2 -18 -2 -24q0 -22 9 -31.5t26 -9.5q22 0 55 15l45 -115q-51 -29 -118 -39z" />
    <glyph glyph-name="Tcaron" unicode="&#x164;" horiz-adv-x="536" 
d="M600 695l-39 -141h-161l-78 -554h-182l78 554h-171l19 141h534zM494 954l54 -70l-158 -136h-106l-123 136l69 70l120 -85z" />
    <glyph glyph-name="tcaron" unicode="&#x165;" horiz-adv-x="383" 
d="M357 812l126 -16l-78 -225l-88 8zM231 187q-2 -18 -2 -24q0 -22 9 -31.5t26 -9.5q22 0 55 15l45 -115q-33 -20 -75 -30.5t-79 -10.5q-77 0 -117.5 41t-40.5 119q0 22 3 46l31 223h-67l16 123h76l33 116l153 18l-18 -134h120l-36 -123h-101z" />
    <glyph glyph-name="Tbar" unicode="&#x166;" horiz-adv-x="536" 
d="M561 554h-161l-23 -163h109l-13 -100h-110l-41 -291h-182l41 291h-109l13 100h110l23 163h-171l19 141h534z" />
    <glyph glyph-name="tbar" unicode="&#x167;" horiz-adv-x="383" 
d="M319 137l45 -115q-33 -20 -75 -30.5t-79 -10.5q-77 0 -117.5 41t-40.5 119q0 22 3 46l9 61h-58l16 115h58l6 47h-67l16 123h76l33 116l153 18l-18 -134h120l-36 -123h-101l-7 -47h103l-34 -115h-85l-8 -61q-2 -18 -2 -24q0 -22 9 -31.5t26 -9.5q22 0 55 15z" />
    <glyph glyph-name="Utilde" unicode="&#x168;" horiz-adv-x="636" 
d="M589 232q-10 -72 -48.5 -129t-104.5 -89.5t-155 -32.5q-122 0 -183.5 55.5t-61.5 151.5q0 23 3 47l64 460h182l-64 -457q-3 -22 -3 -40q0 -42 18.5 -61.5t57.5 -19.5q50 0 77 30.5t36 93.5l64 454h182zM415.5 761q-15.5 7 -33.5 19q-14 9 -23 13.5t-18 4.5
q-18 0 -31 -10.5t-29 -34.5l-79 45q28 55 66.5 90.5t81.5 35.5q22 0 37 -7t35 -20q11 -9 19 -13t17 -4q16 0 29.5 10.5t29.5 33.5l79 -44q-28 -56 -66.5 -91t-80.5 -35q-18 0 -33.5 7z" />
    <glyph glyph-name="utilde" unicode="&#x169;" horiz-adv-x="558" 
d="M58.5 16q-32.5 35 -32.5 97q0 19 3 38l54 382h175l-49 -350q-2 -16 -2 -22q0 -37 31 -37q37 0 84 71l47 338h175l-74 -533h-152l3 73q-74 -92 -167 -92q-63 0 -95.5 35zM356.5 635q-15.5 7 -33.5 19q-14 9 -23 13.5t-18 4.5q-18 0 -31 -10.5t-29 -34.5l-79 45
q28 55 66.5 90.5t81.5 35.5q22 0 37 -7t35 -20q11 -9 19 -13t17 -4q16 0 29.5 10.5t29.5 33.5l79 -44q-28 -56 -66.5 -91t-80.5 -35q-18 0 -33.5 7z" />
    <glyph glyph-name="Umacron" unicode="&#x16a;" horiz-adv-x="636" 
d="M589 232q-10 -72 -48.5 -129t-104.5 -89.5t-155 -32.5q-122 0 -183.5 55.5t-61.5 151.5q0 23 3 47l64 460h182l-64 -457q-3 -22 -3 -40q0 -42 18.5 -61.5t57.5 -19.5q50 0 77 30.5t36 93.5l64 454h182zM545 778h-310l17 122h310z" />
    <glyph glyph-name="umacron" unicode="&#x16b;" horiz-adv-x="558" 
d="M58.5 16q-32.5 35 -32.5 97q0 19 3 38l54 382h175l-49 -350q-2 -16 -2 -22q0 -37 31 -37q37 0 84 71l47 338h175l-74 -533h-152l3 73q-74 -92 -167 -92q-63 0 -95.5 35zM486 652h-310l17 122h310z" />
    <glyph glyph-name="Ubreve" unicode="&#x16c;" horiz-adv-x="636" 
d="M589 232q-10 -72 -48.5 -129t-104.5 -89.5t-155 -32.5q-122 0 -183.5 55.5t-61.5 151.5q0 23 3 47l64 460h182l-64 -457q-3 -22 -3 -40q0 -42 18.5 -61.5t57.5 -19.5q50 0 77 30.5t36 93.5l64 454h182zM299.5 772.5q-35.5 24.5 -51 65t-12.5 86.5l92 14q4 -30 22 -49
t49 -19q32 0 55.5 19.5t36.5 50.5l95 -19q-16 -72 -68 -122.5t-130 -50.5q-53 0 -88.5 24.5z" />
    <glyph glyph-name="ubreve" unicode="&#x16d;" horiz-adv-x="558" 
d="M58.5 16q-32.5 35 -32.5 97q0 19 3 38l54 382h175l-49 -350q-2 -16 -2 -22q0 -37 31 -37q37 0 84 71l47 338h175l-74 -533h-152l3 73q-74 -92 -167 -92q-63 0 -95.5 35zM203.5 682q-38.5 53 -33.5 133l95 14q2 -37 19.5 -57.5t49.5 -20.5q33 0 57.5 21.5t37.5 58.5
l91 -19q-16 -79 -67.5 -131t-130.5 -52q-80 0 -118.5 53z" />
    <glyph glyph-name="Uring" unicode="&#x16e;" horiz-adv-x="636" 
d="M589 232q-10 -72 -48.5 -129t-104.5 -89.5t-155 -32.5q-122 0 -183.5 55.5t-61.5 151.5q0 23 3 47l64 460h182l-64 -457q-3 -22 -3 -40q0 -42 18.5 -61.5t57.5 -19.5q50 0 77 30.5t36 93.5l64 454h182zM514.5 968q33.5 -35 33.5 -91q0 -39 -20 -74t-57.5 -56.5
t-85.5 -21.5q-59 0 -93 35t-34 90q0 39 20.5 74t57.5 57t84 22q61 0 94.5 -35zM372.5 895.5q-14.5 -18.5 -14.5 -41.5q0 -19 9.5 -29t26.5 -10q25 0 39.5 17.5t14.5 40.5q0 20 -9.5 30.5t-26.5 10.5q-25 0 -39.5 -18.5z" />
    <glyph glyph-name="uring" unicode="&#x16f;" horiz-adv-x="558" 
d="M58.5 16q-32.5 35 -32.5 97q0 19 3 38l54 382h175l-49 -350q-2 -16 -2 -22q0 -37 31 -37q37 0 84 71l47 338h175l-74 -533h-152l3 73q-74 -92 -167 -92q-63 0 -95.5 35zM453.5 842q33.5 -35 33.5 -91q0 -39 -20 -74t-57.5 -56.5t-85.5 -21.5q-59 0 -93 35t-34 90
q0 39 20.5 74t57.5 57t84 22q61 0 94.5 -35zM311.5 769.5q-14.5 -18.5 -14.5 -41.5q0 -19 9.5 -29t26.5 -10q25 0 39.5 17.5t14.5 40.5q0 20 -9.5 30.5t-26.5 10.5q-25 0 -39.5 -18.5z" />
    <glyph glyph-name="Uhungarumlaut" unicode="&#x170;" horiz-adv-x="636" 
d="M589 232q-10 -72 -48.5 -129t-104.5 -89.5t-155 -32.5q-122 0 -183.5 55.5t-61.5 151.5q0 23 3 47l64 460h182l-64 -457q-3 -22 -3 -40q0 -42 18.5 -61.5t57.5 -19.5q50 0 77 30.5t36 93.5l64 454h182zM363 995l107 -54l-141 -188l-85 36zM543 995l105 -58l-149 -188
l-83 42z" />
    <glyph glyph-name="uhungarumlaut" unicode="&#x171;" horiz-adv-x="558" 
d="M58.5 16q-32.5 35 -32.5 97q0 19 3 38l54 382h175l-49 -350q-2 -16 -2 -22q0 -37 31 -37q37 0 84 71l47 338h175l-74 -533h-152l3 73q-74 -92 -167 -92q-63 0 -95.5 35zM306 869l107 -54l-141 -188l-85 36zM486 869l105 -58l-149 -188l-83 42z" />
    <glyph glyph-name="Uogonek" unicode="&#x172;" horiz-adv-x="636" 
d="M653 695l-64 -463q-12 -87 -64.5 -150t-140.5 -88q-104 -38 -113 -95q-4 -42 46 -42q27 0 62 8l-23 -107q-34 -8 -72 -8q-63 0 -102.5 29t-39.5 80q0 42 25 73t68 51q-99 11 -149 65t-50 140q0 23 3 47l64 460h182l-64 -457q-3 -22 -3 -40q0 -42 18.5 -61.5t57.5 -19.5
q50 0 77 30.5t36 93.5l64 454h182z" />
    <glyph glyph-name="uogonek" unicode="&#x173;" horiz-adv-x="558" 
d="M366.5 -55q-27.5 -29 -27.5 -55q0 -33 43 -33q26 0 63 8l-24 -107q-35 -8 -71 -8q-61 0 -99.5 29t-38.5 79q0 92 106 149l3 66q-74 -92 -167 -92q-63 0 -95.5 35t-32.5 97q0 19 3 38l54 382h175l-49 -350q-2 -16 -2 -22q0 -37 31 -37q37 0 84 71l47 338h175l-74 -533
q-76 -26 -103.5 -55z" />
    <glyph glyph-name="Wcircumflex" unicode="&#x174;" horiz-adv-x="842" 
d="M896 695l-204 -695h-236l-1 514l-151 -514h-231l-7 695h180l-22 -558l161 558h192l-4 -558l147 558h176zM355 753l-55 71l160 136h106l121 -136l-67 -71l-121 86z" />
    <glyph glyph-name="wcircumflex" unicode="&#x175;" horiz-adv-x="748" 
d="M784 533l-179 -533h-203l-11 374l-113 -374h-205l-34 533h177l-13 -398l130 398h167l8 -398l108 398h168zM292 616l-54 71l160 144h106l121 -144l-70 -71l-118 94z" />
    <glyph glyph-name="Ycircumflex" unicode="&#x176;" horiz-adv-x="596" 
d="M668 695l-279 -437l-37 -258h-182l36 257l-157 438h195l73 -295l156 295h195zM231 753l-55 71l160 136h106l121 -136l-67 -71l-121 86z" />
    <glyph glyph-name="ycircumflex" unicode="&#x177;" horiz-adv-x="514" 
d="M331 -1q-92 -214 -346 -224l-4 123q77 9 117 31t70 71h-62l-79 533h182l23 -421l148 421h183zM175 616l-54 71l160 144h106l121 -144l-70 -71l-118 94z" />
    <glyph glyph-name="Ydieresis" unicode="&#x178;" horiz-adv-x="596" 
d="M668 695l-279 -437l-37 -258h-182l36 257l-157 438h195l73 -295l156 295h195zM193.5 785q-21.5 21 -21.5 54q0 41 28.5 68.5t70.5 27.5q36 0 57.5 -21.5t21.5 -54.5q0 -41 -28.5 -68t-70.5 -27q-36 0 -57.5 21zM427.5 785q-21.5 21 -21.5 54q0 41 28.5 68.5t70.5 27.5
q36 0 57.5 -21.5t21.5 -54.5q0 -41 -28.5 -68t-70.5 -27q-36 0 -57.5 21z" />
    <glyph glyph-name="Zacute" unicode="&#x179;" horiz-adv-x="540" 
d="M-24 0l18 137l349 416h-260l19 142h471l-19 -139l-344 -410h293l-38 -146h-489zM454 963l55 -132l-253 -87l-38 88z" />
    <glyph glyph-name="zacute" unicode="&#x17a;" horiz-adv-x="455" 
d="M474 533l-17 -125l-250 -275h217l-34 -133h-420l16 125l253 276h-193l18 132h410zM386 846l55 -132l-253 -96l-39 89z" />
    <glyph glyph-name="Zdotaccent" unicode="&#x17b;" horiz-adv-x="540" 
d="M-24 0l18 137l349 416h-260l19 142h471l-19 -139l-344 -410h293l-38 -146h-489zM279.5 774q-24.5 24 -24.5 62q0 47 32.5 78.5t80.5 31.5q41 0 65.5 -24t24.5 -62q0 -47 -32.5 -78.5t-80.5 -31.5q-41 0 -65.5 24z" />
    <glyph glyph-name="zdotaccent" unicode="&#x17c;" horiz-adv-x="455" 
d="M474 533l-17 -125l-250 -275h217l-34 -133h-420l16 125l253 276h-193l18 132h410zM218.5 648q-24.5 24 -24.5 62q0 47 32.5 78.5t80.5 31.5q41 0 65.5 -24t24.5 -62q0 -47 -32.5 -78.5t-80.5 -31.5q-41 0 -65.5 24z" />
    <glyph glyph-name="Zcaron" unicode="&#x17d;" horiz-adv-x="540" 
d="M-24 0l18 137l349 416h-260l19 142h471l-19 -139l-344 -410h293l-38 -146h-489zM497 954l54 -70l-158 -136h-106l-123 136l69 70l120 -85z" />
    <glyph glyph-name="zcaron" unicode="&#x17e;" horiz-adv-x="455" 
d="M474 533l-17 -125l-250 -275h217l-34 -133h-420l16 125l253 276h-193l18 132h410zM436 822l56 -71l-160 -144h-106l-121 144l66 71l119 -94z" />
    <glyph glyph-name="longs" unicode="&#x17f;" horiz-adv-x="352" 
d="M432.5 748.5q39.5 -12.5 68.5 -32.5l-60 -105q-35 21 -79 21q-32 0 -49.5 -16.5t-22.5 -53.5l-79 -562h-175l57 410h-74l16 123h75l6 40q11 83 71 135.5t159 52.5q47 0 86.5 -12.5z" />
    <glyph glyph-name="uni0180" unicode="&#x180;" horiz-adv-x="594" 
d="M532.5 497.5q41.5 -53.5 41.5 -153.5q0 -89 -28 -171t-99 -137t-192 -55q-113 0 -227 48l79 564h-56l14 99h56l7 51l177 18l-10 -69h133l-28 -99h-119l-14 -103q28 28 66.5 44.5t77.5 16.5q80 0 121.5 -53.5zM343 145.5q27 35.5 39 88t12 104.5q0 47 -14.5 65.5
t-39.5 18.5q-48 0 -90 -57l-34 -244q31 -11 59 -11q41 0 68 35.5z" />
    <glyph glyph-name="uni0181" unicode="&#x181;" horiz-adv-x="766" 
d="M702.5 322q37.5 -33 37.5 -101q0 -100 -78.5 -160.5t-256.5 -60.5h-231l79 564h-26q-24 0 -37 -13.5t-13 -39.5q0 -16 3 -31t4 -19l-120 -46q-25 52 -25 100q0 83 55 131.5t146 48.5h238q134 0 205.5 -37.5t71.5 -122.5q0 -70 -43 -111t-109 -57q62 -12 99.5 -45z
M543 447q24 26 24 66q0 28 -21 40.5t-66 12.5h-46l-20 -145h47q58 0 82 26zM525 159q28 27 28 77q0 66 -94 66h-61l-24 -170h48q75 0 103 27z" />
    <glyph glyph-name="uni0182" unicode="&#x182;" horiz-adv-x="591" 
d="M513 404q64 -47 64 -140q0 -64 -30.5 -124.5t-98.5 -100t-175 -39.5h-257l97 695h443l-37 -139h-243l-15 -105h67q121 0 185 -47zM356 165.5q29 33.5 29 86.5q0 73 -90 73h-51l-27 -193h53q57 0 86 33.5z" />
    <glyph glyph-name="uni0183" unicode="&#x183;" horiz-adv-x="584" 
d="M522 481q41 -54 41 -155q0 -80 -28 -158t-99.5 -132.5t-191.5 -54.5q-113 0 -227 48l100 714h391l-37 -126h-197l-1 1l-20 -145q29 29 68.5 45.5t79.5 16.5q80 0 121 -54zM331.5 144.5q26.5 34.5 39 83.5t12.5 92q0 49 -14.5 67.5t-40.5 18.5q-50 0 -91 -58l-32 -227
q31 -11 59 -11q41 0 67.5 34.5z" />
    <glyph glyph-name="uni0184" unicode="&#x184;" horiz-adv-x="607" 
d="M530.5 413.5q64.5 -49.5 64.5 -143.5q0 -69 -31.5 -130t-100 -100.5t-173.5 -39.5h-257l68 481l-70 54q71 62 131 160h151l-33 -232h67q119 0 183.5 -49.5zM376.5 170q26.5 38 26.5 86q0 39 -22 60t-67 21h-51l-29 -205h53q63 0 89.5 38z" />
    <glyph glyph-name="uni0185" unicode="&#x185;" horiz-adv-x="535" 
d="M461 326.5q56 -41.5 56 -124.5q0 -52 -26 -102.5t-85 -84.5t-153 -34q-55 0 -105.5 9t-108.5 27l43 312l-69 54q75 67 129 150h143l-22 -165h25q117 0 173 -41.5zM322 126.5q20 31.5 20 71.5q0 30 -15.5 45t-54.5 15h-24l-22 -158q15 -5 31 -5q45 0 65 31.5z" />
    <glyph glyph-name="uni0186" unicode="&#x186;" horiz-adv-x="568" 
d="M487 637q71 -76 71 -213q0 -122 -44.5 -223t-128.5 -160.5t-198 -59.5q-69 0 -122 26.5t-90 68.5l92 102q31 -27 60 -41t66 -14q60 0 100 44.5t58.5 114t18.5 146.5q0 150 -102 150q-35 0 -67 -12.5t-66 -37.5l-75 107q51 39 107 58.5t126 19.5q123 0 194 -76z" />
    <glyph glyph-name="uni0187" unicode="&#x187;" horiz-adv-x="579" 
d="M791 819l-62 -108q-17 9 -30.5 13t-29.5 4q-49 0 -58 -59l-5 -42l-81 -85q-63 36 -126 36q-64 0 -104.5 -50t-57.5 -120.5t-17 -136.5q0 -75 29 -111.5t83 -36.5q35 0 66.5 15t70.5 44l69 -108q-46 -41 -105.5 -67t-125.5 -26q-130 0 -203 75t-73 214q0 102 40 204.5
t118 170.5t187 68q50 0 88 -16q13 77 61.5 118.5t131.5 41.5q77 0 134 -38z" />
    <glyph glyph-name="uni0188" unicode="&#x188;" horiz-adv-x="470" 
d="M692 723l-61 -108q-31 17 -61 17q-25 0 -38.5 -14.5t-18.5 -44.5l-12 -93l-74 -89q-52 25 -100 25q-68 0 -96 -63t-28 -144q0 -49 19.5 -68.5t56.5 -19.5q25 0 47.5 8.5t52.5 27.5l64 -113q-87 -63 -188 -63q-111 0 -173.5 63t-62.5 170q0 74 32.5 152.5t96.5 131.5
t152 53q28 0 57 -8l7 45q12 84 60 128.5t133 44.5q80 0 135 -38z" />
    <glyph glyph-name="uni0189" unicode="&#x189;" horiz-adv-x="652" 
d="M556 637q87 -58 87 -206q0 -191 -93.5 -311t-305.5 -120h-219l42 299h-55l15 108h55l40 288h203q144 0 231 -58zM414.5 221.5q41.5 89.5 41.5 208.5q0 75 -30.5 103.5t-91.5 28.5h-48l-22 -155h125l-14 -108h-126l-23 -167h45q102 0 143.5 89.5z" />
    <glyph glyph-name="uni018A" unicode="&#x18a;" horiz-adv-x="801" 
d="M705 637q87 -58 87 -206q0 -191 -93.5 -311t-305.5 -120h-219l79 564h-26q-24 0 -37 -13.5t-13 -39.5q0 -16 3 -31t4 -19l-120 -46q-25 52 -25 100q0 83 55 131.5t146 48.5h234q144 0 231 -58zM563.5 221.5q41.5 89.5 41.5 208.5q0 75 -30.5 103.5t-91.5 28.5h-48
l-60 -430h45q102 0 143.5 89.5z" />
    <glyph glyph-name="uni018B" unicode="&#x18b;" horiz-adv-x="594" 
d="M503 0h-259q-109 0 -173.5 52t-64.5 154q0 118 83.5 181.5t225.5 63.5h69l14 105h-253l20 139h435zM339 132l27 193h-49q-59 0 -89 -31.5t-30 -80.5q0 -43 21 -62t66 -19h54z" />
    <glyph glyph-name="uni018C" unicode="&#x18c;" horiz-adv-x="585" 
d="M498 0h-156l1 72q-64 -91 -158 -91q-84 0 -125.5 56.5t-41.5 159.5q0 80 27 157.5t85 129t145 51.5q36 0 65.5 -12.5t49.5 -34.5l18 129h-206l18 126h382zM375 375q-14 17 -28 24t-35 7q-40 0 -65 -33t-36.5 -81t-11.5 -95q0 -49 13 -67.5t37 -18.5q46 0 101 90z" />
    <glyph glyph-name="uni018D" unicode="&#x18d;" horiz-adv-x="568" 
d="M17 -148l87 85q25 -22 50 -32.5t58 -10.5q32 0 49 14t17 36q0 18 -16 31.5t-65 34.5q-91 39 -133 90t-42 131q0 71 30 144.5t97 124.5t171 51q71 0 123 -28.5t79.5 -77.5t27.5 -109q0 -91 -42 -159t-144 -107q44 -30 62 -62t18 -68q0 -42 -25.5 -79.5t-77.5 -61.5
t-127 -24q-125 0 -197 77zM352 215q19 55 19 123q0 41 -16.5 62.5t-47.5 21.5q-55 0 -80.5 -60.5t-25.5 -137.5q0 -37 17 -60.5t61 -47.5q54 44 73 99z" />
    <glyph glyph-name="uni018E" unicode="&#x18e;" horiz-adv-x="510" 
d="M90 695h426l-97 -695h-431l18 131h249l23 158h-204l17 128h203l22 147h-245z" />
    <glyph glyph-name="uni018F" unicode="&#x18f;" horiz-adv-x="627" 
d="M548.5 642.5q69.5 -70.5 69.5 -204.5q0 -131 -38.5 -234t-116 -163t-189.5 -60q-125 0 -189.5 71t-64.5 198q0 82 22 162l394 -1q2 32 2 43q0 66 -27 96t-80 30q-46 0 -82.5 -16t-73.5 -43l-71 104q58 45 118.5 66.5t132.5 21.5q124 0 193.5 -70.5zM367.5 155
q35.5 40 51.5 131l-225 -1q-4 -28 -4 -57q0 -60 22.5 -86.5t66.5 -26.5q53 0 88.5 40z" />
    <glyph glyph-name="uni0190" unicode="&#x190;" horiz-adv-x="537" 
d="M472.5 689.5q54.5 -23.5 97.5 -71.5l-97 -90q-52 53 -118 53q-46 0 -71.5 -23.5t-25.5 -61.5q0 -66 83 -66h78l-39 -129h-52q-63 0 -98 -27.5t-35 -77.5q0 -42 23 -61.5t70 -19.5q39 0 73 15t71 46l85 -97q-104 -98 -259 -98q-75 0 -132 23.5t-88 67.5t-31 102
q0 88 53.5 135.5t150.5 58.5q-69 15 -103 52t-34 91q0 60 37 106t98 71t132 25q77 0 131.5 -23.5z" />
    <glyph glyph-name="uni0191" unicode="&#x191;" horiz-adv-x="477" 
d="M277 564l-23 -167h193l-18 -131h-193l-38 -266l-4 -26q-16 -98 -78 -148t-159 -50q-88 0 -143 44l72 107q18 -10 31 -14.5t32 -4.5q53 0 62 58l5 34l97 695h421l-37 -131h-220z" />
    <glyph glyph-name="florin" unicode="&#x192;" horiz-adv-x="352" 
d="M312.5 615.5q-17.5 -16.5 -22.5 -53.5l-4 -29h122l-36 -123h-103l-49 -343q-12 -86 -48 -142.5t-88.5 -90t-126.5 -58.5l-43 127q61 22 91.5 56t39.5 100l48 351h-74l16 123h75l6 40q11 83 71 135.5t159 52.5q47 0 86.5 -12.5t68.5 -32.5l-60 -105q-35 21 -79 21
q-32 0 -49.5 -16.5z" />
    <glyph glyph-name="uni0193" unicode="&#x193;" horiz-adv-x="618" 
d="M830 819l-62 -108q-32 17 -61 17q-50 0 -57 -59l-5 -47l-91 -82q-65 41 -137 41q-74 0 -119 -51t-63 -127.5t-18 -158.5q0 -70 24.5 -99.5t75.5 -29.5q42 0 86 19l20 142h-78l1 128h271l-48 -347q-57 -36 -126.5 -56t-134.5 -20q-140 0 -209 70.5t-69 207.5q0 110 43 215
t127.5 172t202.5 67q58 0 100 -18q12 78 60.5 120t132.5 42q77 0 134 -38z" />
    <glyph glyph-name="uni0194" unicode="&#x194;" horiz-adv-x="565" 
d="M348 92q24 -50 35.5 -85t11.5 -74q0 -76 -46.5 -116.5t-130.5 -40.5q-72 0 -107 32.5t-35 90.5q0 47 23 93.5t70 106.5l-128 596h190l45 -477l180 477h189zM249 7q-42 -58 -42 -95q0 -24 23 -24q17 0 25.5 11t8.5 30q0 34 -15 78z" />
    <glyph glyph-name="uni0195" unicode="&#x195;" horiz-adv-x="848" 
d="M378 29q-49 48 -49 121q0 10 2 30l23 166l2 24q0 36 -25 36q-44 0 -102 -121l-41 -285h-175l104 743l177 18l-44 -314q27 47 72.5 75.5t95.5 28.5q56 0 87.5 -34t31.5 -94q0 -22 -2 -34l-28 -203q-2 -18 -2 -26q0 -49 39 -49q65 0 89 105.5t24 231.5q0 46 -4 85h166
q8 -53 8 -112q0 -136 -25.5 -232t-92 -152t-183.5 -56q-99 0 -148 48z" />
    <glyph glyph-name="uni0196" unicode="&#x196;" horiz-adv-x="389" 
d="M369 24q-62 -42 -151 -42q-88 0 -138.5 42t-50.5 122q0 19 3 38l3 22l69 489h182l-69 -489h1l-5 -37q-1 -6 -1 -15q0 -40 41 -40q20 0 35.5 4.5t35.5 14.5z" />
    <glyph glyph-name="uni0197" unicode="&#x197;" horiz-adv-x="335" 
d="M352 427l-18 -134h-71l-41 -293h-182l41 293h-71l18 134h72l37 268h182l-37 -268h70z" />
    <glyph glyph-name="uni0198" unicode="&#x198;" horiz-adv-x="654" 
d="M256 370l163 224q47 67 88.5 93t105.5 26q39 0 66 -10.5t49 -29.5l-59 -100q-20 10 -38 10q-19 0 -33 -10t-38 -41l-116 -157l171 -375h-207zM16 0l97 695h183l-97 -695h-183z" />
    <glyph glyph-name="uni0199" unicode="&#x199;" horiz-adv-x="573" 
d="M437 237l92 -237h-191l-87 256q81 27 114 59.5t33 73.5q0 40 -42 40q-61 0 -122 -96l-45 -333h-176l75 532h-1l6 41q12 83 72.5 135.5t161.5 52.5q41 0 80 -10t66 -26l-61 -112q-33 19 -75 19q-31 0 -47.5 -16t-22.5 -54l-4 -30l-9 -62q75 81 174 81q68 0 108 -35.5
t40 -93.5q0 -124 -139 -185z" />
    <glyph glyph-name="uni019A" unicode="&#x19a;" horiz-adv-x="340" 
d="M236 155q-4 -33 20 -33q7 0 23 4l19 -124q-23 -10 -52 -15.5t-57 -5.5q-63 0 -97.5 33t-34.5 96q0 17 3 36l23 164h-71l18 123h70l44 310l177 18l-46 -328h79l-18 -123h-78z" />
    <glyph glyph-name="uni019B" unicode="&#x19b;" horiz-adv-x="531" 
d="M455 192q20 -82 61 -157l-176 -53q-38 82 -52.5 157t-15.5 217l-132 -375l-171 43l225 465l77 -14q-3 50 -13 81l-59 -42l-83 59l79 59q-32 14 -82 18l33 112q54 -8 93 -20t69 -32l81 59l56 -83l-72 -52q37 -72 49 -205q13 -155 33 -237z" />
    <glyph glyph-name="uni019C" unicode="&#x19c;" horiz-adv-x="895" 
d="M901 695l-97 -695h-160l-4 64q-40 -44 -78 -63.5t-84 -19.5q-50 0 -83.5 23.5t-48.5 65.5q-40 -46 -83.5 -67.5t-92.5 -21.5q-68 0 -105 42t-37 112q0 19 3 40l72 520h182l-71 -514q-1 -6 -1 -17q0 -23 9.5 -35t27.5 -12q23 0 43.5 14t45.5 44l72 520h182l-71 -514
q-1 -6 -1 -18q0 -22 9.5 -34t27.5 -12q23 0 44 14.5t45 44.5l72 519h182z" />
    <glyph glyph-name="uni019D" unicode="&#x19d;" horiz-adv-x="647" 
d="M653 695l-97 -695h-230l-106 542q3 -51 3 -107q0 -106 -15 -210l-32 -225l-4 -27q-15 -99 -70 -148t-145 -49q-86 0 -143 44l72 101q18 -10 31.5 -14.5t31.5 -4.5q53 0 63 64l4 34l97 695h227l109 -542q-4 55 -4 117q0 88 13 183l35 242h160z" />
    <glyph glyph-name="uni019E" unicode="&#x19e;" horiz-adv-x="563" 
d="M506 518q32 -33 32 -93q0 -16 -3 -36l-85 -596l-178 -19l86 572q2 18 2 24q0 36 -26 36q-23 0 -50 -31.5t-55 -89.5l-40 -285h-175l74 533h152l-1 -91q33 50 81 79.5t97 29.5q57 0 89 -33z" />
    <glyph glyph-name="uni019F" unicode="&#x19f;" horiz-adv-x="679" 
d="M601 638.5q70 -74.5 70 -210.5q0 -106 -35.5 -207.5t-118.5 -170.5t-215 -69q-130 0 -200 75.5t-70 210.5q0 106 35.5 207.5t118 170t214.5 68.5q131 0 201 -74.5zM283.5 532.5q-39.5 -51.5 -57.5 -131.5h265q1 14 1 39q0 76 -25 110t-77 34q-67 0 -106.5 -51.5z
M421 164.5q40 53.5 57 136.5h-265q-2 -16 -2 -45q0 -76 25 -110.5t77 -34.5q68 0 108 53.5z" />
    <glyph glyph-name="Ohorn" unicode="&#x1a0;" horiz-adv-x="708" 
d="M745.5 605.5q-32.5 -40.5 -94.5 -51.5q20 -55 20 -126q0 -106 -35.5 -207.5t-118.5 -170.5t-215 -69q-130 0 -200 75.5t-70 210.5q0 106 35.5 207.5t118 170t214.5 68.5q134 0 205 -79q30 4 44 22.5t14 53.5q0 21 -6 49l112 13q9 -25 9 -59q0 -67 -32.5 -107.5z
M417.5 170q37.5 55 51.5 129.5t14 143.5q0 73 -23.5 105t-72.5 32q-64 0 -101.5 -55.5t-52 -130t-14.5 -141.5q0 -73 24 -105.5t73 -32.5q64 0 101.5 55z" />
    <glyph glyph-name="ohorn" unicode="&#x1a1;" horiz-adv-x="630" 
d="M643.5 441.5q-34.5 -40.5 -98.5 -50.5q7 -29 7 -68q-1 -85 -31 -162.5t-98 -128.5t-175 -51q-108 0 -168 60.5t-60 168.5q0 85 30 162.5t98 128t175 50.5q62 0 108.5 -20.5t76.5 -59.5q29 4 42 23t13 53q0 29 -6 50l113 13q1 -2 4.5 -19t3.5 -41q0 -68 -34.5 -108.5z
M357.5 401.5q-15.5 20.5 -47.5 20.5q-63 0 -87 -70.5t-24 -151.5q0 -47 15 -68t48 -21q63 0 87 72t24 154q0 44 -15.5 64.5z" />
    <glyph glyph-name="uni01A2" unicode="&#x1a2;" horiz-adv-x="955" 
d="M889 672q49 -42 49 -121q0 -19 -3 -40l-101 -724h-182l103 732q2 14 2 20q0 47 -46 47q-19 0 -34 -4t-34 -12q28 -62 28 -142q0 -106 -35.5 -207.5t-118.5 -170.5t-215 -69q-130 0 -200 75.5t-70 210.5q0 106 35.5 207.5t118 170t214.5 68.5q105 0 173 -53q77 54 177 54
q90 0 139 -42zM417.5 170q37.5 55 51.5 129.5t14 143.5q0 73 -23.5 105t-72.5 32q-64 0 -101.5 -55.5t-52 -130t-14.5 -141.5q0 -73 24 -105.5t73 -32.5q64 0 101.5 55z" />
    <glyph glyph-name="uni01A3" unicode="&#x1a3;" horiz-adv-x="819" 
d="M742 508.5q46 -42.5 46 -120.5q0 -19 -3 -40l-78 -555l-177 -18l82 591q1 6 1 15q0 42 -42 42q-14 0 -36 -5q17 -43 17 -95q-1 -85 -31 -162.5t-98 -128.5t-175 -51q-108 0 -168 60.5t-60 168.5q0 85 30 162.5t98 128t175 50.5q78 0 136 -38q36 20 72 29t80 9
q85 0 131 -42.5zM357.5 401.5q-15.5 20.5 -47.5 20.5q-63 0 -87 -70.5t-24 -151.5q0 -47 15 -68t48 -21q63 0 87 72t24 154q0 44 -15.5 64.5z" />
    <glyph glyph-name="uni01A4" unicode="&#x1a4;" horiz-adv-x="753" 
d="M698 644.5q69 -50.5 69 -147.5q0 -68 -31.5 -130t-100.5 -102.5t-176 -40.5h-72l-31 -224h-182l79 564h-26q-24 0 -37 -13.5t-13 -39.5q0 -16 3 -31t4 -19l-120 -46q-25 52 -25 100q0 83 55 131.5t146 48.5h265q124 0 193 -50.5zM551.5 396q27.5 40 27.5 91q0 39 -23 58
t-70 19h-51l-29 -208h52q66 0 93.5 40z" />
    <glyph glyph-name="uni01A5" unicode="&#x1a5;" horiz-adv-x="583" 
d="M523.5 497.5q41.5 -53.5 41.5 -153.5q0 -86 -28 -169t-91.5 -138.5t-163.5 -55.5q-55 0 -94 15l-29 -202l-176 -19l105 757h-1l6 41q12 83 72.5 135.5t161.5 52.5q41 0 80 -10t66 -26l-61 -112q-33 19 -75 19q-31 0 -47.5 -16t-22.5 -54l-4 -30l-4 -45q28 32 66 48t75 16
q82 0 123.5 -53.5zM334 145.5q27 35.5 39 88t12 104.5q0 47 -14.5 65.5t-40.5 18.5q-47 0 -89 -57l-34 -244q29 -11 58 -11q42 0 69 35.5z" />
    <glyph glyph-name="uni01A6" unicode="&#x1a6;" horiz-adv-x="610" 
d="M561.5 272.5q-32.5 -55.5 -120.5 -97.5l128 -287h-195l-101 256h-55l-20 -144h-182l97 695h182l-16 -113h56q259 0 259 -178q0 -76 -32.5 -131.5zM236 270h62q59 0 83.5 34.5t24.5 81.5q0 68 -92 68h-53z" />
    <glyph glyph-name="uni01A7" unicode="&#x1a7;" 
d="M514.5 665q60.5 -48 60.5 -129q0 -95 -61.5 -150t-183.5 -93q-74 -21 -104.5 -47.5t-30.5 -63.5q0 -29 20 -46t61 -17q85 0 174 67l79 -104q-52 -45 -123 -73t-157 -28q-75 0 -129.5 24.5t-83 68t-28.5 101.5q0 99 58 157t173 95q59 17 90.5 31t45 31t13.5 41
q0 50 -68 50q-44 0 -83 -14.5t-79 -43.5l-70 100q112 91 264 91q102 0 162.5 -48z" />
    <glyph glyph-name="uni01A8" unicode="&#x1a8;" horiz-adv-x="474" 
d="M409 510.5q54 -40.5 54 -104.5q0 -60 -39.5 -107t-133.5 -78q-69 -22 -90.5 -38.5t-21.5 -38.5q0 -18 13.5 -28t38.5 -10q37 0 75 15t71 40l73 -99q-46 -37 -111 -59t-135 -22q-94 0 -151.5 43.5t-57.5 115.5q0 63 42.5 109t149.5 80q46 14 68.5 25t29 20t6.5 20
q0 32 -50 32q-28 0 -61 -11t-62 -29l-56 99q41 31 95.5 48.5t109.5 17.5q89 0 143 -40.5z" />
    <glyph glyph-name="uni01A9" unicode="&#x1a9;" horiz-adv-x="493" 
d="M538 695l-18 -133h-269l131 -191l-9 -67l-176 -169h263l-19 -135h-463l18 132l209 210l-148 221l18 132h463z" />
    <glyph glyph-name="uni01AA" unicode="&#x1aa;" horiz-adv-x="426" 
d="M492 -182q-64 -42 -153 -42q-87 0 -135 42.5t-48 124.5q0 11 2 35l3 22l57 414q-31 -14 -68 -14q-57 0 -96 42.5t-40 110.5q0 60 28.5 107.5t79 74t113.5 26.5q85 0 133 -45t48 -128q0 -20 -3 -43l-77 -545l-5 -41q-1 -5 -1 -13q0 -43 45 -43q20 0 34.5 4.5t37.5 14.5z
M234 526l8 58l2 24q0 17 -6.5 24.5t-21.5 7.5q-27 0 -40 -23.5t-12 -56.5q0 -21 9.5 -30t28.5 -9q14 0 32 5z" />
    <glyph glyph-name="uni01AB" unicode="&#x1ab;" horiz-adv-x="383" 
d="M323 125l41 -103l-7 -46q-16 -100 -74 -150t-153 -50q-48 0 -85.5 12.5t-62.5 32.5l70 103q18 -10 36.5 -15t43.5 -5q29 0 47.5 14.5t23.5 43.5l2 19q-154 3 -154 155q0 15 4 51l31 223h-67l16 123h76l33 116l153 18l-19 -134h119l-34 -123h-102l-32 -235q-1 -7 -1 -19
q0 -23 10 -32.5t30 -9.5q25 0 55 11z" />
    <glyph glyph-name="uni01AC" unicode="&#x1ac;" horiz-adv-x="596" 
d="M621 554h-161l-78 -554h-182l78 554h-56q-22 0 -33.5 -12t-11.5 -34q0 -12 7 -47l-120 -46q-25 52 -25 100q0 83 53 131.5t137 48.5h431z" />
    <glyph glyph-name="uni01AD" unicode="&#x1ad;" horiz-adv-x="383" 
d="M286 581l-8 -48h119l-34 -123h-102l-30 -223q-2 -18 -2 -24q0 -22 8.5 -31.5t25.5 -9.5q27 0 56 16l45 -116q-33 -20 -75 -30.5t-79 -10.5q-159 1 -159 156q0 14 4 50l31 223h-67l16 123h68l5 39q12 85 69 137t149 52q76 0 133 -38l-62 -100q-28 17 -57 17q-47 0 -54 -59
z" />
    <glyph glyph-name="uni01AE" unicode="&#x1ae;" horiz-adv-x="536" 
d="M400 554l-78 -554h1l-5 -37q-1 -6 -1 -15q0 -40 41 -40q20 0 35.5 4.5t35.5 14.5l45 -109q-62 -42 -151 -42q-88 0 -138.5 42t-50.5 122q0 18 3 38l3 22l78 554h-171l19 141h534l-39 -141h-161z" />
    <glyph glyph-name="Uhorn" unicode="&#x1af;" horiz-adv-x="724" 
d="M760 592.5q-45 -41.5 -127 -42.5l-44 -318q-10 -72 -48.5 -129t-104.5 -89.5t-155 -32.5q-122 0 -183.5 55.5t-61.5 151.5q0 23 3 47l64 460h182l-64 -457q-3 -22 -3 -40q0 -42 18.5 -61.5t57.5 -19.5q50 0 77 30.5t36 93.5l64 454h182l-8 -59q24 7 34.5 25t10.5 49
q0 21 -6 49l112 13q9 -25 9 -59q0 -79 -45 -120.5z" />
    <glyph glyph-name="uhorn" unicode="&#x1b0;" horiz-adv-x="647" 
d="M650.5 431q-44.5 -41 -126.5 -43l-54 -388h-152l3 73q-74 -92 -167 -92q-63 0 -95.5 35t-32.5 97q0 19 3 38l54 382h175l-49 -350q-2 -16 -2 -22q0 -37 31 -37q37 0 84 71l47 338h175l-8 -59q44 11 44 73q0 29 -6 50l113 13q1 -2 4.5 -19t3.5 -41q0 -78 -44.5 -119z" />
    <glyph glyph-name="uni01B1" unicode="&#x1b1;" horiz-adv-x="680" 
d="M154 15.5q-62 34.5 -94.5 95t-32.5 136.5q0 102 45 184t132 135h-115l18 129h242l-16 -124q-57 -65 -86.5 -152t-29.5 -173q0 -66 24.5 -98.5t74.5 -32.5q84 0 122.5 82t38.5 196q0 64 -10.5 104.5t-32.5 76.5l16 121h242l-18 -132h-111q99 -72 99 -205q0 -108 -45 -194
t-126.5 -134.5t-188.5 -48.5q-86 0 -148 34.5z" />
    <glyph glyph-name="uni01B2" unicode="&#x1b2;" horiz-adv-x="628" 
d="M634 574q0 -14 -4 -48l-33 -239q-20 -148 -108 -227t-226 -79q-108 0 -168.5 55t-60.5 145q0 23 2 35l68 479h182l-67 -482q-2 -20 -2 -27q0 -69 63 -69q50 0 85.5 40.5t48.5 128.5l36 261l1 11q0 23 -21 23q-6 0 -24 -4l-13 119q46 17 97 17q144 0 144 -139z" />
    <glyph glyph-name="uni01B3" unicode="&#x1b3;" horiz-adv-x="630" 
d="M206 257l-157 438h195l73 -295l83 165q39 82 82 115t116 33q40 0 69.5 -9.5t53.5 -27.5l-60 -105q-21 13 -45 13q-20 0 -33.5 -10.5t-30.5 -40.5l-163 -275l-37 -258h-182z" />
    <glyph glyph-name="uni01B4" unicode="&#x1b4;" horiz-adv-x="527" 
d="M-19 -102q77 9 117 31t70 71h-62l-79 533h182l23 -422l109 331q25 76 63 109.5t108 33.5q45 0 85 -15l-42 -118q-12 5 -25 5q-16 0 -27 -9t-20 -33l-139 -384q-47 -130 -136.5 -190.5t-222.5 -65.5z" />
    <glyph glyph-name="uni01B5" unicode="&#x1b5;" horiz-adv-x="540" 
d="M573 695l-19 -139l-133 -153h65l-16 -112h-147l-126 -145h306l-38 -146h-489l18 137l135 154h-75l16 112h157l132 150h-276l19 142h471z" />
    <glyph glyph-name="uni01B6" unicode="&#x1b6;" horiz-adv-x="454" 
d="M472 533l-16 -117l-86 -91h54l-16 -99h-132l-96 -101h242l-34 -125h-420l17 117l104 109h-65l16 99h143l80 84h-219l19 124h409z" />
    <glyph glyph-name="uni01B7" unicode="&#x1b7;" horiz-adv-x="551" 
d="M534 567l-184 -163q82 -5 128 -48t46 -119q0 -79 -40.5 -137t-111 -88.5t-156.5 -30.5q-85 0 -140.5 28t-94.5 80l103 88q31 -32 60 -46t71 -14q53 0 87.5 30.5t34.5 81.5q0 39 -26 56t-75 17h-102l14 100l179 161h-238l18 132h444z" />
    <glyph glyph-name="uni01B8" unicode="&#x1b8;" horiz-adv-x="553" 
d="M544 563h-247l143 -164l-13 -97l-2 1l1 -1h-99q-59 0 -93.5 -29.5t-34.5 -82.5q0 -35 22 -54t61 -19q44 0 80.5 14.5t76.5 47.5l82 -92q-52 -52 -115.5 -79t-147.5 -27q-118 0 -183 55t-65 148q0 63 31.5 112t85.5 77.5t121 31.5l-146 162l17 128h444z" />
    <glyph glyph-name="uni01B9" unicode="&#x1b9;" horiz-adv-x="510" 
d="M503 401h-251l142 -191l-12 -96l-2 1l1 -1h-94q-62 0 -96 -30.5t-34 -86.5q0 -44 23.5 -65.5t64.5 -21.5q39 0 73 14t77 47l77 -90q-100 -105 -253 -105q-77 0 -132 26.5t-83.5 73.5t-28.5 108q0 65 30.5 115.5t86.5 80.5t130 35l-153 197l16 121h436z" />
    <glyph glyph-name="uni01BA" unicode="&#x1ba;" horiz-adv-x="513" 
d="M19 -165.5q-39 36.5 -39 85.5q0 63 50 99t139 54q71 15 98.5 30t27.5 43q0 21 -16 29.5t-54 8.5h-126l13 91l160 134h-231l18 124h435l-15 -113l-177 -137h14q75 0 116.5 -35t42.5 -96q0 -84 -58 -128t-161 -65q-50 -10 -75.5 -18t-34.5 -16t-9 -19t9 -19t28 -18l-50 -94
q-66 23 -105 59.5z" />
    <glyph glyph-name="uni01BB" unicode="&#x1bb;" horiz-adv-x="513" 
d="M495.5 432.5q-12.5 -38.5 -49.5 -84.5h54l-16 -111h-148q-56 -48 -131 -103l265 1l-37 -135h-445l16 126l127 111h-68l16 111h169q46 48 62 79.5t16 65.5q0 30 -18.5 47.5t-50.5 17.5q-33 0 -61.5 -16t-64.5 -52l-94 89q53 56 114.5 85t137.5 29q70 0 119.5 -24t74.5 -65
t25 -92q0 -41 -12.5 -79.5z" />
    <glyph glyph-name="uni01BC" unicode="&#x1bc;" horiz-adv-x="541" 
d="M72 10.5q-55 29.5 -90 78.5l107 86q21 -29 52 -45t69 -16q64 0 92.5 43.5t28.5 102.5q0 41 -18.5 60.5t-50.5 19.5q-21 0 -40.5 -6t-45.5 -20l-118 2l53 379h428l-36 -126h-241l-19 -131q51 22 102 22q75 0 121 -50t46 -138q0 -69 -30.5 -135.5t-100 -111t-179.5 -44.5
q-75 0 -130 29.5z" />
    <glyph glyph-name="uni01BD" unicode="&#x1bd;" horiz-adv-x="480" 
d="M420 405h-192l-11 -74q31 17 82 17q64 0 105 -38.5t41 -108.5q0 -65 -35 -115t-94 -77.5t-131 -27.5q-71 0 -114.5 21.5t-84.5 64.5l99 91q28 -23 51.5 -34.5t55.5 -11.5q36 0 57.5 21t21.5 57q0 22 -12 32.5t-32 10.5q-29 0 -63 -13l-114 1l43 312h367z" />
    <glyph glyph-name="uni01BE" unicode="&#x1be;" horiz-adv-x="503" 
d="M475 260q0 -80 -36.5 -143t-101.5 -99t-147 -36q-70 0 -124 24t-97 71l96 86q27 -27 53 -39.5t59 -12.5q56 0 87 40t31 107q0 48 -23 77.5t-74 42.5l-50 10l19 137h-67l13 99h68l17 119l175 18l-19 -137h99l-13 -99h-100l-12 -84l28 -9q119 -43 119 -172z" />
    <glyph glyph-name="uni01BF" unicode="&#x1bf;" horiz-adv-x="586" 
d="M529.5 505.5q44.5 -45.5 44.5 -125.5q0 -92 -41 -159t-109 -113.5t-170 -93.5l-69 -30l-27 -190l-176 -18l106 757h155l1 -60q70 78 169 78q72 0 116.5 -45.5zM350.5 237.5q40.5 57.5 40.5 130.5q0 57 -50 57q-51 0 -100 -46l-38 -269l35 23q72 47 112.5 104.5z" />
    <glyph glyph-name="uni01C0" unicode="&#x1c0;" horiz-adv-x="258" 
d="M273 759l-108 -759h-149l104 743z" />
    <glyph glyph-name="uni01C1" unicode="&#x1c1;" horiz-adv-x="470" 
d="M273 759l-108 -759h-149l104 743zM486 759l-108 -759h-149l104 743z" />
    <glyph glyph-name="uni01C2" unicode="&#x1c2;" horiz-adv-x="336" 
d="M348 394h-88l-7 -52h88l-14 -97h-88l-35 -245h-149l34 245h-88l14 97h88l7 52h-87l14 97h87l35 252l153 16l-38 -268h88z" />
    <glyph glyph-name="uni01C3" unicode="&#x1c3;" horiz-adv-x="297" 
d="M289 759l-72 -516h-150l70 500zM51 6q-24 25 -24 63q0 43 31 74.5t76 31.5q37 0 60.5 -24t23.5 -62q0 -44 -31 -76t-75 -32q-37 0 -61 25z" />
    <glyph glyph-name="uni01C4" unicode="&#x1c4;" horiz-adv-x="1158" 
d="M547 637q87 -58 87 -206q0 -191 -93.5 -311t-305.5 -120h-219l97 695h203q144 0 231 -58zM277 562l-60 -430h45q102 0 143.5 89.5t41.5 208.5q0 75 -30.5 103.5t-91.5 28.5h-48zM594 0l18 137l349 416h-260l19 142h471l-19 -139l-344 -410h293l-38 -146h-489zM1115 954
l54 -70l-158 -136h-106l-123 136l69 70l120 -85z" />
    <glyph glyph-name="uni01C5" unicode="&#x1c5;" horiz-adv-x="1088" 
d="M547 637q87 -58 87 -206q0 -191 -93.5 -311t-305.5 -120h-219l97 695h203q144 0 231 -58zM277 562l-60 -430h45q102 0 143.5 89.5t41.5 208.5q0 75 -30.5 103.5t-91.5 28.5h-48zM1107 533l-17 -125l-250 -275h217l-34 -133h-420l16 125l253 276h-193l18 132h410z
M1069 822l56 -71l-160 -144h-106l-121 144l66 71l119 -94z" />
    <glyph glyph-name="uni01C6" unicode="&#x1c6;" horiz-adv-x="1040" 
d="M602 743l-104 -743h-156l1 72q-64 -91 -158 -91q-82 0 -124.5 56.5t-42.5 159.5q0 80 28 162t86 137t144 55q36 0 66 -12.5t51 -34.5l35 257zM247 386.5q-26 -36.5 -37 -88.5t-11 -101t13 -67.5t36 -18.5q47 0 102 90l27 192q-26 30 -62 30q-42 0 -68 -36.5zM1059 533
l-17 -125l-250 -275h217l-34 -133h-420l16 125l253 276h-193l18 132h410zM1021 822l56 -71l-160 -144h-106l-121 144l66 71l119 -94z" />
    <glyph glyph-name="uni01C7" unicode="&#x1c7;" horiz-adv-x="800" 
d="M295 695l-76 -551h261l-39 -144h-425l97 695h182zM727 107q-13 -87 -52.5 -143.5t-93.5 -88.5t-126 -55l-33 132q45 16 70 38.5t36 51.5t17 74l81 579h182z" />
    <glyph glyph-name="uni01C8" unicode="&#x1c8;" horiz-adv-x="770" 
d="M295 695l-76 -551h261l-39 -144h-425l97 695h182zM386 -99q61 24 91 58t39 100l66 474h175l-65 -466q-12 -86 -48 -142.5t-89 -90t-126 -58.5zM619.5 648q-24.5 24 -24.5 62q0 47 32.5 78.5t80.5 31.5q41 0 65.5 -24t24.5 -62q0 -47 -32.5 -78.5t-80.5 -31.5
q-41 0 -65.5 24z" />
    <glyph glyph-name="uni01C9" unicode="&#x1c9;" horiz-adv-x="563" 
d="M204 155q-4 -33 20 -33q7 0 23 4l19 -124q-23 -10 -52 -15.5t-57 -5.5q-63 0 -97.5 33t-34.5 96q0 17 3 36l84 597l177 18zM179 -99q61 24 91 58t39 100l66 474h175l-65 -466q-12 -86 -48 -142.5t-89 -90t-126 -58.5zM412.5 648q-24.5 24 -24.5 62q0 47 32.5 78.5
t80.5 31.5q41 0 65.5 -24t24.5 -62q0 -47 -32.5 -78.5t-80.5 -31.5q-41 0 -65.5 24z" />
    <glyph glyph-name="uni01CA" unicode="&#x1ca;" horiz-adv-x="961" 
d="M556 0h-230l-106 542q3 -51 3 -107q0 -106 -15 -210l-32 -225h-160l97 695h227l109 -542q-4 55 -4 117q0 88 13 183l35 242h160zM888 107q-13 -87 -52.5 -143.5t-93.5 -88.5t-126 -55l-33 132q45 16 70 38.5t36 51.5t17 74l81 579h182z" />
    <glyph glyph-name="uni01CB" unicode="&#x1cb;" horiz-adv-x="922" 
d="M556 0h-230l-106 542q3 -51 3 -107q0 -106 -15 -210l-32 -225h-160l97 695h227l109 -542q-4 55 -4 117q0 88 13 183l35 242h160zM538 -99q61 24 91 58t39 100l66 474h175l-65 -466q-12 -86 -48 -142.5t-89 -90t-126 -58.5zM771.5 648q-24.5 24 -24.5 62q0 47 32.5 78.5
t80.5 31.5q41 0 65.5 -24t24.5 -62q0 -47 -32.5 -78.5t-80.5 -31.5q-41 0 -65.5 24z" />
    <glyph glyph-name="uni01CC" unicode="&#x1cc;" horiz-adv-x="839" 
d="M506.5 518q31.5 -33 31.5 -93q0 -16 -3 -36l-54 -389h-175l49 346q2 18 2 22q0 38 -26 38q-23 0 -48 -31t-53 -90l-41 -285h-175l74 533h152l-1 -91q33 50 81 79.5t99 29.5q56 0 87.5 -33zM455 -99q61 24 91 58t39 100l66 474h175l-65 -466q-12 -86 -48 -142.5t-89 -90
t-126 -58.5zM688.5 648q-24.5 24 -24.5 62q0 47 32.5 78.5t80.5 31.5q41 0 65.5 -24t24.5 -62q0 -47 -32.5 -78.5t-80.5 -31.5q-41 0 -65.5 24z" />
    <glyph glyph-name="uni01CD" unicode="&#x1cd;" horiz-adv-x="585" 
d="M374 0l-11 142h-181l-49 -142h-190l299 695h220l104 -695h-192zM227 274h127l-23 301zM517 954l54 -70l-158 -136h-106l-123 136l69 70l120 -85z" />
    <glyph glyph-name="uni01CE" unicode="&#x1ce;" horiz-adv-x="573" 
d="M446.5 536.5q58.5 -14.5 110.5 -44.5l-48 -330q-2 -18 -2 -23q0 -16 5.5 -25t20.5 -15l-50 -114q-48 3 -83.5 25t-48.5 63q-64 -92 -159 -92q-83 0 -128.5 57.5t-45.5 157.5q0 85 32 166t102 135t178 54q58 0 116.5 -14.5zM229.5 356q-30.5 -71 -30.5 -160
q0 -48 13.5 -66.5t37.5 -18.5q48 0 89 67l35 241q-27 8 -50 8q-64 0 -94.5 -71zM512 822l56 -71l-160 -144h-106l-121 144l66 71l119 -94z" />
    <glyph glyph-name="uni01CF" unicode="&#x1cf;" horiz-adv-x="290" 
d="M295 695l-97 -695h-182l97 695h182zM369 954l54 -70l-158 -136h-106l-123 136l69 70l120 -85z" />
    <glyph glyph-name="uni01D0" unicode="&#x1d0;" horiz-adv-x="277" 
d="M263 533l-74 -533h-175l74 533h175zM342 822l56 -71l-160 -144h-106l-121 144l66 71l119 -94z" />
    <glyph glyph-name="uni01D1" unicode="&#x1d1;" horiz-adv-x="679" 
d="M601 638.5q70 -74.5 70 -210.5q0 -106 -35.5 -207.5t-118.5 -170.5t-215 -69q-130 0 -200 75.5t-70 210.5q0 106 35.5 207.5t118 170t214.5 68.5q131 0 201 -74.5zM285.5 524.5q-37.5 -55.5 -52 -130t-14.5 -141.5q0 -73 24 -105.5t73 -32.5q64 0 101.5 55t51.5 129.5
t14 143.5q0 73 -23.5 105t-72.5 32q-64 0 -101.5 -55.5zM565 954l54 -70l-158 -136h-106l-123 136l69 70l120 -85z" />
    <glyph glyph-name="uni01D2" unicode="&#x1d2;" horiz-adv-x="573" 
d="M80 41.5q-60 60.5 -60 168.5q0 85 30 162.5t98 128t175 50.5t168 -60.5t61 -165.5q0 -84 -29.5 -162.5t-98 -130t-176.5 -51.5t-168 60.5zM349 183q24 72 24 154q0 44 -15.5 64.5t-47.5 20.5q-63 0 -87 -70.5t-24 -151.5q0 -47 15 -68t48 -21q63 0 87 72zM483 822l56 -71
l-160 -144h-106l-121 144l66 71l119 -94z" />
    <glyph glyph-name="uni01D3" unicode="&#x1d3;" horiz-adv-x="636" 
d="M589 232q-10 -72 -48.5 -129t-104.5 -89.5t-155 -32.5q-122 0 -183.5 55.5t-61.5 151.5q0 23 3 47l64 460h182l-64 -457q-3 -22 -3 -40q0 -42 18.5 -61.5t57.5 -19.5q50 0 77 30.5t36 93.5l64 454h182zM543 954l54 -70l-158 -136h-106l-123 136l69 70l120 -85z" />
    <glyph glyph-name="uni01D4" unicode="&#x1d4;" horiz-adv-x="558" 
d="M58.5 16q-32.5 35 -32.5 97q0 19 3 38l54 382h175l-49 -350q-2 -16 -2 -22q0 -37 31 -37q37 0 84 71l47 338h175l-74 -533h-152l3 73q-74 -92 -167 -92q-63 0 -95.5 35zM481 822l56 -71l-160 -144h-106l-121 144l66 71l119 -94z" />
    <glyph glyph-name="uni01D5" unicode="&#x1d5;" horiz-adv-x="636" 
d="M589 232q-10 -72 -48.5 -129t-104.5 -89.5t-155 -32.5q-122 0 -183.5 55.5t-61.5 151.5q0 23 3 47l64 460h182l-64 -457q-3 -22 -3 -40q0 -42 18.5 -61.5t57.5 -19.5q50 0 77 30.5t36 93.5l64 454h182zM208.5 767q-21.5 21 -21.5 54q0 41 28.5 68.5t70.5 27.5
q36 0 57.5 -21.5t21.5 -54.5q0 -41 -28.5 -68t-70.5 -27q-36 0 -57.5 21zM442.5 767q-21.5 21 -21.5 54q0 41 28.5 68.5t70.5 27.5q36 0 57.5 -21.5t21.5 -54.5q0 -41 -28.5 -68t-70.5 -27q-36 0 -57.5 21zM562 952h-310l17 122h310z" />
    <glyph glyph-name="uni01D6" unicode="&#x1d6;" horiz-adv-x="558" 
d="M58.5 16q-32.5 35 -32.5 97q0 19 3 38l54 382h175l-49 -350q-2 -16 -2 -22q0 -37 31 -37q37 0 84 71l47 338h175l-74 -533h-152l3 73q-74 -92 -167 -92q-63 0 -95.5 35zM151.5 617q-21.5 21 -21.5 54q0 41 28.5 68.5t70.5 27.5q36 0 57.5 -21.5t21.5 -54.5
q0 -41 -28.5 -68t-70.5 -27q-36 0 -57.5 21zM385.5 617q-21.5 21 -21.5 54q0 41 28.5 68.5t70.5 27.5q36 0 57.5 -21.5t21.5 -54.5q0 -41 -28.5 -68t-70.5 -27q-36 0 -57.5 21zM506 805h-310l17 122h310z" />
    <glyph glyph-name="uni01D7" unicode="&#x1d7;" horiz-adv-x="636" 
d="M589 232q-10 -72 -48.5 -129t-104.5 -89.5t-155 -32.5q-122 0 -183.5 55.5t-61.5 151.5q0 23 3 47l64 460h182l-64 -457q-3 -22 -3 -40q0 -42 18.5 -61.5t57.5 -19.5q50 0 77 30.5t36 93.5l64 454h182zM502 1121l84 -93l-182 -144l-59 59zM204.5 770.5
q-21.5 21.5 -21.5 54.5q0 41 28.5 68t70.5 27q36 0 57.5 -21t21.5 -54q0 -41 -28.5 -68.5t-70.5 -27.5q-36 0 -57.5 21.5zM455.5 770.5q-21.5 21.5 -21.5 54.5q0 41 28.5 68t70.5 27q36 0 57.5 -21t21.5 -54q0 -41 -28.5 -68.5t-70.5 -27.5q-36 0 -57.5 21.5z" />
    <glyph glyph-name="uni01D8" unicode="&#x1d8;" horiz-adv-x="558" 
d="M58.5 16q-32.5 35 -32.5 97q0 19 3 38l54 382h175l-49 -350q-2 -16 -2 -22q0 -37 31 -37q37 0 84 71l47 338h175l-74 -533h-152l3 73q-74 -92 -167 -92q-63 0 -95.5 35zM431 967l84 -93l-182 -144l-59 59zM131.5 616q-21.5 21 -21.5 54q0 41 28.5 68.5t70.5 27.5
q36 0 57.5 -21.5t21.5 -54.5q0 -40 -28.5 -67.5t-70.5 -27.5q-36 0 -57.5 21zM383.5 616q-21.5 21 -21.5 54q0 41 28.5 68.5t70.5 27.5q36 0 57.5 -21.5t21.5 -54.5q0 -40 -28.5 -67.5t-70.5 -27.5q-36 0 -57.5 21z" />
    <glyph glyph-name="uni01D9" unicode="&#x1d9;" horiz-adv-x="636" 
d="M589 232q-10 -72 -48.5 -129t-104.5 -89.5t-155 -32.5q-122 0 -183.5 55.5t-61.5 151.5q0 23 3 47l64 460h182l-64 -457q-3 -22 -3 -40q0 -42 18.5 -61.5t57.5 -19.5q50 0 77 30.5t36 93.5l64 454h182zM560 1123l54 -70l-158 -136h-106l-123 136l69 70l120 -85z
M202.5 770.5q-21.5 21.5 -21.5 54.5q0 41 28 68t70 27q36 0 58 -21t22 -54q0 -41 -28.5 -68.5t-70.5 -27.5q-36 0 -57.5 21.5zM452.5 770.5q-21.5 21.5 -21.5 54.5q0 41 28.5 68t70.5 27q36 0 57.5 -21t21.5 -54q0 -41 -28.5 -68.5t-70.5 -27.5q-36 0 -57.5 21.5z" />
    <glyph glyph-name="uni01DA" unicode="&#x1da;" horiz-adv-x="558" 
d="M58.5 16q-32.5 35 -32.5 97q0 19 3 38l54 382h175l-49 -350q-2 -16 -2 -22q0 -37 31 -37q37 0 84 71l47 338h175l-74 -533h-152l3 73q-74 -92 -167 -92q-63 0 -95.5 35zM492 968l54 -70l-158 -136h-106l-123 136l69 70l120 -85zM131.5 616q-21.5 21 -21.5 54
q0 41 28.5 68.5t70.5 27.5q36 0 57.5 -21.5t21.5 -54.5q0 -40 -28.5 -67.5t-70.5 -27.5q-36 0 -57.5 21zM383.5 616q-21.5 21 -21.5 54q0 41 28.5 68.5t70.5 27.5q36 0 57.5 -21.5t21.5 -54.5q0 -40 -28.5 -67.5t-70.5 -27.5q-36 0 -57.5 21z" />
    <glyph glyph-name="uni01DB" unicode="&#x1db;" horiz-adv-x="636" 
d="M589 232q-10 -72 -48.5 -129t-104.5 -89.5t-155 -32.5q-122 0 -183.5 55.5t-61.5 151.5q0 23 3 47l64 460h182l-64 -457q-3 -22 -3 -40q0 -42 18.5 -61.5t57.5 -19.5q50 0 77 30.5t36 93.5l64 454h182zM359 1119l109 -181l-71 -54l-142 150zM201.5 770.5
q-21.5 21.5 -21.5 54.5q0 41 28.5 68t70.5 27q36 0 57.5 -21t21.5 -54q0 -41 -28.5 -68.5t-70.5 -27.5q-36 0 -57.5 21.5zM452.5 770.5q-21.5 21.5 -21.5 54.5q0 41 28.5 68t70.5 27q36 0 57.5 -21t21.5 -54q0 -41 -28.5 -68.5t-70.5 -27.5q-36 0 -57.5 21.5z" />
    <glyph glyph-name="uni01DC" unicode="&#x1dc;" horiz-adv-x="558" 
d="M58.5 16q-32.5 35 -32.5 97q0 19 3 38l54 382h175l-49 -350q-2 -16 -2 -22q0 -37 31 -37q37 0 84 71l47 338h175l-74 -533h-152l3 73q-74 -92 -167 -92q-63 0 -95.5 35zM289 965l109 -181l-71 -54l-142 150zM132.5 616q-21.5 21 -21.5 54q0 41 28.5 68.5t70.5 27.5
q36 0 57.5 -21.5t21.5 -54.5q0 -40 -28.5 -67.5t-70.5 -27.5q-36 0 -57.5 21zM384.5 616q-21.5 21 -21.5 54q0 41 28.5 68.5t70.5 27.5q36 0 57.5 -21.5t21.5 -54.5q0 -40 -28.5 -67.5t-70.5 -27.5q-36 0 -57.5 21z" />
    <glyph glyph-name="uni01DD" unicode="&#x1dd;" horiz-adv-x="537" 
d="M457 490.5q61 -61.5 61 -166.5q0 -80 -31.5 -158.5t-101.5 -131t-178 -52.5q-97 0 -151 42t-54 107q0 178 340 210q-5 82 -87 82q-33 0 -64 -11.5t-70 -37.5l-62 104q104 74 218 74q119 0 180 -61.5zM296 136.5q27 39.5 39 100.5q-86 -5 -121.5 -34t-35.5 -64
q0 -18 10.5 -30t34.5 -12q46 0 73 39.5z" />
    <glyph glyph-name="uni01DE" unicode="&#x1de;" horiz-adv-x="585" 
d="M374 0l-11 142h-181l-49 -142h-190l299 695h220l104 -695h-192zM227 274h127l-23 301zM182.5 767q-21.5 21 -21.5 54q0 41 28.5 68.5t70.5 27.5q36 0 57.5 -21.5t21.5 -54.5q0 -41 -28.5 -68t-70.5 -27q-36 0 -57.5 21zM416.5 767q-21.5 21 -21.5 54q0 41 28.5 68.5
t70.5 27.5q36 0 57.5 -21.5t21.5 -54.5q0 -41 -28.5 -68t-70.5 -27q-36 0 -57.5 21zM536 952h-310l17 122h310z" />
    <glyph glyph-name="uni01DF" unicode="&#x1df;" horiz-adv-x="573" 
d="M446.5 536.5q58.5 -14.5 110.5 -44.5l-48 -330q-2 -18 -2 -23q0 -16 5.5 -25t20.5 -15l-50 -114q-48 3 -83.5 25t-48.5 63q-64 -92 -159 -92q-83 0 -128.5 57.5t-45.5 157.5q0 85 32 166t102 135t178 54q58 0 116.5 -14.5zM229.5 356q-30.5 -71 -30.5 -160
q0 -48 13.5 -66.5t37.5 -18.5q48 0 89 67l35 241q-27 8 -50 8q-64 0 -94.5 -71zM182.5 617q-21.5 21 -21.5 54q0 41 28.5 68.5t70.5 27.5q36 0 57.5 -21.5t21.5 -54.5q0 -41 -28.5 -68t-70.5 -27q-36 0 -57.5 21zM416.5 617q-21.5 21 -21.5 54q0 41 28.5 68.5t70.5 27.5
q36 0 57.5 -21.5t21.5 -54.5q0 -41 -28.5 -68t-70.5 -27q-36 0 -57.5 21zM537 805h-310l17 122h310z" />
    <glyph glyph-name="uni01E0" unicode="&#x1e0;" horiz-adv-x="585" 
d="M374 0l-11 142h-181l-49 -142h-190l299 695h220l104 -695h-192zM227 274h127l-23 301zM291.5 758q-24.5 24 -24.5 62q0 47 32.5 78.5t80.5 31.5q41 0 65.5 -24t24.5 -62q0 -47 -32.5 -78.5t-80.5 -31.5q-41 0 -65.5 24zM544 953h-310l17 122h310z" />
    <glyph glyph-name="uni01E1" unicode="&#x1e1;" horiz-adv-x="573" 
d="M446.5 536.5q58.5 -14.5 110.5 -44.5l-48 -330q-2 -18 -2 -23q0 -16 5.5 -25t20.5 -15l-50 -114q-48 3 -83.5 25t-48.5 63q-64 -92 -159 -92q-83 0 -128.5 57.5t-45.5 157.5q0 85 32 166t102 135t178 54q58 0 116.5 -14.5zM229.5 356q-30.5 -71 -30.5 -160
q0 -48 13.5 -66.5t37.5 -18.5q48 0 89 67l35 241q-27 8 -50 8q-64 0 -94.5 -71zM287.5 614q-24.5 24 -24.5 62q0 47 32.5 78.5t80.5 31.5q41 0 65.5 -24t24.5 -62q0 -47 -32.5 -78.5t-80.5 -31.5q-41 0 -65.5 24zM536 815h-310l17 122h310z" />
    <glyph glyph-name="uni01E2" unicode="&#x1e2;" horiz-adv-x="840" 
d="M803 564h-255l7 -149h236l-17 -128h-213l7 -156h228l-18 -131h-373l-4 142h-200l-65 -142h-197l354 695h546zM261 274h137l-7 287zM706 778h-310l17 122h310z" />
    <glyph glyph-name="uni01E3" unicode="&#x1e3;" horiz-adv-x="838" 
d="M387 534q37 -17 63 -51q31 31 79 49.5t101 18.5q97 0 151.5 -42t54.5 -107q0 -177 -341 -209q3 -47 25.5 -65t62.5 -18q33 0 64 11.5t70 37.5l62 -104q-104 -74 -219 -74q-70 0 -120 22.5t-77 64.5q-43 -47 -91 -67t-104 -20q-75 0 -120 40t-45 106q0 85 64 142t218 57
h52q5 18 17 47q-5 23 -29.5 36t-60.5 13q-65 0 -143 -26l-27 116q101 39 195 39q61 0 98 -17zM540 396q-27 -40 -37 -100q59 4 94 20.5t49 36.5t14 38q0 45 -49 45q-44 0 -71 -40zM287 226q-47 0 -73 -18.5t-26 -54.5q0 -45 46 -45q24 0 45 13t47 39q-5 25 -3 66h-36z
M630 652h-310l17 122h310z" />
    <glyph glyph-name="uni01E4" unicode="&#x1e4;" horiz-adv-x="673" 
d="M652 178h-65l-17 -121q-58 -36 -127 -56t-134 -20q-140 0 -209 70.5t-69 207.5q0 114 40.5 217.5t128 170t221.5 66.5q73 0 129 -24.5t95 -66.5l-104 -93q-29 28 -56.5 40t-66.5 12q-74 0 -119 -51t-63 -127.5t-18 -158.5q0 -70 24.5 -99.5t75.5 -29.5q50 0 94 19l6 44
h-91l14 101h90l5 38h-87v107h272l-20 -145h64z" />
    <glyph glyph-name="uni01E5" unicode="&#x1e5;" horiz-adv-x="564" 
d="M493 3h55l-8 -63h-66q-32 -86 -95 -125.5t-166 -39.5q-55 0 -109 16t-100 45l54 105q80 -42 147 -42q73 0 100 41h-109l8 63h120l14 89q-27 -30 -63.5 -48t-77.5 -18q-85 0 -130.5 57t-45.5 147q0 73 33 147t104 124t179 50q58 0 116.5 -14.5t110.5 -44.5l-63 -442
q-2 -19 -8 -47zM305 174.5q25 17.5 46 48.5l30 196q-27 8 -50 8q-44 0 -73 -29.5t-43 -73t-14 -85.5t14.5 -62t39.5 -20t50 17.5z" />
    <glyph glyph-name="Gcaron" unicode="&#x1e6;" horiz-adv-x="637" 
d="M550 688.5q56 -24.5 95 -66.5l-100 -90q-32 26 -60.5 37.5t-66.5 11.5q-74 0 -119 -51t-63 -127.5t-18 -158.5q0 -70 24.5 -99.5t75.5 -29.5q42 0 86 19l20 142h-79l2 128h271l-48 -347q-58 -36 -127 -56t-134 -20q-140 0 -209 70.5t-69 207.5q0 114 40.5 217.5t128 170
t221.5 66.5q73 0 129 -24.5zM574 954l54 -70l-158 -136h-106l-123 136l69 70l120 -85z" />
    <glyph glyph-name="gcaron" unicode="&#x1e7;" horiz-adv-x="576" 
d="M452 536.5q59 -14.5 110 -44.5l-63 -442q-21 -146 -89 -210.5t-203 -64.5q-50 0 -105 16.5t-99 44.5l57 114q77 -42 146 -42q48 0 78.5 23t40.5 89l7 46q-58 -66 -137 -66q-85 0 -130.5 56.5t-45.5 152.5q0 80 32 158.5t103.5 131t180.5 52.5q58 0 117 -14.5zM255 393.5
q-29 -33.5 -42 -82.5t-13 -97q0 -83 54 -83q46 0 91 65l35 223q-29 8 -50 8q-46 0 -75 -33.5zM502 822l56 -71l-160 -144h-106l-121 144l66 71l119 -94z" />
    <glyph glyph-name="uni01E8" unicode="&#x1e8;" horiz-adv-x="635" 
d="M16 0l97 695h183l-97 -695h-183zM408 0l-152 370l246 325h192l-251 -320l172 -375h-207zM550 954l54 -70l-158 -136h-106l-123 136l69 70l120 -85z" />
    <glyph glyph-name="uni01E9" unicode="&#x1e9;" horiz-adv-x="573" 
d="M254 470q75 81 174 81q68 0 108 -35.5t40 -93.5q0 -124 -139 -185l92 -237h-191l-87 256q81 27 114 59.5t33 73.5q0 40 -42 40q-61 0 -122 -96l-45 -333h-176l104 743l178 18zM543 1002l54 -70l-158 -136h-106l-123 136l69 70l120 -85z" />
    <glyph glyph-name="uni01EA" unicode="&#x1ea;" horiz-adv-x="679" 
d="M291 -110q0 -33 43 -33q26 0 63 8l-24 -107q-35 -8 -71 -8q-61 0 -99.5 29t-38.5 79q0 76 73 129q-99 18 -152 90.5t-53 189.5q0 106 35.5 207.5t118 170t214.5 68.5q131 0 201 -74.5t70 -210.5q0 -90 -26 -179t-85.5 -159t-153.5 -96q-115 -43 -115 -104zM285.5 524.5
q-37.5 -55.5 -52 -130t-14.5 -141.5q0 -73 24 -105.5t73 -32.5q64 0 101.5 55t51.5 129.5t14 143.5q0 73 -23.5 105t-72.5 32q-64 0 -101.5 -55.5z" />
    <glyph glyph-name="uni01EB" unicode="&#x1eb;" horiz-adv-x="573" 
d="M491 490.5q61 -60.5 61 -165.5q0 -70 -21 -137.5t-67.5 -120t-119.5 -73.5q-114 -44 -114 -104q0 -33 43 -33q26 0 63 8l-24 -107q-35 -8 -71 -8q-61 0 -99.5 29t-38.5 79q0 77 76 131q-76 17 -117.5 74.5t-41.5 146.5q0 85 30 162.5t98 128t175 50.5t168 -60.5z
M357.5 401.5q-15.5 20.5 -47.5 20.5q-63 0 -87 -70.5t-24 -151.5q0 -47 15 -68t48 -21q63 0 87 72t24 154q0 44 -15.5 64.5z" />
    <glyph glyph-name="uni01EC" unicode="&#x1ec;" horiz-adv-x="679" 
d="M584 900l-17 -122h-310l17 122h310zM291 -110q0 -33 43 -33q26 0 63 8l-24 -107q-35 -8 -71 -8q-61 0 -99.5 29t-38.5 79q0 76 73 129q-99 18 -152 90.5t-53 189.5q0 106 35.5 207.5t118 170t214.5 68.5q131 0 201 -74.5t70 -210.5q0 -90 -26 -179t-85.5 -159t-153.5 -96
q-115 -43 -115 -104zM285.5 524.5q-37.5 -55.5 -52 -130t-14.5 -141.5q0 -73 24 -105.5t73 -32.5q64 0 101.5 55t51.5 129.5t14 143.5q0 73 -23.5 105t-72.5 32q-64 0 -101.5 -55.5z" />
    <glyph glyph-name="uni01ED" unicode="&#x1ed;" horiz-adv-x="573" 
d="M505 774l-17 -122h-310l17 122h310zM491 490.5q61 -60.5 61 -165.5q0 -70 -21 -137.5t-67.5 -120t-119.5 -73.5q-114 -44 -114 -104q0 -33 43 -33q26 0 63 8l-24 -107q-35 -8 -71 -8q-61 0 -99.5 29t-38.5 79q0 77 76 131q-76 17 -117.5 74.5t-41.5 146.5q0 85 30 162.5
t98 128t175 50.5t168 -60.5zM357.5 401.5q-15.5 20.5 -47.5 20.5q-63 0 -87 -70.5t-24 -151.5q0 -47 15 -68t48 -21q63 0 87 72t24 154q0 44 -15.5 64.5z" />
    <glyph glyph-name="uni01EE" unicode="&#x1ee;" horiz-adv-x="551" 
d="M534 567l-184 -163q82 -5 128 -48t46 -119q0 -79 -40.5 -137t-111 -88.5t-156.5 -30.5q-85 0 -140.5 28t-94.5 80l103 88q31 -32 60 -46t71 -14q53 0 87.5 30.5t34.5 81.5q0 39 -26 56t-75 17h-102l14 100l179 161h-238l18 132h444zM494 954l54 -70l-158 -136h-106
l-123 136l69 70l120 -85z" />
    <glyph glyph-name="uni01EF" unicode="&#x1ef;" horiz-adv-x="508" 
d="M482 412l-198 -198q85 -8 131.5 -51.5t46.5 -119.5q0 -79 -39.5 -140t-109.5 -94t-157 -33q-151 0 -226 107l102 88q31 -33 60 -47t67 -14q57 0 90 35t33 97q0 40 -25 56t-76 16h-96l13 100l181 187h-236l18 132h436zM446 822l56 -71l-160 -144h-106l-121 144l66 71
l119 -94z" />
    <glyph glyph-name="uni01F0" unicode="&#x1f0;" horiz-adv-x="275" 
d="M-109 -99q61 24 91 58t39 100l66 474h175l-65 -466q-12 -86 -48 -142.5t-89 -90t-126 -58.5zM342 822l56 -71l-160 -144h-106l-121 144l66 71l119 -94z" />
    <glyph glyph-name="uni01F1" unicode="&#x1f1;" horiz-adv-x="1158" 
d="M547 637q87 -58 87 -206q0 -191 -93.5 -311t-305.5 -120h-219l97 695h203q144 0 231 -58zM277 562l-60 -430h45q102 0 143.5 89.5t41.5 208.5q0 75 -30.5 103.5t-91.5 28.5h-48zM594 0l18 137l349 416h-260l19 142h471l-19 -139l-344 -410h293l-38 -146h-489z" />
    <glyph glyph-name="uni01F2" unicode="&#x1f2;" horiz-adv-x="1088" 
d="M547 637q87 -58 87 -206q0 -191 -93.5 -311t-305.5 -120h-219l97 695h203q144 0 231 -58zM277 562l-60 -430h45q102 0 143.5 89.5t41.5 208.5q0 75 -30.5 103.5t-91.5 28.5h-48zM1107 533l-17 -125l-250 -275h217l-34 -133h-420l16 125l253 276h-193l18 132h410z" />
    <glyph glyph-name="uni01F3" unicode="&#x1f3;" horiz-adv-x="1040" 
d="M602 743l-104 -743h-156l1 72q-64 -91 -158 -91q-82 0 -124.5 56.5t-42.5 159.5q0 80 28 162t86 137t144 55q36 0 66 -12.5t51 -34.5l35 257zM247 386.5q-26 -36.5 -37 -88.5t-11 -101t13 -67.5t36 -18.5q47 0 102 90l27 192q-26 30 -62 30q-42 0 -68 -36.5zM1059 533
l-17 -125l-250 -275h217l-34 -133h-420l16 125l253 276h-193l18 132h410z" />
    <glyph glyph-name="uni01F4" unicode="&#x1f4;" horiz-adv-x="637" 
d="M550 688.5q56 -24.5 95 -66.5l-100 -90q-32 26 -60.5 37.5t-66.5 11.5q-74 0 -119 -51t-63 -127.5t-18 -158.5q0 -70 24.5 -99.5t75.5 -29.5q42 0 86 19l20 142h-79l2 128h271l-48 -347q-58 -36 -127 -56t-134 -20q-140 0 -209 70.5t-69 207.5q0 114 40.5 217.5t128 170
t221.5 66.5q73 0 129 -24.5zM531 963l55 -132l-253 -87l-38 88z" />
    <glyph glyph-name="uni01F5" unicode="&#x1f5;" horiz-adv-x="576" 
d="M452 536.5q59 -14.5 110 -44.5l-63 -442q-21 -146 -89 -210.5t-203 -64.5q-50 0 -105 16.5t-99 44.5l57 114q77 -42 146 -42q48 0 78.5 23t40.5 89l7 46q-58 -66 -137 -66q-85 0 -130.5 56.5t-45.5 152.5q0 80 32 158.5t103.5 131t180.5 52.5q58 0 117 -14.5zM255 393.5
q-29 -33.5 -42 -82.5t-13 -97q0 -83 54 -83q46 0 91 65l35 223q-29 8 -50 8q-46 0 -75 -33.5zM452 846l55 -132l-253 -96l-39 89z" />
    <glyph glyph-name="uni01F6" unicode="&#x1f6;" horiz-adv-x="927" 
d="M453.5 29q-52.5 48 -52.5 122q0 10 2 28l14 110h-178l-41 -289h-182l97 695h182l-37 -263h180l37 263h182l-71 -509q-2 -18 -2 -26q0 -49 38 -49q65 0 89.5 105.5t24.5 231.5q0 46 -4 85h166q8 -53 8 -112q0 -137 -25 -232.5t-91.5 -151.5t-184.5 -56q-99 0 -151.5 48z
" />
    <glyph glyph-name="uni01F7" unicode="&#x1f7;" horiz-adv-x="595" 
d="M569.5 667.5q46.5 -45.5 46.5 -123.5q0 -85 -40.5 -144t-108 -98.5t-165.5 -73.5l-76 -26l-28 -202h-182l97 695h182l-6 -40q32 28 73 43t87 15q74 0 120.5 -45.5zM426 522q0 30 -15 45t-42 15q-49 0 -95 -36l-30 -218l30 14q152 72 152 180z" />
    <glyph glyph-name="uni01F8" unicode="&#x1f8;" horiz-adv-x="647" 
d="M556 0h-230l-106 542q3 -51 3 -107q0 -106 -15 -210l-32 -225h-160l97 695h227l109 -542q-4 55 -4 117q0 88 13 183l35 242h160zM347 962l204 -130l-45 -86l-232 84z" />
    <glyph glyph-name="uni01F9" unicode="&#x1f9;" horiz-adv-x="564" 
d="M506.5 518q31.5 -33 31.5 -93q0 -16 -3 -36l-54 -389h-175l49 346q2 18 2 22q0 38 -26 38q-23 0 -48 -31t-53 -90l-41 -285h-175l74 533h152l-1 -91q33 50 81 79.5t99 29.5q56 0 87.5 -33zM292 846l207 -141l-49 -85l-232 94z" />
    <glyph glyph-name="Aringacute" unicode="&#x1fa;" horiz-adv-x="585" 
d="M374 0l-11 142h-181l-49 -142h-190l299 695h220l104 -695h-192zM227 274h127l-23 301zM481.5 968q33.5 -35 33.5 -91q0 -39 -20 -74t-57.5 -56.5t-85.5 -21.5q-59 0 -93 35t-34 90q0 39 20.5 74t57.5 57t84 22q61 0 94.5 -35zM339.5 895.5q-14.5 -18.5 -14.5 -41.5
q0 -19 9.5 -29t26.5 -10q25 0 39.5 17.5t14.5 40.5q0 20 -9.5 30.5t-26.5 10.5q-25 0 -39.5 -18.5zM478 1219l55 -132l-253 -87l-38 88z" />
    <glyph glyph-name="aringacute" unicode="&#x1fb;" horiz-adv-x="573" 
d="M446.5 536.5q58.5 -14.5 110.5 -44.5l-48 -330q-2 -18 -2 -23q0 -16 5.5 -25t20.5 -15l-50 -114q-48 3 -83.5 25t-48.5 63q-64 -92 -159 -92q-83 0 -128.5 57.5t-45.5 157.5q0 85 32 166t102 135t178 54q58 0 116.5 -14.5zM229.5 356q-30.5 -71 -30.5 -160
q0 -48 13.5 -66.5t37.5 -18.5q48 0 89 67l35 241q-27 8 -50 8q-64 0 -94.5 -71zM480.5 818q33.5 -35 33.5 -91q0 -39 -20 -74t-57.5 -56.5t-85.5 -21.5q-59 0 -93 35t-34 90q0 39 20.5 74t57.5 57t84 22q61 0 94.5 -35zM338.5 745.5q-14.5 -18.5 -14.5 -41.5q0 -19 9.5 -29
t26.5 -10q25 0 39.5 17.5t14.5 40.5q0 20 -9.5 30.5t-26.5 10.5q-25 0 -39.5 -18.5zM480 1070l55 -132l-253 -87l-38 88z" />
    <glyph glyph-name="AEacute" unicode="&#x1fc;" horiz-adv-x="840" 
d="M803 564h-255l7 -149h236l-17 -128h-213l7 -156h228l-18 -131h-373l-4 142h-200l-65 -142h-197l354 695h546zM261 274h137l-7 287zM661 963l55 -132l-253 -87l-38 88z" />
    <glyph glyph-name="aeacute" unicode="&#x1fd;" horiz-adv-x="838" 
d="M387 534q37 -17 63 -51q31 31 79 49.5t101 18.5q97 0 151.5 -42t54.5 -107q0 -177 -341 -209q3 -47 25.5 -65t62.5 -18q33 0 64 11.5t70 37.5l62 -104q-104 -74 -219 -74q-70 0 -120 22.5t-77 64.5q-43 -47 -91 -67t-104 -20q-75 0 -120 40t-45 106q0 85 64 142t218 57
h52q5 18 17 47q-5 23 -29.5 36t-60.5 13q-65 0 -143 -26l-27 116q101 39 195 39q61 0 98 -17zM540 396q-27 -40 -37 -100q59 4 94 20.5t49 36.5t14 38q0 45 -49 45q-44 0 -71 -40zM287 226q-47 0 -73 -18.5t-26 -54.5q0 -45 46 -45q24 0 45 13t47 39q-5 25 -3 66h-36z
M575 846l55 -132l-253 -96l-39 89z" />
    <glyph glyph-name="Oslashacute" unicode="&#x1fe;" horiz-adv-x="679" 
d="M645 570q26 -60 26 -142q0 -106 -35.5 -207.5t-118.5 -170.5t-215 -69q-24 0 -45 3l-53 -121l-131 37l59 130q-49 36 -74.5 96t-25.5 141q0 106 35.5 207.5t118 170t214.5 68.5q16 0 44 -2l54 119l130 -36l-59 -128q50 -36 76 -96zM284.5 524q-38.5 -56 -54 -132
t-15.5 -144q0 -52 10 -84l181 415q-6 1 -19 1q-64 0 -102.5 -56zM418 170.5q38 55.5 53 131.5t15 147q0 52 -9 80l-180 -414h19q64 0 102 55.5zM526 1002l55 -132l-253 -87l-38 88z" />
    <glyph glyph-name="oslashacute" unicode="&#x1ff;" horiz-adv-x="573" 
d="M531 429.5q21 -46.5 21 -102.5q0 -85 -29.5 -164t-98 -130.5t-176.5 -51.5q-19 0 -29 1l-52 -119l-121 38l56 125q-39 30 -60.5 77.5t-21.5 106.5q0 85 30 162.5t98 128t175 50.5q11 0 31 -2l54 121l122 -38l-60 -126q40 -30 61 -76.5zM234.5 385q-29.5 -37 -41.5 -87
t-12 -94q0 -36 9 -57l128 275h-5q-49 0 -78.5 -37zM337.5 147.5q28.5 36.5 40.5 86t12 91.5q0 33 -8 55l-125 -269h4q48 0 76.5 36.5zM439 854l55 -132l-253 -96l-39 89z" />
    <glyph glyph-name="uni0200" unicode="&#x200;" horiz-adv-x="585" 
d="M374 0l-11 142h-181l-49 -142h-190l299 695h220l104 -695h-192zM227 274h127l-23 301zM261 995l71 -204l-94 -42l-98 188zM440 995l62 -206l-93 -36l-90 188z" />
    <glyph glyph-name="uni0201" unicode="&#x201;" horiz-adv-x="573" 
d="M446.5 536.5q58.5 -14.5 110.5 -44.5l-48 -330q-2 -18 -2 -23q0 -16 5.5 -25t20.5 -15l-50 -114q-48 3 -83.5 25t-48.5 63q-64 -92 -159 -92q-83 0 -128.5 57.5t-45.5 157.5q0 85 32 166t102 135t178 54q58 0 116.5 -14.5zM229.5 356q-30.5 -71 -30.5 -160
q0 -48 13.5 -66.5t37.5 -18.5q48 0 89 67l35 241q-27 8 -50 8q-64 0 -94.5 -71zM262 869l71 -204l-94 -42l-98 188zM441 869l62 -206l-93 -36l-90 188z" />
    <glyph glyph-name="uni0202" unicode="&#x202;" horiz-adv-x="585" 
d="M374 0l-11 142h-181l-49 -142h-190l299 695h220l104 -695h-192zM227 274h127l-23 301zM186 777q17 79 70 131t133 52t119.5 -53t34.5 -132l-97 -14q-3 36 -20.5 56.5t-49.5 20.5q-65 0 -97 -79z" />
    <glyph glyph-name="uni0203" unicode="&#x203;" horiz-adv-x="573" 
d="M446.5 536.5q58.5 -14.5 110.5 -44.5l-48 -330q-2 -18 -2 -23q0 -16 5.5 -25t20.5 -15l-50 -114q-48 3 -83.5 25t-48.5 63q-64 -92 -159 -92q-83 0 -128.5 57.5t-45.5 157.5q0 85 32 166t102 135t178 54q58 0 116.5 -14.5zM229.5 356q-30.5 -71 -30.5 -160
q0 -48 13.5 -66.5t37.5 -18.5q48 0 89 67l35 241q-27 8 -50 8q-64 0 -94.5 -71zM179 615q17 79 70 131t133 52t119.5 -53t34.5 -132l-97 -14q-3 36 -20.5 56.5t-49.5 20.5q-65 0 -97 -79z" />
    <glyph glyph-name="uni0204" unicode="&#x204;" horiz-adv-x="514" 
d="M548 695l-38 -131h-233l-21 -147h204l-17 -128h-204l-22 -158h249l-18 -131h-432l97 695h435zM241 995l71 -204l-94 -42l-98 188zM420 995l62 -206l-93 -36l-90 188z" />
    <glyph glyph-name="uni0205" unicode="&#x205;" horiz-adv-x="537" 
d="M195 192q5 -82 87 -82q33 0 64 11.5t70 37.5l62 -104q-104 -74 -218 -74q-119 0 -180 61.5t-61 166.5q0 80 31.5 158.5t101.5 131t178 52.5q97 0 151 -42t54 -107q0 -178 -340 -210zM323.5 330q35.5 29 35.5 64q0 18 -10.5 30t-34.5 12q-45 0 -72.5 -39.5t-39.5 -100.5
q86 5 121.5 34zM233 869l71 -204l-94 -42l-98 188zM412 869l62 -206l-93 -36l-90 188z" />
    <glyph glyph-name="uni0206" unicode="&#x206;" horiz-adv-x="514" 
d="M548 695l-38 -131h-233l-21 -147h204l-17 -128h-204l-22 -158h249l-18 -131h-432l97 695h435zM166 777q17 79 70 131t133 52t119.5 -53t34.5 -132l-97 -14q-3 36 -20.5 56.5t-49.5 20.5q-65 0 -97 -79z" />
    <glyph glyph-name="uni0207" unicode="&#x207;" horiz-adv-x="537" 
d="M195 192q5 -82 87 -82q33 0 64 11.5t70 37.5l62 -104q-104 -74 -218 -74q-119 0 -180 61.5t-61 166.5q0 80 31.5 158.5t101.5 131t178 52.5q97 0 151 -42t54 -107q0 -178 -340 -210zM323.5 330q35.5 29 35.5 64q0 18 -10.5 30t-34.5 12q-45 0 -72.5 -39.5t-39.5 -100.5
q86 5 121.5 34zM150 615q17 79 70 131t133 52t119.5 -53t34.5 -132l-97 -14q-3 36 -20.5 56.5t-49.5 20.5q-65 0 -97 -79z" />
    <glyph glyph-name="uni0208" unicode="&#x208;" horiz-adv-x="290" 
d="M295 695l-97 -695h-182l97 695h182zM113 995l71 -204l-94 -42l-98 188zM292 995l62 -206l-93 -36l-90 188z" />
    <glyph glyph-name="uni0209" unicode="&#x209;" horiz-adv-x="277" 
d="M263 533l-74 -533h-175l74 533h175zM92 869l71 -204l-94 -42l-98 188zM271 869l62 -206l-93 -36l-90 188z" />
    <glyph glyph-name="uni020A" unicode="&#x20a;" horiz-adv-x="290" 
d="M295 695l-97 -695h-182l97 695h182zM38 777q17 79 70 131t133 52t119.5 -53t34.5 -132l-97 -14q-3 36 -20.5 56.5t-49.5 20.5q-65 0 -97 -79z" />
    <glyph glyph-name="uni020B" unicode="&#x20b;" horiz-adv-x="277" 
d="M263 533l-74 -533h-175l74 533h175zM9 615q17 79 70 131t133 52t119.5 -53t34.5 -132l-97 -14q-3 36 -20.5 56.5t-49.5 20.5q-65 0 -97 -79z" />
    <glyph glyph-name="uni020C" unicode="&#x20c;" horiz-adv-x="679" 
d="M601 638.5q70 -74.5 70 -210.5q0 -106 -35.5 -207.5t-118.5 -170.5t-215 -69q-130 0 -200 75.5t-70 210.5q0 106 35.5 207.5t118 170t214.5 68.5q131 0 201 -74.5zM285.5 524.5q-37.5 -55.5 -52 -130t-14.5 -141.5q0 -73 24 -105.5t73 -32.5q64 0 101.5 55t51.5 129.5
t14 143.5q0 73 -23.5 105t-72.5 32q-64 0 -101.5 -55.5zM309 995l71 -204l-94 -42l-98 188zM488 995l62 -206l-93 -36l-90 188z" />
    <glyph glyph-name="uni020D" unicode="&#x20d;" horiz-adv-x="573" 
d="M80 41.5q-60 60.5 -60 168.5q0 85 30 162.5t98 128t175 50.5t168 -60.5t61 -165.5q0 -84 -29.5 -162.5t-98 -130t-176.5 -51.5t-168 60.5zM349 183q24 72 24 154q0 44 -15.5 64.5t-47.5 20.5q-63 0 -87 -70.5t-24 -151.5q0 -47 15 -68t48 -21q63 0 87 72zM233 869
l71 -204l-94 -42l-98 188zM412 869l62 -206l-93 -36l-90 188z" />
    <glyph glyph-name="uni020E" unicode="&#x20e;" horiz-adv-x="679" 
d="M601 638.5q70 -74.5 70 -210.5q0 -106 -35.5 -207.5t-118.5 -170.5t-215 -69q-130 0 -200 75.5t-70 210.5q0 106 35.5 207.5t118 170t214.5 68.5q131 0 201 -74.5zM285.5 524.5q-37.5 -55.5 -52 -130t-14.5 -141.5q0 -73 24 -105.5t73 -32.5q64 0 101.5 55t51.5 129.5
t14 143.5q0 73 -23.5 105t-72.5 32q-64 0 -101.5 -55.5zM234 777q17 79 70 131t133 52t119.5 -53t34.5 -132l-97 -14q-3 36 -20.5 56.5t-49.5 20.5q-65 0 -97 -79z" />
    <glyph glyph-name="uni020F" unicode="&#x20f;" horiz-adv-x="573" 
d="M80 41.5q-60 60.5 -60 168.5q0 85 30 162.5t98 128t175 50.5t168 -60.5t61 -165.5q0 -84 -29.5 -162.5t-98 -130t-176.5 -51.5t-168 60.5zM349 183q24 72 24 154q0 44 -15.5 64.5t-47.5 20.5q-63 0 -87 -70.5t-24 -151.5q0 -47 15 -68t48 -21q63 0 87 72zM150 615
q17 79 70 131t133 52t119.5 -53t34.5 -132l-97 -14q-3 36 -20.5 56.5t-49.5 20.5q-65 0 -97 -79z" />
    <glyph glyph-name="uni0210" unicode="&#x210;" horiz-adv-x="610" 
d="M577.5 381q-32.5 -54 -120.5 -95l127 -286h-198l-98 256h-54l-36 -256h-182l97 695h238q126 0 192.5 -50.5t66.5 -137.5q0 -72 -32.5 -126zM251 382h62q57 0 83 33.5t26 80.5q0 36 -23 53t-70 17h-52zM274 995l71 -204l-94 -42l-98 188zM453 995l62 -206l-93 -36l-90 188
z" />
    <glyph glyph-name="uni0211" unicode="&#x211;" horiz-adv-x="396" 
d="M442 540l-50 -172q-24 7 -46 7q-45 0 -72.5 -36t-51.5 -104l-33 -235h-175l74 533h152v-97q27 54 66 83.5t83 29.5q28 0 53 -9zM182 869l71 -204l-94 -42l-98 188zM361 869l62 -206l-93 -36l-90 188z" />
    <glyph glyph-name="uni0212" unicode="&#x212;" horiz-adv-x="610" 
d="M577.5 381q-32.5 -54 -120.5 -95l127 -286h-198l-98 256h-54l-36 -256h-182l97 695h238q126 0 192.5 -50.5t66.5 -137.5q0 -72 -32.5 -126zM251 382h62q57 0 83 33.5t26 80.5q0 36 -23 53t-70 17h-52zM199 777q17 79 70 131t133 52t119.5 -53t34.5 -132l-97 -14
q-3 36 -20.5 56.5t-49.5 20.5q-65 0 -97 -79z" />
    <glyph glyph-name="uni0213" unicode="&#x213;" horiz-adv-x="396" 
d="M442 540l-50 -172q-24 7 -46 7q-45 0 -72.5 -36t-51.5 -104l-33 -235h-175l74 533h152v-97q27 54 66 83.5t83 29.5q28 0 53 -9zM99 615q17 79 70 131t133 52t119.5 -53t34.5 -132l-97 -14q-3 36 -20.5 56.5t-49.5 20.5q-65 0 -97 -79z" />
    <glyph glyph-name="uni0214" unicode="&#x214;" horiz-adv-x="636" 
d="M589 232q-10 -72 -48.5 -129t-104.5 -89.5t-155 -32.5q-122 0 -183.5 55.5t-61.5 151.5q0 23 3 47l64 460h182l-64 -457q-3 -22 -3 -40q0 -42 18.5 -61.5t57.5 -19.5q50 0 77 30.5t36 93.5l64 454h182zM287 995l71 -204l-94 -42l-98 188zM466 995l62 -206l-93 -36
l-90 188z" />
    <glyph glyph-name="uni0215" unicode="&#x215;" horiz-adv-x="558" 
d="M58.5 16q-32.5 35 -32.5 97q0 19 3 38l54 382h175l-49 -350q-2 -16 -2 -22q0 -37 31 -37q37 0 84 71l47 338h175l-74 -533h-152l3 73q-74 -92 -167 -92q-63 0 -95.5 35zM231 869l71 -204l-94 -42l-98 188zM410 869l62 -206l-93 -36l-90 188z" />
    <glyph glyph-name="uni0216" unicode="&#x216;" horiz-adv-x="636" 
d="M589 232q-10 -72 -48.5 -129t-104.5 -89.5t-155 -32.5q-122 0 -183.5 55.5t-61.5 151.5q0 23 3 47l64 460h182l-64 -457q-3 -22 -3 -40q0 -42 18.5 -61.5t57.5 -19.5q50 0 77 30.5t36 93.5l64 454h182zM212 777q17 79 70 131t133 52t119.5 -53t34.5 -132l-97 -14
q-3 36 -20.5 56.5t-49.5 20.5q-65 0 -97 -79z" />
    <glyph glyph-name="uni0217" unicode="&#x217;" horiz-adv-x="558" 
d="M58.5 16q-32.5 35 -32.5 97q0 19 3 38l54 382h175l-49 -350q-2 -16 -2 -22q0 -37 31 -37q37 0 84 71l47 338h175l-74 -533h-152l3 73q-74 -92 -167 -92q-63 0 -95.5 35zM148 615q17 79 70 131t133 52t119.5 -53t34.5 -132l-97 -14q-3 36 -20.5 56.5t-49.5 20.5
q-65 0 -97 -79z" />
    <glyph glyph-name="Scommaaccent" unicode="&#x218;" horiz-adv-x="569" 
d="M582 620l-94 -96q-32 29 -66 42.5t-74 13.5q-43 0 -68 -18t-25 -49q0 -27 23 -43t89 -38q90 -30 133.5 -77t43.5 -122q0 -64 -30.5 -121.5t-98.5 -94t-175 -36.5q-159 0 -261 104l104 104q66 -68 161 -68q51 0 79.5 21t28.5 59q0 30 -23 50.5t-81 40.5q-99 33 -142 81
t-43 117q0 58 30.5 109t93.5 82.5t155 31.5q147 0 240 -93zM295 -86q22 -21 22 -54q0 -24 -9 -45t-30 -53l-60 -96h-85l44 117q-29 21 -29 57q0 42 26 68.5t64 26.5q35 0 57 -21z" />
    <glyph glyph-name="scommaaccent" unicode="&#x219;" horiz-adv-x="477" 
d="M383.5 532.5q51.5 -18.5 90.5 -50.5l-76 -95q-28 19 -60.5 29t-63.5 10q-60 0 -60 -35q0 -12 7.5 -19.5t27.5 -15.5t66 -23q67 -22 101 -61.5t34 -100.5q0 -50 -24.5 -93t-79.5 -70t-140 -27q-70 0 -131 25t-97 66l86 91q63 -56 143 -56q32 0 51 11.5t19 31.5q0 14 -8 23
t-28 17.5t-67 25.5q-68 24 -101 61.5t-33 96.5q0 49 27.5 89t80 64t125.5 24q59 0 110.5 -18.5zM244 -86q22 -21 22 -54q0 -24 -9 -45t-30 -53l-60 -96h-85l44 117q-29 21 -29 57q0 42 26 68.5t64 26.5q35 0 57 -21z" />
    <glyph glyph-name="uni021A" unicode="&#x21a;" horiz-adv-x="536" 
d="M600 695l-39 -141h-161l-78 -554h-182l78 554h-171l19 141h534zM280 -86q22 -21 22 -54q0 -24 -9 -45t-30 -53l-60 -96h-85l44 117q-29 21 -29 57q0 42 26 68.5t64 26.5q35 0 57 -21z" />
    <glyph glyph-name="uni021B" unicode="&#x21b;" horiz-adv-x="383" 
d="M319 137l45 -115q-33 -20 -75 -30.5t-79 -10.5q-77 0 -117.5 41t-40.5 119q0 22 3 46l31 223h-67l16 123h76l33 116l153 18l-18 -134h120l-36 -123h-101l-31 -223q-2 -18 -2 -24q0 -22 9 -31.5t26 -9.5q22 0 55 15zM243 -86q22 -21 22 -54q0 -24 -9 -45t-30 -53l-60 -96
h-85l44 117q-29 21 -29 57q0 42 26 68.5t64 26.5q35 0 57 -21z" />
    <glyph glyph-name="uni021C" unicode="&#x21c;" horiz-adv-x="516" 
d="M453.5 664.5q58.5 -48.5 58.5 -127.5q0 -139 -179 -180q74 -2 115.5 -38t41.5 -102q0 -129 -133 -213t-340 -121l3 132q138 37 209 83.5t71 122.5q0 37 -24 53.5t-77 16.5h-74l37 129h56q51 0 79.5 27t28.5 73q0 61 -69 61q-67 0 -139 -53l-74 92q109 93 250 93
q101 0 159.5 -48.5z" />
    <glyph glyph-name="uni021D" unicode="&#x21d;" horiz-adv-x="482" 
d="M400 513.5q54 -37.5 54 -105.5q0 -53 -36.5 -86t-99.5 -49q61 0 94.5 -26t33.5 -73q0 -101 -112.5 -173.5t-317.5 -111.5l-1 118q124 37 187 76.5t63 88.5q0 19 -12 27t-36 8h-98l26 111h54q35 0 55.5 17.5t20.5 50.5q0 44 -54 44q-28 0 -54.5 -8.5t-59.5 -25.5l-66 94
q51 31 102 46t112 15q91 0 145 -37.5z" />
    <glyph glyph-name="uni021E" unicode="&#x21e;" horiz-adv-x="650" 
d="M198 0h-182l97 695h182l-37 -263h179l37 263h182l-97 -695h-182l39 289h-177zM550 954l54 -70l-158 -136h-106l-123 136l69 70l120 -85z" />
    <glyph glyph-name="uni021F" unicode="&#x21f;" horiz-adv-x="563" 
d="M505.5 517q31.5 -34 31.5 -94q0 -22 -2 -34l-55 -389h-175l49 346l2 24q0 36 -25 36q-45 0 -103 -121l-40 -285h-175l104 743l177 18l-44 -314q27 47 72.5 75.5t95.5 28.5q56 0 87.5 -34zM513 1002l54 -70l-158 -136h-106l-123 136l69 70l120 -85z" />
    <glyph glyph-name="uni0220" unicode="&#x220;" horiz-adv-x="637" 
d="M585.5 671q40.5 -42 40.5 -114q0 -16 -3 -36l-101 -734h-182l99 716q2 16 2 22q0 27 -12 39.5t-37 12.5q-30 0 -58 -14.5t-63 -44.5l-73 -518h-182l97 695h160l4 -58q47 40 91 58t99 18q78 0 118.5 -42z" />
    <glyph glyph-name="uni0221" unicode="&#x221;" horiz-adv-x="794" 
d="M748 223.5q32 -28.5 32 -75.5q0 -78 -60.5 -122.5t-151.5 -44.5q-32 0 -53 4l-42 -72l-75 32l40 66q-54 29 -78 81q-37 -53 -79.5 -82t-95.5 -29q-84 0 -125.5 56.5t-41.5 159.5q0 82 27 163t86.5 136t150.5 55q33 0 61.5 -12.5t49.5 -34.5l35 257l174 -18l-78 -554
q-3 -24 -2 -38l1 2q29 52 62.5 75.5t80.5 23.5q50 0 82 -28.5zM377 391q-13 17 -27.5 24.5t-34.5 7.5q-42 0 -68 -36.5t-37 -88.5t-11 -101t13 -67.5t37 -18.5q26 0 51 25t50 65zM647 116q17 10 17 28t-20 18q-15 0 -28 -12t-32 -43q6 -1 19 -1q27 0 44 10z" />
    <glyph glyph-name="uni0222" unicode="&#x222;" horiz-adv-x="638" 
d="M500 398q108 -44 108 -153q0 -76 -41.5 -136t-115 -94t-167.5 -34q-83 0 -143.5 28t-92 76t-31.5 108q0 75 42 126t117 78q-74 41 -74 129q0 16 1 25l20 144h183l-23 -158q-2 -18 -2 -25q0 -29 15 -43.5t48 -14.5q42 0 62.5 23t25.5 63l22 155h183l-21 -147
q-15 -103 -116 -150zM385 150q33 35 33 93q0 39 -22.5 62t-65.5 23q-55 0 -88.5 -36.5t-33.5 -94.5q0 -38 22.5 -60t65.5 -22q56 0 89 35z" />
    <glyph glyph-name="uni0223" unicode="&#x223;" horiz-adv-x="568" 
d="M514.5 474.5q-25.5 -35.5 -68.5 -56.5q94 -39 94 -151q0 -82 -38 -147t-105 -102t-151 -37q-111 0 -170.5 57t-59.5 151q0 82 38 140t109 87q-63 34 -63 115q0 8 2 30l26 182h173l-30 -218q-1 -6 -1 -18q0 -41 40 -41q27 0 41 15.5t19 46.5l30 215h173l-26 -185
q-7 -48 -32.5 -83.5zM337 157q25 47 25 113q0 42 -15 62t-48 20q-53 0 -79 -49t-26 -114q0 -79 64 -79q54 0 79 47z" />
    <glyph glyph-name="uni0224" unicode="&#x224;" horiz-adv-x="532" 
d="M554 556l-340 -410h280l-22 -146l-5 -32q-16 -95 -74.5 -143.5t-152.5 -48.5q-88 0 -143 44l69 104q18 -10 32.5 -15t33.5 -5q52 0 62 62l5 34h-323l18 137l349 416h-260l19 142h471z" />
    <glyph glyph-name="uni0225" unicode="&#x225;" horiz-adv-x="449" 
d="M457 408l-250 -275h207l-17 -133l-4 -29q-13 -97 -71.5 -146t-152.5 -49q-86 0 -143 44l71 103q20 -11 33 -15.5t31 -4.5q26 0 43 15t21 44l5 38h-260l16 125l253 276h-193l18 132h410z" />
    <glyph glyph-name="uni0226" unicode="&#x226;" horiz-adv-x="585" 
d="M374 0l-11 142h-181l-49 -142h-190l299 695h220l104 -695h-192zM227 274h127l-23 301zM299.5 774q-24.5 24 -24.5 62q0 47 32.5 78.5t80.5 31.5q41 0 65.5 -24t24.5 -62q0 -47 -32.5 -78.5t-80.5 -31.5q-41 0 -65.5 24z" />
    <glyph glyph-name="uni0227" unicode="&#x227;" horiz-adv-x="573" 
d="M446.5 536.5q58.5 -14.5 110.5 -44.5l-48 -330q-2 -18 -2 -23q0 -16 5.5 -25t20.5 -15l-50 -114q-48 3 -83.5 25t-48.5 63q-64 -92 -159 -92q-83 0 -128.5 57.5t-45.5 157.5q0 85 32 166t102 135t178 54q58 0 116.5 -14.5zM229.5 356q-30.5 -71 -30.5 -160
q0 -48 13.5 -66.5t37.5 -18.5q48 0 89 67l35 241q-27 8 -50 8q-64 0 -94.5 -71zM294.5 648q-24.5 24 -24.5 62q0 47 32.5 78.5t80.5 31.5q41 0 65.5 -24t24.5 -62q0 -47 -32.5 -78.5t-80.5 -31.5q-41 0 -65.5 24z" />
    <glyph glyph-name="uni0228" unicode="&#x228;" horiz-adv-x="514" 
d="M277 564l-21 -147h204l-17 -128h-204l-22 -158h249l-18 -131h-166l-8 -45q47 -6 70.5 -30t23.5 -63q0 -30 -17 -60t-55 -50.5t-98 -20.5q-66 0 -113 34l49 77q29 -16 63 -16q47 0 47 29q0 16 -19.5 22.5t-67.5 6.5l29 116h-170l97 695h435l-38 -131h-233z" />
    <glyph glyph-name="uni0229" unicode="&#x229;" horiz-adv-x="537" 
d="M195 192q5 -82 87 -82q33 0 64 11.5t70 37.5l62 -104q-85 -61 -181 -72l-5 -28q46 -6 70 -30.5t24 -63.5q0 -30 -17 -60t-55 -50t-97 -20q-67 0 -114 34l49 77q29 -16 60 -16q50 0 50 30q0 16 -20 22t-67 6l25 102q-90 15 -135.5 73.5t-45.5 149.5q0 80 31.5 158.5
t101.5 131t178 52.5q97 0 151 -42t54 -107q0 -178 -340 -210zM323.5 330q35.5 29 35.5 64q0 18 -10.5 30t-34.5 12q-45 0 -72.5 -39.5t-39.5 -100.5q86 5 121.5 34z" />
    <glyph glyph-name="uni022A" unicode="&#x22a;" horiz-adv-x="679" 
d="M601 638.5q70 -74.5 70 -210.5q0 -106 -35.5 -207.5t-118.5 -170.5t-215 -69q-130 0 -200 75.5t-70 210.5q0 106 35.5 207.5t118 170t214.5 68.5q131 0 201 -74.5zM285.5 524.5q-37.5 -55.5 -52 -130t-14.5 -141.5q0 -73 24 -105.5t73 -32.5q64 0 101.5 55t51.5 129.5
t14 143.5q0 73 -23.5 105t-72.5 32q-64 0 -101.5 -55.5zM230.5 767q-21.5 21 -21.5 54q0 41 28.5 68.5t70.5 27.5q36 0 57.5 -21.5t21.5 -54.5q0 -41 -28.5 -68t-70.5 -27q-36 0 -57.5 21zM464.5 767q-21.5 21 -21.5 54q0 41 28.5 68.5t70.5 27.5q36 0 57.5 -21.5
t21.5 -54.5q0 -41 -28.5 -68t-70.5 -27q-36 0 -57.5 21zM584 952h-310l17 122h310z" />
    <glyph glyph-name="uni022B" unicode="&#x22b;" horiz-adv-x="573" 
d="M80 41.5q-60 60.5 -60 168.5q0 85 30 162.5t98 128t175 50.5t168 -60.5t61 -165.5q0 -84 -29.5 -162.5t-98 -130t-176.5 -51.5t-168 60.5zM349 183q24 72 24 154q0 44 -15.5 64.5t-47.5 20.5q-63 0 -87 -70.5t-24 -151.5q0 -47 15 -68t48 -21q63 0 87 72zM153.5 617
q-21.5 21 -21.5 54q0 41 28.5 68.5t70.5 27.5q36 0 57.5 -21.5t21.5 -54.5q0 -41 -28.5 -68t-70.5 -27q-36 0 -57.5 21zM387.5 617q-21.5 21 -21.5 54q0 41 28.5 68.5t70.5 27.5q36 0 57.5 -21.5t21.5 -54.5q0 -41 -28.5 -68t-70.5 -27q-36 0 -57.5 21zM508 805h-310l17 122
h310z" />
    <glyph glyph-name="uni022C" unicode="&#x22c;" horiz-adv-x="679" 
d="M580 953h-310l17 122h310zM431.5 761q-15.5 7 -33.5 19q-14 9 -23 13.5t-18 4.5q-18 0 -31 -10.5t-29 -34.5l-79 45q28 55 66.5 90.5t81.5 35.5q22 0 37 -7t35 -20q11 -9 19 -13t17 -4q16 0 29.5 10.5t29.5 33.5l79 -44q-28 -56 -66.5 -91t-80.5 -35q-18 0 -33.5 7z
M601 638.5q70 -74.5 70 -210.5q0 -106 -35.5 -207.5t-118.5 -170.5t-215 -69q-130 0 -200 75.5t-70 210.5q0 106 35.5 207.5t118 170t214.5 68.5q131 0 201 -74.5zM285.5 524.5q-37.5 -55.5 -52 -130t-14.5 -141.5q0 -73 24 -105.5t73 -32.5q64 0 101.5 55t51.5 129.5
t14 143.5q0 73 -23.5 105t-72.5 32q-64 0 -101.5 -55.5z" />
    <glyph glyph-name="uni022D" unicode="&#x22d;" horiz-adv-x="573" 
d="M80 41.5q-60 60.5 -60 168.5q0 85 30 162.5t98 128t175 50.5t168 -60.5t61 -165.5q0 -84 -29.5 -162.5t-98 -130t-176.5 -51.5t-168 60.5zM349 183q24 72 24 154q0 44 -15.5 64.5t-47.5 20.5q-63 0 -87 -70.5t-24 -151.5q0 -47 15 -68t48 -21q63 0 87 72zM339.5 599
q-15.5 7 -33.5 19q-14 9 -23 13.5t-18 4.5q-18 0 -31 -10.5t-29 -34.5l-79 45q28 55 66.5 90.5t81.5 35.5q22 0 37 -7t35 -20q11 -9 19 -13t17 -4q16 0 29.5 10.5t29.5 33.5l79 -44q-28 -56 -66.5 -91t-80.5 -35q-18 0 -33.5 7zM493 794h-310l17 122h310z" />
    <glyph glyph-name="uni022E" unicode="&#x22e;" horiz-adv-x="679" 
d="M601 638.5q70 -74.5 70 -210.5q0 -106 -35.5 -207.5t-118.5 -170.5t-215 -69q-130 0 -200 75.5t-70 210.5q0 106 35.5 207.5t118 170t214.5 68.5q131 0 201 -74.5zM285.5 524.5q-37.5 -55.5 -52 -130t-14.5 -141.5q0 -73 24 -105.5t73 -32.5q64 0 101.5 55t51.5 129.5
t14 143.5q0 73 -23.5 105t-72.5 32q-64 0 -101.5 -55.5zM347.5 774q-24.5 24 -24.5 62q0 47 32.5 78.5t80.5 31.5q41 0 65.5 -24t24.5 -62q0 -47 -32.5 -78.5t-80.5 -31.5q-41 0 -65.5 24z" />
    <glyph glyph-name="uni022F" unicode="&#x22f;" horiz-adv-x="573" 
d="M80 41.5q-60 60.5 -60 168.5q0 85 30 162.5t98 128t175 50.5t168 -60.5t61 -165.5q0 -84 -29.5 -162.5t-98 -130t-176.5 -51.5t-168 60.5zM349 183q24 72 24 154q0 44 -15.5 64.5t-47.5 20.5q-63 0 -87 -70.5t-24 -151.5q0 -47 15 -68t48 -21q63 0 87 72zM265.5 648
q-24.5 24 -24.5 62q0 47 32.5 78.5t80.5 31.5q41 0 65.5 -24t24.5 -62q0 -47 -32.5 -78.5t-80.5 -31.5q-41 0 -65.5 24z" />
    <glyph glyph-name="uni0230" unicode="&#x230;" horiz-adv-x="679" 
d="M601 638.5q70 -74.5 70 -210.5q0 -106 -35.5 -207.5t-118.5 -170.5t-215 -69q-130 0 -200 75.5t-70 210.5q0 106 35.5 207.5t118 170t214.5 68.5q131 0 201 -74.5zM285.5 524.5q-37.5 -55.5 -52 -130t-14.5 -141.5q0 -73 24 -105.5t73 -32.5q64 0 101.5 55t51.5 129.5
t14 143.5q0 73 -23.5 105t-72.5 32q-64 0 -101.5 -55.5zM339.5 758q-24.5 24 -24.5 62q0 47 32.5 78.5t80.5 31.5q41 0 65.5 -24t24.5 -62q0 -47 -32.5 -78.5t-80.5 -31.5q-41 0 -65.5 24zM592 953h-310l17 122h310z" />
    <glyph glyph-name="uni0231" unicode="&#x231;" horiz-adv-x="573" 
d="M80 41.5q-60 60.5 -60 168.5q0 85 30 162.5t98 128t175 50.5t168 -60.5t61 -165.5q0 -84 -29.5 -162.5t-98 -130t-176.5 -51.5t-168 60.5zM349 183q24 72 24 154q0 44 -15.5 64.5t-47.5 20.5q-63 0 -87 -70.5t-24 -151.5q0 -47 15 -68t48 -21q63 0 87 72zM258.5 614
q-24.5 24 -24.5 62q0 47 32.5 78.5t80.5 31.5q41 0 65.5 -24t24.5 -62q0 -47 -32.5 -78.5t-80.5 -31.5q-41 0 -65.5 24zM507 815h-310l17 122h310z" />
    <glyph glyph-name="uni0232" unicode="&#x232;" horiz-adv-x="596" 
d="M668 695l-279 -437l-37 -258h-182l36 257l-157 438h195l73 -295l156 295h195zM526 778h-310l17 122h310z" />
    <glyph glyph-name="uni0233" unicode="&#x233;" horiz-adv-x="514" 
d="M331 -1q-92 -214 -346 -224l-4 123q77 9 117 31t70 71h-62l-79 533h182l23 -421l148 421h183zM467 652h-310l17 122h310z" />
    <glyph glyph-name="uni0234" unicode="&#x234;" horiz-adv-x="479" 
d="M432.5 223.5q31.5 -28.5 31.5 -75.5q0 -78 -60 -122.5t-151 -44.5q-29 0 -53 3l-42 -71l-76 32l37 62q-43 22 -65 59.5t-22 87.5q0 22 2 34l78 555l177 18l-83 -589q-2 -17 -1 -24l1 2q30 54 63.5 78t81.5 24q50 0 81.5 -28.5zM332 116q17 10 17 28t-21 18q-15 0 -28 -12
t-32 -43q6 -1 20 -1q27 0 44 10z" />
    <glyph glyph-name="uni0235" unicode="&#x235;" horiz-adv-x="778" 
d="M731.5 223.5q31.5 -28.5 31.5 -75.5q0 -78 -60 -122.5t-151 -44.5q-29 0 -53 3l-42 -71l-76 32l38 62q-44 21 -66 58.5t-22 86.5q0 18 3 36l24 158q2 18 2 24q0 36 -26 36q-23 0 -50 -31.5t-55 -89.5l-40 -285h-175l74 533h152l-1 -91q33 50 81 79.5t97 29.5q57 0 89 -33
t32 -93q0 -16 -3 -36l-30 -217q-2 -17 -1 -24l1 2q30 54 63.5 78t81.5 24q50 0 81.5 -28.5zM630.5 116q16.5 10 16.5 28t-20 18q-15 0 -28 -12t-32 -43q6 -1 20 -1q27 0 43.5 10z" />
    <glyph glyph-name="uni0236" unicode="&#x236;" horiz-adv-x="502" 
d="M455.5 223.5q31.5 -28.5 31.5 -77.5q0 -77 -60 -121t-151 -44q-28 0 -54 3l-41 -71l-76 32l38 62q-44 21 -66.5 59t-22.5 89q0 22 2 34l31 221h-68l16 123h76l33 116l153 18l-19 -134h121l-36 -123h-102l-33 -237q-2 -19 -1 -27q34 58 67.5 82t79.5 24q50 0 81.5 -28.5z
M355 116q17 10 17 28t-21 18q-15 0 -28 -12t-32 -43q6 -1 20 -1q27 0 44 10z" />
    <glyph glyph-name="uni0237" unicode="&#x237;" horiz-adv-x="275" 
d="M-109 -99q61 24 91 58t39 100l66 474h175l-65 -466q-12 -86 -48 -142.5t-89 -90t-126 -58.5z" />
    <glyph glyph-name="uni0238" unicode="&#x238;" horiz-adv-x="852" 
d="M795.5 497.5q38.5 -53.5 38.5 -151.5q-1 -93 -30.5 -177t-84.5 -136t-128 -52q-38 0 -67.5 20.5t-47.5 61.5l-18 -63h-136v70q-26 -42 -64 -65.5t-83 -23.5q-74 0 -115.5 56.5t-41.5 154.5q0 91 30 174t86.5 134t129.5 51q33 0 61 -15.5t46 -45.5l35 253l178 18l-39 -278
q28 32 64.5 50t75.5 18q72 0 110.5 -53.5zM327 181l29 202q-23 40 -56 40q-34 0 -57 -35.5t-33.5 -88t-10.5 -102.5q0 -49 13 -67.5t36 -18.5q41 0 79 70zM610.5 147q22.5 37 32.5 90t10 102q0 46 -12.5 64.5t-33.5 18.5q-37 0 -78 -51l-28 -206q10 -29 23.5 -42t30.5 -13
q33 0 55.5 37z" />
    <glyph glyph-name="uni0239" unicode="&#x239;" horiz-adv-x="851" 
d="M793 497.5q40 -53.5 40 -148.5q-1 -93 -30.5 -177.5t-84.5 -137.5t-127 -53q-33 0 -62.5 20t-44.5 58l-37 -265l-178 -18l38 273q-56 -68 -134 -68q-73 0 -114 56.5t-41 153.5q0 93 30 175.5t86 133.5t130 51q76 0 118 -71l14 53h134l1 -54q34 39 70 55.5t78 16.5
q74 0 114 -53.5zM324 171l29 206q-11 25 -24 35.5t-30 10.5q-35 0 -57.5 -38t-32.5 -92t-10 -103q0 -79 46 -79q40 0 79 60zM608.5 149.5q22.5 39.5 33.5 95t11 101.5q0 43 -11.5 59.5t-32.5 16.5q-37 0 -81 -52l-29 -204q9 -31 22.5 -43.5t32.5 -12.5q32 0 54.5 39.5z" />
    <glyph glyph-name="uni023A" unicode="&#x23a;" horiz-adv-x="585" 
d="M394 0l-14 142h-110l-88 -218l-62 15l83 203h-35l-52 -142h-173l299 695h186l25 62l60 -14l-42 -105l95 -638h-172zM214 265h39l91 225l-10 102zM320 265h47l-9 94z" />
    <glyph glyph-name="uni023B" unicode="&#x23b;" horiz-adv-x="568" 
d="M399.5 138q31.5 15 69.5 43l69 -107q-45 -41 -105 -67t-131 -26q-35 0 -65 6l-26 -63l-62 15l27 67q-68 31 -106 98.5t-38 165.5q0 106 37.5 207.5t119 168.5t206.5 67q36 0 67 -6l20 50l60 -14l-22 -54q50 -21 87 -62l-97 -94q-22 18 -41 28l-175 -433q18 -5 38 -5
q36 0 67.5 15zM243 169l166 409h-12q-63 0 -102.5 -50t-57 -120.5t-17.5 -136.5q0 -65 23 -102z" />
    <glyph glyph-name="uni023C" unicode="&#x23c;" horiz-adv-x="470" 
d="M326.5 129.5q22.5 8.5 52.5 27.5l64 -113q-87 -63 -188 -63q-15 0 -41 2l-24 -59l-57 15l24 58q-66 24 -102 80.5t-36 136.5q0 76 32.5 154t101.5 130.5t173 52.5q26 0 54 -5l23 56l57 -14l-25 -61q37 -16 66 -47l-85 -101q-15 14 -32 23l-114 -281h9q25 0 47.5 8.5z
M218 147l109 269q-68 0 -96 -63t-28 -144q0 -41 15 -62z" />
    <glyph glyph-name="uni023D" unicode="&#x23d;" horiz-adv-x="530" 
d="M239 144h261l-39 -144h-425l41 295h-67l18 136h68l37 264h182l-36 -264h73l-18 -136h-74z" />
    <glyph glyph-name="uni023E" unicode="&#x23e;" horiz-adv-x="536" 
d="M563 562h-85l-118 -208l-50 -354h-151l-43 -76l-47 24l101 177l62 437h-184l18 133h428l35 62l46 -23l-22 -39h47zM379 494l39 68h-29z" />
    <glyph glyph-name="uni023F" unicode="&#x23f;" horiz-adv-x="485" 
d="M433 79.5q-25 -43.5 -74.5 -71t-117.5 -27.5q-19 0 -39 3q21 -9 35.5 -19.5t31.5 -26.5q20 -18 34 -26t35 -8q26 0 51 9l19 -108q-45 -29 -108 -29q-50 0 -83.5 18t-55 45.5t-51.5 77.5t-57.5 87t-67.5 68l76 90q38 -26 75 -40.5t79 -14.5q32 0 50.5 11.5t18.5 31.5
q0 14 -8 23t-27.5 17.5t-66.5 25.5q-68 24 -101 61.5t-33 96.5q0 49 27 89t79.5 64t125.5 24q59 0 111 -18.5t90 -50.5l-76 -95q-27 19 -60 29t-63 10q-60 0 -60 -35q0 -12 7.5 -19.5t27.5 -15.5t66 -23q67 -22 101 -61.5t34 -100.5q0 -48 -25 -91.5z" />
    <glyph glyph-name="uni0240" unicode="&#x240;" horiz-adv-x="455" 
d="M-14 125l260 276h-200l18 132h410l-17 -125l-307 -321q45 -16 70 -43.5t51 -71.5q20 -36 36 -52t43 -16q25 0 54 9l18 -111q-46 -26 -105 -26q-45 0 -75 14t-48 34.5t-40 55.5q-23 37 -43 59.5t-54.5 39.5t-86.5 21z" />
    <glyph glyph-name="uni0241" unicode="&#x241;" horiz-adv-x="522" 
d="M159 334l51 14q68 20 102.5 56.5t34.5 97.5q0 38 -19.5 58.5t-58.5 20.5q-35 0 -66.5 -13.5t-68.5 -41.5l-77 94q54 47 112.5 70t134.5 23q108 0 169.5 -53t61.5 -146q0 -170 -172 -224l-28 -10l-40 -280h-182z" />
    <glyph glyph-name="uni0242" unicode="&#x242;" horiz-adv-x="467" 
d="M101 204l47 14q61 17 92 49t31 85q0 33 -17 51t-49 18q-30 0 -55 -11.5t-54 -34.5l-72 90q48 43 99 64.5t115 21.5q63 0 111 -23.5t74.5 -65.5t26.5 -98q0 -155 -149 -204l-32 -10l-21 -150h-175z" />
    <glyph glyph-name="uni0243" unicode="&#x243;" horiz-adv-x="619" 
d="M554.5 322q37.5 -33 37.5 -101q0 -100 -78.5 -160.5t-256.5 -60.5h-231l25 178h-56l12 83h55l61 434h207q134 0 205.5 -37.5t71.5 -122.5q0 -70 -43 -111t-109 -57q62 -12 99.5 -45zM395 447q24 26 24 66q0 28 -21 40.5t-66 12.5h-46l-20 -145h47q58 0 82 26zM377 159
q28 27 28 77q0 66 -94 66h-61l-6 -41h102l-12 -83h-102l-6 -46h48q75 0 103 27z" />
    <glyph glyph-name="uni0244" unicode="&#x244;" horiz-adv-x="678" 
d="M698 497h-53l-37 -265q-10 -72 -48.5 -129t-104.5 -89.5t-155 -32.5q-122 0 -183.5 55.5t-61.5 151.5q0 23 3 47l36 262h-51l13 100h52l14 98h182l-14 -98h186l14 98h182l-14 -98h53zM462 497h-186l-36 -259q-3 -22 -3 -40q0 -42 18.5 -61.5t57.5 -19.5q50 0 77 30.5
t36 93.5z" />
    <glyph glyph-name="uni0245" unicode="&#x245;" horiz-adv-x="585" 
d="M462 695l104 -695h-188l-44 563l-197 -563h-194l299 695h220z" />
    <glyph glyph-name="uni0246" unicode="&#x246;" horiz-adv-x="514" 
d="M510 564h-49l-60 -147h59l-17 -128h-93l-64 -158h180l-18 -131h-215l-31 -76l-61 15l25 61h-150l97 695h335l25 62l60 -14l-19 -48h34zM335 417l60 147h-118l-21 -147h79zM219 131l64 158h-44l-22 -158h2z" />
    <glyph glyph-name="uni0247" unicode="&#x247;" horiz-adv-x="537" 
d="M260 200l-32 -80q20 -10 54 -10q33 0 64 11.5t70 37.5l62 -104q-104 -74 -218 -74q-49 0 -85 10l-27 -67l-58 15l30 74q-50 28 -75.5 78.5t-25.5 117.5q0 80 31.5 158.5t101.5 131t178 52.5h9l21 51l57 -14l-18 -44q65 -13 100.5 -51.5t35.5 -90.5q0 -161 -275 -202z
M226 385.5q-25 -41.5 -34 -98.5q28 2 41 4l61 149q-43 -13 -68 -54.5zM356 437l-53 -131q72 27 72 90q0 29 -19 41zM193 192h-6q0 -9 1 -12z" />
    <glyph glyph-name="uni0248" unicode="&#x248;" horiz-adv-x="334" 
d="M335 275h-71l-23 -168q-13 -87 -52.5 -143.5t-93.5 -88.5t-126 -55l-33 132q45 16 70 38.5t36 51.5t17 74l22 159h-70l18 136h71l40 284h182l-39 -284h70z" />
    <glyph glyph-name="uni0249" unicode="&#x249;" horiz-adv-x="341" 
d="M325 190h-73l-17 -123q-12 -86 -48 -142.5t-89 -90t-126 -58.5l-43 125q61 24 91 58t39 100l18 131h-76l17 123h76l31 220h175l-31 -220h74zM162.5 648q-24.5 24 -24.5 62q0 47 32.5 78.5t80.5 31.5q41 0 65.5 -24t24.5 -62q0 -47 -32.5 -78.5t-80.5 -31.5
q-41 0 -65.5 24z" />
    <glyph glyph-name="uni024A" unicode="&#x24a;" horiz-adv-x="667" 
d="M725 -182q-62 -42 -151 -42q-88 0 -138.5 42t-50.5 122q0 18 3 38l3 22l5 37q-59 -56 -146 -56q-102 0 -161 74t-59 201q0 118 39.5 223t113 169.5t170.5 64.5q48 0 81.5 -16t61.5 -44l12 42h162l-97 -695h1l-5 -37q-1 -6 -1 -15q0 -40 41 -40q20 0 35.5 4.5t35.5 14.5z
M412 153l55 387q-17 19 -38 29.5t-50 10.5q-54 0 -90.5 -50t-54 -126t-17.5 -156q0 -74 24 -105.5t69 -31.5q57 0 102 42z" />
    <glyph glyph-name="uni024B" unicode="&#x24b;" horiz-adv-x="574" 
d="M527 -80l16 -127q-36 -17 -102 -17q-65 0 -101 33.5t-36 95.5q0 17 3 35l9 61l6 39q-16 -21 -51.5 -40t-79.5 -19q-83 0 -128 57.5t-45 157.5q0 88 32.5 169t103 133.5t179.5 52.5q57 0 116 -14.5t111 -44.5l-77 -548q-1 -4 -1 -10q0 -18 19 -18q14 0 26 4zM340 178
l36 241q-27 8 -50 8q-44 0 -72.5 -35t-41.5 -88t-13 -108q0 -49 14 -67t40 -18q46 0 87 67z" />
    <glyph glyph-name="uni024C" unicode="&#x24c;" horiz-adv-x="620" 
d="M588.5 381q-32.5 -54 -120.5 -95l127 -286h-198l-98 256h-54l-36 -256h-182l36 256h-57l18 126h56l44 313h238q126 0 192.5 -50.5t66.5 -137.5q0 -72 -32.5 -126zM288 566l-26 -184h62q57 0 83 33.5t26 80.5q0 36 -23 53t-70 17h-52z" />
    <glyph glyph-name="uni024D" unicode="&#x24d;" horiz-adv-x="422" 
d="M468 540l-50 -172q-24 7 -46 7q-40 0 -66.5 -29.5t-47.5 -84.5h72l-18 -123h-78l-19 -138h-175l19 138h-71l18 123h70l38 272h152v-97q27 54 66 83.5t83 29.5q28 0 53 -9z" />
    <glyph glyph-name="uni024E" unicode="&#x24e;" horiz-adv-x="598" 
d="M620 618h38l-13 -99h-88l-167 -261l-36 -258h-182l36 257l-95 262h-87l13 99h39l-28 77h179l22 -77h196l43 77h179zM317 384l75 135h-113z" />
    <glyph glyph-name="uni024F" unicode="&#x24f;" horiz-adv-x="550" 
d="M563 397l-14 -107h-73l-126 -291q-92 -214 -346 -224l-4 123q77 9 117 31t70 71h-62l-43 290h-73l15 107h42l-20 136h182l7 -136h116l48 136h183l-59 -136h40zM251 112l63 178h-73z" />
    <glyph glyph-name="uni0250" unicode="&#x250;" horiz-adv-x="536" 
d="M210 183q-2 -18 -2 -24q0 -28 14.5 -39t51.5 -11q58 0 139 26l31 -114q-48 -19 -101.5 -29.5t-104.5 -10.5q-102 0 -153.5 37.5t-51.5 116.5q0 20 3 41l28 194q2 16 2 22q0 17 -6 26.5t-20 15.5l50 114q50 -4 79.5 -21.5t44.5 -53.5q32 41 75 59.5t91 18.5q72 0 113 -40
t41 -109q0 -99 -75.5 -149.5t-199.5 -50.5h-46zM272 413.5q-20 -11.5 -34 -31.5l-12 -85h27q51 0 78 21.5t27 63.5q0 20 -11 31.5t-32 11.5q-23 0 -43 -11.5z" />
    <glyph glyph-name="uni0251" unicode="&#x251;" horiz-adv-x="573" 
d="M507 139q0 -16 5.5 -25t20.5 -15l-50 -114q-48 3 -83.5 25t-48.5 63q-62 -92 -157 -92q-86 0 -131 57.5t-45 157.5q0 89 34 171t96 133t143 51q88 0 123 -70l25 52h124l-54 -371q-2 -18 -2 -23zM369 382q-22 45 -64 45q-53 0 -79.5 -68.5t-26.5 -161.5q0 -49 13.5 -67.5
t38.5 -18.5q47 0 88 67z" />
    <glyph glyph-name="uni0252" unicode="&#x252;" horiz-adv-x="573" 
d="M510 494.5q45 -57.5 45 -157.5q0 -89 -34 -171t-96 -133t-143 -51q-88 0 -123 70l-25 -52h-124l54 371q2 18 2 23q0 16 -5.5 25t-20.5 15l50 114q48 -3 83.5 -25t48.5 -63q62 92 157 92q86 0 131 -57.5zM347.5 174.5q26.5 68.5 26.5 161.5q0 49 -13.5 67.5t-38.5 18.5
q-47 0 -88 -67l-30 -204q22 -45 64 -45q53 0 79.5 68.5z" />
    <glyph glyph-name="uni0253" unicode="&#x253;" horiz-adv-x="582" 
d="M521.5 497.5q41.5 -53.5 41.5 -153.5q0 -89 -28 -171t-99 -137t-192 -55q-113 0 -227 48l71 503h-1l6 41q12 83 72.5 135.5t161.5 52.5q41 0 80 -10t66 -26l-61 -112q-33 19 -75 19q-31 0 -47.5 -16t-22.5 -54l-4 -30l-6 -42q27 28 66 44.5t75 16.5q82 0 123.5 -53.5z
M332 145.5q27 35.5 39 88t12 104.5q0 47 -14.5 65.5t-40.5 18.5q-47 0 -89 -57l-34 -244q31 -11 59 -11q41 0 68 35.5z" />
    <glyph glyph-name="uni0254" unicode="&#x254;" horiz-adv-x="463" 
d="M40.5 -3.5q-41.5 15.5 -76.5 46.5l91 101q21 -18 39.5 -25.5t44.5 -7.5q64 0 94 63.5t30 146.5q0 54 -17 77.5t-53 23.5q-49 0 -102 -35l-63 101q42 32 89 47.5t103 15.5q104 0 163 -59t59 -168q0 -102 -36.5 -179.5t-105 -120.5t-161.5 -43q-57 0 -98.5 15.5z" />
    <glyph glyph-name="uni0255" unicode="&#x255;" horiz-adv-x="501" 
d="M446 232q32 -29 32 -82q0 -81 -59.5 -125t-151.5 -44q-37 0 -70 7l-43 -75l-76 32l42 73q-49 27 -74.5 77.5t-25.5 120.5q0 76 32.5 153.5t101.5 129.5t172 52q107 0 175 -71l-85 -101q-38 37 -89 37q-67 0 -95.5 -63t-28.5 -144q0 -27 5 -47q30 53 67 76t86 23
q53 0 85 -29zM346 117q16 11 16 33q0 20 -22 20q-19 0 -37 -14.5t-37 -45.5q15 -4 36 -4q28 0 44 11z" />
    <glyph glyph-name="uni0256" unicode="&#x256;" horiz-adv-x="595" 
d="M653 -182q-64 -42 -153 -42q-87 0 -135 42.5t-48 124.5q0 11 2 35l3 22h1l9 61q-19 -32 -57.5 -56t-89.5 -24q-84 0 -125.5 56.5t-41.5 159.5q0 82 27 163t86.5 136t150.5 55q33 0 61.5 -12.5t49.5 -34.5l35 257l174 -18l-104 -743h-1l-5 -41q-1 -5 -1 -13q0 -43 45 -43
q20 0 34.5 4.5t37.5 14.5zM350 201l27 190q-13 17 -27.5 24.5t-34.5 7.5q-42 0 -68 -36.5t-37 -88.5t-11 -101t13 -67.5t37 -18.5q46 0 101 90z" />
    <glyph glyph-name="uni0257" unicode="&#x257;" horiz-adv-x="585" 
d="M757 723l-61 -108q-32 17 -62 17q-24 0 -38 -14.5t-19 -44.5l-6 -40h1l-74 -533h-156l1 72q-64 -91 -158 -91q-84 0 -125.5 56.5t-41.5 159.5q0 82 27 163t86.5 136t150.5 55q33 0 61.5 -12.5t49.5 -34.5l4 29h-1l6 39q11 85 68.5 137t151.5 52q80 0 135 -38zM377 391
q-13 17 -27.5 24.5t-34.5 7.5q-42 0 -68 -36.5t-37 -88.5t-11 -101t13 -67.5t37 -18.5q46 0 101 90z" />
    <glyph glyph-name="uni0258" unicode="&#x258;" horiz-adv-x="542" 
d="M463 485q57 -66 57 -169q0 -98 -36.5 -174t-106.5 -118.5t-166 -42.5q-120 0 -204 77l78 96q31 -23 60 -33.5t65 -10.5q84 0 116 82q-138 9 -214.5 48.5t-76.5 124.5q0 51 30 93.5t85.5 67.5t129.5 25q126 0 183 -66zM242.5 319q29.5 -20 103.5 -24q1 12 1 37
q0 51 -17 77.5t-55 26.5q-28 0 -45 -18t-17 -47q0 -32 29.5 -52z" />
    <glyph glyph-name="uni0259" unicode="&#x259;" horiz-adv-x="537" 
d="M457 490.5q61 -61.5 61 -166.5q0 -80 -31.5 -158.5t-101.5 -131t-178 -52.5q-97 0 -151 42t-54 107q0 178 340 210q-5 82 -87 82q-33 0 -64 -11.5t-70 -37.5l-62 104q104 74 218 74q119 0 180 -61.5zM296 136.5q27 39.5 39 100.5q-86 -5 -121.5 -34t-35.5 -64
q0 -18 10.5 -30t34.5 -12q46 0 73 39.5z" />
    <glyph glyph-name="uni025A" unicode="&#x25a;" horiz-adv-x="823" 
d="M844 341q-59 -36 -130 -36q-70 0 -105 30.5t-40 84.5l-1 8l-58 -32q8 -37 8 -72q0 -80 -31.5 -158.5t-101.5 -131t-178 -52.5q-97 0 -151 42t-54 107q0 178 340 210q-5 82 -87 82q-33 0 -64 -11.5t-70 -37.5l-62 104q104 74 218 74q128 0 191 -73l106 54h143l-8 -58
q-1 -4 -1 -12q0 -37 39 -37q18 0 30 3.5t31 10.5zM296 136.5q27 39.5 39 100.5q-86 -5 -121.5 -34t-35.5 -64q0 -18 10.5 -30t34.5 -12q46 0 73 39.5z" />
    <glyph glyph-name="uni025B" unicode="&#x25b;" horiz-adv-x="488" 
d="M67.5 22.5q-60.5 41.5 -60.5 118.5q0 62 43 99.5t121 43.5q-107 25 -107 111q0 72 60 114t165 42q129 0 201 -71l-79 -83q-25 17 -49.5 25t-53.5 8q-33 0 -52.5 -15t-19.5 -41q0 -21 14.5 -33.5t42.5 -12.5h69l-33 -111h-57q-85 0 -85 -61q0 -23 19 -36.5t58 -13.5
q29 0 58.5 10t69.5 33l56 -100q-40 -32 -98 -50t-123 -18q-99 0 -159.5 41.5z" />
    <glyph glyph-name="uni025C" unicode="&#x25c;" horiz-adv-x="487" 
d="M404.5 514.5q53.5 -36.5 53.5 -99.5q0 -50 -35 -85t-101 -47q62 -7 94 -39t32 -83q0 -48 -26.5 -89t-84.5 -66t-147 -25q-129 0 -212 67l83 97q32 -21 61 -30t63 -9q41 0 62 16.5t21 44.5q0 50 -68 50h-86l26 111h62q37 0 57.5 16t20.5 43q0 43 -54 43q-32 0 -57.5 -8.5
t-56.5 -26.5l-68 95q95 61 221 61q86 0 139.5 -36.5z" />
    <glyph glyph-name="uni025D" unicode="&#x25d;" horiz-adv-x="761" 
d="M782 341q-59 -36 -130 -36q-70 0 -105 30.5t-40 84.5l-1 8l-49 -27q-5 -45 -39.5 -76t-95.5 -42q62 -7 94 -39t32 -83q0 -48 -26.5 -89t-84.5 -66t-147 -25q-129 0 -212 67l83 97q32 -21 61 -30t63 -9q41 0 62 16.5t21 44.5q0 50 -68 50h-86l26 111h62q37 0 57.5 16
t20.5 43q0 43 -54 43q-32 0 -57.5 -8.5t-56.5 -26.5l-68 95q95 61 221 61q55 0 97.5 -15.5t67.5 -43.5l82 41h143l-8 -58q-1 -4 -1 -12q0 -37 39 -37q18 0 30 3.5t31 10.5z" />
    <glyph glyph-name="uni025E" unicode="&#x25e;" horiz-adv-x="567" 
d="M81.5 39.5q-61.5 58.5 -61.5 168.5q0 100 37.5 178t108 121.5t167.5 43.5q59 0 106 -17.5t73 -49t26 -72.5q0 -50 -35 -83.5t-101 -45.5q62 -7 94 -39t32 -83q0 -48 -27.5 -89t-87 -66t-151.5 -25q-119 0 -180.5 58.5zM330.5 123.5q20.5 17.5 20.5 47.5q0 23 -17 34.5
t-54 11.5h-28l26 111h4q38 0 58.5 16.5t20.5 44.5q0 41 -48 41q-43 0 -70 -35.5t-39 -87.5t-12 -104q0 -53 17.5 -75t57.5 -22q43 0 63.5 17.5z" />
    <glyph glyph-name="uni025F" unicode="&#x25f;" horiz-adv-x="341" 
d="M325 190h-73l-17 -123q-12 -86 -48 -142.5t-89 -90t-126 -58.5l-43 125q61 24 91 58t39 100l18 131h-76l17 123h76l31 220h175l-31 -220h74z" />
    <glyph glyph-name="uni0260" unicode="&#x260;" horiz-adv-x="582" 
d="M755 723l-61 -108q-32 17 -62 17q-24 0 -38 -14.5t-19 -44.5l-6 -40l-70 -483q-21 -146 -89 -210.5t-203 -64.5q-50 0 -105 16.5t-99 44.5l57 114q77 -42 146 -42q48 0 78.5 23t40.5 89l7 46q-58 -66 -137 -66q-85 0 -130.5 56.5t-45.5 152.5q0 79 32 158t101.5 131.5
t174.5 52.5q32 0 69 -8l4 29q11 85 68.5 137t151.5 52q80 0 135 -38zM345 196l32 223q-26 8 -47 8q-46 0 -75 -33.5t-42 -82.5t-13 -97q0 -83 54 -83q46 0 91 65z" />
    <glyph glyph-name="uni0261" unicode="&#x261;" horiz-adv-x="576" 
d="M452 536.5q59 -14.5 110 -44.5l-63 -442q-21 -146 -89 -210.5t-203 -64.5q-50 0 -105 16.5t-99 44.5l57 114q77 -42 146 -42q48 0 78.5 23t40.5 89l7 46q-58 -66 -137 -66q-85 0 -130.5 56.5t-45.5 152.5q0 80 32 158.5t103.5 131t180.5 52.5q58 0 117 -14.5zM255 393.5
q-29 -33.5 -42 -82.5t-13 -97q0 -83 54 -83q46 0 91 65l35 223q-29 8 -50 8q-46 0 -75 -33.5z" />
    <glyph glyph-name="uni0262" unicode="&#x262;" horiz-adv-x="551" 
d="M455 531q48 -20 86 -56l-94 -89q-50 41 -107 41q-72 0 -106.5 -65.5t-34.5 -159.5q0 -52 18 -73t54 -21q31 0 64 11l11 83h-57l-1 114h238l-37 -267q-48 -31 -107.5 -48.5t-126.5 -17.5q-118 0 -177 55.5t-59 163.5q0 101 40 180.5t112.5 124t166.5 44.5q69 0 117 -20z
" />
    <glyph glyph-name="uni0263" unicode="&#x263;" horiz-adv-x="509" 
d="M353.5 2q11.5 -36 11.5 -75q0 -71 -44.5 -111t-126.5 -40q-67 0 -103.5 30t-36.5 81q0 47 24.5 93.5t72.5 108.5l1 1l-125 443h187l36 -332l125 332h183l-240 -446l-1 -1q25 -48 36.5 -84zM230 -106.5q9 11.5 9 28.5q0 28 -17 72q-41 -60 -41 -89q0 -23 23 -23
q17 0 26 11.5z" />
    <glyph glyph-name="uni0264" unicode="&#x264;" horiz-adv-x="571" 
d="M565.5 543q24.5 -8 48.5 -24l-61 -101q-3 1 -13 5t-24 4q-16 0 -28 -8.5t-26 -29.5l-100 -146q22 -36 32.5 -65t10.5 -61q0 -58 -39.5 -97t-116.5 -39q-61 0 -94 30t-33 77q0 38 20 76.5t59 82.5l-54 146q-8 20 -16 27t-24 7q-17 0 -28.5 -4.5t-13.5 -5.5l-36 104
q26 15 52 22.5t58 7.5q58 0 87.5 -31.5t47.5 -102.5l20 -72l45 81q37 67 73.5 96t96.5 29q32 0 56.5 -8zM273 169q-16 -22 -24.5 -37t-8.5 -29q0 -19 20 -19q13 0 20.5 8t7.5 23q0 21 -15 54z" />
    <glyph glyph-name="uni0265" unicode="&#x265;" horiz-adv-x="559" 
d="M314 77q-31 -42 -74 -69t-91 -27q-57 0 -90 34t-33 95q0 22 2 33l55 390h175l-50 -345q-2 -18 -2 -23q0 -38 25 -38q23 0 49 28t53 76l42 302h175l-103 -740l-175 -18z" />
    <glyph glyph-name="uni0266" unicode="&#x266;" horiz-adv-x="563" 
d="M504.5 517.5q32.5 -33.5 32.5 -94.5q0 -22 -2 -34l-55 -389h-175l52 346q2 10 2 25q0 35 -26 35q-23 0 -49.5 -31.5t-54.5 -89.5l-41 -285h-175l75 532h-1l6 41q12 83 72.5 135.5t161.5 52.5q41 0 80 -10t66 -26l-61 -112q-33 19 -75 19q-31 0 -47.5 -16t-22.5 -54
l-4 -30l-12 -88q26 48 70.5 77.5t92.5 29.5q58 0 90.5 -33.5z" />
    <glyph glyph-name="uni0267" unicode="&#x267;" horiz-adv-x="563" 
d="M504.5 517.5q32.5 -33.5 32.5 -94.5q0 -22 -2 -34l-55 -389l-4 -26q-15 -97 -76.5 -147.5t-155.5 -50.5q-88 0 -143 44l70 103q21 -11 34 -15.5t31 -4.5q27 0 43 15t20 44l6 38l52 346q2 10 2 25q0 35 -26 35q-23 0 -49.5 -31.5t-54.5 -89.5l-41 -285h-175l75 532h-1
l6 41q12 83 72.5 135.5t161.5 52.5q41 0 80 -10t66 -26l-61 -112q-33 19 -75 19q-31 0 -47.5 -16t-22.5 -54l-4 -30l-12 -88q26 48 70.5 77.5t92.5 29.5q58 0 90.5 -33.5z" />
    <glyph glyph-name="uni0268" unicode="&#x268;" horiz-adv-x="335" 
d="M154.5 648q-24.5 24 -24.5 62q0 47 32.5 78.5t80.5 31.5q41 0 65.5 -24t24.5 -62q0 -47 -32.5 -78.5t-80.5 -31.5q-41 0 -65.5 24zM342 343l-18 -123h-74l-31 -220h-175l31 220h-75l18 123h74l26 190h175l-26 -190h75z" />
    <glyph glyph-name="uni0269" unicode="&#x269;" horiz-adv-x="289" 
d="M83 533h175l-53 -378q-1 -4 -1 -10q0 -23 21 -23q14 0 23 4l18 -124q-22 -10 -51 -15.5t-57 -5.5q-63 0 -97 33.5t-34 96.5q0 23 2 35z" />
    <glyph glyph-name="uni026A" unicode="&#x26a;" horiz-adv-x="329" 
d="M339 410h-67l-40 -287h66l-17 -123h-308l18 123h65l41 287h-66l17 123h308z" />
    <glyph glyph-name="uni026B" unicode="&#x26b;" horiz-adv-x="479" 
d="M304 155q-4 -33 20 -33q7 0 23 4l19 -124q-23 -10 -52 -15.5t-57 -5.5q-63 0 -97.5 33t-34.5 96q0 17 3 36l26 183q-25 -1 -39 -14t-34 -42l-86 52q35 59 78 96t99 39l40 283l177 18l-51 -361q24 1 40 14.5t33 40.5l87 -53q-35 -59 -78 -96t-100 -38z" />
    <glyph glyph-name="uni026C" unicode="&#x26c;" horiz-adv-x="451" 
d="M321 155q-4 -33 20 -33q7 0 23 4l19 -124q-23 -10 -52 -15.5t-57 -5.5q-63 0 -97.5 33t-34.5 96q0 17 3 36l13 91q-74 2 -112.5 33.5t-38.5 85.5q0 59 41 94t106 35q18 0 38 -4l37 262l177 18l-60 -428h4q33 3 72 10l-1 -88q-36 -11 -84 -14h-4zM171 330l9 66
q-10 3 -23 3q-16 0 -26 -10t-10 -25q0 -34 50 -34z" />
    <glyph glyph-name="uni026D" unicode="&#x26d;" horiz-adv-x="276" 
d="M343 -182q-64 -42 -153 -42q-87 0 -135 42.5t-48 124.5q0 11 2 35l3 22h1l104 743l177 18l-106 -761h-1l-5 -41q-1 -5 -1 -13q0 -43 45 -43q20 0 34.5 4.5t37.5 14.5z" />
    <glyph glyph-name="uni026E" unicode="&#x26e;" horiz-adv-x="711" 
d="M685 412l-198 -198q85 -8 131.5 -51.5t46.5 -119.5q0 -79 -39.5 -140t-109.5 -94t-157 -33q-126 0 -200 76l93 103q25 -24 51 -34.5t59 -10.5q57 0 90 35t33 97q0 40 -25 56t-76 16h-96l13 100l181 187h-243l-35 -246q-4 -33 20 -33q7 0 23 4l19 -124q-23 -10 -52 -15.5
t-57 -5.5q-63 0 -97.5 33t-34.5 96q0 17 3 36l84 597l177 18l-32 -228h443z" />
    <glyph glyph-name="uni026F" unicode="&#x26f;" horiz-adv-x="826" 
d="M812 533l-74 -533h-152l1 83q-31 -48 -73.5 -74.5t-90.5 -26.5q-47 0 -78 24.5t-39 70.5q-31 -44 -74 -69.5t-87 -25.5q-56 0 -87.5 33.5t-31.5 93.5q0 22 2 34l55 390h175l-50 -346q-2 -20 -2 -25q0 -35 25 -35q42 0 89 115l40 291h175l-49 -346q-2 -18 -2 -23
q0 -21 6.5 -29t19.5 -8q20 0 43.5 32t42.5 87l41 287h175z" />
    <glyph glyph-name="uni0270" unicode="&#x270;" horiz-adv-x="823" 
d="M813 533l-102 -740l-177 -18l39 287q-30 -38 -69 -59.5t-79 -21.5q-45 0 -78 24t-41 70q-32 -43 -75 -68.5t-84 -25.5q-57 0 -89 33.5t-32 94.5q0 22 2 34l55 390h175l-52 -346q-2 -10 -2 -25q0 -35 26 -35q20 0 44.5 30t46.5 84l40 292h175l-52 -346q-2 -10 -2 -25
q0 -35 26 -35q21 0 45.5 31.5t43.5 85.5l41 289h175z" />
    <glyph glyph-name="uni0271" unicode="&#x271;" horiz-adv-x="826" 
d="M768.5 517.5q31.5 -33.5 31.5 -93.5q0 -22 -2 -34l-55 -390l-4 -26q-15 -97 -76.5 -147.5t-155.5 -50.5q-88 0 -143 44l70 103q21 -11 34 -15.5t31 -4.5q27 0 43 15t20 44l6 38l50 346q2 20 2 25q0 35 -25 35q-42 0 -89 -115l-40 -291h-175l49 346q2 18 2 23
q0 21 -6.5 29t-19.5 8q-20 0 -43.5 -32t-42.5 -87l-41 -287h-175l74 533h152l-1 -83q31 48 73.5 74.5t90.5 26.5q47 0 78 -24.5t39 -70.5q31 44 74 69.5t87 25.5q56 0 87.5 -33.5z" />
    <glyph glyph-name="uni0272" unicode="&#x272;" horiz-adv-x="564" 
d="M506.5 518q31.5 -33 31.5 -93q0 -16 -3 -36l-54 -389h-175l49 346q2 18 2 22q0 38 -26 38q-23 0 -48 -31t-53 -90l-41 -285l-4 -26q-15 -97 -76.5 -147.5t-155.5 -50.5q-88 0 -143 44l70 103q21 -11 34 -15.5t31 -4.5q27 0 43 15t20 44l6 38l74 533h152l-1 -91
q33 50 81 79.5t99 29.5q56 0 87.5 -33z" />
    <glyph glyph-name="uni0273" unicode="&#x273;" horiz-adv-x="564" 
d="M636 -182q-64 -42 -153 -42q-87 0 -135 42.5t-48 124.5q0 11 2 35l3 22h1l49 346q2 18 2 22q0 38 -26 38q-23 0 -48 -31t-53 -90l-41 -285h-175l74 533h152l-1 -91q33 50 81 79.5t99 29.5q56 0 87.5 -33t31.5 -93q0 -16 -3 -36l-54 -389h-1l-5 -41q-1 -5 -1 -13
q0 -43 45 -43q20 0 34.5 4.5t37.5 14.5z" />
    <glyph glyph-name="uni0274" unicode="&#x274;" horiz-adv-x="574" 
d="M487 0h-208l-85 380l1 -24q2 -40 2 -66q0 -75 -11 -159l-18 -131h-154l74 533h205l88 -380q-3 53 -3 97q0 69 10 144l19 139h154z" />
    <glyph glyph-name="uni0275" unicode="&#x275;" horiz-adv-x="573" 
d="M491 490.5q61 -60.5 61 -165.5q0 -84 -29.5 -162.5t-98 -130t-176.5 -51.5t-168 60.5t-60 168.5q0 85 30 162.5t98 128t175 50.5t168 -60.5zM242 396.5q-26 -29.5 -38 -78.5h178v12q0 51 -17 73.5t-53 22.5q-44 0 -70 -29.5zM370 223h-179v-20q0 -51 16.5 -73.5
t51.5 -22.5q84 0 111 116z" />
    <glyph glyph-name="uni0276" unicode="&#x276;" horiz-adv-x="759" 
d="M517 412q20 -40 26 -84h165l-17 -117h-159q-16 -51 -49 -89h233l-17 -122h-351q-49 -19 -102 -19q-106 0 -166 61t-60 168q0 85 30 162.5t97.5 128t173.5 50.5q51 0 100 -18h357l-35 -121h-226zM349 183q24 72 24 154q0 44 -15.5 64.5t-47.5 20.5q-63 0 -87 -70.5
t-24 -151.5q0 -47 15 -68t48 -21q63 0 87 72z" />
    <glyph glyph-name="uni0277" unicode="&#x277;" horiz-adv-x="754" 
d="M647.5 487.5q82.5 -63.5 82.5 -190.5q0 -84 -27.5 -156t-81.5 -116t-130 -44q-63 0 -97 29t-40 90q-25 -64 -65 -91.5t-102 -27.5q-80 0 -125.5 50t-45.5 146q0 180 106 277t295 97q148 0 230.5 -63.5zM538 162.5q23 51.5 23 127.5q0 69 -37.5 104.5t-121.5 35.5
q-112 0 -164 -63t-52 -185q0 -71 43 -71q45 0 56 79l16 107l164 22l-19 -140q-2 -10 -2 -27q0 -41 34 -41q37 0 60 51.5z" />
    <glyph glyph-name="uni0278" unicode="&#x278;" horiz-adv-x="665" 
d="M577 102q-71 -84 -196 -96l-31 -212l-175 -18l33 230q-84 11 -138 62.5t-54 145.5q0 88 32 155.5t91.5 108.5t141.5 49l30 216l175 18l-32 -234q85 -10 139.5 -62t54.5 -147q0 -132 -71 -216zM455.5 181.5q24.5 58.5 24.5 143.5q0 46 -14.5 67.5t-43.5 25.5l-43 -302
q52 7 76.5 65.5zM238 115l43 301q-50 -8 -73.5 -65t-23.5 -139q0 -86 54 -97z" />
    <glyph glyph-name="uni0279" unicode="&#x279;" horiz-adv-x="396" 
d="M-46 -7l50 172q24 -7 46 -7q45 0 72.5 36t51.5 104l33 235h175l-74 -533h-152v97q-27 -54 -66 -83.5t-83 -29.5q-28 0 -53 9z" />
    <glyph glyph-name="uni027A" unicode="&#x27a;" horiz-adv-x="396" 
d="M412 743l-30 -210l-74 -533h-152v97q-27 -54 -66 -83.5t-83 -29.5q-28 0 -53 9l50 172q24 -7 46 -7q45 0 72.5 36t51.5 104l65 463z" />
    <glyph glyph-name="uni027B" unicode="&#x27b;" horiz-adv-x="396" 
d="M463 -182q-64 -42 -153 -42q-87 0 -135 42.5t-48 124.5q0 11 2 35l3 22h1l11 73q-26 -41 -62 -65t-75 -24q-28 0 -53 9l50 172q27 -8 45 -8q45 0 73.5 37t50.5 104l34 235h175l-74 -533h-1l-5 -41q-1 -5 -1 -13q0 -43 45 -43q20 0 34.5 4.5t37.5 14.5z" />
    <glyph glyph-name="uni027C" unicode="&#x27c;" horiz-adv-x="396" 
d="M442 540l-50 -172q-24 7 -45 7q-45 0 -73 -36.5t-52 -103.5l-65 -441l-175 -19l106 758h152v-97q26 52 66.5 82.5t82.5 30.5q28 0 53 -9z" />
    <glyph glyph-name="uni027D" unicode="&#x27d;" horiz-adv-x="396" 
d="M442 540l-50 -172q-24 7 -46 7q-45 0 -72.5 -36t-51.5 -104l-33 -235h-1l-5 -41q-1 -5 -1 -13q0 -43 45 -43q20 0 34.5 4.5t37.5 14.5l45 -104q-64 -42 -153 -42q-87 0 -135 42.5t-48 124.5q0 11 2 35l3 22h1l74 533h152v-97q27 54 66 83.5t83 29.5q28 0 53 -9z" />
    <glyph glyph-name="uni027E" unicode="&#x27e;" horiz-adv-x="390" 
d="M433 508l-70 -103q-21 11 -34 15.5t-31 4.5q-27 0 -43 -15t-20 -44l-6 -38l-45 -328h-175l45 328l4 26q15 97 76.5 147.5t155.5 50.5q88 0 143 -44z" />
    <glyph glyph-name="uni027F" unicode="&#x27f;" horiz-adv-x="393" 
d="M313 509.5q48 -42.5 48 -124.5q0 -11 -2 -35l-3 -22h-1l-45 -328h-175l45 328h1l5 41q1 5 1 13q0 43 -45 43q-20 0 -34.5 -4.5t-37.5 -14.5l-45 104q64 42 153 42q87 0 135 -42.5z" />
    <glyph glyph-name="uni0280" unicode="&#x280;" horiz-adv-x="537" 
d="M393 206l97 -206h-179l-69 178h-36l-25 -178h-167l74 533h202q103 0 157 -39t54 -117q0 -118 -108 -171zM222 293h30q38 0 57.5 20.5t19.5 53.5q0 25 -14 35t-44 10h-33z" />
    <glyph glyph-name="uni0281" unicode="&#x281;" horiz-adv-x="536" 
d="M477 201q0 -100 -69.5 -150.5t-190.5 -50.5h-203l74 533h167l-25 -178h36l119 178h179l-154 -208q67 -38 67 -124zM304 192q0 26 -14 37t-43 11h-33l-17 -119h30q77 0 77 71z" />
    <glyph glyph-name="uni0282" unicode="&#x282;" horiz-adv-x="478" 
d="M417 271.5q34 -39.5 34 -101.5q0 -50 -24.5 -92.5t-79 -69.5t-140.5 -27q-45 0 -90 14l-4 -36q-1 -5 -1 -13q0 -42 54 -42q25 0 44 5t43 16l45 -107q-29 -19 -69.5 -30.5t-87.5 -11.5q-86 0 -132.5 40.5t-46.5 118.5q0 20 3 43l13 94l79 83q68 -48 148 -48q35 0 54 11
t19 32q0 14 -8 23t-28.5 18t-66.5 25q-134 45 -134 158q0 49 27.5 89t80.5 64t127 24q55 0 110 -19t88 -50l-76 -97q-25 20 -58 30.5t-64 10.5q-61 0 -61 -35q0 -12 7.5 -20t27.5 -15.5t66 -22.5q67 -22 101 -61.5z" />
    <glyph glyph-name="uni0283" unicode="&#x283;" horiz-adv-x="277" 
d="M448 723l-61 -108q-32 17 -62 17q-24 0 -38 -14.5t-19 -44.5l-6 -40h1l-74 -533l-4 -26q-15 -97 -76.5 -147.5t-155.5 -50.5q-88 0 -143 44l70 103q21 -11 34 -15.5t31 -4.5q27 0 43 15t20 44l6 38l74 533h-1l6 39q11 85 68.5 137t151.5 52q80 0 135 -38z" />
    <glyph glyph-name="uni0284" unicode="&#x284;" horiz-adv-x="341" 
d="M486 723l-61 -108q-32 17 -62 17q-24 0 -38 -14.5t-19 -44.5l-6 -40h1l-58 -410h72l-18 -123h-76q-28 -91 -90 -141.5t-159 -82.5l-39 119q52 22 78 43.5t38 61.5h-76l17 123h79l57 410h-1l6 39q11 85 68.5 137t151.5 52q80 0 135 -38z" />
    <glyph glyph-name="uni0285" unicode="&#x285;" horiz-adv-x="512" 
d="M490 24q-64 -42 -153 -42q-87 0 -135 42.5t-48 124.5q0 11 2 35l3 22h1l17 121h1l5 41q1 5 1 13q0 43 -45 43q-20 0 -34.5 -4.5t-37.5 -14.5l-45 104q64 42 153 42q87 0 135 -42.5t48 -124.5q0 -11 -2 -35l-3 -22h-1l-17 -121h-1l-5 -41q-1 -5 -1 -13q0 -43 45 -43
q20 0 34.5 4.5t37.5 14.5z" />
    <glyph glyph-name="uni0286" unicode="&#x286;" horiz-adv-x="347" 
d="M518 723l-61 -108q-32 17 -62 17q-24 0 -38 -14.5t-19 -44.5l-6 -40l-71 -507q-1 -14 -5 -30q46 -14 90 -39l-37 -70q-24 13 -75 29q-28 -71 -81 -105.5t-139 -34.5q-66 0 -103 31.5t-37 86.5q0 61 45 97.5t115 36.5q31 0 53 -2l70 507l6 39q11 85 68.5 137t151.5 52
q80 0 135 -38zM51 -118q15 18 24 62q-16 3 -40 3q-29 0 -45 -13.5t-16 -35.5q0 -16 9 -25t26 -9q27 0 42 18z" />
    <glyph glyph-name="uni0287" unicode="&#x287;" horiz-adv-x="383" 
d="M348 0h-76l-33 -116l-153 -18l18 134h-120l36 123h101l31 223q2 18 2 24q0 22 -9 31.5t-26 9.5q-22 0 -55 -15l-45 115q33 20 75 30.5t79 10.5q77 0 117.5 -41t40.5 -119q0 -22 -3 -46l-31 -223h67z" />
    <glyph glyph-name="uni0288" unicode="&#x288;" horiz-adv-x="382" 
d="M198 -41q-1 -5 -1 -13q0 -43 45 -43q20 0 34.5 4.5t37.5 14.5l45 -104q-64 -42 -153 -42q-87 0 -135 42.5t-48 124.5q0 11 2 35l3 22h1l57 410h-67l16 123h76l33 116l153 18l-19 -134h119l-34 -123h-102l-57 -410h-1z" />
    <glyph glyph-name="uni0289" unicode="&#x289;" horiz-adv-x="615" 
d="M614 290h-74l-40 -290h-152l3 73q-74 -92 -167 -92q-63 0 -95.5 35t-32.5 97q0 19 3 38l20 139h-72l14 107h73l19 136h175l-19 -136h111l19 136h175l-19 -136h74zM365 290h-111l-15 -107q-2 -16 -2 -22q0 -37 31 -37q37 0 84 71z" />
    <glyph glyph-name="uni028A" unicode="&#x28a;" horiz-adv-x="580" 
d="M123.5 8.5q-53.5 27.5 -81 74.5t-27.5 105q0 72 34.5 129t100.5 95h-90l17 121h213l-15 -113q-38 -42 -58.5 -102t-20.5 -120q0 -91 67 -91q58 0 84 53t26 131q0 85 -29 131l15 111h213l-18 -121h-90q41 -31 63.5 -68.5t22.5 -89.5q0 -80 -39.5 -142t-108 -96.5
t-152.5 -34.5q-73 0 -126.5 27.5z" />
    <glyph glyph-name="uni028B" unicode="&#x28b;" horiz-adv-x="552" 
d="M84.5 23q-53.5 42 -53.5 123q0 21 2 33l50 354h175l-49 -348q-2 -20 -2 -26q0 -26 10.5 -37t30.5 -11q35 0 61 31.5t35 99.5l21 149l1 8q0 20 -21 20l-16 -2l-13 120q42 14 89 14q66 0 101.5 -33.5t35.5 -98.5q0 -17 -3 -38l-19 -134q-19 -136 -100.5 -201t-195.5 -65
q-86 0 -139.5 42z" />
    <glyph glyph-name="uni028C" unicode="&#x28c;" horiz-adv-x="509" 
d="M-49 0l232 533h210l89 -533h-188l-25 401l-135 -401h-183z" />
    <glyph glyph-name="uni028D" unicode="&#x28d;" horiz-adv-x="748" 
d="M-36 0l179 533h203l11 -374l113 374h205l34 -533h-177l13 398l-130 -398h-167l-8 398l-108 -398h-168z" />
    <glyph glyph-name="uni028E" unicode="&#x28e;" horiz-adv-x="514" 
d="M183 534q93 218 346 228l4 -122q-76 -9 -117.5 -33t-70.5 -75l62 1l80 -533h-182l-23 420l-148 -420h-183z" />
    <glyph glyph-name="uni028F" unicode="&#x28f;" horiz-adv-x="510" 
d="M559 533l-226 -342l-28 -191h-175l28 190l-131 343h185l48 -222l111 222h188z" />
    <glyph glyph-name="uni0290" unicode="&#x290;" horiz-adv-x="455" 
d="M555 -182q-64 -42 -153 -42q-87 0 -135 42.5t-48 124.5q0 11 2 35l3 22h-254l16 125l253 276h-193l18 132h410l-17 -125l-250 -275h211l-19 -133l-5 -41q-1 -5 -1 -13q0 -43 45 -43q20 0 34.5 4.5t37.5 14.5z" />
    <glyph glyph-name="uni0291" unicode="&#x291;" horiz-adv-x="559" 
d="M530 253.5q33 -28.5 33 -79.5q0 -89 -61 -132t-169 -42l7 20l-10 -20h-5q-8 -29 -17 -95l-6 -37l-96 3q10 76 23 129h-259l16 125l264 276h-204l18 132h409l-16 -117l-269 -283h77q33 80 77.5 114.5t101.5 34.5q53 0 86 -28.5zM429.5 142.5q17.5 9.5 17.5 28.5
q0 21 -22 21q-39 0 -62 -59h18q31 0 48.5 9.5z" />
    <glyph glyph-name="uni0292" unicode="&#x292;" horiz-adv-x="508" 
d="M482 412l-198 -198q85 -8 131.5 -51.5t46.5 -119.5q0 -79 -39.5 -140t-109.5 -94t-157 -33q-151 0 -226 107l102 88q31 -33 60 -47t67 -14q57 0 90 35t33 97q0 40 -25 56t-76 16h-96l13 100l181 187h-236l18 132h436z" />
    <glyph glyph-name="uni0293" unicode="&#x293;" horiz-adv-x="513" 
d="M487 412l-198 -190q85 -8 131.5 -52t46.5 -123q0 -93 -53 -159t-148 -94l18 -55l-87 -33l-21 72q-30 -2 -47 -2q-90 0 -142.5 37t-52.5 106q0 45 20 78t53 50t71 17q54 0 85 -29t54 -99l3 -9q68 30 68 119q0 43 -25 60t-76 17h-97l13 99l184 179h-239l19 132h436z
M139 -90q-12 36 -24 50t-31 14q-14 0 -22.5 -8.5t-8.5 -21.5q0 -17 16 -25.5t58 -8.5h12z" />
    <glyph glyph-name="uni0294" unicode="&#x294;" horiz-adv-x="490" 
d="M143 355l38 12q142 44 142 179q0 42 -21 64t-61 22q-32 0 -61.5 -13t-63.5 -41l-75 91q57 48 112 70t127 22q105 0 167 -55.5t62 -154.5q0 -92 -43 -151t-131 -90l-24 -8l-42 -302h-175z" />
    <glyph glyph-name="uni0295" unicode="&#x295;" horiz-adv-x="484" 
d="M142 0l43 302l-19 10q-56 29 -86 68t-30 104q0 79 37.5 142.5t103.5 99t149 35.5q69 0 120 -23.5t95 -71.5l-96 -86q-25 26 -51.5 39t-58.5 13q-53 0 -86.5 -39t-33.5 -108q0 -45 25 -73t77 -45l36 -12l-50 -355h-175z" />
    <glyph glyph-name="uni0296" unicode="&#x296;" horiz-adv-x="503" 
d="M373 761l-45 -320l28 -9q119 -43 119 -172q0 -80 -36.5 -143t-101.5 -99t-147 -36q-70 0 -124 24t-97 71l96 86q27 -27 53 -39.5t59 -12.5q56 0 87 40t31 107q0 48 -23 77.5t-74 42.5l-50 10l50 355z" />
    <glyph glyph-name="uni0297" unicode="&#x297;" horiz-adv-x="478" 
d="M511 482l-83 -98q-38 32 -82 32q-53 0 -88 -58t-51 -142t-16 -163q0 -75 18.5 -106.5t54.5 -31.5q24 0 46 8.5t49 27.5l63 -112q-86 -63 -181 -63q-112 0 -171.5 73.5t-60.5 206.5q0 129 39.5 242.5t116 183t182.5 69.5q101 0 164 -69z" />
    <glyph glyph-name="uni0298" unicode="&#x298;" horiz-adv-x="787" 
d="M626 676.5q73 -36.5 112 -105t39 -161.5q0 -122 -53 -219.5t-148.5 -153.5t-218.5 -56q-99 0 -172 37.5t-112.5 106.5t-39.5 162q0 123 53.5 220t149.5 151.5t218 54.5q99 0 172 -36.5zM310 550q-53 -42 -78.5 -113t-26.5 -159q0 -89 42.5 -132t121.5 -43t132 41.5
t78.5 112t25.5 157.5q0 90 -43.5 134t-119.5 44q-79 0 -132 -42zM343.5 285q-20.5 20 -20.5 52q0 39 27.5 65.5t66.5 26.5q34 0 55 -20t21 -52q0 -39 -27.5 -65.5t-67.5 -26.5q-34 0 -54.5 20z" />
    <glyph glyph-name="uni0299" unicode="&#x299;" horiz-adv-x="535" 
d="M507 183q0 -92 -71 -137.5t-190 -45.5h-232l73 528q126 23 218 23q101 0 157.5 -33.5t56.5 -96.5q0 -49 -32.5 -82t-96.5 -46q117 -15 117 -110zM324 345.5q19 19.5 19 52.5q0 43 -50 43q-20 0 -41 -3l-16 -112h38q31 0 50 19.5zM308.5 135q21.5 21 21.5 60q0 43 -56 43
h-51l-18 -124h45q37 0 58.5 21z" />
    <glyph glyph-name="uni029A" unicode="&#x29a;" horiz-adv-x="566" 
d="M68 23q-61 42 -61 121q0 60 43 97t122 43q-107 25 -107 106q0 46 29 82.5t83.5 57.5t127.5 21q115 0 177.5 -62t62.5 -170q0 -100 -37.5 -176.5t-108 -119t-168.5 -42.5q-102 0 -163 42zM345.5 170q28.5 64 28.5 148q0 61 -18.5 86.5t-55.5 25.5q-29 0 -46 -14.5
t-17 -39.5q0 -22 14 -35t42 -13h23l-32 -111h-12q-85 0 -85 -61q0 -24 16.5 -37t50.5 -13q63 0 91.5 64z" />
    </font>
</defs>
</svg>
