<?xml version="1.0" standalone="no"?>
<!DOCTYPE svg PUBLIC "-//W3C//DTD SVG 1.1//EN" "http://www.w3.org/Graphics/SVG/1.1/DTD/svg11.dtd" >
<svg xmlns="http://www.w3.org/2000/svg" xmlns:xlink="http://www.w3.org/1999/xlink" version="1.1">
<metadata>
Created by FontForge 20170731 at Fri Dec  2 11:32:35 2016
 By Aleksey,,,
Digitized data copyright 2012-2016, The Mozilla Foundation and Telefonica S.A.
</metadata>
<defs>
<font id="FiraSans-ExtraLightItalic" horiz-adv-x="560" >
  <font-face 
    font-family="Fira Sans ExtraLight"
    font-weight="275"
    font-style="italic"
    font-stretch="normal"
    units-per-em="1000"
    panose-1="2 11 4 3 5 0 0 2 0 4"
    ascent="800"
    descent="-200"
    x-height="522"
    cap-height="684"
    bbox="-760 -350 1417 1050"
    underline-thickness="50"
    underline-position="-150"
    slope="-8"
    unicode-range="U+000D-FEFF"
  />
<missing-glyph horiz-adv-x="664" 
d="M653 1050l-198 -1400h-419l198 1400h419zM591 998h-310l-183 -1296h310zM422.5 425.5q23.5 -25.5 23.5 -66.5q0 -8 -2 -26q-7 -52 -33 -80t-77 -35l-7 -47q-1 -10 -9 -16t-17 -6q-11 0 -18 7.5t-6 18.5l11 82q53 3 75 21t28 59q1 7 1 20q0 22 -11 34t-39 12
q-17 0 -29 -2.5t-25 -9.5l-13 -2q-12 0 -18.5 7.5t-4.5 18.5q2 18 32 27t63 9q52 0 75.5 -25.5zM315 111q9 -9 9 -23q0 -17 -11 -28.5t-26 -11.5t-23.5 9.5t-8.5 24.5q0 16 10.5 27t26.5 11q14 0 23 -9z" />
    <glyph glyph-name="fi" unicode="fi" 
d="M414 0h-47l68 483h-245l-65 -470q-9 -67 -27.5 -105.5t-48 -61t-82.5 -46.5l-15 35q41 20 65 39t39.5 52t23.5 89l65 468h-90l6 39h89l13 91q9 61 52 94.5t114 33.5q72 0 135 -41l-20 -32q-58 35 -115 35q-54 0 -84 -23t-37 -71l-12 -87h292z" />
    <glyph glyph-name="fl" unicode="fl" horiz-adv-x="580" 
d="M501 38l10 -36q-28 -13 -56 -13q-36 0 -56 19t-20 57q0 6 2 24l83 588q-37 13 -68 19t-69 6q-106 0 -119 -93l-12 -87h141l-11 -39h-136l-65 -470q-9 -67 -27.5 -105.5t-48 -61t-82.5 -46.5l-15 35q41 20 65 39t39.5 52t23.5 89l65 468h-90l6 39h89l13 91q9 61 52 94.5
t113 33.5q77 0 143 -27l44 6l-89 -637q-1 -6 -1 -16q0 -19 8.5 -28t28.5 -9q15 0 39 8z" />
    <glyph glyph-name=".notdef" horiz-adv-x="664" 
d="M653 1050l-198 -1400h-419l198 1400h419zM591 998h-310l-183 -1296h310zM422.5 425.5q23.5 -25.5 23.5 -66.5q0 -8 -2 -26q-7 -52 -33 -80t-77 -35l-7 -47q-1 -10 -9 -16t-17 -6q-11 0 -18 7.5t-6 18.5l11 82q53 3 75 21t28 59q1 7 1 20q0 22 -11 34t-39 12
q-17 0 -29 -2.5t-25 -9.5l-13 -2q-12 0 -18.5 7.5t-4.5 18.5q2 18 32 27t63 9q52 0 75.5 -25.5zM315 111q9 -9 9 -23q0 -17 -11 -28.5t-26 -11.5t-23.5 9.5t-8.5 24.5q0 16 10.5 27t26.5 11q14 0 23 -9z" />
    <glyph glyph-name=".null" horiz-adv-x="0" 
 />
    <glyph glyph-name="nonmarkingreturn" unicode="&#xd;" horiz-adv-x="282" 
 />
    <glyph glyph-name="space" unicode=" " horiz-adv-x="282" 
 />
    <glyph glyph-name="exclam" unicode="!" horiz-adv-x="239" 
d="M91 214l63 470h48l-68 -470h-43zM60.5 0q-10.5 11 -10.5 26q0 19 12.5 31t30.5 12q17 0 27 -10.5t10 -26.5q0 -18 -12 -30.5t-31 -12.5q-16 0 -26.5 11z" />
    <glyph glyph-name="quotedbl" unicode="&#x22;" horiz-adv-x="348" 
d="M105 436l28 248h50l-42 -248h-36zM255 436l28 248h50l-42 -248h-36z" />
    <glyph glyph-name="numbersign" unicode="#" horiz-adv-x="497" 
d="M509 454h-79l-63 -229h73l-6 -39h-77l-51 -186h-46l51 186h-187l-51 -186h-45l51 186h-75l6 39h79l63 229h-73l5 39h78l47 171h45l-47 -171h187l47 171h46l-47 -171h74zM321 225l63 229h-187l-63 -229h187z" />
    <glyph glyph-name="dollar" unicode="$" horiz-adv-x="521" 
d="M193 600q-43 -34 -43 -97q0 -47 31 -76t106 -53q84 -27 126 -67t42 -105q0 -51 -22 -97.5t-70.5 -78t-121.5 -36.5l-19 -139h-41l19 138q-56 3 -102 25t-81 58l30 27q67 -69 169 -69q65 0 108 23.5t63.5 62t20.5 83.5q0 49 -32.5 80t-107.5 56q-87 29 -126 67.5t-39 98.5
q0 75 52 121.5t141 50.5l21 144h41l-21 -145q47 -4 84 -22t70 -50l-29 -29q-66 63 -153 63q-73 0 -116 -34z" />
    <glyph glyph-name="percent" unicode="%" horiz-adv-x="780" 
d="M669 701l-560 -700l33 -22l560 699zM124.5 390q-34.5 36 -34.5 96q0 43 17.5 86.5t55 73t93.5 29.5q58 0 92.5 -35.5t34.5 -95.5q0 -42 -17 -86t-54.5 -74t-94.5 -30q-58 0 -92.5 36zM289.5 416q27.5 26 39 62t11.5 68q0 42 -20 68t-63 26q-46 0 -73.5 -26t-38.5 -61.5
t-11 -68.5q0 -43 20 -68.5t63 -25.5q45 0 72.5 26zM451.5 25q-34.5 36 -34.5 96q0 43 17.5 87t54.5 73.5t94 29.5q58 0 92.5 -36t34.5 -96q0 -42 -17 -86t-54.5 -74t-94.5 -30q-58 0 -92.5 36zM616.5 51.5q27.5 26.5 39 62.5t11.5 67q0 42 -20 68t-63 26q-46 0 -73.5 -26
t-38.5 -61.5t-11 -68.5q0 -43 20 -68.5t63 -25.5q45 0 72.5 26.5z" />
    <glyph glyph-name="ampersand" unicode="&#x26;" horiz-adv-x="719" 
d="M461 657.5q43 -36.5 43 -93.5q0 -41 -18 -73t-58 -62t-110 -66l185 -201q48 78 92 180l41 -16q-50 -112 -106 -193l107 -117l-38 -26l-98 110q-47 -54 -104 -82.5t-131 -28.5q-83 0 -132.5 45t-49.5 118q0 66 37.5 117.5t131.5 101.5q-40 44 -59 82t-19 80t20.5 79
t60.5 59.5t94 22.5q68 0 111 -36.5zM254.5 620q-33.5 -37 -33.5 -87q0 -33 15.5 -66.5t54.5 -76.5q65 33 101 59.5t51 53.5t15 61q0 43 -30.5 68t-77.5 25q-62 0 -95.5 -37zM163 255.5q-32 -45.5 -32 -103.5q0 -56 36 -89.5t101 -33.5q63 0 113 25.5t93 74.5l-196 214
q-83 -42 -115 -87.5z" />
    <glyph glyph-name="quotesingle" unicode="'" horiz-adv-x="198" 
d="M105 436l28 248h50l-42 -248h-36z" />
    <glyph glyph-name="parenleft" unicode="(" horiz-adv-x="322" 
d="M342 814q-82 -100 -132 -186t-76 -181.5t-26 -213.5q0 -101 26 -177.5t78 -172.5l-32 -16q-40 68 -64 119t-39 113t-15 137q0 124 28.5 223t82 185.5t141.5 191.5z" />
    <glyph glyph-name="parenright" unicode=")" horiz-adv-x="322" 
d="M231 713.5q23 -49.5 38.5 -111.5t15.5 -137q0 -125 -28 -224t-81.5 -186t-142.5 -191l-28 22q82 101 132 186.5t76 181.5t26 215q0 100 -26 177t-77 171l32 16q40 -70 63 -119.5z" />
    <glyph glyph-name="asterisk" unicode="*" horiz-adv-x="433" 
d="M441 589l-158 -42l80 -125l-39 -27l-69 132l-106 -132l-34 27l115 124l-146 43l18 40l142 -54l17 160h46l-29 -158l154 54z" />
    <glyph glyph-name="plus" unicode="+" horiz-adv-x="489" 
d="M302 504l-22 -153h151l-6 -41h-151l-21 -153h-45l21 153h-151l6 41h151l22 153h45z" />
    <glyph glyph-name="comma" unicode="," horiz-adv-x="195" 
d="M94 58.5q10 -10.5 10 -26.5q0 -11 -4.5 -22.5t-14.5 -30.5l-70 -125h-35l61 141q-17 9 -17 32q0 17 12.5 29.5t30.5 12.5q17 0 27 -10.5z" />
    <glyph glyph-name="hyphen" unicode="-" horiz-adv-x="398" 
d="M74 292l6 42h258l-6 -42h-258z" />
    <glyph glyph-name="period" unicode="." horiz-adv-x="196" 
d="M35.5 0q-10.5 11 -10.5 26q0 19 12.5 31t30.5 12q17 0 27 -10.5t10 -26.5q0 -18 -12 -30.5t-31 -12.5q-16 0 -26.5 11z" />
    <glyph glyph-name="slash" unicode="/" horiz-adv-x="518" 
d="M430 802l40 -11l-357 -889l-39 11z" />
    <glyph glyph-name="zero" unicode="0" horiz-adv-x="545" 
d="M183.5 604.5q-58.5 -70.5 -85.5 -175t-27 -207.5q0 -114 42 -173.5t122 -59.5q88 0 146.5 70.5t85.5 175t27 208.5q0 115 -41.5 173.5t-121.5 58.5q-89 0 -147.5 -70.5zM447 450q0 -99 -22.5 -196t-70.5 -161t-118 -64q-118 0 -118 187q0 98 23 194.5t71 161t118 64.5
q117 0 117 -186z" />
    <glyph glyph-name="one" unicode="1" horiz-adv-x="404" 
d="M336 664l-93 -664h-46l86 608l-181 -104l-17 38l212 122h39z" />
    <glyph glyph-name="two" unicode="2" horiz-adv-x="471" 
d="M394.5 633.5q43.5 -41.5 43.5 -111.5q0 -58 -28 -113t-105 -138t-235 -230l317 1l-13 -42h-367l5 42q168 157 247 242t105 134.5t26 102.5q0 54 -31.5 84t-86.5 30q-48 0 -85.5 -19.5t-75.5 -58.5l-31 28q45 47 91.5 68.5t103.5 21.5q76 0 119.5 -41.5z" />
    <glyph glyph-name="three" unicode="3" horiz-adv-x="480" 
d="M391.5 634.5q41.5 -40.5 41.5 -106.5q0 -39 -17 -76.5t-52.5 -64t-87.5 -34.5q58 -2 94 -39.5t36 -104.5q0 -51 -25 -101.5t-77.5 -84.5t-130.5 -34q-58 0 -101.5 22t-75.5 65l33 25q29 -39 63.5 -55t80.5 -16q65 0 106.5 28t60 70t18.5 85q0 119 -135 119h-43l11 38h32
q52 0 89 22.5t55.5 59t18.5 76.5q0 51 -30.5 80t-82.5 29q-44 0 -82 -16t-81 -51l-23 31q45 38 90 56t99 18q74 0 115.5 -40.5z" />
    <glyph glyph-name="four" unicode="4" horiz-adv-x="512" 
d="M469 218l-6 -40h-91l-25 -178h-45l25 178h-292l6 36l265 461l39 -16l-254 -441h242l33 200h40l-28 -200h91z" />
    <glyph glyph-name="five" unicode="5" horiz-adv-x="480" 
d="M450 624h-272l-34 -238q56 33 118 33q76 0 119 -47t43 -128q0 -57 -25 -116t-78.5 -99t-135.5 -40q-58 0 -100 20.5t-75 59.5l32 27q28 -34 62 -50t82 -16q66 0 109 34t62.5 84t19.5 97q0 65 -33.5 100.5t-89.5 35.5q-35 0 -61.5 -8t-61.5 -27h-37l44 318h325z" />
    <glyph glyph-name="six" unicode="6" horiz-adv-x="519" 
d="M421.5 388q42.5 -43 42.5 -123q0 -61 -24 -125t-74.5 -107.5t-124.5 -43.5q-90 0 -131.5 58.5t-41.5 160.5q0 113 34.5 221t101 177t156.5 69q36 0 63 -10t53 -29l-25 -32q-41 32 -92 32q-85 0 -147.5 -85t-87.5 -223q78 103 188 103q67 0 109.5 -43zM342 68
q40 39 57.5 93.5t17.5 102.5q0 64 -30 96t-81 32q-54 0 -101.5 -32t-87.5 -89q-3 -37 -3 -68q0 -174 127 -174q61 0 101 39z" />
    <glyph glyph-name="seven" unicode="7" horiz-adv-x="433" 
d="M452 664l-5 -37l-353 -634l-43 15l345 616h-313l5 40h364z" />
    <glyph glyph-name="eight" unicode="8" horiz-adv-x="532" 
d="M434 284.5q31 -36.5 31 -89.5q0 -61 -30 -108t-83.5 -72.5t-122.5 -25.5q-87 0 -137.5 45t-50.5 118q0 66 41 120t135 87q-49 24 -73.5 57.5t-24.5 80.5q0 53 27.5 93.5t74 62.5t100.5 22q68 0 115.5 -38t47.5 -105q0 -63 -34.5 -104.5t-111.5 -77.5q65 -29 96 -65.5z
M188 428q24 -28 81 -50l34 -13q73 36 104.5 75t31.5 92q0 50 -32.5 77.5t-86.5 27.5q-67 0 -111.5 -39t-44.5 -100q0 -42 24 -70zM365 73.5q53 44.5 53 123.5q0 46 -30 75.5t-98 56.5l-34 14q-96 -34 -131.5 -82.5t-35.5 -108.5q0 -57 38 -90t103 -33q82 0 135 44.5z" />
    <glyph glyph-name="nine" unicode="9" horiz-adv-x="514" 
d="M432.5 622.5q42.5 -52.5 42.5 -146.5q0 -177 -84.5 -307t-305.5 -188l-9 37q145 45 228.5 120.5t111.5 208.5q-37 -46 -83 -71.5t-98 -25.5q-69 0 -112 48.5t-43 128.5q0 58 24 115.5t74.5 95t125.5 37.5q86 0 128.5 -52.5zM337.5 318q44.5 28 86.5 82q4 39 4 75
q0 80 -30 120.5t-95 40.5q-63 0 -102.5 -33.5t-56.5 -82t-17 -95.5q0 -63 30.5 -99t84.5 -36q51 0 95.5 28z" />
    <glyph glyph-name="colon" unicode=":" horiz-adv-x="196" 
d="M35.5 0q-10.5 11 -10.5 26q0 19 12.5 31t30.5 12q17 0 27 -10.5t10 -26.5q0 -18 -12 -30.5t-31 -12.5q-16 0 -26.5 11zM91.5 398q-10.5 11 -10.5 26q0 19 12.5 31t30.5 12q17 0 27 -10.5t10 -26.5q0 -18 -12 -30.5t-31 -12.5q-16 0 -26.5 11z" />
    <glyph glyph-name="semicolon" unicode=";" horiz-adv-x="197" 
d="M94 58.5q10 -10.5 10 -26.5q0 -11 -4.5 -22.5t-14.5 -30.5l-70 -125h-35l61 141q-17 9 -17 32q0 17 12.5 29.5t30.5 12.5q17 0 27 -10.5zM92.5 398q-10.5 11 -10.5 26q0 19 12.5 31t30.5 12q17 0 27 -10.5t10 -26.5q0 -18 -12 -30.5t-31 -12.5q-16 0 -26.5 11z" />
    <glyph glyph-name="less" unicode="&#x3c;" horiz-adv-x="494" 
d="M444 521l14 -40l-336 -149l292 -152l-22 -38l-316 171l5 40z" />
    <glyph glyph-name="equal" unicode="=" horiz-adv-x="491" 
d="M91 394l6 42h347l-6 -42h-347zM66 225l6 42h347l-6 -42h-347z" />
    <glyph glyph-name="greater" unicode="&#x3e;" horiz-adv-x="494" 
d="M122 521l317 -168l-6 -40l-364 -171l-13 39l336 154l-293 147z" />
    <glyph glyph-name="question" unicode="?" horiz-adv-x="442" 
d="M400 659q39 -35 39 -89q0 -44 -17.5 -75.5t-43 -51.5t-66.5 -46q-36 -23 -56 -38.5t-34 -38t-14 -51.5q0 -19 6 -45l-42 -9q-10 30 -10 56q0 37 16 64.5t39 46t62 42.5q38 24 60 41.5t37 43t15 60.5q0 39 -27.5 62.5t-75.5 23.5q-47 0 -85.5 -18.5t-79.5 -58.5l-30 27
q46 47 93 68t105 21q70 0 109 -35zM154.5 -1q-10.5 11 -10.5 26q0 19 12.5 31t30.5 12q17 0 27 -10.5t10 -26.5q0 -18 -12 -30.5t-31 -12.5q-16 0 -26.5 11z" />
    <glyph glyph-name="at" unicode="@" horiz-adv-x="1018" 
d="M772 650q82 -44 124 -120.5t42 -173.5q0 -82 -23 -160.5t-72 -130.5t-123 -52q-48 0 -75.5 30.5t-30.5 80.5q-62 -109 -161 -109q-63 0 -103 44.5t-40 125.5q0 68 25.5 136.5t80 114.5t136.5 46q67 0 137 -36l-36 -265q-3 -19 -3 -40q0 -90 69 -90q59 0 98 47t57 117.5
t18 141.5q0 89 -37 156t-109.5 104t-173.5 37q-152 0 -252 -74t-146.5 -184t-46.5 -219q0 -101 43 -178t121 -119t181 -42q54 0 100 8.5t93 24.5l9 -39q-52 -17 -98 -26t-106 -9q-113 0 -201.5 47t-138 133t-49.5 200q0 118 51.5 237t162 199.5t278.5 80.5q117 0 199 -44z
M547 88.5q40 34.5 61 82.5l36 251q-23 11 -44 16.5t-47 5.5q-70 0 -114.5 -41.5t-63.5 -102t-19 -119.5q0 -62 27 -94.5t75 -32.5q49 0 89 34.5z" />
    <glyph glyph-name="A" unicode="A" 
d="M454 0l-36 192h-296l-90 -192h-49l327 684h59l134 -684h-49zM142 234h268l-76 411z" />
    <glyph glyph-name="B" unicode="B" horiz-adv-x="592" 
d="M490.5 319.5q38.5 -34.5 38.5 -102.5q0 -56 -25 -105t-84.5 -80.5t-155.5 -31.5h-187l97 684h162q96 0 150.5 -38t54.5 -112q0 -70 -42 -115.5t-112 -56.5q65 -8 103.5 -42.5zM215 643l-36 -263h142q82 0 127 43.5t45 109.5q0 110 -154 110h-124zM430.5 92
q48.5 51 48.5 126q0 62 -40.5 92t-111.5 30h-154l-41 -299h136q114 0 162.5 51z" />
    <glyph glyph-name="C" unicode="C" horiz-adv-x="545" 
d="M493.5 678.5q38.5 -15.5 71.5 -46.5l-28 -29q-32 27 -62.5 38.5t-72.5 11.5q-97 0 -159.5 -61t-90.5 -151.5t-28 -180.5q0 -112 50 -169.5t134 -57.5q50 0 86.5 14.5t74.5 43.5l25 -35q-85 -67 -189 -67q-105 0 -167.5 71t-62.5 201q0 100 34 199.5t107.5 166.5t184.5 67
q54 0 92.5 -15.5z" />
    <glyph glyph-name="D" unicode="D" horiz-adv-x="626" 
d="M500 628.5q74 -55.5 74 -199.5q0 -114 -35.5 -211t-115 -157.5t-204.5 -60.5h-142l97 684h131q121 0 195 -55.5zM215 643l-83 -602h94q107 0 174 56.5t96.5 144.5t29.5 188q0 125 -60.5 169t-160.5 44h-90z" />
    <glyph glyph-name="E" unicode="E" horiz-adv-x="502" 
d="M512 684l-12 -41h-285l-37 -266h247l-6 -41h-246l-42 -295h298l-7 -41h-345l97 684h338z" />
    <glyph glyph-name="F" unicode="F" horiz-adv-x="475" 
d="M506 684l-11 -41h-280l-38 -279h241l-6 -40h-241l-46 -324h-48l97 684h332z" />
    <glyph glyph-name="G" unicode="G" horiz-adv-x="612" 
d="M503 678q43 -16 80 -49l-31 -28q-33 27 -67 39.5t-79 12.5q-92 0 -155.5 -58.5t-95 -150t-31.5 -189.5q0 -112 50.5 -168t141.5 -56q82 0 153 38l37 254h-137v42h190l-45 -321q-97 -55 -202 -55q-111 0 -174 69.5t-63 201.5q0 106 37.5 206t112.5 164t181 64q54 0 97 -16
z" />
    <glyph glyph-name="H" unicode="H" horiz-adv-x="665" 
d="M125 0h-48l97 684h47l-42 -303h341l42 303h48l-96 -684h-48l48 339h-341z" />
    <glyph glyph-name="I" unicode="I" horiz-adv-x="277" 
d="M221 684l-96 -684h-48l97 684h47z" />
    <glyph glyph-name="J" unicode="J" horiz-adv-x="285" 
d="M152 89q-9 -58 -27 -93.5t-52 -60t-95 -48.5l-11 36q49 22 76 43t41 51t20 78l83 589h48z" />
    <glyph glyph-name="K" unicode="K" horiz-adv-x="531" 
d="M77 0l97 684h48l-97 -684h-48zM438 0l-257 367l335 317h58l-338 -319l258 -365h-56z" />
    <glyph glyph-name="L" unicode="L" horiz-adv-x="465" 
d="M221 684l-89 -640h286l-13 -44h-328l97 684h47z" />
    <glyph glyph-name="M" unicode="M" horiz-adv-x="766" 
d="M658 0h-46l13 335q8 230 15 305l-259 -558h-46l-107 557q-12 -63 -68 -302l-80 -337h-45l163 684h65l102 -546l250 546h70z" />
    <glyph glyph-name="N" unicode="N" horiz-adv-x="667" 
d="M516 0h-60l-250 639q-3 -78 -26 -235l-57 -404h-46l97 684h61l250 -638q5 87 21 209l61 429h45z" />
    <glyph glyph-name="O" unicode="O" horiz-adv-x="689" 
d="M575 624.5q62 -69.5 62 -199.5q0 -100 -32.5 -200t-106.5 -168t-189 -68q-109 0 -171.5 71t-62.5 201q0 97 33.5 196.5t107.5 168t188 68.5q109 0 171 -69.5zM241.5 590.5q-62.5 -62.5 -90 -153.5t-27.5 -178q0 -113 49.5 -170.5t136.5 -57.5q101 0 163.5 63t88.5 154
t26 179q0 113 -48.5 169.5t-137.5 56.5q-98 0 -160.5 -62.5z" />
    <glyph glyph-name="P" unicode="P" horiz-adv-x="565" 
d="M492 642q57 -42 57 -128q0 -105 -65.5 -174t-216.5 -69h-104l-38 -271h-48l97 684h152q109 0 166 -42zM448 369.5q52 56.5 52 144.5q0 69 -45 99t-133 30h-107l-46 -330h102q125 0 177 56.5z" />
    <glyph glyph-name="Q" unicode="Q" horiz-adv-x="676" 
d="M615 259q-22 -84 -72 -151t-127 -92q117 -5 183 -68l-35 -38q-46 46 -103 62.5t-152 16.5q-109 0 -171.5 71t-62.5 201q0 97 33.5 196.5t107.5 168t188 68.5q109 0 171 -69.5t62 -199.5q0 -82 -22 -166zM173.5 88q49.5 -57 136.5 -57q101 0 163.5 63.5t88.5 154.5t26 181
q0 111 -48.5 167t-137.5 56q-99 0 -161 -63t-89.5 -154t-27.5 -180q0 -111 49.5 -168z" />
    <glyph glyph-name="R" unicode="R" horiz-adv-x="583" 
d="M502.5 396.5q-44.5 -57.5 -137.5 -77.5l145 -319h-53l-140 313h-148l-44 -313h-48l97 684h165q208 0 208 -157q0 -73 -44.5 -130.5zM299 353q105 0 151.5 51.5t46.5 122.5q0 59 -38.5 87.5t-123.5 28.5h-120l-41 -290h125z" />
    <glyph glyph-name="S" unicode="S" horiz-adv-x="535" 
d="M426 675q44 -19 80 -56l-31 -29q-33 33 -68.5 48t-82.5 15q-76 0 -122.5 -37.5t-46.5 -97.5q0 -50 31.5 -78.5t110.5 -53.5q88 -28 130 -69.5t42 -113.5q0 -53 -26.5 -102t-82.5 -80.5t-139 -31.5q-66 0 -115.5 22.5t-88.5 64.5l32 29q34 -36 75 -55t97 -19q68 0 113 25
t65.5 64t20.5 82q0 54 -32.5 86.5t-110.5 59.5q-92 30 -131 67t-39 101q0 47 25.5 87.5t75 65.5t116.5 25q58 0 102 -19z" />
    <glyph glyph-name="T" unicode="T" horiz-adv-x="486" 
d="M535 684l-12 -44h-203l-90 -640h-48l90 640h-204l6 44h461z" />
    <glyph glyph-name="U" unicode="U" horiz-adv-x="647" 
d="M535 210q-14 -101 -77 -161t-170 -60q-97 0 -145.5 47.5t-48.5 130.5q0 14 4 46l66 471h47l-65 -470q-3 -24 -3 -44q0 -66 36 -102t110 -36q88 0 137.5 49.5t61.5 135.5l66 467h47z" />
    <glyph glyph-name="V" unicode="V" horiz-adv-x="541" 
d="M580 684l-319 -684h-55l-127 684h49l111 -636l291 636h50z" />
    <glyph glyph-name="W" unicode="W" horiz-adv-x="802" 
d="M829 684l-250 -684h-58l-68 632l-246 -632h-58l-57 684h47l47 -636l246 636h55l68 -638l228 638h46z" />
    <glyph glyph-name="X" unicode="X" horiz-adv-x="504" 
d="M521 684l-229 -314l162 -370h-51l-142 336l-233 -336h-53l260 369l-142 315h52l122 -282l201 282h53z" />
    <glyph glyph-name="Y" unicode="Y" horiz-adv-x="512" 
d="M555 684l-273 -415l-38 -269h-48l38 268l-159 416h51l136 -371l239 371h54z" />
    <glyph glyph-name="Z" unicode="Z" horiz-adv-x="512" 
d="M0 0l6 41l456 600h-334l6 43h389l-5 -40l-455 -601h362l-13 -43h-412z" />
    <glyph glyph-name="bracketleft" unicode="[" horiz-adv-x="314" 
d="M319 803l-5 -37h-110l-119 -840h110l-5 -37h-152l129 914h152z" />
    <glyph glyph-name="backslash" unicode="\" horiz-adv-x="518" 
d="M239 801l106 -889l-41 -10l-106 889z" />
    <glyph glyph-name="bracketright" unicode="]" horiz-adv-x="314" 
d="M300 803l-129 -914h-152l5 37h110l118 840h-109l5 37h152z" />
    <glyph glyph-name="asciicircum" unicode="^" horiz-adv-x="526" 
d="M362 830l140 -303h-53l-111 254l-184 -254h-54l225 303h37z" />
    <glyph glyph-name="underscore" unicode="_" horiz-adv-x="518" 
d="M-20 -115l5 42h455l-6 -42h-454z" />
    <glyph glyph-name="grave" unicode="`" horiz-adv-x="262" 
d="M122 776l169 -101l-17 -27l-178 84z" />
    <glyph glyph-name="a" unicode="a" horiz-adv-x="556" 
d="M410.5 521.5q36.5 -10.5 76.5 -31.5l-55 -378q-3 -19 -3 -34q0 -21 7.5 -34.5t26.5 -20.5l-13 -34q-31 9 -47 27t-16 55l1 15q-31 -45 -72.5 -71t-90.5 -26q-77 0 -120.5 54t-43.5 149q0 78 27.5 156.5t87 131t150.5 52.5q48 0 84.5 -10.5zM203.5 447
q-48.5 -47 -71 -116.5t-22.5 -137.5q0 -80 31.5 -122t88.5 -42q48 0 87.5 29.5t74.5 86.5l46 322q-48 27 -111 27q-75 0 -123.5 -47z" />
    <glyph glyph-name="b" unicode="b" horiz-adv-x="569" 
d="M468 482q41 -50 41 -145q0 -80 -26.5 -159.5t-86 -134t-153.5 -54.5q-43 0 -80 8t-87 26l101 712l46 6l-40 -290q76 81 169 81q75 0 116 -50zM256 469q-39 -24 -80 -69l-48 -348q27 -12 53.5 -17.5t62.5 -5.5q78 0 127 49.5t70 120.5t21 140q0 77 -30.5 115.5t-86.5 38.5
q-50 0 -89 -24z" />
    <glyph glyph-name="c" unicode="c" horiz-adv-x="465" 
d="M457 480l-27 -29q-23 21 -49.5 31.5t-61.5 10.5q-73 0 -120 -46.5t-68 -115t-21 -134.5q0 -83 37 -124.5t103 -41.5t131 45l21 -33q-70 -54 -154 -54q-86 0 -136 55t-50 155q0 75 27 152t85 129t146 52q84 0 137 -52z" />
    <glyph glyph-name="d" unicode="d" horiz-adv-x="574" 
d="M532 735l-104 -735h-39l9 113q-71 -124 -178 -124q-74 0 -116.5 54.5t-42.5 150.5q0 76 25 154t80 131t140 53q94 0 140 -74l40 283zM196.5 446q-45.5 -47 -66 -116t-20.5 -137q0 -79 30.5 -121.5t85.5 -42.5q56 0 97 38t85 113l32 232q-43 81 -128 81q-70 0 -115.5 -47z
" />
    <glyph glyph-name="e" unicode="e" horiz-adv-x="512" 
d="M382.5 268.5q-95.5 -47.5 -272.5 -59.5v-10q0 -86 37.5 -127.5t102.5 -41.5q42 0 76.5 13t73.5 41l22 -33q-42 -31 -84 -46.5t-90 -15.5q-88 0 -137 54.5t-49 154.5q0 79 29 156t88.5 127.5t147.5 50.5q70 0 110.5 -34.5t40.5 -88.5q0 -93 -95.5 -140.5zM216.5 457.5
q-45.5 -35.5 -71 -91.5t-32.5 -119q159 11 238 50t79 110q0 38 -26 62t-77 24q-65 0 -110.5 -35.5z" />
    <glyph glyph-name="f" unicode="f" horiz-adv-x="315" 
d="M208 609l-12 -87h141l-11 -39h-136l-65 -470q-9 -67 -27.5 -105.5t-48 -61t-82.5 -46.5l-15 35q41 20 65 39t39.5 52t23.5 89l65 468h-90l6 39h89l13 91q9 61 50 94.5t106 33.5q31 0 59 -8.5t57 -26.5l-20 -32q-26 15 -48 21.5t-47 6.5q-99 0 -112 -93z" />
    <glyph glyph-name="g" unicode="g" horiz-adv-x="563" 
d="M414 521.5q37 -10.5 77 -31.5l-71 -488q-16 -109 -71.5 -157t-139.5 -48q-87 0 -170 48l19 34q36 -20 72 -31.5t78 -11.5q65 0 109.5 38t56.5 125l14 95q-30 -44 -71.5 -69t-89.5 -25q-77 0 -121 55t-44 149q0 75 28 150.5t88 126.5t150 51q49 0 86 -10.5zM205 448
q-49 -46 -72 -113.5t-22 -133.5q0 -77 32 -119t89 -42q94 0 164 114l45 313q-48 27 -112 27q-75 0 -124 -46z" />
    <glyph glyph-name="h" unicode="h" horiz-adv-x="582" 
d="M464 500q31 -32 31 -92q0 -17 -3 -38l-52 -370h-46l52 367q3 20 3 37q0 89 -83 89q-58 0 -108 -48t-96 -133l-44 -312h-46l104 735l47 6l-51 -357q39 70 91 109t110 39q60 0 91 -32z" />
    <glyph glyph-name="i" unicode="i" horiz-adv-x="265" 
d="M192 522l-74 -522h-46l74 522h46zM169 682.5q-9 8.5 -9 22.5q0 17 11 28t28 11q15 0 23.5 -8.5t8.5 -22.5q0 -17 -11 -28t-27 -11q-15 0 -24 8.5z" />
    <glyph glyph-name="j" unicode="j" horiz-adv-x="266" 
d="M-51 -166q41 20 64.5 39.5t39 52.5t23.5 89l71 507h46l-72 -509q-9 -67 -28 -105.5t-48.5 -61.5t-82.5 -46zM170 682.5q-9 8.5 -9 22.5q0 17 11 28t28 11q15 0 23.5 -8.5t8.5 -22.5q0 -17 -11 -28t-27 -11q-15 0 -24 8.5z" />
    <glyph glyph-name="k" unicode="k" horiz-adv-x="515" 
d="M172 381q42 78 93 114.5t108 36.5q53 0 85 -29t32 -80q0 -64 -45 -111.5t-131 -74.5l119 -237h-51l-124 253q183 50 183 167q0 74 -77 74q-57 0 -108.5 -50t-94.5 -143l-43 -301h-46l104 735l47 6z" />
    <glyph glyph-name="l" unicode="l" horiz-adv-x="280" 
d="M126 83q-1 -6 -1 -16q0 -19 8.5 -28t27.5 -9q17 0 39 8l11 -36q-28 -13 -56 -13q-36 0 -56 19t-20 57q0 6 2 24l91 646l46 6z" />
    <glyph glyph-name="m" unicode="m" horiz-adv-x="849" 
d="M734.5 499.5q28.5 -32.5 28.5 -91.5q0 -17 -3 -37l-53 -371h-46l52 367q3 21 3 38q0 88 -73 88q-50 0 -95 -47t-91 -132l-44 -314h-46l52 367q3 20 3 36q0 90 -73 90q-50 0 -95 -47t-92 -134l-44 -312h-46l74 522h39l-15 -140q83 150 190 150q53 0 82 -36t25 -102
q40 67 87.5 102.5t99.5 35.5t80.5 -32.5z" />
    <glyph glyph-name="n" unicode="n" horiz-adv-x="581" 
d="M463.5 499.5q31.5 -32.5 31.5 -92.5q0 -18 -3 -38l-52 -369h-46l52 367q3 20 3 35q0 91 -83 91q-106 0 -204 -181l-44 -312h-46l74 522h39l-15 -140q40 72 92.5 111t111.5 39q58 0 89.5 -32.5z" />
    <glyph glyph-name="o" unicode="o" horiz-adv-x="566" 
d="M111 44.5q-49 55.5 -49 154.5q0 75 26 151.5t84 129t148 52.5q88 0 136.5 -54t48.5 -153q0 -74 -25.5 -151.5t-83.5 -131t-149 -53.5q-87 0 -136 55.5zM369 77q47 47 67.5 115.5t20.5 134.5q0 81 -36 123.5t-102 42.5q-75 0 -121.5 -48t-67 -116t-20.5 -133
q0 -81 36 -123.5t102 -42.5q74 0 121 47z" />
    <glyph glyph-name="p" unicode="p" horiz-adv-x="569" 
d="M146 522h40l-6 -74q78 84 171 84q75 0 116 -50t41 -145q0 -80 -26 -159.5t-85.5 -134t-153.5 -54.5q-64 0 -123 23l-30 -209l-46 -6zM370 78.5q49 49.5 70 120.5t21 140q0 154 -117 154q-50 0 -89 -24t-79 -69l-49 -348q27 -12 53.5 -17.5t62.5 -5.5q78 0 127 49.5z" />
    <glyph glyph-name="q" unicode="q" horiz-adv-x="563" 
d="M387 82q-29 -42 -71 -67.5t-91 -25.5q-77 0 -120.5 54t-43.5 149q0 78 27.5 156.5t87 131t150.5 52.5q48 0 86 -10.5t79 -31.5l-98 -687l-46 -6zM395 145l46 322q-48 27 -114 27q-75 0 -123.5 -47t-71 -116.5t-22.5 -137.5q0 -80 31.5 -122t88.5 -42q93 0 165 116z" />
    <glyph glyph-name="r" unicode="r" horiz-adv-x="368" 
d="M391 525l-13 -42q-22 6 -41 6q-57 0 -97 -46t-78 -138l-44 -305h-46l74 522h40l-16 -134q31 70 72.5 107t98.5 37q29 0 50 -7z" />
    <glyph glyph-name="s" unicode="s" horiz-adv-x="461" 
d="M344 518q38 -14 71 -43l-25 -28q-30 23 -61 34.5t-70 11.5q-59 0 -94.5 -25.5t-35.5 -70.5q0 -35 25.5 -58t91.5 -43q78 -25 112 -59.5t34 -89.5q0 -69 -52 -113.5t-146 -44.5q-60 0 -103 18.5t-78 50.5l27 28q34 -28 70 -42t83 -14q70 0 110.5 29.5t40.5 84.5
q0 43 -26 68t-97 47q-78 24 -108.5 56t-30.5 81q0 38 22 69t62 49t93 18q47 0 85 -14z" />
    <glyph glyph-name="t" unicode="t" horiz-adv-x="333" 
d="M134 125q-2 -20 -2 -27q0 -68 67 -68q38 0 88 25l17 -34q-53 -32 -110 -32q-50 0 -79 27.5t-29 78.5q0 19 2 29l51 359h-88l6 39h88l27 128l36 4l-18 -132h137l-11 -39h-132z" />
    <glyph glyph-name="u" unicode="u" horiz-adv-x="577" 
d="M119 22.5q-32 33.5 -32 93.5q0 23 2 35l52 371h46l-52 -370q-2 -12 -2 -33q0 -90 83 -90q59 0 109 49t89 131l44 313h46l-74 -522h-37l16 145q-35 -72 -86 -114t-114 -42q-58 0 -90 33.5z" />
    <glyph glyph-name="v" unicode="v" horiz-adv-x="461" 
d="M481 522l-255 -522h-58l-114 522h50l98 -481l227 481h52z" />
    <glyph glyph-name="w" unicode="w" horiz-adv-x="690" 
d="M700 522l-204 -522h-61l-57 478l-192 -478h-62l-59 522h45l52 -484l195 484h55l58 -485l184 485h46z" />
    <glyph glyph-name="x" unicode="x" horiz-adv-x="448" 
d="M449 522l-195 -246l145 -276h-52l-124 249l-193 -249h-55l224 281l-125 241h50l106 -214l165 214h54z" />
    <glyph glyph-name="y" unicode="y" horiz-adv-x="458" 
d="M226 -4q-42 -89 -91.5 -133t-139.5 -64l-3 37q54 14 86 33.5t53.5 48.5t49.5 82h-18l-109 522h49l96 -487l229 487h50z" />
    <glyph glyph-name="z" unicode="z" horiz-adv-x="416" 
d="M418 522l-5 -37l-357 -444h290l-10 -41h-345l6 37l357 444h-270l6 41h328z" />
    <glyph glyph-name="braceleft" unicode="{" horiz-adv-x="326" 
d="M331 790q-45 0 -68 -20.5t-30 -63.5l-36 -258q-6 -49 -26 -69.5t-62 -30.5q32 -7 47 -23t15 -49q0 -18 -2 -28l-37 -258q-1 -8 -1 -21q0 -32 17 -46.5t56 -14.5l-2 -35q-55 0 -84.5 23.5t-29.5 71.5q0 6 2 24l38 266q1 6 1 16q0 30 -17.5 42.5t-52.5 12.5l5 40
q79 0 90 75l37 266q9 61 42.5 88.5t99.5 27.5z" />
    <glyph glyph-name="bar" unicode="|" horiz-adv-x="407" 
d="M301 803l-126 -903h-44l126 903h44z" />
    <glyph glyph-name="braceright" unicode="}" horiz-adv-x="325" 
d="M19 -92q46 0 68.5 20.5t29.5 64.5l36 258q6 49 26.5 69t62.5 30q-32 7 -47.5 23t-15.5 50q0 17 2 28l37 258q2 16 2 23q0 30 -17.5 44t-56.5 14l2 36q54 0 84 -24t30 -72q0 -7 -2 -23l-38 -266q-1 -6 -1 -17q0 -30 17.5 -42t53.5 -12l-5 -41q-80 0 -91 -74l-37 -266
q-9 -61 -43.5 -88.5t-98.5 -27.5z" />
    <glyph glyph-name="asciitilde" unicode="~" horiz-adv-x="464" 
d="M273.5 276q-18.5 8 -42.5 23q-20 13 -34.5 19.5t-28.5 6.5q-24 0 -40.5 -11t-37.5 -34l-28 19q26 33 50 50t58 17q22 0 39.5 -8t42.5 -23q20 -13 34 -19t29 -6q23 0 39 11t36 33l28 -19q-25 -33 -49 -50t-56 -17q-21 0 -39.5 8z" />
    <glyph glyph-name="uni00A0" unicode="&#xa0;" horiz-adv-x="283" 
 />
    <glyph glyph-name="exclamdown" unicode="&#xa1;" horiz-adv-x="239" 
d="M117.5 398q-10.5 11 -10.5 26q0 19 12.5 31t30.5 12q17 0 27 -10.5t10 -26.5q0 -18 -12 -30.5t-31 -12.5q-16 0 -26.5 11zM143 250l-60 -445h-48l65 445h43z" />
    <glyph glyph-name="cent" unicode="&#xa2;" horiz-adv-x="465" 
d="M199 446.5q-47 -46.5 -68 -115t-21 -134.5q0 -83 37 -124.5t103 -41.5t131 45l21 -33q-67 -53 -148 -54l-20 -138h-40l19 141q-71 11 -111 64.5t-40 142.5q0 70 24 143t75 126t129 62l21 149h40l-21 -147q77 -3 127 -52l-27 -29q-23 21 -49.5 31.5t-61.5 10.5
q-73 0 -120 -46.5z" />
    <glyph glyph-name="sterling" unicode="&#xa3;" horiz-adv-x="504" 
d="M443.5 656.5q35.5 -18.5 62.5 -55.5l-32 -23q-23 30 -49 43.5t-65 13.5q-60 0 -97 -37t-46 -98l-18 -129h216l-6 -36h-215l-24 -177q-7 -48 -25.5 -73t-58.5 -44h329l-12 -41h-386l5 40q51 22 73 47t29 73l24 175h-65l5 36h66l18 132q11 76 59.5 124t127.5 48
q49 0 84.5 -18.5z" />
    <glyph glyph-name="currency" unicode="&#xa4;" 
d="M424 214l80 -78l-29 -30l-81 80q-47 -36 -114 -36q-66 0 -114 37l-81 -81l-29 30l81 80q-41 52 -41 125t41 123l-81 80l29 30l81 -81q48 38 114 38q68 0 115 -36l80 79l29 -30l-79 -78q41 -52 41 -125q0 -74 -42 -127zM177 231q36 -41 104 -41t104 41t36 110t-36 110
t-104 41t-104 -41t-36 -110t36 -110z" />
    <glyph glyph-name="yen" unicode="&#xa5;" horiz-adv-x="502" 
d="M542 664l-239 -328h117l-5 -37h-133l-16 -107h134l-5 -38h-134l-22 -154h-48l22 154h-134l5 38h134l16 107h-135l6 37h117l-150 328h53l139 -320l227 320h51z" />
    <glyph glyph-name="brokenbar" unicode="&#xa6;" horiz-adv-x="407" 
d="M301 803l-50 -360h-44l50 360h44zM225 262l-50 -362h-44l50 362h44z" />
    <glyph glyph-name="section" unicode="&#xa7;" horiz-adv-x="531" 
d="M229.5 608.5q-30.5 -27.5 -30.5 -68.5q0 -36 24 -58.5t92 -46.5q71 -26 102 -57t31 -78q0 -44 -23 -76t-77 -63q45 -33 45 -89q0 -37 -19.5 -68.5t-60.5 -51t-103 -19.5q-88 0 -157 46l23 33q56 -40 135 -40q72 0 103.5 28.5t31.5 70.5q0 34 -24 56t-87 45
q-77 29 -108.5 58.5t-31.5 76.5q0 44 24.5 77.5t78.5 63.5q-24 18 -34.5 39.5t-10.5 50.5q0 59 46.5 97.5t126.5 38.5q47 0 83 -12.5t70 -35.5l-23 -30q-31 20 -61.5 30t-68.5 10q-66 0 -96.5 -27.5zM379.5 354q-22.5 24 -81.5 45q-35 12 -71 31q-47 -29 -66.5 -56.5
t-19.5 -63.5q0 -34 23.5 -56.5t86.5 -45.5q38 -13 68 -29q48 30 65.5 57t17.5 61q0 33 -22.5 57z" />
    <glyph glyph-name="dieresis" unicode="&#xa8;" horiz-adv-x="309" 
d="M100.5 674q-8.5 8 -8.5 21q0 16 10.5 26.5t26.5 10.5q14 0 22.5 -8t8.5 -21q0 -16 -11 -26.5t-27 -10.5q-13 0 -21.5 8zM281.5 674q-8.5 8 -8.5 21q0 16 10.5 26.5t26.5 10.5q14 0 22.5 -8t8.5 -21q0 -16 -10.5 -26.5t-26.5 -10.5q-14 0 -22.5 8z" />
    <glyph glyph-name="copyright" unicode="&#xa9;" horiz-adv-x="810" 
d="M578.5 694q66.5 -38 104.5 -105.5t38 -153.5q0 -85 -38 -153t-104.5 -106t-148.5 -38t-148.5 38t-104.5 105.5t-38 153.5q0 85 38 153t104.5 106t148.5 38t148.5 -38zM300.5 664q-57.5 -33 -90 -93t-32.5 -136q0 -77 32.5 -136.5t90 -92.5t130.5 -33q71 0 128.5 33t90 93
t32.5 136q0 77 -32.5 136.5t-89.5 92.5t-129 33q-73 0 -130.5 -33zM483.5 604q22.5 -8 44.5 -24l-21 -28q-17 13 -34 18.5t-41 5.5q-40 0 -70.5 -33.5t-30.5 -106.5q0 -69 28 -105t74 -36q26 0 45 7.5t38 21.5l19 -29q-44 -37 -103 -37q-64 0 -104 48t-40 130
q0 58 20.5 97.5t53.5 59t69 19.5q30 0 52.5 -8z" />
    <glyph glyph-name="ordfeminine" unicode="&#xaa;" horiz-adv-x="505" 
d="M130.5 305q-30.5 30 -30.5 78q0 60 47.5 98.5t140.5 38.5h84l5 37q2 16 2 23q0 35 -20 50t-61 15q-55 0 -118 -23l-11 36q75 26 135 26q59 0 89.5 -25t30.5 -75q0 -7 -2 -25l-25 -188q-1 -5 -2 -11.5t-1 -13.5q0 -30 26 -40l-13 -31q-26 6 -39 20t-15 45
q-28 -34 -62 -49.5t-76 -15.5q-54 0 -84.5 30zM295 332q34 19 58 53l14 100h-79q-72 0 -106.5 -27t-34.5 -74q0 -34 19.5 -52.5t54.5 -18.5q40 0 74 19zM42 0l6 42h347l-6 -42h-347z" />
    <glyph glyph-name="guillemotleft" unicode="&#xab;" horiz-adv-x="547" 
d="M269 514l29 -19l-167 -207l109 -207l-31 -19l-130 210l3 31zM474 514l29 -19l-167 -207l109 -207l-31 -19l-130 210l3 31z" />
    <glyph glyph-name="logicalnot" unicode="&#xac;" horiz-adv-x="498" 
d="M437 340l-22 -162h-47l17 121h-308l5 41h355z" />
    <glyph glyph-name="uni00AD" unicode="&#xad;" horiz-adv-x="398" 
d="M74 292l6 42h258l-6 -42h-258z" />
    <glyph glyph-name="registered" unicode="&#xae;" horiz-adv-x="639" 
d="M472 701.5q54 -30.5 85.5 -84t31.5 -118.5q0 -64 -31.5 -118t-85.5 -86t-119 -32t-119 30.5t-85 84t-31 118.5q0 64 31 118t85 86t119 32t119 -30.5zM454 322q46 27 72.5 73.5t26.5 103.5t-26 103t-72 72t-102 26q-55 0 -100.5 -27t-72.5 -74t-27 -103q0 -57 26.5 -103
t72.5 -72t101 -26t101 27zM386 484l74 -118h-44l-66 113h-40v-113h-37v270h66q56 0 83 -19.5t27 -60.5q0 -55 -63 -72zM310 510h42q60 0 60 46q0 27 -16.5 38t-50.5 11h-35v-95z" />
    <glyph glyph-name="macron" unicode="&#xaf;" horiz-adv-x="289" 
d="M317 679h-229l7 39h228z" />
    <glyph glyph-name="degree" unicode="&#xb0;" horiz-adv-x="518" 
d="M147.5 433q-35.5 33 -35.5 93q0 48 22.5 86.5t59.5 60t79 21.5q57 0 92.5 -33t35.5 -92q0 -49 -23 -87.5t-60 -60t-79 -21.5q-56 0 -91.5 33zM324 473.5q34 36.5 34 95.5q0 42 -22.5 65t-62.5 23q-51 0 -85 -36t-34 -96q0 -42 23 -65t63 -23q50 0 84 36.5z" />
    <glyph glyph-name="plusminus" unicode="&#xb1;" horiz-adv-x="490" 
d="M35 0l6 42h347l-6 -42h-347zM303 510l-22 -153h151l-6 -41h-151l-21 -153h-45l21 153h-151l6 41h151l22 153h45z" />
    <glyph glyph-name="uni00B2" unicode="&#xb2;" horiz-adv-x="398" 
d="M341 713q29 -28 29 -73q0 -42 -24 -81.5t-62 -75.5t-109 -95q-32 -26 -34 -28h202l-12 -37h-245l5 36l39 33q72 62 110.5 99t62.5 74.5t24 74.5q0 31 -18.5 48t-50.5 17q-30 0 -54.5 -12.5t-48.5 -35.5l-27 25q32 31 64 45t69 14q51 0 80 -28z" />
    <glyph glyph-name="uni00B3" unicode="&#xb3;" horiz-adv-x="398" 
d="M345 717.5q29 -25.5 29 -66.5q0 -43 -27.5 -72t-72.5 -37q36 -2 59.5 -24.5t23.5 -60.5q0 -62 -44 -102t-112 -40q-74 0 -120 57l29 20q19 -22 41 -31.5t50 -9.5q52 0 83 30t31 77q0 65 -84 65h-30l11 34h18q43 0 72.5 26.5t29.5 66.5q0 28 -19 43t-51 15q-28 0 -52 -9
t-52 -29l-21 27q31 23 61.5 34.5t66.5 11.5q51 0 80 -25.5z" />
    <glyph glyph-name="acute" unicode="&#xb4;" horiz-adv-x="265" 
d="M284 776l17 -44l-201 -84l-13 27z" />
    <glyph glyph-name="uni00B5" unicode="&#xb5;" horiz-adv-x="582" 
d="M446 87q0 -41 9 -88l-42 -6q-7 32 -9 55.5t-1 57.5q-39 -54 -82.5 -85.5t-99.5 -31.5q-77 0 -102 58q0 -40 -11 -123l-17 -119l-46 -5l101 722h46l-53 -376q-2 -20 -2 -27q0 -47 24.5 -68t64.5 -21q98 0 179 127l51 365h46l-49 -348q-7 -46 -7 -87z" />
    <glyph glyph-name="paragraph" unicode="&#xb6;" horiz-adv-x="698" 
d="M603 684l-124 -879l-44 -8l119 847h-135l-117 -839l-45 -8l71 501q-101 4 -147.5 47.5t-46.5 115.5q0 105 69 164t186 59h214z" />
    <glyph glyph-name="periodcentered" unicode="&#xb7;" horiz-adv-x="195" 
d="M76.5 292q-10.5 11 -10.5 26q0 19 12.5 31t30.5 12q17 0 27 -10.5t10 -26.5q0 -18 -12 -30.5t-31 -12.5q-16 0 -26.5 11z" />
    <glyph glyph-name="cedilla" unicode="&#xb8;" horiz-adv-x="236" 
d="M65 -67q84 -6 84 -70q0 -39 -30.5 -62.5t-77.5 -23.5q-45 0 -76 22l19 29q24 -15 57 -15q29 0 47 12.5t18 36.5q0 23 -18 33t-64 10l23 111h33z" />
    <glyph glyph-name="uni00B9" unicode="&#xb9;" horiz-adv-x="398" 
d="M318 736l-58 -413h-42l52 366l-112 -61l-16 30l141 78h35z" />
    <glyph glyph-name="ordmasculine" unicode="&#xba;" horiz-adv-x="498" 
d="M419 642.5q40 -41.5 40 -119.5q0 -69 -24.5 -125.5t-71.5 -89.5t-110 -33q-73 0 -112.5 42.5t-39.5 119.5q0 68 25 124.5t71.5 89.5t108.5 33q73 0 113 -41.5zM188.5 584.5q-40.5 -60.5 -40.5 -149.5q0 -59 27.5 -90.5t78.5 -31.5q77 0 117.5 62t40.5 151q0 59 -27 89
t-79 30q-77 0 -117.5 -60.5zM38 0l6 42h347l-6 -42h-347z" />
    <glyph glyph-name="guillemotright" unicode="&#xbb;" horiz-adv-x="547" 
d="M140 514l130 -211l-3 -31l-188 -210l-28 19l167 207l-109 207zM345 514l130 -211l-3 -31l-188 -210l-28 19l167 207l-109 207z" />
    <glyph glyph-name="onequarter" unicode="&#xbc;" horiz-adv-x="903" 
d="M311 684l-58 -413h-42l52 366l-112 -61l-16 30l141 78h35zM706 746l32 -16l-519 -798l-32 16zM830 141l-5 -35h-56l-15 -106h-42l16 106h-189l4 31l170 283l34 -14l-159 -265h145l21 119h37l-17 -119h56z" />
    <glyph glyph-name="onehalf" unicode="&#xbd;" horiz-adv-x="903" 
d="M311 684l-58 -413h-42l52 366l-112 -61l-16 30l141 78h35zM706 746l32 -16l-519 -798l-32 16zM801 390q29 -28 29 -73q0 -42 -24 -81.5t-62 -75.5t-109 -95q-32 -26 -34 -28h202l-12 -37h-245l5 36l39 33q72 62 110.5 99t62.5 74.5t24 74.5q0 31 -18.5 48t-50.5 17
q-30 0 -54.5 -12.5t-48.5 -35.5l-27 25q32 31 64 45t69 14q51 0 80 -28z" />
    <glyph glyph-name="threequarters" unicode="&#xbe;" horiz-adv-x="903" 
d="M338 665.5q29 -25.5 29 -66.5q0 -43 -27.5 -72t-72.5 -37q36 -2 59.5 -24.5t23.5 -60.5q0 -62 -44 -102t-112 -40q-74 0 -120 57l29 20q19 -22 41 -31.5t50 -9.5q52 0 83 30t31 77q0 65 -84 65h-30l11 34h18q43 0 72.5 26.5t29.5 66.5q0 28 -19 43t-51 15q-28 0 -52 -9
t-52 -29l-21 27q31 23 61.5 34.5t66.5 11.5q51 0 80 -25.5zM706 746l32 -16l-519 -798l-32 16zM830 141l-5 -35h-56l-15 -106h-42l16 106h-189l4 31l170 283l34 -14l-159 -265h145l21 119h37l-17 -119h56z" />
    <glyph glyph-name="questiondown" unicode="&#xbf;" horiz-adv-x="441" 
d="M283.5 494q10.5 -11 10.5 -26q0 -19 -12.5 -31t-30.5 -12q-17 0 -27 10.5t-10 26.5q0 18 12 30.5t31 12.5q16 0 26.5 -11zM37 -168q-39 35 -39 89q0 44 17.5 75.5t43 51.5t66.5 46q36 23 56 38.5t34 38t14 51.5q0 23 -5 45l41 9q10 -30 10 -56q0 -37 -16 -64.5t-39 -46
t-62 -43.5q-38 -24 -60 -41.5t-37 -43t-15 -59.5q0 -39 27.5 -62.5t75.5 -23.5q47 0 86 18.5t80 58.5l29 -28q-46 -46 -93 -67t-104 -21q-71 0 -110 35z" />
    <glyph glyph-name="Agrave" unicode="&#xc0;" 
d="M454 0l-36 192h-296l-90 -192h-49l327 684h59l134 -684h-49zM142 234h268l-76 411zM287 877l171 -90l-17 -28l-177 75z" />
    <glyph glyph-name="Aacute" unicode="&#xc1;" 
d="M454 0l-36 192h-296l-90 -192h-49l327 684h59l134 -684h-49zM142 234h268l-76 411zM437 878l16 -44l-201 -75l-11 28z" />
    <glyph glyph-name="Acircumflex" unicode="&#xc2;" 
d="M454 0l-36 192h-296l-90 -192h-49l327 684h59l134 -684h-49zM142 234h268l-76 411zM228 763l-19 26l140 98h27l113 -99l-22 -25l-108 80z" />
    <glyph glyph-name="Atilde" unicode="&#xc3;" 
d="M454 0l-36 192h-296l-90 -192h-49l327 684h59l134 -684h-49zM142 234h268l-76 411zM385.5 802.5q-14.5 6.5 -34.5 18.5q-14 10 -24.5 14.5t-21.5 4.5q-19 0 -31.5 -8.5t-31.5 -31.5l-27 19q44 60 90 60q17 0 30.5 -6t32.5 -18q15 -10 26.5 -15.5t23.5 -5.5
q16 0 30.5 10.5t32.5 33.5l28 -17q-41 -65 -90 -65q-19 0 -33.5 6.5z" />
    <glyph glyph-name="Adieresis" unicode="&#xc4;" 
d="M454 0l-36 192h-296l-90 -192h-49l327 684h59l134 -684h-49zM142 234h268l-76 411zM244.5 800q-8.5 8 -8.5 21q0 16 10.5 26.5t26.5 10.5q14 0 22.5 -8t8.5 -21q0 -16 -11 -26.5t-27 -10.5q-13 0 -21.5 8zM425.5 800q-8.5 8 -8.5 21q0 16 10.5 26.5t26.5 10.5
q14 0 22.5 -8t8.5 -21q0 -16 -10.5 -26.5t-26.5 -10.5q-14 0 -22.5 8z" />
    <glyph glyph-name="Aring" unicode="&#xc5;" 
d="M454 0l-36 192h-296l-90 -192h-49l327 684h59l134 -684h-49zM142 234h268l-76 411zM436 919q23 -22 23 -56q0 -44 -30 -72.5t-74 -28.5q-38 0 -61 22.5t-23 56.5q0 44 30 72t74 28q38 0 61 -22zM326 891q-18 -20 -18 -50q0 -22 12.5 -35t35.5 -13q31 0 48.5 20.5
t17.5 48.5q0 23 -12.5 36t-35.5 13q-30 0 -48 -20z" />
    <glyph glyph-name="AE" unicode="&#xc6;" horiz-adv-x="770" 
d="M725 643h-329l32 -266h258l-5 -41h-248l35 -295h229l-7 -41h-264l-21 188h-290l-98 -188h-51l361 684h410zM400 229l-47 416l-217 -416h264z" />
    <glyph glyph-name="Ccedilla" unicode="&#xc7;" horiz-adv-x="545" 
d="M242.5 592q-62.5 -61 -90.5 -151.5t-28 -180.5q0 -112 50 -169.5t134 -57.5q50 0 86.5 14.5t74.5 43.5l25 -35q-79 -63 -176 -67l-10 -56q84 -6 84 -70q0 -39 -30.5 -62.5t-77.5 -23.5q-45 0 -76 22l19 29q24 -15 57 -15q29 0 47 12.5t18 36.5q0 23 -18 33t-64 10l18 85
q-96 7 -153 77.5t-57 193.5q0 100 34 199.5t107.5 166.5t184.5 67q54 0 92.5 -15.5t71.5 -46.5l-28 -29q-32 27 -62.5 38.5t-72.5 11.5q-97 0 -159.5 -61z" />
    <glyph glyph-name="Egrave" unicode="&#xc8;" horiz-adv-x="502" 
d="M512 684l-12 -41h-285l-37 -266h247l-6 -41h-246l-42 -295h298l-7 -41h-345l97 684h338zM294 877l171 -90l-17 -28l-177 75z" />
    <glyph glyph-name="Eacute" unicode="&#xc9;" horiz-adv-x="502" 
d="M512 684l-12 -41h-285l-37 -266h247l-6 -41h-246l-42 -295h298l-7 -41h-345l97 684h338zM444 878l16 -44l-201 -75l-11 28z" />
    <glyph glyph-name="Ecircumflex" unicode="&#xca;" horiz-adv-x="502" 
d="M512 684l-12 -41h-285l-37 -266h247l-6 -41h-246l-42 -295h298l-7 -41h-345l97 684h338zM235 763l-19 26l140 98h27l113 -99l-22 -25l-108 80z" />
    <glyph glyph-name="Edieresis" unicode="&#xcb;" horiz-adv-x="502" 
d="M512 684l-12 -41h-285l-37 -266h247l-6 -41h-246l-42 -295h298l-7 -41h-345l97 684h338zM251.5 800q-8.5 8 -8.5 21q0 16 10.5 26.5t26.5 10.5q14 0 22.5 -8t8.5 -21q0 -16 -11 -26.5t-27 -10.5q-13 0 -21.5 8zM432.5 800q-8.5 8 -8.5 21q0 16 10.5 26.5t26.5 10.5
q14 0 22.5 -8t8.5 -21q0 -16 -10.5 -26.5t-26.5 -10.5q-14 0 -22.5 8z" />
    <glyph glyph-name="Igrave" unicode="&#xcc;" horiz-adv-x="277" 
d="M221 684l-96 -684h-48l97 684h47zM145 877l171 -90l-17 -28l-177 75z" />
    <glyph glyph-name="Iacute" unicode="&#xcd;" horiz-adv-x="277" 
d="M221 684l-96 -684h-48l97 684h47zM295 878l16 -44l-201 -75l-11 28z" />
    <glyph glyph-name="Icircumflex" unicode="&#xce;" horiz-adv-x="277" 
d="M221 684l-96 -684h-48l97 684h47zM86 763l-19 26l140 98h27l113 -99l-22 -25l-108 80z" />
    <glyph glyph-name="Idieresis" unicode="&#xcf;" horiz-adv-x="277" 
d="M221 684l-96 -684h-48l97 684h47zM102.5 800q-8.5 8 -8.5 21q0 16 10.5 26.5t26.5 10.5q14 0 22.5 -8t8.5 -21q0 -16 -11 -26.5t-27 -10.5q-13 0 -21.5 8zM283.5 800q-8.5 8 -8.5 21q0 16 10.5 26.5t26.5 10.5q14 0 22.5 -8t8.5 -21q0 -16 -10.5 -26.5t-26.5 -10.5
q-14 0 -22.5 8z" />
    <glyph glyph-name="Eth" unicode="&#xd0;" horiz-adv-x="630" 
d="M503 628.5q74 -55.5 74 -199.5q0 -114 -35.5 -211t-115 -157.5t-204.5 -60.5h-142l47 333h-85l5 40h86l44 311h131q121 0 195 -55.5zM403 97.5q67 56.5 96.5 144.5t29.5 188q0 125 -60.5 169t-160.5 44h-90l-37 -270h185l-5 -40h-186l-40 -292h94q107 0 174 56.5z" />
    <glyph glyph-name="Ntilde" unicode="&#xd1;" horiz-adv-x="667" 
d="M516 0h-60l-250 639q-3 -78 -26 -235l-57 -404h-46l97 684h61l250 -638q5 87 21 209l61 429h45zM446.5 802.5q-14.5 6.5 -34.5 18.5q-14 10 -24.5 14.5t-21.5 4.5q-19 0 -31.5 -8.5t-31.5 -31.5l-27 19q44 60 90 60q17 0 30.5 -6t32.5 -18q15 -10 26.5 -15.5t23.5 -5.5
q16 0 30.5 10.5t32.5 33.5l28 -17q-41 -65 -90 -65q-19 0 -33.5 6.5z" />
    <glyph glyph-name="Ograve" unicode="&#xd2;" horiz-adv-x="689" 
d="M575 624.5q62 -69.5 62 -199.5q0 -100 -32.5 -200t-106.5 -168t-189 -68q-109 0 -171.5 71t-62.5 201q0 97 33.5 196.5t107.5 168t188 68.5q109 0 171 -69.5zM241.5 590.5q-62.5 -62.5 -90 -153.5t-27.5 -178q0 -113 49.5 -170.5t136.5 -57.5q101 0 163.5 63t88.5 154
t26 179q0 113 -48.5 169.5t-137.5 56.5q-98 0 -160.5 -62.5zM352 877l171 -90l-17 -28l-177 75z" />
    <glyph glyph-name="Oacute" unicode="&#xd3;" horiz-adv-x="689" 
d="M575 624.5q62 -69.5 62 -199.5q0 -100 -32.5 -200t-106.5 -168t-189 -68q-109 0 -171.5 71t-62.5 201q0 97 33.5 196.5t107.5 168t188 68.5q109 0 171 -69.5zM241.5 590.5q-62.5 -62.5 -90 -153.5t-27.5 -178q0 -113 49.5 -170.5t136.5 -57.5q101 0 163.5 63t88.5 154
t26 179q0 113 -48.5 169.5t-137.5 56.5q-98 0 -160.5 -62.5zM502 878l16 -44l-201 -75l-11 28z" />
    <glyph glyph-name="Ocircumflex" unicode="&#xd4;" horiz-adv-x="689" 
d="M575 624.5q62 -69.5 62 -199.5q0 -100 -32.5 -200t-106.5 -168t-189 -68q-109 0 -171.5 71t-62.5 201q0 97 33.5 196.5t107.5 168t188 68.5q109 0 171 -69.5zM241.5 590.5q-62.5 -62.5 -90 -153.5t-27.5 -178q0 -113 49.5 -170.5t136.5 -57.5q101 0 163.5 63t88.5 154
t26 179q0 113 -48.5 169.5t-137.5 56.5q-98 0 -160.5 -62.5zM293 763l-19 26l140 98h27l113 -99l-22 -25l-108 80z" />
    <glyph glyph-name="Otilde" unicode="&#xd5;" horiz-adv-x="689" 
d="M575 624.5q62 -69.5 62 -199.5q0 -100 -32.5 -200t-106.5 -168t-189 -68q-109 0 -171.5 71t-62.5 201q0 97 33.5 196.5t107.5 168t188 68.5q109 0 171 -69.5zM241.5 590.5q-62.5 -62.5 -90 -153.5t-27.5 -178q0 -113 49.5 -170.5t136.5 -57.5q101 0 163.5 63t88.5 154
t26 179q0 113 -48.5 169.5t-137.5 56.5q-98 0 -160.5 -62.5zM450.5 802.5q-14.5 6.5 -34.5 18.5q-14 10 -24.5 14.5t-21.5 4.5q-19 0 -31.5 -8.5t-31.5 -31.5l-27 19q44 60 90 60q17 0 30.5 -6t32.5 -18q15 -10 26.5 -15.5t23.5 -5.5q16 0 30.5 10.5t32.5 33.5l28 -17
q-41 -65 -90 -65q-19 0 -33.5 6.5z" />
    <glyph glyph-name="Odieresis" unicode="&#xd6;" horiz-adv-x="689" 
d="M575 624.5q62 -69.5 62 -199.5q0 -100 -32.5 -200t-106.5 -168t-189 -68q-109 0 -171.5 71t-62.5 201q0 97 33.5 196.5t107.5 168t188 68.5q109 0 171 -69.5zM241.5 590.5q-62.5 -62.5 -90 -153.5t-27.5 -178q0 -113 49.5 -170.5t136.5 -57.5q101 0 163.5 63t88.5 154
t26 179q0 113 -48.5 169.5t-137.5 56.5q-98 0 -160.5 -62.5zM309.5 800q-8.5 8 -8.5 21q0 16 10.5 26.5t26.5 10.5q14 0 22.5 -8t8.5 -21q0 -16 -11 -26.5t-27 -10.5q-13 0 -21.5 8zM490.5 800q-8.5 8 -8.5 21q0 16 10.5 26.5t26.5 10.5q14 0 22.5 -8t8.5 -21
q0 -16 -10.5 -26.5t-26.5 -10.5q-14 0 -22.5 8z" />
    <glyph glyph-name="multiply" unicode="&#xd7;" horiz-adv-x="490" 
d="M398 466l28 -30l-145 -129l109 -129l-34 -29l-107 129l-144 -129l-28 30l144 128l-108 130l34 29l106 -130z" />
    <glyph glyph-name="Oslash" unicode="&#xd8;" horiz-adv-x="689" 
d="M606.5 576.5q30.5 -61.5 30.5 -151.5q0 -100 -32.5 -200t-106.5 -168t-189 -68q-44 0 -82 12l-51 -118l-40 12l54 122q-55 31 -85 93t-30 151q0 97 33.5 196.5t107.5 168t188 68.5q41 0 79 -11l52 124l41 -12l-56 -127q56 -30 86.5 -91.5zM211 55l258 589q-30 9 -67 9
q-99 0 -161 -63t-89.5 -154t-27.5 -180q0 -149 87 -201zM473.5 94.5q62.5 63.5 88.5 154.5t26 181q0 153 -90 201l-257 -589q33 -11 69 -11q101 0 163.5 63.5z" />
    <glyph glyph-name="Ugrave" unicode="&#xd9;" horiz-adv-x="647" 
d="M535 210q-14 -101 -77 -161t-170 -60q-97 0 -145.5 47.5t-48.5 130.5q0 14 4 46l66 471h47l-65 -470q-3 -24 -3 -44q0 -66 36 -102t110 -36q88 0 137.5 49.5t61.5 135.5l66 467h47zM330 877l171 -90l-17 -28l-177 75z" />
    <glyph glyph-name="Uacute" unicode="&#xda;" horiz-adv-x="647" 
d="M535 210q-14 -101 -77 -161t-170 -60q-97 0 -145.5 47.5t-48.5 130.5q0 14 4 46l66 471h47l-65 -470q-3 -24 -3 -44q0 -66 36 -102t110 -36q88 0 137.5 49.5t61.5 135.5l66 467h47zM480 878l16 -44l-201 -75l-11 28z" />
    <glyph glyph-name="Ucircumflex" unicode="&#xdb;" horiz-adv-x="647" 
d="M535 210q-14 -101 -77 -161t-170 -60q-97 0 -145.5 47.5t-48.5 130.5q0 14 4 46l66 471h47l-65 -470q-3 -24 -3 -44q0 -66 36 -102t110 -36q88 0 137.5 49.5t61.5 135.5l66 467h47zM271 763l-19 26l140 98h27l113 -99l-22 -25l-108 80z" />
    <glyph glyph-name="Udieresis" unicode="&#xdc;" horiz-adv-x="647" 
d="M535 210q-14 -101 -77 -161t-170 -60q-97 0 -145.5 47.5t-48.5 130.5q0 14 4 46l66 471h47l-65 -470q-3 -24 -3 -44q0 -66 36 -102t110 -36q88 0 137.5 49.5t61.5 135.5l66 467h47zM287.5 800q-8.5 8 -8.5 21q0 16 10.5 26.5t26.5 10.5q14 0 22.5 -8t8.5 -21
q0 -16 -11 -26.5t-27 -10.5q-13 0 -21.5 8zM468.5 800q-8.5 8 -8.5 21q0 16 10.5 26.5t26.5 10.5q14 0 22.5 -8t8.5 -21q0 -16 -10.5 -26.5t-26.5 -10.5q-14 0 -22.5 8z" />
    <glyph glyph-name="Yacute" unicode="&#xdd;" horiz-adv-x="512" 
d="M555 684l-273 -415l-38 -269h-48l38 268l-159 416h51l136 -371l239 371h54zM410 878l16 -44l-201 -75l-11 28z" />
    <glyph glyph-name="Thorn" unicode="&#xde;" horiz-adv-x="565" 
d="M475 518q57 -42 57 -133q0 -63 -26.5 -118.5t-89.5 -91t-167 -35.5h-104l-20 -140h-48l97 684h47l-17 -124h105q109 0 166 -42zM429 239.5q54 58.5 54 144.5q0 73 -44.5 104t-132.5 31h-108l-48 -338h103q122 0 176 58.5z" />
    <glyph glyph-name="germandbls" unicode="&#xdf;" horiz-adv-x="578" 
d="M-51 -165q41 20 64.5 39t39 52t23.5 89l75 527q13 95 69 147t138 52q65 0 104.5 -32t39.5 -84q0 -47 -22.5 -76t-64.5 -58q-31 -22 -45.5 -38t-14.5 -39q0 -21 14 -37t45 -40q32 -25 51.5 -45t34 -51.5t14.5 -73.5q0 -40 -20 -81t-61.5 -69t-102.5 -28q-31 0 -60 8.5
t-49 19.5l18 33q45 -20 88 -20q48 0 79.5 22t46 53.5t14.5 60.5q0 50 -23 81t-66 65q-35 29 -51 49t-16 49q0 34 17.5 55t52.5 45q37 27 56 51t19 63q0 37 -26.5 57.5t-71.5 20.5q-63 0 -106.5 -42t-55.5 -124l-74 -523q-9 -67 -28 -105.5t-48.5 -61.5t-82.5 -46z" />
    <glyph glyph-name="agrave" unicode="&#xe0;" horiz-adv-x="556" 
d="M410.5 521.5q36.5 -10.5 76.5 -31.5l-55 -378q-3 -19 -3 -34q0 -21 7.5 -34.5t26.5 -20.5l-13 -34q-31 9 -47 27t-16 55l1 15q-31 -45 -72.5 -71t-90.5 -26q-77 0 -120.5 54t-43.5 149q0 78 27.5 156.5t87 131t150.5 52.5q48 0 84.5 -10.5zM203.5 447
q-48.5 -47 -71 -116.5t-22.5 -137.5q0 -80 31.5 -122t88.5 -42q48 0 87.5 29.5t74.5 86.5l46 322q-48 27 -111 27q-75 0 -123.5 -47zM303 776l169 -101l-17 -27l-178 84z" />
    <glyph glyph-name="aacute" unicode="&#xe1;" horiz-adv-x="556" 
d="M410.5 521.5q36.5 -10.5 76.5 -31.5l-55 -378q-3 -19 -3 -34q0 -21 7.5 -34.5t26.5 -20.5l-13 -34q-31 9 -47 27t-16 55l1 15q-31 -45 -72.5 -71t-90.5 -26q-77 0 -120.5 54t-43.5 149q0 78 27.5 156.5t87 131t150.5 52.5q48 0 84.5 -10.5zM203.5 447
q-48.5 -47 -71 -116.5t-22.5 -137.5q0 -80 31.5 -122t88.5 -42q48 0 87.5 29.5t74.5 86.5l46 322q-48 27 -111 27q-75 0 -123.5 -47zM454 776l17 -44l-201 -84l-13 27z" />
    <glyph glyph-name="acircumflex" unicode="&#xe2;" horiz-adv-x="556" 
d="M410.5 521.5q36.5 -10.5 76.5 -31.5l-55 -378q-3 -19 -3 -34q0 -21 7.5 -34.5t26.5 -20.5l-13 -34q-31 9 -47 27t-16 55l1 15q-31 -45 -72.5 -71t-90.5 -26q-77 0 -120.5 54t-43.5 149q0 78 27.5 156.5t87 131t150.5 52.5q48 0 84.5 -10.5zM203.5 447
q-48.5 -47 -71 -116.5t-22.5 -137.5q0 -80 31.5 -122t88.5 -42q48 0 87.5 29.5t74.5 86.5l46 322q-48 27 -111 27q-75 0 -123.5 -47zM237 647l-21 25l142 103h27l113 -103l-23 -25l-108 84z" />
    <glyph glyph-name="atilde" unicode="&#xe3;" horiz-adv-x="556" 
d="M410.5 521.5q36.5 -10.5 76.5 -31.5l-55 -378q-3 -19 -3 -34q0 -21 7.5 -34.5t26.5 -20.5l-13 -34q-31 9 -47 27t-16 55l1 15q-31 -45 -72.5 -71t-90.5 -26q-77 0 -120.5 54t-43.5 149q0 78 27.5 156.5t87 131t150.5 52.5q48 0 84.5 -10.5zM203.5 447
q-48.5 -47 -71 -116.5t-22.5 -137.5q0 -80 31.5 -122t88.5 -42q48 0 87.5 29.5t74.5 86.5l46 322q-48 27 -111 27q-75 0 -123.5 -47zM388.5 676.5q-14.5 6.5 -34.5 18.5q-14 10 -24.5 14.5t-21.5 4.5q-19 0 -31.5 -8.5t-31.5 -31.5l-27 19q44 60 90 60q17 0 30.5 -6
t32.5 -18q15 -10 26.5 -15.5t23.5 -5.5q16 0 30.5 10.5t32.5 33.5l28 -17q-41 -65 -90 -65q-19 0 -33.5 6.5z" />
    <glyph glyph-name="adieresis" unicode="&#xe4;" horiz-adv-x="556" 
d="M410.5 521.5q36.5 -10.5 76.5 -31.5l-55 -378q-3 -19 -3 -34q0 -21 7.5 -34.5t26.5 -20.5l-13 -34q-31 9 -47 27t-16 55l1 15q-31 -45 -72.5 -71t-90.5 -26q-77 0 -120.5 54t-43.5 149q0 78 27.5 156.5t87 131t150.5 52.5q48 0 84.5 -10.5zM203.5 447
q-48.5 -47 -71 -116.5t-22.5 -137.5q0 -80 31.5 -122t88.5 -42q48 0 87.5 29.5t74.5 86.5l46 322q-48 27 -111 27q-75 0 -123.5 -47zM246.5 674q-8.5 8 -8.5 21q0 16 10.5 26.5t26.5 10.5q14 0 22.5 -8t8.5 -21q0 -16 -11 -26.5t-27 -10.5q-13 0 -21.5 8zM427.5 674
q-8.5 8 -8.5 21q0 16 10.5 26.5t26.5 10.5q14 0 22.5 -8t8.5 -21q0 -16 -10.5 -26.5t-26.5 -10.5q-14 0 -22.5 8z" />
    <glyph glyph-name="aring" unicode="&#xe5;" horiz-adv-x="556" 
d="M410.5 521.5q36.5 -10.5 76.5 -31.5l-55 -378q-3 -19 -3 -34q0 -21 7.5 -34.5t26.5 -20.5l-13 -34q-31 9 -47 27t-16 55l1 15q-31 -45 -72.5 -71t-90.5 -26q-77 0 -120.5 54t-43.5 149q0 78 27.5 156.5t87 131t150.5 52.5q48 0 84.5 -10.5zM203.5 447
q-48.5 -47 -71 -116.5t-22.5 -137.5q0 -80 31.5 -122t88.5 -42q48 0 87.5 29.5t74.5 86.5l46 322q-48 27 -111 27q-75 0 -123.5 -47zM438 793q23 -22 23 -56q0 -44 -30 -72.5t-74 -28.5q-38 0 -61 22.5t-23 56.5q0 44 30 72t74 28q38 0 61 -22zM328 765q-18 -20 -18 -50
q0 -22 12.5 -35t35.5 -13q31 0 48.5 20.5t17.5 48.5q0 23 -12.5 36t-35.5 13q-30 0 -48 -20z" />
    <glyph glyph-name="ae" unicode="&#xe6;" horiz-adv-x="818" 
d="M389 502.5q38 -29.5 49 -78.5q22 42 75 75t118 33q70 0 111.5 -34.5t41.5 -89.5q0 -92 -96 -139t-274 -59q0 -180 142 -180q42 0 76 13t74 41l22 -33q-42 -31 -84 -46.5t-90 -15.5q-62 0 -106 28t-63 81q-47 -59 -96 -84t-105 -25q-68 0 -108 37t-40 99q0 76 57 126.5
t179 50.5h109q13 50 25 80q-2 50 -35 80.5t-90 30.5q-35 0 -69 -7.5t-76 -23.5l-11 37q86 33 159 33q67 0 105 -29.5zM521 457.5q-46 -35.5 -71 -91.5t-33 -119q160 12 239.5 50t79.5 109q0 38 -27 62.5t-78 24.5q-64 0 -110 -35.5zM275 266q-99 0 -144.5 -38t-45.5 -103
q0 -47 27.5 -72t75.5 -25q51 0 96.5 26.5t89.5 83.5q-5 30 -5 63t5 65h-99z" />
    <glyph glyph-name="ccedilla" unicode="&#xe7;" horiz-adv-x="465" 
d="M199 446.5q-47 -46.5 -68 -115t-21 -134.5q0 -83 37 -124.5t103 -41.5t131 45l21 -33q-67 -51 -146 -54l-10 -56q84 -6 84 -70q0 -39 -30.5 -62.5t-77.5 -23.5q-45 0 -76 22l19 29q24 -15 57 -15q29 0 47 12.5t18 36.5q0 23 -18 33t-64 10l18 85q-75 8 -118 62.5
t-43 146.5q0 75 27 152t85 129t146 52q84 0 137 -52l-27 -29q-23 21 -49.5 31.5t-61.5 10.5q-73 0 -120 -46.5z" />
    <glyph glyph-name="egrave" unicode="&#xe8;" horiz-adv-x="512" 
d="M382.5 268.5q-95.5 -47.5 -272.5 -59.5v-10q0 -86 37.5 -127.5t102.5 -41.5q42 0 76.5 13t73.5 41l22 -33q-42 -31 -84 -46.5t-90 -15.5q-88 0 -137 54.5t-49 154.5q0 79 29 156t88.5 127.5t147.5 50.5q70 0 110.5 -34.5t40.5 -88.5q0 -93 -95.5 -140.5zM216.5 457.5
q-45.5 -35.5 -71 -91.5t-32.5 -119q159 11 238 50t79 110q0 38 -26 62t-77 24q-65 0 -110.5 -35.5zM277 776l169 -101l-17 -27l-178 84z" />
    <glyph glyph-name="eacute" unicode="&#xe9;" horiz-adv-x="512" 
d="M382.5 268.5q-95.5 -47.5 -272.5 -59.5v-10q0 -86 37.5 -127.5t102.5 -41.5q42 0 76.5 13t73.5 41l22 -33q-42 -31 -84 -46.5t-90 -15.5q-88 0 -137 54.5t-49 154.5q0 79 29 156t88.5 127.5t147.5 50.5q70 0 110.5 -34.5t40.5 -88.5q0 -93 -95.5 -140.5zM216.5 457.5
q-45.5 -35.5 -71 -91.5t-32.5 -119q159 11 238 50t79 110q0 38 -26 62t-77 24q-65 0 -110.5 -35.5zM428 776l17 -44l-201 -84l-13 27z" />
    <glyph glyph-name="ecircumflex" unicode="&#xea;" horiz-adv-x="512" 
d="M382.5 268.5q-95.5 -47.5 -272.5 -59.5v-10q0 -86 37.5 -127.5t102.5 -41.5q42 0 76.5 13t73.5 41l22 -33q-42 -31 -84 -46.5t-90 -15.5q-88 0 -137 54.5t-49 154.5q0 79 29 156t88.5 127.5t147.5 50.5q70 0 110.5 -34.5t40.5 -88.5q0 -93 -95.5 -140.5zM216.5 457.5
q-45.5 -35.5 -71 -91.5t-32.5 -119q159 11 238 50t79 110q0 38 -26 62t-77 24q-65 0 -110.5 -35.5zM211 647l-21 25l142 103h27l113 -103l-23 -25l-108 84z" />
    <glyph glyph-name="edieresis" unicode="&#xeb;" horiz-adv-x="512" 
d="M382.5 268.5q-95.5 -47.5 -272.5 -59.5v-10q0 -86 37.5 -127.5t102.5 -41.5q42 0 76.5 13t73.5 41l22 -33q-42 -31 -84 -46.5t-90 -15.5q-88 0 -137 54.5t-49 154.5q0 79 29 156t88.5 127.5t147.5 50.5q70 0 110.5 -34.5t40.5 -88.5q0 -93 -95.5 -140.5zM216.5 457.5
q-45.5 -35.5 -71 -91.5t-32.5 -119q159 11 238 50t79 110q0 38 -26 62t-77 24q-65 0 -110.5 -35.5zM220.5 674q-8.5 8 -8.5 21q0 16 10.5 26.5t26.5 10.5q14 0 22.5 -8t8.5 -21q0 -16 -11 -26.5t-27 -10.5q-13 0 -21.5 8zM401.5 674q-8.5 8 -8.5 21q0 16 10.5 26.5
t26.5 10.5q14 0 22.5 -8t8.5 -21q0 -16 -10.5 -26.5t-26.5 -10.5q-14 0 -22.5 8z" />
    <glyph glyph-name="igrave" unicode="&#xec;" horiz-adv-x="265" 
d="M192 522l-74 -522h-46l74 522h46zM134 776l169 -101l-17 -27l-178 84z" />
    <glyph glyph-name="iacute" unicode="&#xed;" horiz-adv-x="265" 
d="M192 522l-74 -522h-46l74 522h46zM285 776l17 -44l-201 -84l-13 27z" />
    <glyph glyph-name="icircumflex" unicode="&#xee;" horiz-adv-x="265" 
d="M192 522l-74 -522h-46l74 522h46zM68 647l-21 25l142 103h27l113 -103l-23 -25l-108 84z" />
    <glyph glyph-name="idieresis" unicode="&#xef;" horiz-adv-x="265" 
d="M192 522l-74 -522h-46l74 522h46zM77.5 674q-8.5 8 -8.5 21q0 16 10.5 26.5t26.5 10.5q14 0 22.5 -8t8.5 -21q0 -16 -11 -26.5t-27 -10.5q-13 0 -21.5 8zM258.5 674q-8.5 8 -8.5 21q0 16 10.5 26.5t26.5 10.5q14 0 22.5 -8t8.5 -21q0 -16 -10.5 -26.5t-26.5 -10.5
q-14 0 -22.5 8z" />
    <glyph glyph-name="eth" unicode="&#xf0;" horiz-adv-x="561" 
d="M461 546q29 -67 29 -159q0 -105 -27.5 -195.5t-85 -146.5t-141.5 -56t-130.5 51t-46.5 140q0 70 24 135.5t75 108t128 42.5q99 0 158 -82q1 79 -22.5 140.5t-77.5 110.5l-91 -79l-33 15l95 86q-59 34 -117 47l12 38q72 -15 135 -58l80 73l26 -25l-77 -70q58 -49 87 -116z
M379.5 116.5q51.5 87.5 61.5 217.5q-58 93 -150 93q-65 0 -106 -36.5t-59.5 -92.5t-18.5 -118q0 -73 33.5 -112t95.5 -39q92 0 143.5 87.5z" />
    <glyph glyph-name="ntilde" unicode="&#xf1;" horiz-adv-x="581" 
d="M463.5 499.5q31.5 -32.5 31.5 -92.5q0 -18 -3 -38l-52 -369h-46l52 367q3 20 3 35q0 91 -83 91q-106 0 -204 -181l-44 -312h-46l74 522h39l-15 -140q40 72 92.5 111t111.5 39q58 0 89.5 -32.5zM378.5 676.5q-14.5 6.5 -34.5 18.5q-14 10 -24.5 14.5t-21.5 4.5
q-19 0 -31.5 -8.5t-31.5 -31.5l-27 19q44 60 90 60q17 0 30.5 -6t32.5 -18q15 -10 26.5 -15.5t23.5 -5.5q16 0 30.5 10.5t32.5 33.5l28 -17q-41 -65 -90 -65q-19 0 -33.5 6.5z" />
    <glyph glyph-name="ograve" unicode="&#xf2;" horiz-adv-x="566" 
d="M111 44.5q-49 55.5 -49 154.5q0 75 26 151.5t84 129t148 52.5q88 0 136.5 -54t48.5 -153q0 -74 -25.5 -151.5t-83.5 -131t-149 -53.5q-87 0 -136 55.5zM369 77q47 47 67.5 115.5t20.5 134.5q0 81 -36 123.5t-102 42.5q-75 0 -121.5 -48t-67 -116t-20.5 -133
q0 -81 36 -123.5t102 -42.5q74 0 121 47zM286 776l169 -101l-17 -27l-178 84z" />
    <glyph glyph-name="oacute" unicode="&#xf3;" horiz-adv-x="566" 
d="M111 44.5q-49 55.5 -49 154.5q0 75 26 151.5t84 129t148 52.5q88 0 136.5 -54t48.5 -153q0 -74 -25.5 -151.5t-83.5 -131t-149 -53.5q-87 0 -136 55.5zM369 77q47 47 67.5 115.5t20.5 134.5q0 81 -36 123.5t-102 42.5q-75 0 -121.5 -48t-67 -116t-20.5 -133
q0 -81 36 -123.5t102 -42.5q74 0 121 47zM437 776l17 -44l-201 -84l-13 27z" />
    <glyph glyph-name="ocircumflex" unicode="&#xf4;" horiz-adv-x="566" 
d="M111 44.5q-49 55.5 -49 154.5q0 75 26 151.5t84 129t148 52.5q88 0 136.5 -54t48.5 -153q0 -74 -25.5 -151.5t-83.5 -131t-149 -53.5q-87 0 -136 55.5zM369 77q47 47 67.5 115.5t20.5 134.5q0 81 -36 123.5t-102 42.5q-75 0 -121.5 -48t-67 -116t-20.5 -133
q0 -81 36 -123.5t102 -42.5q74 0 121 47zM220 647l-21 25l142 103h27l113 -103l-23 -25l-108 84z" />
    <glyph glyph-name="otilde" unicode="&#xf5;" horiz-adv-x="566" 
d="M111 44.5q-49 55.5 -49 154.5q0 75 26 151.5t84 129t148 52.5q88 0 136.5 -54t48.5 -153q0 -74 -25.5 -151.5t-83.5 -131t-149 -53.5q-87 0 -136 55.5zM369 77q47 47 67.5 115.5t20.5 134.5q0 81 -36 123.5t-102 42.5q-75 0 -121.5 -48t-67 -116t-20.5 -133
q0 -81 36 -123.5t102 -42.5q74 0 121 47zM371.5 676.5q-14.5 6.5 -34.5 18.5q-14 10 -24.5 14.5t-21.5 4.5q-19 0 -31.5 -8.5t-31.5 -31.5l-27 19q44 60 90 60q17 0 30.5 -6t32.5 -18q15 -10 26.5 -15.5t23.5 -5.5q16 0 30.5 10.5t32.5 33.5l28 -17q-41 -65 -90 -65
q-19 0 -33.5 6.5z" />
    <glyph glyph-name="odieresis" unicode="&#xf6;" horiz-adv-x="566" 
d="M111 44.5q-49 55.5 -49 154.5q0 75 26 151.5t84 129t148 52.5q88 0 136.5 -54t48.5 -153q0 -74 -25.5 -151.5t-83.5 -131t-149 -53.5q-87 0 -136 55.5zM369 77q47 47 67.5 115.5t20.5 134.5q0 81 -36 123.5t-102 42.5q-75 0 -121.5 -48t-67 -116t-20.5 -133
q0 -81 36 -123.5t102 -42.5q74 0 121 47zM229.5 674q-8.5 8 -8.5 21q0 16 10.5 26.5t26.5 10.5q14 0 22.5 -8t8.5 -21q0 -16 -11 -26.5t-27 -10.5q-13 0 -21.5 8zM410.5 674q-8.5 8 -8.5 21q0 16 10.5 26.5t26.5 10.5q14 0 22.5 -8t8.5 -21q0 -16 -10.5 -26.5t-26.5 -10.5
q-14 0 -22.5 8z" />
    <glyph glyph-name="divide" unicode="&#xf7;" horiz-adv-x="490" 
d="M196.5 86q-10.5 11 -10.5 26q0 19 12.5 31t30.5 12q17 0 27 -10.5t10 -26.5q0 -18 -12 -30.5t-31 -12.5q-16 0 -26.5 11zM256.5 517q-10.5 11 -10.5 26q0 19 12.5 31t30.5 12q17 0 27 -10.5t10 -26.5q0 -18 -12 -30.5t-31 -12.5q-16 0 -26.5 11zM78 310l6 42h347l-6 -42
h-347z" />
    <glyph glyph-name="oslash" unicode="&#xf8;" horiz-adv-x="566" 
d="M484 436q21 -46 21 -111q0 -74 -25.5 -151.5t-83.5 -131t-149 -53.5q-37 0 -66 10l-59 -122l-37 11l60 127q-40 26 -61.5 73t-21.5 111q0 75 26 151.5t84 129t148 52.5q38 0 67 -10l57 124l38 -12l-59 -128q40 -24 61 -70zM168 51l204 434q-26 8 -53 8q-75 0 -121.5 -48
t-67 -116t-20.5 -133q0 -105 58 -145zM369 77q47 47 67.5 115.5t20.5 134.5q0 103 -56 143l-204 -433q21 -7 51 -7q74 0 121 47z" />
    <glyph glyph-name="ugrave" unicode="&#xf9;" horiz-adv-x="577" 
d="M119 22.5q-32 33.5 -32 93.5q0 23 2 35l52 371h46l-52 -370q-2 -12 -2 -33q0 -90 83 -90q59 0 109 49t89 131l44 313h46l-74 -522h-37l16 145q-35 -72 -86 -114t-114 -42q-58 0 -90 33.5zM288 776l169 -101l-17 -27l-178 84z" />
    <glyph glyph-name="uacute" unicode="&#xfa;" horiz-adv-x="577" 
d="M119 22.5q-32 33.5 -32 93.5q0 23 2 35l52 371h46l-52 -370q-2 -12 -2 -33q0 -90 83 -90q59 0 109 49t89 131l44 313h46l-74 -522h-37l16 145q-35 -72 -86 -114t-114 -42q-58 0 -90 33.5zM439 776l17 -44l-201 -84l-13 27z" />
    <glyph glyph-name="ucircumflex" unicode="&#xfb;" horiz-adv-x="577" 
d="M119 22.5q-32 33.5 -32 93.5q0 23 2 35l52 371h46l-52 -370q-2 -12 -2 -33q0 -90 83 -90q59 0 109 49t89 131l44 313h46l-74 -522h-37l16 145q-35 -72 -86 -114t-114 -42q-58 0 -90 33.5zM222 647l-21 25l142 103h27l113 -103l-23 -25l-108 84z" />
    <glyph glyph-name="udieresis" unicode="&#xfc;" horiz-adv-x="577" 
d="M119 22.5q-32 33.5 -32 93.5q0 23 2 35l52 371h46l-52 -370q-2 -12 -2 -33q0 -90 83 -90q59 0 109 49t89 131l44 313h46l-74 -522h-37l16 145q-35 -72 -86 -114t-114 -42q-58 0 -90 33.5zM231.5 674q-8.5 8 -8.5 21q0 16 10.5 26.5t26.5 10.5q14 0 22.5 -8t8.5 -21
q0 -16 -11 -26.5t-27 -10.5q-13 0 -21.5 8zM412.5 674q-8.5 8 -8.5 21q0 16 10.5 26.5t26.5 10.5q14 0 22.5 -8t8.5 -21q0 -16 -10.5 -26.5t-26.5 -10.5q-14 0 -22.5 8z" />
    <glyph glyph-name="yacute" unicode="&#xfd;" horiz-adv-x="458" 
d="M226 -4q-42 -89 -91.5 -133t-139.5 -64l-3 37q54 14 86 33.5t53.5 48.5t49.5 82h-18l-109 522h49l96 -487l229 487h50zM376 776l17 -44l-201 -84l-13 27z" />
    <glyph glyph-name="thorn" unicode="&#xfe;" horiz-adv-x="569" 
d="M468 482q40 -50 40 -145q0 -80 -26 -159.5t-85 -134t-153 -54.5q-67 0 -124 25l-29 -211l-47 -7l132 939l47 6l-41 -290q76 81 169 81q77 0 117 -50zM370.5 78.5q48.5 49.5 69.5 121t21 140.5q0 153 -118 153q-49 0 -88.5 -23.5t-79.5 -69.5l-48 -348q30 -11 56.5 -17
t61.5 -6q77 0 125.5 49.5z" />
    <glyph glyph-name="ydieresis" unicode="&#xff;" horiz-adv-x="458" 
d="M226 -4q-42 -89 -91.5 -133t-139.5 -64l-3 37q54 14 86 33.5t53.5 48.5t49.5 82h-18l-109 522h49l96 -487l229 487h50zM168.5 674q-8.5 8 -8.5 21q0 16 10.5 26.5t26.5 10.5q14 0 22.5 -8t8.5 -21q0 -16 -11 -26.5t-27 -10.5q-13 0 -21.5 8zM349.5 674q-8.5 8 -8.5 21
q0 16 10.5 26.5t26.5 10.5q14 0 22.5 -8t8.5 -21q0 -16 -10.5 -26.5t-26.5 -10.5q-14 0 -22.5 8z" />
    <glyph glyph-name="Amacron" unicode="&#x100;" 
d="M454 0l-36 192h-296l-90 -192h-49l327 684h59l134 -684h-49zM142 234h268l-76 411zM471 805h-229l7 39h228z" />
    <glyph glyph-name="amacron" unicode="&#x101;" horiz-adv-x="556" 
d="M410.5 521.5q36.5 -10.5 76.5 -31.5l-55 -378q-3 -19 -3 -34q0 -21 7.5 -34.5t26.5 -20.5l-13 -34q-31 9 -47 27t-16 55l1 15q-31 -45 -72.5 -71t-90.5 -26q-77 0 -120.5 54t-43.5 149q0 78 27.5 156.5t87 131t150.5 52.5q48 0 84.5 -10.5zM203.5 447
q-48.5 -47 -71 -116.5t-22.5 -137.5q0 -80 31.5 -122t88.5 -42q48 0 87.5 29.5t74.5 86.5l46 322q-48 27 -111 27q-75 0 -123.5 -47zM474 679h-229l7 39h228z" />
    <glyph glyph-name="Abreve" unicode="&#x102;" 
d="M454 0l-36 192h-296l-90 -192h-49l327 684h59l134 -684h-49zM142 234h268l-76 411zM271 794q-31 27 -33 67l32 4q5 -27 26 -42.5t54 -15.5q35 0 61.5 16.5t39.5 44.5l32 -10q-12 -40 -49 -65.5t-84 -25.5q-48 0 -79 27z" />
    <glyph glyph-name="abreve" unicode="&#x103;" horiz-adv-x="556" 
d="M410.5 521.5q36.5 -10.5 76.5 -31.5l-55 -378q-3 -19 -3 -34q0 -21 7.5 -34.5t26.5 -20.5l-13 -34q-31 9 -47 27t-16 55l1 15q-31 -45 -72.5 -71t-90.5 -26q-77 0 -120.5 54t-43.5 149q0 78 27.5 156.5t87 131t150.5 52.5q48 0 84.5 -10.5zM203.5 447
q-48.5 -47 -71 -116.5t-22.5 -137.5q0 -80 31.5 -122t88.5 -42q48 0 87.5 29.5t74.5 86.5l46 322q-48 27 -111 27q-75 0 -123.5 -47zM276.5 685q-30.5 29 -30.5 76l33 4q9 -69 77 -69q36 0 63 18.5t41 52.5l31 -9q-13 -46 -50 -74t-85 -28q-49 0 -79.5 29z" />
    <glyph glyph-name="Aogonek" unicode="&#x104;" 
d="M386.5 -59.5q-33.5 -28.5 -33.5 -64.5q0 -48 58 -48q24 0 57 6l-8 -41q-30 -6 -55 -6q-47 0 -72 21.5t-25 55.5q0 48 34 82.5t110 64.5l-34 181h-296l-90 -192h-49l327 684h59l134 -684h-10q-73 -31 -106.5 -59.5zM142 234h268l-76 411z" />
    <glyph glyph-name="aogonek" unicode="&#x105;" horiz-adv-x="556" 
d="M429 78q0 -21 7.5 -34.5t26.5 -20.5l-13 -34h-1v0q-73 -31 -106.5 -59.5t-33.5 -64.5q0 -48 58 -48q24 0 57 6l-8 -41q-30 -6 -55 -6q-47 0 -72 21.5t-25 55.5q0 50 36 85t118 65q-31 21 -31 67q0 10 1 16q-31 -45 -72.5 -71t-90.5 -26q-77 0 -120.5 54t-43.5 149
q0 78 27.5 156.5t87 131t150.5 52.5q48 0 84.5 -10.5t76.5 -31.5l-55 -378q-3 -19 -3 -34zM438 467q-48 27 -111 27q-75 0 -123.5 -47t-71 -116.5t-22.5 -137.5q0 -80 31.5 -122t88.5 -42q48 0 87.5 29.5t74.5 86.5z" />
    <glyph glyph-name="Cacute" unicode="&#x106;" horiz-adv-x="545" 
d="M493.5 678.5q38.5 -15.5 71.5 -46.5l-28 -29q-32 27 -62.5 38.5t-72.5 11.5q-97 0 -159.5 -61t-90.5 -151.5t-28 -180.5q0 -112 50 -169.5t134 -57.5q50 0 86.5 14.5t74.5 43.5l25 -35q-85 -67 -189 -67q-105 0 -167.5 71t-62.5 201q0 100 34 199.5t107.5 166.5t184.5 67
q54 0 92.5 -15.5zM498 878l16 -44l-201 -75l-11 28z" />
    <glyph glyph-name="cacute" unicode="&#x107;" horiz-adv-x="465" 
d="M457 480l-27 -29q-23 21 -49.5 31.5t-61.5 10.5q-73 0 -120 -46.5t-68 -115t-21 -134.5q0 -83 37 -124.5t103 -41.5t131 45l21 -33q-70 -54 -154 -54q-86 0 -136 55t-50 155q0 75 27 152t85 129t146 52q84 0 137 -52zM440 776l17 -44l-201 -84l-13 27z" />
    <glyph glyph-name="Ccircumflex" unicode="&#x108;" horiz-adv-x="545" 
d="M493.5 678.5q38.5 -15.5 71.5 -46.5l-28 -29q-32 27 -62.5 38.5t-72.5 11.5q-97 0 -159.5 -61t-90.5 -151.5t-28 -180.5q0 -112 50 -169.5t134 -57.5q50 0 86.5 14.5t74.5 43.5l25 -35q-85 -67 -189 -67q-105 0 -167.5 71t-62.5 201q0 100 34 199.5t107.5 166.5t184.5 67
q54 0 92.5 -15.5zM289 763l-19 26l140 98h27l113 -99l-22 -25l-108 80z" />
    <glyph glyph-name="ccircumflex" unicode="&#x109;" horiz-adv-x="465" 
d="M457 480l-27 -29q-23 21 -49.5 31.5t-61.5 10.5q-73 0 -120 -46.5t-68 -115t-21 -134.5q0 -83 37 -124.5t103 -41.5t131 45l21 -33q-70 -54 -154 -54q-86 0 -136 55t-50 155q0 75 27 152t85 129t146 52q84 0 137 -52zM223 647l-21 25l142 103h27l113 -103l-23 -25
l-108 84z" />
    <glyph glyph-name="Cdotaccent" unicode="&#x10a;" horiz-adv-x="545" 
d="M493.5 678.5q38.5 -15.5 71.5 -46.5l-28 -29q-32 27 -62.5 38.5t-72.5 11.5q-97 0 -159.5 -61t-90.5 -151.5t-28 -180.5q0 -112 50 -169.5t134 -57.5q50 0 86.5 14.5t74.5 43.5l25 -35q-85 -67 -189 -67q-105 0 -167.5 71t-62.5 201q0 100 34 199.5t107.5 166.5t184.5 67
q54 0 92.5 -15.5zM397 808.5q-9 8.5 -9 22.5q0 17 11 28t28 11q15 0 23.5 -8.5t8.5 -22.5q0 -17 -11 -28t-27 -11q-15 0 -24 8.5z" />
    <glyph glyph-name="cdotaccent" unicode="&#x10b;" horiz-adv-x="465" 
d="M457 480l-27 -29q-23 21 -49.5 31.5t-61.5 10.5q-73 0 -120 -46.5t-68 -115t-21 -134.5q0 -83 37 -124.5t103 -41.5t131 45l21 -33q-70 -54 -154 -54q-86 0 -136 55t-50 155q0 75 27 152t85 129t146 52q84 0 137 -52zM324 682.5q-9 8.5 -9 22.5q0 17 11 28t28 11
q15 0 23.5 -8.5t8.5 -22.5q0 -17 -11 -28t-27 -11q-15 0 -24 8.5z" />
    <glyph glyph-name="Ccaron" unicode="&#x10c;" horiz-adv-x="545" 
d="M493.5 678.5q38.5 -15.5 71.5 -46.5l-28 -29q-32 27 -62.5 38.5t-72.5 11.5q-97 0 -159.5 -61t-90.5 -151.5t-28 -180.5q0 -112 50 -169.5t134 -57.5q50 0 86.5 14.5t74.5 43.5l25 -35q-85 -67 -189 -67q-105 0 -167.5 71t-62.5 201q0 100 34 199.5t107.5 166.5t184.5 67
q54 0 92.5 -15.5zM545 880l20 -25l-140 -98h-28l-114 98l23 24l110 -78z" />
    <glyph glyph-name="ccaron" unicode="&#x10d;" horiz-adv-x="465" 
d="M457 480l-27 -29q-23 21 -49.5 31.5t-61.5 10.5q-73 0 -120 -46.5t-68 -115t-21 -134.5q0 -83 37 -124.5t103 -41.5t131 45l21 -33q-70 -54 -154 -54q-86 0 -136 55t-50 155q0 75 27 152t85 129t146 52q84 0 137 -52zM474 764l20 -25l-141 -104h-28l-113 104l23 25
l108 -85z" />
    <glyph glyph-name="Dcaron" unicode="&#x10e;" horiz-adv-x="626" 
d="M500 628.5q74 -55.5 74 -199.5q0 -114 -35.5 -211t-115 -157.5t-204.5 -60.5h-142l97 684h131q121 0 195 -55.5zM215 643l-83 -602h94q107 0 174 56.5t96.5 144.5t29.5 188q0 125 -60.5 169t-160.5 44h-90zM501 880l20 -25l-140 -98h-28l-114 98l23 24l110 -78z" />
    <glyph glyph-name="dcaron" unicode="&#x10f;" horiz-adv-x="574" 
d="M532 735l-104 -735h-39l9 113q-71 -124 -178 -124q-74 0 -116.5 54.5t-42.5 150.5q0 76 25 154t80 131t140 53q94 0 140 -74l40 283zM196.5 446q-45.5 -47 -66 -116t-20.5 -137q0 -79 30.5 -121.5t85.5 -42.5q56 0 97 38t85 113l32 232q-43 81 -128 81q-70 0 -115.5 -47z
M613 740l46 -6l-56 -157l-29 5z" />
    <glyph glyph-name="Dcroat" unicode="&#x110;" horiz-adv-x="630" 
d="M503 628.5q74 -55.5 74 -199.5q0 -114 -35.5 -211t-115 -157.5t-204.5 -60.5h-142l47 333h-85l5 40h86l44 311h131q121 0 195 -55.5zM403 97.5q67 56.5 96.5 144.5t29.5 188q0 125 -60.5 169t-160.5 44h-90l-37 -270h185l-5 -40h-186l-40 -292h94q107 0 174 56.5z" />
    <glyph glyph-name="dcroat" unicode="&#x111;" horiz-adv-x="581" 
d="M591 620h-75l-88 -620h-39l9 113q-71 -124 -178 -124q-74 0 -116.5 54.5t-42.5 150.5q0 76 25 154t80 131t140 53q94 0 140 -74l23 162h-163v38h168l12 83l46 -6l-11 -77h76zM440 412q-43 81 -128 81q-70 0 -115.5 -47t-66 -116t-20.5 -137q0 -79 30.5 -121.5t85.5 -42.5
q56 0 97 38t85 113z" />
    <glyph glyph-name="Emacron" unicode="&#x112;" horiz-adv-x="502" 
d="M512 684l-12 -41h-285l-37 -266h247l-6 -41h-246l-42 -295h298l-7 -41h-345l97 684h338zM478 805h-229l7 39h228z" />
    <glyph glyph-name="emacron" unicode="&#x113;" horiz-adv-x="512" 
d="M382.5 268.5q-95.5 -47.5 -272.5 -59.5v-10q0 -86 37.5 -127.5t102.5 -41.5q42 0 76.5 13t73.5 41l22 -33q-42 -31 -84 -46.5t-90 -15.5q-88 0 -137 54.5t-49 154.5q0 79 29 156t88.5 127.5t147.5 50.5q70 0 110.5 -34.5t40.5 -88.5q0 -93 -95.5 -140.5zM216.5 457.5
q-45.5 -35.5 -71 -91.5t-32.5 -119q159 11 238 50t79 110q0 38 -26 62t-77 24q-65 0 -110.5 -35.5zM448 679h-229l7 39h228z" />
    <glyph glyph-name="Ebreve" unicode="&#x114;" horiz-adv-x="502" 
d="M512 684l-12 -41h-285l-37 -266h247l-6 -41h-246l-42 -295h298l-7 -41h-345l97 684h338zM278 794q-31 27 -33 67l32 4q5 -27 26 -42.5t54 -15.5q35 0 61.5 16.5t39.5 44.5l32 -10q-12 -40 -49 -65.5t-84 -25.5q-48 0 -79 27z" />
    <glyph glyph-name="ebreve" unicode="&#x115;" horiz-adv-x="512" 
d="M382.5 268.5q-95.5 -47.5 -272.5 -59.5v-10q0 -86 37.5 -127.5t102.5 -41.5q42 0 76.5 13t73.5 41l22 -33q-42 -31 -84 -46.5t-90 -15.5q-88 0 -137 54.5t-49 154.5q0 79 29 156t88.5 127.5t147.5 50.5q70 0 110.5 -34.5t40.5 -88.5q0 -93 -95.5 -140.5zM216.5 457.5
q-45.5 -35.5 -71 -91.5t-32.5 -119q159 11 238 50t79 110q0 38 -26 62t-77 24q-65 0 -110.5 -35.5zM250.5 685q-30.5 29 -30.5 76l33 4q9 -69 77 -69q36 0 63 18.5t41 52.5l31 -9q-13 -46 -50 -74t-85 -28q-49 0 -79.5 29z" />
    <glyph glyph-name="Edotaccent" unicode="&#x116;" horiz-adv-x="502" 
d="M512 684l-12 -41h-285l-37 -266h247l-6 -41h-246l-42 -295h298l-7 -41h-345l97 684h338zM343 808.5q-9 8.5 -9 22.5q0 17 11 28t28 11q15 0 23.5 -8.5t8.5 -22.5q0 -17 -11 -28t-27 -11q-15 0 -24 8.5z" />
    <glyph glyph-name="edotaccent" unicode="&#x117;" horiz-adv-x="512" 
d="M382.5 268.5q-95.5 -47.5 -272.5 -59.5v-10q0 -86 37.5 -127.5t102.5 -41.5q42 0 76.5 13t73.5 41l22 -33q-42 -31 -84 -46.5t-90 -15.5q-88 0 -137 54.5t-49 154.5q0 79 29 156t88.5 127.5t147.5 50.5q70 0 110.5 -34.5t40.5 -88.5q0 -93 -95.5 -140.5zM216.5 457.5
q-45.5 -35.5 -71 -91.5t-32.5 -119q159 11 238 50t79 110q0 38 -26 62t-77 24q-65 0 -110.5 -35.5zM312 682.5q-9 8.5 -9 22.5q0 17 11 28t28 11q15 0 23.5 -8.5t8.5 -22.5q0 -17 -11 -28t-27 -11q-15 0 -24 8.5z" />
    <glyph glyph-name="Eogonek" unicode="&#x118;" horiz-adv-x="502" 
d="M215 643l-37 -266h247l-6 -41h-246l-42 -295h298l-7 -41h-28q-73 -31 -106.5 -59.5t-33.5 -64.5q0 -48 58 -48q24 0 57 6l-8 -41q-30 -6 -55 -6q-47 0 -72 21.5t-25 55.5q0 44 28 76t91 60h-251l97 684h338l-12 -41h-285z" />
    <glyph glyph-name="eogonek" unicode="&#x119;" horiz-adv-x="512" 
d="M382.5 268.5q-95.5 -47.5 -272.5 -59.5v-10q0 -86 37.5 -127.5t102.5 -41.5q42 0 76.5 13t73.5 41l22 -33q-53 -38 -95 -50q-60 -28 -86 -53.5t-26 -61.5q0 -25 16.5 -39t50.5 -14q22 0 55 6l-5 -41q-30 -6 -56 -6q-52 0 -79.5 25t-27.5 64q0 66 81 108h-2
q-88 0 -137 54.5t-49 154.5q0 79 29 156t88.5 127.5t147.5 50.5q70 0 110.5 -34.5t40.5 -88.5q0 -93 -95.5 -140.5zM216.5 457.5q-45.5 -35.5 -71 -91.5t-32.5 -119q159 11 238 50t79 110q0 38 -26 62t-77 24q-65 0 -110.5 -35.5z" />
    <glyph glyph-name="Ecaron" unicode="&#x11a;" horiz-adv-x="502" 
d="M512 684l-12 -41h-285l-37 -266h247l-6 -41h-246l-42 -295h298l-7 -41h-345l97 684h338zM491 880l20 -25l-140 -98h-28l-114 98l23 24l110 -78z" />
    <glyph glyph-name="ecaron" unicode="&#x11b;" horiz-adv-x="512" 
d="M382.5 268.5q-95.5 -47.5 -272.5 -59.5v-10q0 -86 37.5 -127.5t102.5 -41.5q42 0 76.5 13t73.5 41l22 -33q-42 -31 -84 -46.5t-90 -15.5q-88 0 -137 54.5t-49 154.5q0 79 29 156t88.5 127.5t147.5 50.5q70 0 110.5 -34.5t40.5 -88.5q0 -93 -95.5 -140.5zM216.5 457.5
q-45.5 -35.5 -71 -91.5t-32.5 -119q159 11 238 50t79 110q0 38 -26 62t-77 24q-65 0 -110.5 -35.5zM462 764l20 -25l-141 -104h-28l-113 104l23 25l108 -85z" />
    <glyph glyph-name="Gcircumflex" unicode="&#x11c;" horiz-adv-x="612" 
d="M503 678q43 -16 80 -49l-31 -28q-33 27 -67 39.5t-79 12.5q-92 0 -155.5 -58.5t-95 -150t-31.5 -189.5q0 -112 50.5 -168t141.5 -56q82 0 153 38l37 254h-137v42h190l-45 -321q-97 -55 -202 -55q-111 0 -174 69.5t-63 201.5q0 106 37.5 206t112.5 164t181 64q54 0 97 -16
zM296 763l-19 26l140 98h27l113 -99l-22 -25l-108 80z" />
    <glyph glyph-name="gcircumflex" unicode="&#x11d;" horiz-adv-x="563" 
d="M414 521.5q37 -10.5 77 -31.5l-71 -488q-16 -109 -71.5 -157t-139.5 -48q-87 0 -170 48l19 34q36 -20 72 -31.5t78 -11.5q65 0 109.5 38t56.5 125l14 95q-30 -44 -71.5 -69t-89.5 -25q-77 0 -121 55t-44 149q0 75 28 150.5t88 126.5t150 51q49 0 86 -10.5zM205 448
q-49 -46 -72 -113.5t-22 -133.5q0 -77 32 -119t89 -42q94 0 164 114l45 313q-48 27 -112 27q-75 0 -124 -46zM219 647l-21 25l142 103h27l113 -103l-23 -25l-108 84z" />
    <glyph glyph-name="Gbreve" unicode="&#x11e;" horiz-adv-x="612" 
d="M503 678q43 -16 80 -49l-31 -28q-33 27 -67 39.5t-79 12.5q-92 0 -155.5 -58.5t-95 -150t-31.5 -189.5q0 -112 50.5 -168t141.5 -56q82 0 153 38l37 254h-137v42h190l-45 -321q-97 -55 -202 -55q-111 0 -174 69.5t-63 201.5q0 106 37.5 206t112.5 164t181 64q54 0 97 -16
zM339 794q-31 27 -33 67l32 4q5 -27 26 -42.5t54 -15.5q35 0 61.5 16.5t39.5 44.5l32 -10q-12 -40 -49 -65.5t-84 -25.5q-48 0 -79 27z" />
    <glyph glyph-name="gbreve" unicode="&#x11f;" horiz-adv-x="563" 
d="M414 521.5q37 -10.5 77 -31.5l-71 -488q-16 -109 -71.5 -157t-139.5 -48q-87 0 -170 48l19 34q36 -20 72 -31.5t78 -11.5q65 0 109.5 38t56.5 125l14 95q-30 -44 -71.5 -69t-89.5 -25q-77 0 -121 55t-44 149q0 75 28 150.5t88 126.5t150 51q49 0 86 -10.5zM205 448
q-49 -46 -72 -113.5t-22 -133.5q0 -77 32 -119t89 -42q94 0 164 114l45 313q-48 27 -112 27q-75 0 -124 -46zM258.5 685q-30.5 29 -30.5 76l33 4q9 -69 77 -69q36 0 63 18.5t41 52.5l31 -9q-13 -46 -50 -74t-85 -28q-49 0 -79.5 29z" />
    <glyph glyph-name="Gdotaccent" unicode="&#x120;" horiz-adv-x="612" 
d="M503 678q43 -16 80 -49l-31 -28q-33 27 -67 39.5t-79 12.5q-92 0 -155.5 -58.5t-95 -150t-31.5 -189.5q0 -112 50.5 -168t141.5 -56q82 0 153 38l37 254h-137v42h190l-45 -321q-97 -55 -202 -55q-111 0 -174 69.5t-63 201.5q0 106 37.5 206t112.5 164t181 64q54 0 97 -16
zM404 808.5q-9 8.5 -9 22.5q0 17 11 28t28 11q15 0 23.5 -8.5t8.5 -22.5q0 -17 -11 -28t-27 -11q-15 0 -24 8.5z" />
    <glyph glyph-name="gdotaccent" unicode="&#x121;" horiz-adv-x="563" 
d="M414 521.5q37 -10.5 77 -31.5l-71 -488q-16 -109 -71.5 -157t-139.5 -48q-87 0 -170 48l19 34q36 -20 72 -31.5t78 -11.5q65 0 109.5 38t56.5 125l14 95q-30 -44 -71.5 -69t-89.5 -25q-77 0 -121 55t-44 149q0 75 28 150.5t88 126.5t150 51q49 0 86 -10.5zM205 448
q-49 -46 -72 -113.5t-22 -133.5q0 -77 32 -119t89 -42q94 0 164 114l45 313q-48 27 -112 27q-75 0 -124 -46zM320 682.5q-9 8.5 -9 22.5q0 17 11 28t28 11q15 0 23.5 -8.5t8.5 -22.5q0 -17 -11 -28t-27 -11q-15 0 -24 8.5z" />
    <glyph glyph-name="Gcommaaccent" unicode="&#x122;" horiz-adv-x="612" 
d="M503 678q43 -16 80 -49l-31 -28q-33 27 -67 39.5t-79 12.5q-92 0 -155.5 -58.5t-95 -150t-31.5 -189.5q0 -112 50.5 -168t141.5 -56q82 0 153 38l37 254h-137v42h190l-45 -321q-97 -55 -202 -55q-111 0 -174 69.5t-63 201.5q0 106 37.5 206t112.5 164t181 64q54 0 97 -16
zM318 -97q10 -10 10 -25q0 -13 -5.5 -25.5t-23.5 -41.5l-51 -84h-30l50 114q-9 5 -13.5 13.5t-4.5 17.5q0 17 11.5 29t30.5 12q16 0 26 -10z" />
    <glyph glyph-name="gcommaaccent" unicode="&#x123;" horiz-adv-x="563" 
d="M414 521.5q37 -10.5 77 -31.5l-71 -488q-16 -109 -71.5 -157t-139.5 -48q-87 0 -170 48l19 34q36 -20 72 -31.5t78 -11.5q65 0 109.5 38t56.5 125l14 95q-30 -44 -71.5 -69t-89.5 -25q-77 0 -121 55t-44 149q0 75 28 150.5t88 126.5t150 51q49 0 86 -10.5zM205 448
q-49 -46 -72 -113.5t-22 -133.5q0 -77 32 -119t89 -42q94 0 164 114l45 313q-48 27 -112 27q-75 0 -124 -46zM303 600q-10 10 -10 25q0 13 5.5 25.5t23.5 41.5l51 84h30l-50 -114q9 -5 13.5 -13.5t4.5 -17.5q0 -17 -12 -29t-30 -12q-16 0 -26 10z" />
    <glyph glyph-name="Hcircumflex" unicode="&#x124;" horiz-adv-x="665" 
d="M125 0h-48l97 684h47l-42 -303h341l42 303h48l-96 -684h-48l48 339h-341zM278 763l-19 26l140 98h27l113 -99l-22 -25l-108 80z" />
    <glyph glyph-name="hcircumflex" unicode="&#x125;" horiz-adv-x="582" 
d="M464 500q31 -32 31 -92q0 -17 -3 -38l-52 -370h-46l52 367q3 20 3 37q0 89 -83 89q-58 0 -108 -48t-96 -133l-44 -312h-46l104 735l47 6l-51 -357q39 70 91 109t110 39q60 0 91 -32zM249 814l-19 26l140 98h27l113 -99l-22 -25l-108 80z" />
    <glyph glyph-name="Hbar" unicode="&#x126;" horiz-adv-x="660" 
d="M653 551l-5 -36h-61l-72 -515h-48l48 339h-341l-48 -339h-48l73 515h-64l6 36h63l19 133h47l-18 -133h341l18 133h48l-19 -133h61zM521 381l19 134h-341l-19 -134h341z" />
    <glyph glyph-name="hbar" unicode="&#x127;" horiz-adv-x="588" 
d="M470 500q31 -32 31 -92q0 -17 -3 -38l-52 -370h-46l52 367q3 20 3 37q0 89 -83 89q-58 0 -108 -48t-96 -133l-44 -312h-46l88 620h-76l6 38h75l11 77l47 6l-12 -83h175l-12 -38h-168l-34 -236q39 70 91 109t110 39q60 0 91 -32z" />
    <glyph glyph-name="Itilde" unicode="&#x128;" horiz-adv-x="277" 
d="M221 684l-96 -684h-48l97 684h47zM243.5 802.5q-14.5 6.5 -34.5 18.5q-14 10 -24.5 14.5t-21.5 4.5q-19 0 -31.5 -8.5t-31.5 -31.5l-27 19q44 60 90 60q17 0 30.5 -6t32.5 -18q15 -10 26.5 -15.5t23.5 -5.5q16 0 30.5 10.5t32.5 33.5l28 -17q-41 -65 -90 -65
q-19 0 -33.5 6.5z" />
    <glyph glyph-name="itilde" unicode="&#x129;" horiz-adv-x="265" 
d="M192 522l-74 -522h-46l74 522h46zM219.5 676.5q-14.5 6.5 -34.5 18.5q-14 10 -24.5 14.5t-21.5 4.5q-19 0 -31.5 -8.5t-31.5 -31.5l-27 19q44 60 90 60q17 0 30.5 -6t32.5 -18q15 -10 26.5 -15.5t23.5 -5.5q16 0 30.5 10.5t32.5 33.5l28 -17q-41 -65 -90 -65
q-19 0 -33.5 6.5z" />
    <glyph glyph-name="Imacron" unicode="&#x12a;" horiz-adv-x="277" 
d="M221 684l-96 -684h-48l97 684h47zM329 805h-229l7 39h228z" />
    <glyph glyph-name="imacron" unicode="&#x12b;" horiz-adv-x="265" 
d="M192 522l-74 -522h-46l74 522h46zM305 679h-229l7 39h228z" />
    <glyph glyph-name="Ibreve" unicode="&#x12c;" horiz-adv-x="277" 
d="M221 684l-96 -684h-48l97 684h47zM129 794q-31 27 -33 67l32 4q5 -27 26 -42.5t54 -15.5q35 0 61.5 16.5t39.5 44.5l32 -10q-12 -40 -49 -65.5t-84 -25.5q-48 0 -79 27z" />
    <glyph glyph-name="ibreve" unicode="&#x12d;" horiz-adv-x="265" 
d="M192 522l-74 -522h-46l74 522h46zM107.5 685q-30.5 29 -30.5 76l33 4q9 -69 77 -69q36 0 63 18.5t41 52.5l31 -9q-13 -46 -50 -74t-85 -28q-49 0 -79.5 29z" />
    <glyph glyph-name="Iogonek" unicode="&#x12e;" horiz-adv-x="277" 
d="M221 684l-96 -684h-5q-73 -31 -106.5 -59.5t-33.5 -64.5q0 -48 58 -48q24 0 57 6l-8 -41q-30 -6 -55 -6q-47 0 -72 21.5t-25 55.5q0 48 33.5 82.5t109.5 63.5l96 674h47z" />
    <glyph glyph-name="iogonek" unicode="&#x12f;" horiz-adv-x="265" 
d="M222.5 735.5q8.5 -8.5 8.5 -22.5q0 -17 -11 -28t-27 -11q-15 0 -24 8.5t-9 22.5q0 17 11 28t28 11q15 0 23.5 -8.5zM146 522h46l-74 -522h-7q-73 -31 -106.5 -59.5t-33.5 -64.5q0 -48 58 -48q24 0 57 6l-8 -41q-30 -6 -55 -6q-47 0 -72 21.5t-25 55.5q0 49 34.5 83.5
t113.5 64.5z" />
    <glyph glyph-name="Idotaccent" unicode="&#x130;" horiz-adv-x="277" 
d="M221 684l-96 -684h-48l97 684h47zM194 808.5q-9 8.5 -9 22.5q0 17 11 28t28 11q15 0 23.5 -8.5t8.5 -22.5q0 -17 -11 -28t-27 -11q-15 0 -24 8.5z" />
    <glyph glyph-name="dotlessi" unicode="&#x131;" horiz-adv-x="265" 
d="M192 522l-74 -522h-46l74 522h46z" />
    <glyph glyph-name="IJ" unicode="&#x132;" horiz-adv-x="562" 
d="M221 684l-96 -684h-48l97 684h47zM429 89q-9 -58 -27 -93.5t-52 -60t-95 -48.5l-11 36q49 22 76 43t41 51t20 78l83 589h48z" />
    <glyph glyph-name="ij" unicode="&#x133;" horiz-adv-x="531" 
d="M192 522l-74 -522h-46l74 522h46zM169 682.5q-9 8.5 -9 22.5q0 17 11 28t28 11q15 0 23.5 -8.5t8.5 -22.5q0 -17 -11 -28t-27 -11q-15 0 -24 8.5zM214 -166q41 20 64.5 39.5t39 52.5t23.5 89l71 507h46l-72 -509q-9 -67 -28 -105.5t-48.5 -61.5t-82.5 -46zM435 682.5
q-9 8.5 -9 22.5q0 17 11 28t28 11q15 0 23.5 -8.5t8.5 -22.5q0 -17 -11 -28t-27 -11q-15 0 -24 8.5z" />
    <glyph glyph-name="Jcircumflex" unicode="&#x134;" horiz-adv-x="285" 
d="M152 89q-9 -58 -27 -93.5t-52 -60t-95 -48.5l-11 36q49 22 76 43t41 51t20 78l83 589h48zM97 763l-19 26l140 98h27l113 -99l-22 -25l-108 80z" />
    <glyph glyph-name="jcircumflex" unicode="&#x135;" horiz-adv-x="266" 
d="M-51 -166q41 20 64.5 39.5t39 52.5t23.5 89l71 507h46l-72 -509q-9 -67 -28 -105.5t-48.5 -61.5t-82.5 -46zM69 647l-21 25l142 103h27l113 -103l-23 -25l-108 84z" />
    <glyph glyph-name="Kcommaaccent" unicode="&#x136;" horiz-adv-x="531" 
d="M77 0l97 684h48l-97 -684h-48zM438 0l-257 367l335 317h58l-338 -319l258 -365h-56zM284 -97q10 -10 10 -25q0 -13 -5.5 -25.5t-23.5 -41.5l-51 -84h-30l50 114q-9 5 -13.5 13.5t-4.5 17.5q0 17 11.5 29t30.5 12q16 0 26 -10z" />
    <glyph glyph-name="kcommaaccent" unicode="&#x137;" horiz-adv-x="515" 
d="M172 381q42 78 93 114.5t108 36.5q53 0 85 -29t32 -80q0 -64 -45 -111.5t-131 -74.5l119 -237h-51l-124 253q183 50 183 167q0 74 -77 74q-57 0 -108.5 -50t-94.5 -143l-43 -301h-46l104 735l47 6zM256 -97q10 -10 10 -25q0 -13 -5.5 -25.5t-23.5 -41.5l-51 -84h-30
l50 114q-9 5 -13.5 13.5t-4.5 17.5q0 17 11.5 29t30.5 12q16 0 26 -10z" />
    <glyph glyph-name="kgreenlandic" unicode="&#x138;" horiz-adv-x="479" 
d="M192 522l-74 -522h-46l74 522h46zM481 522l-263 -248l212 -274h-54l-213 275l261 247h57z" />
    <glyph glyph-name="Lacute" unicode="&#x139;" horiz-adv-x="465" 
d="M221 684l-89 -640h286l-13 -44h-328l97 684h47zM295 878l16 -44l-201 -75l-11 28z" />
    <glyph glyph-name="lacute" unicode="&#x13a;" horiz-adv-x="280" 
d="M126 83q-1 -6 -1 -16q0 -19 8.5 -28t27.5 -9q17 0 39 8l11 -36q-28 -13 -56 -13q-36 0 -56 19t-20 57q0 6 2 24l91 646l46 6zM292 929l16 -44l-201 -75l-11 28z" />
    <glyph glyph-name="Lcommaaccent" unicode="&#x13b;" horiz-adv-x="465" 
d="M221 684l-89 -640h286l-13 -44h-328l97 684h47zM259 -97q10 -10 10 -25q0 -13 -5.5 -25.5t-23.5 -41.5l-51 -84h-30l50 114q-9 5 -13.5 13.5t-4.5 17.5q0 17 11.5 29t30.5 12q16 0 26 -10z" />
    <glyph glyph-name="lcommaaccent" unicode="&#x13c;" horiz-adv-x="280" 
d="M126 83q-1 -6 -1 -16q0 -19 8.5 -28t27.5 -9q17 0 39 8l11 -36q-28 -13 -56 -13q-36 0 -56 19t-20 57q0 6 2 24l91 646l46 6zM161 -97q10 -10 10 -25q0 -13 -5.5 -25.5t-23.5 -41.5l-51 -84h-30l50 114q-9 5 -13.5 13.5t-4.5 17.5q0 17 11.5 29t30.5 12q16 0 26 -10z" />
    <glyph glyph-name="Lcaron" unicode="&#x13d;" horiz-adv-x="465" 
d="M221 684l-89 -640h286l-13 -44h-328l97 684h47zM313 689l46 -6l-56 -157l-29 5z" />
    <glyph glyph-name="lcaron" unicode="&#x13e;" horiz-adv-x="280" 
d="M126 83q-1 -6 -1 -16q0 -19 8.5 -28t27.5 -9q17 0 39 8l11 -36q-28 -13 -56 -13q-36 0 -56 19t-20 57q0 6 2 24l91 646l46 6zM298 740l46 -6l-56 -157l-29 5z" />
    <glyph glyph-name="Ldot" unicode="&#x13f;" horiz-adv-x="465" 
d="M221 684l-89 -640h286l-13 -44h-328l97 684h47zM347 335.5q-9 8.5 -9 22.5q0 17 11 28t28 11q15 0 23.5 -8.5t8.5 -22.5q0 -17 -11 -28t-27 -11q-15 0 -24 8.5z" />
    <glyph glyph-name="ldot" unicode="&#x140;" horiz-adv-x="291" 
d="M126 83q-1 -6 -1 -16q0 -19 8.5 -28t27.5 -9q17 0 39 8l11 -36q-28 -13 -56 -13q-36 0 -56 19t-20 57q0 6 2 24l91 646l46 6zM259 348.5q-9 8.5 -9 22.5q0 17 11 28t28 11q15 0 23.5 -8.5t8.5 -22.5q0 -17 -11 -28t-27 -11q-15 0 -24 8.5z" />
    <glyph glyph-name="Lslash" unicode="&#x141;" horiz-adv-x="476" 
d="M143 44h286l-13 -44h-328l41 289l-70 -41l-19 33l96 55l49 348h47l-44 -317l201 116l18 -34l-226 -130z" />
    <glyph glyph-name="lslash" unicode="&#x142;" horiz-adv-x="286" 
d="M200 38l11 -36q-28 -13 -56 -13q-36 0 -56 19t-20 57q0 6 2 24l35 246l-59 -33l-15 33l80 46l50 354l46 6l-46 -332l107 61l14 -34l-128 -73l-39 -280q-1 -6 -1 -16q0 -19 8.5 -28t27.5 -9q17 0 39 8z" />
    <glyph glyph-name="Nacute" unicode="&#x143;" horiz-adv-x="667" 
d="M516 0h-60l-250 639q-3 -78 -26 -235l-57 -404h-46l97 684h61l250 -638q5 87 21 209l61 429h45zM498 878l16 -44l-201 -75l-11 28z" />
    <glyph glyph-name="nacute" unicode="&#x144;" horiz-adv-x="581" 
d="M463.5 499.5q31.5 -32.5 31.5 -92.5q0 -18 -3 -38l-52 -369h-46l52 367q3 20 3 35q0 91 -83 91q-106 0 -204 -181l-44 -312h-46l74 522h39l-15 -140q40 72 92.5 111t111.5 39q58 0 89.5 -32.5zM444 776l17 -44l-201 -84l-13 27z" />
    <glyph glyph-name="Ncommaaccent" unicode="&#x145;" horiz-adv-x="667" 
d="M516 0h-60l-250 639q-3 -78 -26 -235l-57 -404h-46l97 684h61l250 -638q5 87 21 209l61 429h45zM315 -97q10 -10 10 -25q0 -13 -5.5 -25.5t-23.5 -41.5l-51 -84h-30l50 114q-9 5 -13.5 13.5t-4.5 17.5q0 17 11.5 29t30.5 12q16 0 26 -10z" />
    <glyph glyph-name="ncommaaccent" unicode="&#x146;" horiz-adv-x="581" 
d="M463.5 499.5q31.5 -32.5 31.5 -92.5q0 -18 -3 -38l-52 -369h-46l52 367q3 20 3 35q0 91 -83 91q-106 0 -204 -181l-44 -312h-46l74 522h39l-15 -140q40 72 92.5 111t111.5 39q58 0 89.5 -32.5zM269 -97q10 -10 10 -25q0 -13 -5.5 -25.5t-23.5 -41.5l-51 -84h-30l50 114
q-9 5 -13.5 13.5t-4.5 17.5q0 17 11.5 29t30.5 12q16 0 26 -10z" />
    <glyph glyph-name="Ncaron" unicode="&#x147;" horiz-adv-x="667" 
d="M516 0h-60l-250 639q-3 -78 -26 -235l-57 -404h-46l97 684h61l250 -638q5 87 21 209l61 429h45zM545 880l20 -25l-140 -98h-28l-114 98l23 24l110 -78z" />
    <glyph glyph-name="ncaron" unicode="&#x148;" horiz-adv-x="581" 
d="M463.5 499.5q31.5 -32.5 31.5 -92.5q0 -18 -3 -38l-52 -369h-46l52 367q3 20 3 35q0 91 -83 91q-106 0 -204 -181l-44 -312h-46l74 522h39l-15 -140q40 72 92.5 111t111.5 39q58 0 89.5 -32.5zM478 764l20 -25l-141 -104h-28l-113 104l23 25l108 -85z" />
    <glyph glyph-name="napostrophe" unicode="&#x149;" horiz-adv-x="658" 
d="M189 731q10 -11 8 -26q0 -13 -5 -24t-21 -40l-50 -89h-29l47 118q-19 12 -19 31q0 18 11.5 29.5t29.5 11.5t28 -11zM539.5 499.5q31.5 -32.5 31.5 -92.5q0 -18 -3 -38l-52 -369h-46l52 367q3 20 3 35q0 91 -83 91q-106 0 -204 -181l-44 -312h-46l74 522h39l-15 -140
q40 72 92.5 111t111.5 39q58 0 89.5 -32.5z" />
    <glyph glyph-name="Eng" unicode="&#x14a;" horiz-adv-x="667" 
d="M612 684l-96 -684l-11 -77q-9 -63 -44.5 -94.5t-87.5 -31.5q-51 0 -94 34l23 30q16 -11 31.5 -17t38.5 -6q33 0 56 21t29 67l11 74h-12l-250 639q-3 -78 -26 -235l-57 -404h-46l97 684h61l250 -638q5 87 21 209l61 429h45z" />
    <glyph glyph-name="eng" unicode="&#x14b;" horiz-adv-x="581" 
d="M463.5 499.5q31.5 -32.5 31.5 -92.5q0 -18 -3 -38l-52 -369l-11 -77q-9 -62 -44.5 -94t-87.5 -32q-51 0 -94 34l23 29q16 -12 32 -17.5t38 -5.5q34 0 57 20.5t30 67.5l11 75l52 367q3 20 3 35q0 91 -83 91q-106 0 -204 -181l-44 -312h-46l74 522h39l-15 -140
q40 72 92.5 111t111.5 39q58 0 89.5 -32.5z" />
    <glyph glyph-name="Omacron" unicode="&#x14c;" horiz-adv-x="689" 
d="M575 624.5q62 -69.5 62 -199.5q0 -100 -32.5 -200t-106.5 -168t-189 -68q-109 0 -171.5 71t-62.5 201q0 97 33.5 196.5t107.5 168t188 68.5q109 0 171 -69.5zM241.5 590.5q-62.5 -62.5 -90 -153.5t-27.5 -178q0 -113 49.5 -170.5t136.5 -57.5q101 0 163.5 63t88.5 154
t26 179q0 113 -48.5 169.5t-137.5 56.5q-98 0 -160.5 -62.5zM536 805h-229l7 39h228z" />
    <glyph glyph-name="omacron" unicode="&#x14d;" horiz-adv-x="566" 
d="M111 44.5q-49 55.5 -49 154.5q0 75 26 151.5t84 129t148 52.5q88 0 136.5 -54t48.5 -153q0 -74 -25.5 -151.5t-83.5 -131t-149 -53.5q-87 0 -136 55.5zM369 77q47 47 67.5 115.5t20.5 134.5q0 81 -36 123.5t-102 42.5q-75 0 -121.5 -48t-67 -116t-20.5 -133
q0 -81 36 -123.5t102 -42.5q74 0 121 47zM457 679h-229l7 39h228z" />
    <glyph glyph-name="Obreve" unicode="&#x14e;" horiz-adv-x="689" 
d="M575 624.5q62 -69.5 62 -199.5q0 -100 -32.5 -200t-106.5 -168t-189 -68q-109 0 -171.5 71t-62.5 201q0 97 33.5 196.5t107.5 168t188 68.5q109 0 171 -69.5zM241.5 590.5q-62.5 -62.5 -90 -153.5t-27.5 -178q0 -113 49.5 -170.5t136.5 -57.5q101 0 163.5 63t88.5 154
t26 179q0 113 -48.5 169.5t-137.5 56.5q-98 0 -160.5 -62.5zM336 794q-31 27 -33 67l32 4q5 -27 26 -42.5t54 -15.5q35 0 61.5 16.5t39.5 44.5l32 -10q-12 -40 -49 -65.5t-84 -25.5q-48 0 -79 27z" />
    <glyph glyph-name="obreve" unicode="&#x14f;" horiz-adv-x="566" 
d="M111 44.5q-49 55.5 -49 154.5q0 75 26 151.5t84 129t148 52.5q88 0 136.5 -54t48.5 -153q0 -74 -25.5 -151.5t-83.5 -131t-149 -53.5q-87 0 -136 55.5zM369 77q47 47 67.5 115.5t20.5 134.5q0 81 -36 123.5t-102 42.5q-75 0 -121.5 -48t-67 -116t-20.5 -133
q0 -81 36 -123.5t102 -42.5q74 0 121 47zM259.5 685q-30.5 29 -30.5 76l33 4q9 -69 77 -69q36 0 63 18.5t41 52.5l31 -9q-13 -46 -50 -74t-85 -28q-49 0 -79.5 29z" />
    <glyph glyph-name="Ohungarumlaut" unicode="&#x150;" horiz-adv-x="689" 
d="M575 624.5q62 -69.5 62 -199.5q0 -100 -32.5 -200t-106.5 -168t-189 -68q-109 0 -171.5 71t-62.5 201q0 97 33.5 196.5t107.5 168t188 68.5q109 0 171 -69.5zM241.5 590.5q-62.5 -62.5 -90 -153.5t-27.5 -178q0 -113 49.5 -170.5t136.5 -57.5q101 0 163.5 63t88.5 154
t26 179q0 113 -48.5 169.5t-137.5 56.5q-98 0 -160.5 -62.5zM549 930l40 -23l-106 -136l-30 15zM428 929l40 -22l-99 -132l-29 15z" />
    <glyph glyph-name="ohungarumlaut" unicode="&#x151;" horiz-adv-x="566" 
d="M111 44.5q-49 55.5 -49 154.5q0 75 26 151.5t84 129t148 52.5q88 0 136.5 -54t48.5 -153q0 -74 -25.5 -151.5t-83.5 -131t-149 -53.5q-87 0 -136 55.5zM369 77q47 47 67.5 115.5t20.5 134.5q0 81 -36 123.5t-102 42.5q-75 0 -121.5 -48t-67 -116t-20.5 -133
q0 -81 36 -123.5t102 -42.5q74 0 121 47zM472 804l40 -23l-106 -136l-30 15zM351 803l40 -22l-99 -132l-29 15z" />
    <glyph glyph-name="OE" unicode="&#x152;" horiz-adv-x="858" 
d="M856 643h-327q87 -67 87 -217q0 -15 -2 -49h166l-6 -41h-165q-13 -92 -52.5 -171t-107.5 -124h335l-7 -41h-410q-36 -11 -70 -11q-102 0 -162.5 71t-60.5 200q0 94 33.5 194.5t105 170t178.5 69.5q35 0 68 -10h408zM521 597q-47 56 -129 56q-93 0 -153.5 -63.5
t-87.5 -155.5t-27 -179q0 -109 47.5 -166.5t127.5 -57.5q96 0 156.5 65t86.5 157.5t26 179.5q0 108 -47 164z" />
    <glyph glyph-name="oe" unicode="&#x153;" horiz-adv-x="898" 
d="M768 268.5q-96 -47.5 -273 -59.5v-10q0 -86 37.5 -127.5t103.5 -41.5q42 0 76 13t74 41l22 -33q-43 -31 -84.5 -46.5t-89.5 -15.5q-141 0 -177 144q-31 -66 -83 -105t-127 -39q-87 0 -136 55.5t-49 154.5q0 75 26 151.5t84 129t148 52.5q141 0 174 -144q32 66 84.5 105
t128.5 39q73 0 115 -34.5t42 -88.5q0 -93 -96 -140.5zM369 77q47 47 67.5 115.5t20.5 134.5q0 81 -36 123.5t-102 42.5q-75 0 -121.5 -48t-67 -116t-20.5 -133q0 -81 36 -123.5t102 -42.5q74 0 121 47zM561.5 420.5q-52.5 -72.5 -63.5 -174.5q159 12 238.5 51t79.5 110
q0 38 -27.5 62t-81.5 24q-93 0 -145.5 -72.5z" />
    <glyph glyph-name="Racute" unicode="&#x154;" horiz-adv-x="583" 
d="M502.5 396.5q-44.5 -57.5 -137.5 -77.5l145 -319h-53l-140 313h-148l-44 -313h-48l97 684h165q208 0 208 -157q0 -73 -44.5 -130.5zM299 353q105 0 151.5 51.5t46.5 122.5q0 59 -38.5 87.5t-123.5 28.5h-120l-41 -290h125zM448 878l16 -44l-201 -75l-11 28z" />
    <glyph glyph-name="racute" unicode="&#x155;" horiz-adv-x="368" 
d="M391 525l-13 -42q-22 6 -41 6q-57 0 -97 -46t-78 -138l-44 -305h-46l74 522h40l-16 -134q31 70 72.5 107t98.5 37q29 0 50 -7zM384 776l17 -44l-201 -84l-13 27z" />
    <glyph glyph-name="Rcommaaccent" unicode="&#x156;" horiz-adv-x="583" 
d="M502.5 396.5q-44.5 -57.5 -137.5 -77.5l145 -319h-53l-140 313h-148l-44 -313h-48l97 684h165q208 0 208 -157q0 -73 -44.5 -130.5zM299 353q105 0 151.5 51.5t46.5 122.5q0 59 -38.5 87.5t-123.5 28.5h-120l-41 -290h125zM286 -97q10 -10 10 -25q0 -13 -5.5 -25.5
t-23.5 -41.5l-51 -84h-30l50 114q-9 5 -13.5 13.5t-4.5 17.5q0 17 11.5 29t30.5 12q16 0 26 -10z" />
    <glyph glyph-name="rcommaaccent" unicode="&#x157;" horiz-adv-x="368" 
d="M391 525l-13 -42q-22 6 -41 6q-57 0 -97 -46t-78 -138l-44 -305h-46l74 522h40l-16 -134q31 70 72.5 107t98.5 37q29 0 50 -7zM107 -97q10 -10 10 -25q0 -13 -5.5 -25.5t-23.5 -41.5l-51 -84h-30l50 114q-9 5 -13.5 13.5t-4.5 17.5q0 17 11.5 29t30.5 12q16 0 26 -10z
" />
    <glyph glyph-name="Rcaron" unicode="&#x158;" horiz-adv-x="583" 
d="M502.5 396.5q-44.5 -57.5 -137.5 -77.5l145 -319h-53l-140 313h-148l-44 -313h-48l97 684h165q208 0 208 -157q0 -73 -44.5 -130.5zM299 353q105 0 151.5 51.5t46.5 122.5q0 59 -38.5 87.5t-123.5 28.5h-120l-41 -290h125zM495 880l20 -25l-140 -98h-28l-114 98l23 24
l110 -78z" />
    <glyph glyph-name="rcaron" unicode="&#x159;" horiz-adv-x="368" 
d="M391 525l-13 -42q-22 6 -41 6q-57 0 -97 -46t-78 -138l-44 -305h-46l74 522h40l-16 -134q31 70 72.5 107t98.5 37q29 0 50 -7zM418 764l20 -25l-141 -104h-28l-113 104l23 25l108 -85z" />
    <glyph glyph-name="Sacute" unicode="&#x15a;" horiz-adv-x="535" 
d="M426 675q44 -19 80 -56l-31 -29q-33 33 -68.5 48t-82.5 15q-76 0 -122.5 -37.5t-46.5 -97.5q0 -50 31.5 -78.5t110.5 -53.5q88 -28 130 -69.5t42 -113.5q0 -53 -26.5 -102t-82.5 -80.5t-139 -31.5q-66 0 -115.5 22.5t-88.5 64.5l32 29q34 -36 75 -55t97 -19q68 0 113 25
t65.5 64t20.5 82q0 54 -32.5 86.5t-110.5 59.5q-92 30 -131 67t-39 101q0 47 25.5 87.5t75 65.5t116.5 25q58 0 102 -19zM426 878l16 -44l-201 -75l-11 28z" />
    <glyph glyph-name="sacute" unicode="&#x15b;" horiz-adv-x="461" 
d="M344 518q38 -14 71 -43l-25 -28q-30 23 -61 34.5t-70 11.5q-59 0 -94.5 -25.5t-35.5 -70.5q0 -35 25.5 -58t91.5 -43q78 -25 112 -59.5t34 -89.5q0 -69 -52 -113.5t-146 -44.5q-60 0 -103 18.5t-78 50.5l27 28q34 -28 70 -42t83 -14q70 0 110.5 29.5t40.5 84.5
q0 43 -26 68t-97 47q-78 24 -108.5 56t-30.5 81q0 38 22 69t62 49t93 18q47 0 85 -14zM384 776l17 -44l-201 -84l-13 27z" />
    <glyph glyph-name="Scircumflex" unicode="&#x15c;" horiz-adv-x="535" 
d="M426 675q44 -19 80 -56l-31 -29q-33 33 -68.5 48t-82.5 15q-76 0 -122.5 -37.5t-46.5 -97.5q0 -50 31.5 -78.5t110.5 -53.5q88 -28 130 -69.5t42 -113.5q0 -53 -26.5 -102t-82.5 -80.5t-139 -31.5q-66 0 -115.5 22.5t-88.5 64.5l32 29q34 -36 75 -55t97 -19q68 0 113 25
t65.5 64t20.5 82q0 54 -32.5 86.5t-110.5 59.5q-92 30 -131 67t-39 101q0 47 25.5 87.5t75 65.5t116.5 25q58 0 102 -19zM217 763l-19 26l140 98h27l113 -99l-22 -25l-108 80z" />
    <glyph glyph-name="scircumflex" unicode="&#x15d;" horiz-adv-x="461" 
d="M344 518q38 -14 71 -43l-25 -28q-30 23 -61 34.5t-70 11.5q-59 0 -94.5 -25.5t-35.5 -70.5q0 -35 25.5 -58t91.5 -43q78 -25 112 -59.5t34 -89.5q0 -69 -52 -113.5t-146 -44.5q-60 0 -103 18.5t-78 50.5l27 28q34 -28 70 -42t83 -14q70 0 110.5 29.5t40.5 84.5
q0 43 -26 68t-97 47q-78 24 -108.5 56t-30.5 81q0 38 22 69t62 49t93 18q47 0 85 -14zM167 647l-21 25l142 103h27l113 -103l-23 -25l-108 84z" />
    <glyph glyph-name="Scedilla" unicode="&#x15e;" horiz-adv-x="535" 
d="M426 675q44 -19 80 -56l-31 -29q-33 33 -68.5 48t-82.5 15q-76 0 -122.5 -37.5t-46.5 -97.5q0 -50 31.5 -78.5t110.5 -53.5q88 -28 130 -69.5t42 -113.5q0 -51 -24.5 -98.5t-76.5 -79.5t-129 -36l-10 -56q84 -6 84 -70q0 -39 -30.5 -62.5t-77.5 -23.5q-45 0 -76 22l19 29
q24 -15 57 -15q29 0 47 12.5t18 36.5q0 23 -18 33t-64 10l17 84q-60 3 -105.5 25.5t-82.5 61.5l32 29q34 -36 75 -55t97 -19q68 0 113 25t65.5 64t20.5 82q0 54 -32.5 86.5t-110.5 59.5q-92 30 -131 67t-39 101q0 47 25.5 87.5t75 65.5t116.5 25q58 0 102 -19z" />
    <glyph glyph-name="scedilla" unicode="&#x15f;" horiz-adv-x="461" 
d="M358 236.5q34 -34.5 34 -89.5q0 -67 -49 -111t-138 -47l-10 -56q84 -6 84 -70q0 -39 -30.5 -62.5t-77.5 -23.5q-45 0 -76 22l19 29q24 -15 57 -15q29 0 47 12.5t18 36.5q0 23 -18 33t-64 10l18 85q-52 4 -90 21.5t-69 46.5l27 28q34 -28 70 -42t83 -14q70 0 110.5 29.5
t40.5 84.5q0 43 -26 68t-97 47q-78 24 -108.5 56t-30.5 81q0 38 22 69t62 49t93 18q47 0 85 -14t71 -43l-25 -28q-30 23 -61 34.5t-70 11.5q-59 0 -94.5 -25.5t-35.5 -70.5q0 -35 25.5 -58t91.5 -43q78 -25 112 -59.5z" />
    <glyph glyph-name="Scaron" unicode="&#x160;" horiz-adv-x="535" 
d="M426 675q44 -19 80 -56l-31 -29q-33 33 -68.5 48t-82.5 15q-76 0 -122.5 -37.5t-46.5 -97.5q0 -50 31.5 -78.5t110.5 -53.5q88 -28 130 -69.5t42 -113.5q0 -53 -26.5 -102t-82.5 -80.5t-139 -31.5q-66 0 -115.5 22.5t-88.5 64.5l32 29q34 -36 75 -55t97 -19q68 0 113 25
t65.5 64t20.5 82q0 54 -32.5 86.5t-110.5 59.5q-92 30 -131 67t-39 101q0 47 25.5 87.5t75 65.5t116.5 25q58 0 102 -19zM473 880l20 -25l-140 -98h-28l-114 98l23 24l110 -78z" />
    <glyph glyph-name="scaron" unicode="&#x161;" horiz-adv-x="461" 
d="M344 518q38 -14 71 -43l-25 -28q-30 23 -61 34.5t-70 11.5q-59 0 -94.5 -25.5t-35.5 -70.5q0 -35 25.5 -58t91.5 -43q78 -25 112 -59.5t34 -89.5q0 -69 -52 -113.5t-146 -44.5q-60 0 -103 18.5t-78 50.5l27 28q34 -28 70 -42t83 -14q70 0 110.5 29.5t40.5 84.5
q0 43 -26 68t-97 47q-78 24 -108.5 56t-30.5 81q0 38 22 69t62 49t93 18q47 0 85 -14zM418 764l20 -25l-141 -104h-28l-113 104l23 25l108 -85z" />
    <glyph glyph-name="uni0162" unicode="&#x162;" horiz-adv-x="486" 
d="M535 684l-12 -44h-203l-90 -640h-1l-10 -67q83 -6 83 -66q0 -38 -31.5 -64t-77.5 -26q-44 0 -75 22l19 29q24 -15 55 -15q27 0 46.5 13.5t19.5 37.5q0 22 -18 31.5t-64 9.5l21 95h-15l90 640h-204l6 44h461z" />
    <glyph glyph-name="uni0163" unicode="&#x163;" horiz-adv-x="333" 
d="M134 125q-2 -20 -2 -27q0 -68 67 -68q38 0 88 25l17 -34q-45 -28 -96 -31l-10 -57q84 -6 84 -70q0 -39 -30.5 -62.5t-77.5 -23.5q-45 0 -76 22l19 29q24 -15 57 -15q29 0 47 12.5t18 36.5q0 23 -18 33t-64 10l18 85q-42 5 -65.5 32t-23.5 73q0 19 2 29l51 359h-88l6 39
h88l27 128l36 4l-18 -132h137l-11 -39h-132z" />
    <glyph glyph-name="Tcaron" unicode="&#x164;" horiz-adv-x="486" 
d="M535 684l-12 -44h-203l-90 -640h-48l90 640h-204l6 44h461zM446 880l20 -25l-140 -98h-28l-114 98l23 24l110 -78z" />
    <glyph glyph-name="tcaron" unicode="&#x165;" horiz-adv-x="333" 
d="M134 125q-2 -20 -2 -27q0 -68 67 -68q38 0 88 25l17 -34q-53 -32 -110 -32q-50 0 -79 27.5t-29 78.5q0 19 2 29l51 359h-88l6 39h88l27 128l36 4l-18 -132h137l-11 -39h-132zM310 743l46 -6l-56 -157l-29 5z" />
    <glyph glyph-name="Tbar" unicode="&#x166;" horiz-adv-x="486" 
d="M523 640h-203l-36 -256h121l-5 -39h-121l-49 -345h-48l49 345h-122l5 39h122l36 256h-204l6 44h461z" />
    <glyph glyph-name="tbar" unicode="&#x167;" horiz-adv-x="333" 
d="M184 483l-19 -136h131l-12 -38h-124l-26 -184q-2 -20 -2 -27q0 -68 67 -68q38 0 88 25l17 -34q-53 -32 -110 -32q-50 0 -79 27.5t-29 78.5q0 19 2 29l26 185h-80l5 38h80l20 136h-88l6 39h88l27 128l36 4l-18 -132h137l-11 -39h-132z" />
    <glyph glyph-name="Utilde" unicode="&#x168;" horiz-adv-x="647" 
d="M535 210q-14 -101 -77 -161t-170 -60q-97 0 -145.5 47.5t-48.5 130.5q0 14 4 46l66 471h47l-65 -470q-3 -24 -3 -44q0 -66 36 -102t110 -36q88 0 137.5 49.5t61.5 135.5l66 467h47zM428.5 802.5q-14.5 6.5 -34.5 18.5q-14 10 -24.5 14.5t-21.5 4.5q-19 0 -31.5 -8.5
t-31.5 -31.5l-27 19q44 60 90 60q17 0 30.5 -6t32.5 -18q15 -10 26.5 -15.5t23.5 -5.5q16 0 30.5 10.5t32.5 33.5l28 -17q-41 -65 -90 -65q-19 0 -33.5 6.5z" />
    <glyph glyph-name="utilde" unicode="&#x169;" horiz-adv-x="577" 
d="M119 22.5q-32 33.5 -32 93.5q0 23 2 35l52 371h46l-52 -370q-2 -12 -2 -33q0 -90 83 -90q59 0 109 49t89 131l44 313h46l-74 -522h-37l16 145q-35 -72 -86 -114t-114 -42q-58 0 -90 33.5zM373.5 676.5q-14.5 6.5 -34.5 18.5q-14 10 -24.5 14.5t-21.5 4.5
q-19 0 -31.5 -8.5t-31.5 -31.5l-27 19q44 60 90 60q17 0 30.5 -6t32.5 -18q15 -10 26.5 -15.5t23.5 -5.5q16 0 30.5 10.5t32.5 33.5l28 -17q-41 -65 -90 -65q-19 0 -33.5 6.5z" />
    <glyph glyph-name="Umacron" unicode="&#x16a;" horiz-adv-x="647" 
d="M535 210q-14 -101 -77 -161t-170 -60q-97 0 -145.5 47.5t-48.5 130.5q0 14 4 46l66 471h47l-65 -470q-3 -24 -3 -44q0 -66 36 -102t110 -36q88 0 137.5 49.5t61.5 135.5l66 467h47zM514 805h-229l7 39h228z" />
    <glyph glyph-name="umacron" unicode="&#x16b;" horiz-adv-x="577" 
d="M119 22.5q-32 33.5 -32 93.5q0 23 2 35l52 371h46l-52 -370q-2 -12 -2 -33q0 -90 83 -90q59 0 109 49t89 131l44 313h46l-74 -522h-37l16 145q-35 -72 -86 -114t-114 -42q-58 0 -90 33.5zM459 679h-229l7 39h228z" />
    <glyph glyph-name="Ubreve" unicode="&#x16c;" horiz-adv-x="647" 
d="M535 210q-14 -101 -77 -161t-170 -60q-97 0 -145.5 47.5t-48.5 130.5q0 14 4 46l66 471h47l-65 -470q-3 -24 -3 -44q0 -66 36 -102t110 -36q88 0 137.5 49.5t61.5 135.5l66 467h47zM314 794q-31 27 -33 67l32 4q5 -27 26 -42.5t54 -15.5q35 0 61.5 16.5t39.5 44.5l32 -10
q-12 -40 -49 -65.5t-84 -25.5q-48 0 -79 27z" />
    <glyph glyph-name="ubreve" unicode="&#x16d;" horiz-adv-x="577" 
d="M119 22.5q-32 33.5 -32 93.5q0 23 2 35l52 371h46l-52 -370q-2 -12 -2 -33q0 -90 83 -90q59 0 109 49t89 131l44 313h46l-74 -522h-37l16 145q-35 -72 -86 -114t-114 -42q-58 0 -90 33.5zM261.5 685q-30.5 29 -30.5 76l33 4q9 -69 77 -69q36 0 63 18.5t41 52.5l31 -9
q-13 -46 -50 -74t-85 -28q-49 0 -79.5 29z" />
    <glyph glyph-name="Uring" unicode="&#x16e;" horiz-adv-x="647" 
d="M535 210q-14 -101 -77 -161t-170 -60q-97 0 -145.5 47.5t-48.5 130.5q0 14 4 46l66 471h47l-65 -470q-3 -24 -3 -44q0 -66 36 -102t110 -36q88 0 137.5 49.5t61.5 135.5l66 467h47zM479 919q23 -22 23 -56q0 -44 -30 -72.5t-74 -28.5q-38 0 -61 22.5t-23 56.5q0 44 30 72
t74 28q38 0 61 -22zM369 891q-18 -20 -18 -50q0 -22 12.5 -35t35.5 -13q31 0 48.5 20.5t17.5 48.5q0 23 -12.5 36t-35.5 13q-30 0 -48 -20z" />
    <glyph glyph-name="uring" unicode="&#x16f;" horiz-adv-x="577" 
d="M119 22.5q-32 33.5 -32 93.5q0 23 2 35l52 371h46l-52 -370q-2 -12 -2 -33q0 -90 83 -90q59 0 109 49t89 131l44 313h46l-74 -522h-37l16 145q-35 -72 -86 -114t-114 -42q-58 0 -90 33.5zM423 793q23 -22 23 -56q0 -44 -30 -72.5t-74 -28.5q-38 0 -61 22.5t-23 56.5
q0 44 30 72t74 28q38 0 61 -22zM313 765q-18 -20 -18 -50q0 -22 12.5 -35t35.5 -13q31 0 48.5 20.5t17.5 48.5q0 23 -12.5 36t-35.5 13q-30 0 -48 -20z" />
    <glyph glyph-name="Uhungarumlaut" unicode="&#x170;" horiz-adv-x="647" 
d="M535 210q-14 -101 -77 -161t-170 -60q-97 0 -145.5 47.5t-48.5 130.5q0 14 4 46l66 471h47l-65 -470q-3 -24 -3 -44q0 -66 36 -102t110 -36q88 0 137.5 49.5t61.5 135.5l66 467h47zM527 930l40 -23l-106 -136l-30 15zM406 929l40 -22l-99 -132l-29 15z" />
    <glyph glyph-name="uhungarumlaut" unicode="&#x171;" horiz-adv-x="577" 
d="M119 22.5q-32 33.5 -32 93.5q0 23 2 35l52 371h46l-52 -370q-2 -12 -2 -33q0 -90 83 -90q59 0 109 49t89 131l44 313h46l-74 -522h-37l16 145q-35 -72 -86 -114t-114 -42q-58 0 -90 33.5zM474 804l40 -23l-106 -136l-30 15zM353 803l40 -22l-99 -132l-29 15z" />
    <glyph glyph-name="Uogonek" unicode="&#x172;" horiz-adv-x="647" 
d="M601 684l-66 -474q-12 -84 -57 -140t-122 -74q-60 -28 -86.5 -54t-26.5 -61q0 -25 16.5 -39t50.5 -14q22 0 55 6l-5 -41q-30 -6 -56 -6q-52 0 -79.5 25t-27.5 64q0 36 22.5 63.5t68.5 49.5q-97 0 -145.5 47.5t-48.5 130.5q0 14 4 46l66 471h47l-65 -470q-3 -24 -3 -44
q0 -66 36 -102t110 -36q88 0 137.5 49.5t61.5 135.5l66 467h47z" />
    <glyph glyph-name="uogonek" unicode="&#x173;" horiz-adv-x="577" 
d="M323.5 -59.5q-33.5 -28.5 -33.5 -64.5q0 -48 58 -48q24 0 57 6l-8 -41q-30 -6 -55 -6q-47 0 -72 21.5t-25 55.5q0 49 35 83.5t114 65.5l15 132q-35 -72 -86 -114t-114 -42q-58 0 -90 33.5t-32 93.5q0 23 2 35l52 371h46l-52 -370q-2 -12 -2 -33q0 -90 83 -90q59 0 109 49
t89 131l44 313h46l-74 -522q-73 -31 -106.5 -59.5z" />
    <glyph glyph-name="Wcircumflex" unicode="&#x174;" horiz-adv-x="802" 
d="M829 684l-250 -684h-58l-68 632l-246 -632h-58l-57 684h47l47 -636l246 636h55l68 -638l228 638h46zM348 763l-19 26l140 98h27l113 -99l-22 -25l-108 80z" />
    <glyph glyph-name="wcircumflex" unicode="&#x175;" horiz-adv-x="690" 
d="M700 522l-204 -522h-61l-57 478l-192 -478h-62l-59 522h45l52 -484l195 484h55l58 -485l184 485h46zM282 647l-21 25l142 103h27l113 -103l-23 -25l-108 84z" />
    <glyph glyph-name="Ycircumflex" unicode="&#x176;" horiz-adv-x="512" 
d="M555 684l-273 -415l-38 -269h-48l38 268l-159 416h51l136 -371l239 371h54zM201 763l-19 26l140 98h27l113 -99l-22 -25l-108 80z" />
    <glyph glyph-name="ycircumflex" unicode="&#x177;" horiz-adv-x="458" 
d="M226 -4q-42 -89 -91.5 -133t-139.5 -64l-3 37q54 14 86 33.5t53.5 48.5t49.5 82h-18l-109 522h49l96 -487l229 487h50zM159 647l-21 25l142 103h27l113 -103l-23 -25l-108 84z" />
    <glyph glyph-name="Ydieresis" unicode="&#x178;" horiz-adv-x="512" 
d="M555 684l-273 -415l-38 -269h-48l38 268l-159 416h51l136 -371l239 371h54zM217.5 800q-8.5 8 -8.5 21q0 16 10.5 26.5t26.5 10.5q14 0 22.5 -8t8.5 -21q0 -16 -11 -26.5t-27 -10.5q-13 0 -21.5 8zM398.5 800q-8.5 8 -8.5 21q0 16 10.5 26.5t26.5 10.5q14 0 22.5 -8
t8.5 -21q0 -16 -10.5 -26.5t-26.5 -10.5q-14 0 -22.5 8z" />
    <glyph glyph-name="Zacute" unicode="&#x179;" horiz-adv-x="512" 
d="M0 0l6 41l456 600h-334l6 43h389l-5 -40l-455 -601h362l-13 -43h-412zM416 878l16 -44l-201 -75l-11 28z" />
    <glyph glyph-name="zacute" unicode="&#x17a;" horiz-adv-x="416" 
d="M418 522l-5 -37l-357 -444h290l-10 -41h-345l6 37l357 444h-270l6 41h328zM370 776l17 -44l-201 -84l-13 27z" />
    <glyph glyph-name="Zdotaccent" unicode="&#x17b;" horiz-adv-x="512" 
d="M0 0l6 41l456 600h-334l6 43h389l-5 -40l-455 -601h362l-13 -43h-412zM315 808.5q-9 8.5 -9 22.5q0 17 11 28t28 11q15 0 23.5 -8.5t8.5 -22.5q0 -17 -11 -28t-27 -11q-15 0 -24 8.5z" />
    <glyph glyph-name="zdotaccent" unicode="&#x17c;" horiz-adv-x="416" 
d="M418 522l-5 -37l-357 -444h290l-10 -41h-345l6 37l357 444h-270l6 41h328zM254 682.5q-9 8.5 -9 22.5q0 17 11 28t28 11q15 0 23.5 -8.5t8.5 -22.5q0 -17 -11 -28t-27 -11q-15 0 -24 8.5z" />
    <glyph glyph-name="Zcaron" unicode="&#x17d;" horiz-adv-x="512" 
d="M0 0l6 41l456 600h-334l6 43h389l-5 -40l-455 -601h362l-13 -43h-412zM463 880l20 -25l-140 -98h-28l-114 98l23 24l110 -78z" />
    <glyph glyph-name="zcaron" unicode="&#x17e;" horiz-adv-x="416" 
d="M418 522l-5 -37l-357 -444h290l-10 -41h-345l6 37l357 444h-270l6 41h328zM404 764l20 -25l-141 -104h-28l-113 104l23 25l108 -85z" />
    <glyph glyph-name="longs" unicode="&#x17f;" horiz-adv-x="315" 
d="M378 732.5q28 -8.5 57 -26.5l-20 -32q-26 15 -48.5 21.5t-48.5 6.5q-97 0 -110 -93l-84 -609h-46l67 483h-90l6 39h89l13 91q9 61 50 94.5t106 33.5q31 0 59 -8.5z" />
    <glyph glyph-name="uni0180" unicode="&#x180;" horiz-adv-x="575" 
d="M473 482q41 -50 41 -145q0 -80 -26.5 -159.5t-86 -134t-153.5 -54.5q-43 0 -80 8t-87 26l85 597h-76l6 38h75l11 77l46 6l-11 -83h175l-12 -38h-169l-23 -169q76 81 169 81q75 0 116 -50zM376 78.5q49 49.5 70 120.5t21 140q0 77 -30.5 115.5t-86.5 38.5q-50 0 -89 -24
t-80 -69l-48 -348q27 -12 53.5 -17.5t62.5 -5.5q78 0 127 49.5z" />
    <glyph glyph-name="uni0181" unicode="&#x181;" horiz-adv-x="645" 
d="M542.5 319.5q38.5 -34.5 38.5 -102.5q0 -56 -25 -105t-84.5 -80.5t-155.5 -31.5h-187l91 644h-26q-44 0 -65.5 -23.5t-21.5 -62.5q0 -16 3 -28.5t9 -29.5l-37 -17q-10 19 -15.5 37t-5.5 40q0 55 36.5 89.5t102.5 34.5h188q96 0 150.5 -38t54.5 -112q0 -70 -42 -115.5
t-112 -56.5q65 -8 103.5 -42.5zM267 643l-36 -263h142q82 0 127 43.5t45 109.5q0 110 -154 110h-124zM482.5 92q48.5 51 48.5 126q0 62 -40.5 92t-111.5 30h-154l-41 -299h136q114 0 162.5 51z" />
    <glyph glyph-name="uni0182" unicode="&#x182;" horiz-adv-x="564" 
d="M456 370q56 -44 56 -128q0 -62 -26 -116.5t-86 -90t-157 -35.5h-166l97 684h336l-14 -42h-280l-32 -228h114q102 0 158 -44zM376.5 71q46.5 30 66 75.5t19.5 94.5q0 132 -164 132h-120l-46 -332h121q77 0 123.5 30z" />
    <glyph glyph-name="uni0183" unicode="&#x183;" horiz-adv-x="569" 
d="M468.5 482q40.5 -50 40.5 -145q0 -80 -26 -159.5t-86 -134t-154 -54.5q-43 0 -80 8t-87 26l101 712h285l-13 -39h-231l-35 -245q76 81 169 81q76 0 116.5 -50zM371 78.5q49 49.5 70 121t21 140.5q0 153 -118 153q-49 0 -88.5 -23.5t-79.5 -69.5l-48 -348
q27 -12 53.5 -17.5t62.5 -5.5q78 0 127 49.5z" />
    <glyph glyph-name="uni0184" unicode="&#x184;" horiz-adv-x="555" 
d="M456.5 374q55.5 -44 55.5 -134q0 -62 -26.5 -116t-87.5 -89t-157 -35h-164l80 558l-43 32q43 38 67 94h40l-37 -266h114q103 0 158.5 -44zM376.5 71.5q46.5 30.5 66 75.5t19.5 93q0 71 -41.5 104t-122.5 33h-119l-47 -336h121q77 0 123.5 30.5z" />
    <glyph glyph-name="uni0185" unicode="&#x185;" horiz-adv-x="497" 
d="M404 303.5q45 -39.5 45 -106.5q0 -52 -23 -99.5t-73 -78t-127 -30.5q-70 0 -151 27l56 390l-43 32q41 36 66 84h39l-25 -179h98q93 0 138 -39.5zM359.5 79q41.5 50 41.5 119q0 49 -33 77.5t-104 28.5h-102l-36 -259q54 -16 99 -16q93 0 134.5 50z" />
    <glyph glyph-name="uni0186" unicode="&#x186;" horiz-adv-x="544" 
d="M432.5 625.5q58.5 -68.5 58.5 -198.5q1 -113 -37 -213.5t-111 -162.5t-172 -62q-58 0 -98.5 18.5t-78.5 51.5l28 31q36 -29 67.5 -43t80.5 -14q86 0 148 57t93.5 147.5t31.5 189.5q0 115 -46.5 170.5t-124.5 55.5q-49 0 -87 -12.5t-80 -39.5l-24 33q44 30 89.5 45
t105.5 15q98 0 156.5 -68.5z" />
    <glyph glyph-name="uni0187" unicode="&#x187;" horiz-adv-x="547" 
d="M754 788l-24 -29q-17 12 -32.5 17.5t-38.5 5.5q-33 0 -56 -21t-29 -67l-9 -62l-25 -26q-33 24 -65 35.5t-73 11.5q-97 0 -159.5 -61t-90.5 -151.5t-28 -180.5q0 -112 50 -169.5t134 -57.5q50 0 86.5 14.5t74.5 43.5l25 -35q-85 -67 -189 -67q-105 0 -167.5 71t-62.5 201
q0 100 34 199.5t107.5 166.5t183.5 67q72 0 123 -33l5 35q8 62 42.5 94t87.5 32q54 0 96 -34z" />
    <glyph glyph-name="uni0188" unicode="&#x188;" horiz-adv-x="465" 
d="M656 707l-23 -29q-16 12 -32.5 18t-39.5 6q-33 0 -56.5 -21t-29.5 -67l-18 -134l-21 -24q-27 18 -54.5 27.5t-62.5 9.5q-73 0 -120 -46.5t-68 -115t-21 -134.5q0 -83 37 -124.5t103 -41.5t131 45l21 -33q-70 -54 -154 -54q-86 0 -136 55t-50 155q0 75 27 152t84.5 129
t145.5 52q55 0 96 -23l15 106q9 63 43 94.5t87 31.5q54 0 96 -34z" />
    <glyph glyph-name="uni0189" unicode="&#x189;" horiz-adv-x="630" 
d="M503 628.5q74 -55.5 74 -199.5q0 -114 -35.5 -211t-115 -157.5t-204.5 -60.5h-142l47 333h-85l5 40h86l44 311h131q121 0 195 -55.5zM403 97.5q67 56.5 96.5 144.5t29.5 188q0 125 -60.5 169t-160.5 44h-90l-37 -270h185l-5 -40h-186l-40 -292h94q107 0 174 56.5z" />
    <glyph glyph-name="uni018A" unicode="&#x18a;" horiz-adv-x="679" 
d="M552 628.5q74 -55.5 74 -199.5q0 -114 -35.5 -211t-115 -157.5t-204.5 -60.5h-142l91 644h-26q-44 0 -65.5 -23.5t-21.5 -62.5q0 -16 3 -28.5t9 -29.5l-37 -17q-10 19 -15.5 37t-5.5 40q0 55 36.5 89.5t102.5 34.5h157q121 0 195 -55.5zM452 97.5q67 56.5 96.5 144.5
t29.5 188q0 125 -60.5 169t-160.5 44h-90l-83 -602h94q107 0 174 56.5z" />
    <glyph glyph-name="uni018B" unicode="&#x18b;" horiz-adv-x="565" 
d="M414 0h-171q-93 0 -148.5 45.5t-55.5 140.5q0 108 73 168t198 60h115l32 228h-285l5 42h333zM419 373h-113q-103 0 -160.5 -49t-57.5 -138q0 -76 41 -110.5t120 -34.5h124z" />
    <glyph glyph-name="uni018C" unicode="&#x18c;" horiz-adv-x="574" 
d="M428 0h-39l9 113q-71 -124 -178 -124q-74 0 -116.5 54.5t-42.5 150.5q0 76 25 154t80 131t140 53q94 0 140 -74l34 238h-236l6 39h282zM440 412q-43 81 -128 81q-70 0 -115.5 -47t-66 -116t-20.5 -137q0 -79 30.5 -121.5t85.5 -42.5q56 0 97 38t85 113z" />
    <glyph glyph-name="uni018D" unicode="&#x18d;" horiz-adv-x="563" 
d="M58 -146l28 28q29 -24 60 -35t70 -11q65 0 97.5 25.5t32.5 62.5q0 32 -25 54.5t-90 48.5q-86 36 -125.5 83.5t-39.5 123.5q0 64 24 132.5t80.5 117t145.5 48.5q87 0 136.5 -54.5t49.5 -148.5q0 -100 -46 -174t-156 -116q49 -25 71 -51t22 -63q0 -33 -20.5 -62.5
t-60.5 -47.5t-96 -18q-95 0 -158 57zM413 168.5q42 68.5 42 163.5q0 74 -37 117t-104 43q-74 0 -119 -43t-63 -102.5t-18 -112.5q0 -65 34 -105t116 -73q107 44 149 112.5z" />
    <glyph glyph-name="uni018E" unicode="&#x18e;" horiz-adv-x="503" 
d="M109 684h338l-96 -684h-344l6 41h297l41 295h-246l6 41h246l37 266h-290z" />
    <glyph glyph-name="uni018F" unicode="&#x18f;" horiz-adv-x="645" 
d="M537 632q57 -62 57 -191q0 -120 -35 -223t-105.5 -166t-173.5 -63q-102 0 -160 66t-58 189q0 27 4.5 66t9.5 61h465q4 33 4 71q0 110 -44 160.5t-128 50.5q-54 0 -101 -17.5t-99 -54.5l-23 33q53 41 107.5 60.5t118.5 19.5q104 0 161 -62zM443 103.5q67 72.5 91 223.5
h-417q-7 -43 -7 -85q0 -107 44.5 -159t126.5 -52q95 0 162 72.5z" />
    <glyph glyph-name="uni0190" unicode="&#x190;" horiz-adv-x="519" 
d="M435 673q46 -21 87 -63l-30 -28q-33 35 -73 53t-91 18q-73 0 -120 -42t-47 -107q0 -55 38 -85.5t104 -30.5h59l-12 -42l-54 1q-92 1 -146.5 -46.5t-54.5 -129.5q0 -67 41 -103t112 -36q104 0 193 79l28 -31q-101 -91 -223 -91q-91 0 -146 49t-55 133t50.5 137t127.5 62
q-50 12 -80 46t-30 88q0 55 27.5 98t76.5 67.5t110 24.5q62 0 108 -21z" />
    <glyph glyph-name="uni0191" unicode="&#x191;" horiz-adv-x="475" 
d="M215 643l-38 -279h241l-6 -40h-241l-46 -324l-11 -77q-9 -63 -44.5 -94.5t-87.5 -31.5t-94 34l23 30q16 -11 31.5 -17t38.5 -6q33 0 56 21t29 67l11 74l97 684h332l-11 -41h-280z" />
    <glyph glyph-name="florin" unicode="&#x192;" horiz-adv-x="315" 
d="M208 609l-12 -87h141l-11 -39h-136l-65 -470q-9 -67 -27.5 -105.5t-48 -61t-82.5 -46.5l-15 35q41 20 65 39t39.5 52t23.5 89l65 468h-90l6 39h89l13 91q9 61 50 94.5t106 33.5q31 0 59 -8.5t57 -26.5l-20 -32q-26 15 -48.5 21.5t-48.5 6.5q-97 0 -110 -93z" />
    <glyph glyph-name="uni0193" unicode="&#x193;" horiz-adv-x="565" 
d="M730 812.5q22 -9.5 41 -24.5l-23 -29q-17 11 -32.5 17t-38.5 6q-33 0 -56 -21t-29 -67l-9 -65l-26 -24q-35 24 -71 36t-80 12q-92 0 -155.5 -58.5t-95 -150t-31.5 -189.5q0 -112 50.5 -168t141.5 -56q82 0 153 38l37 254h-137v42h190l-45 -321q-97 -55 -202 -55
q-111 0 -174 69.5t-63 201.5q0 106 37.5 206t112.5 164t181 64q84 0 135 -36l5 38q8 62 42.5 94t87.5 32q32 0 54 -9.5z" />
    <glyph glyph-name="uni0194" unicode="&#x194;" horiz-adv-x="541" 
d="M269 56q20 -61 28 -91.5t8 -60.5q0 -49 -26.5 -78t-71.5 -29q-36 0 -56.5 20t-20.5 54q0 35 18.5 74t64.5 115l-134 624h49l117 -589l285 589h50zM254.5 -46.5q-5.5 25.5 -18.5 70.5q-31 -53 -46 -87.5t-15 -63.5q0 -36 33 -36q25 0 38.5 18.5t13.5 48.5q0 24 -5.5 49.5z
" />
    <glyph glyph-name="uni0195" unicode="&#x195;" horiz-adv-x="885" 
d="M453 26.5q-38 37.5 -38 101.5q0 22 2 33l29 206q3 20 3 37q0 89 -83 89q-58 0 -108 -48t-96 -133l-44 -312h-46l104 735l47 6l-51 -357q39 70 91 109t110 39q59 0 90.5 -32.5t31.5 -92.5q0 -17 -3 -37l-29 -210q-2 -20 -2 -29q0 -50 26.5 -75.5t74.5 -25.5q114 0 159 116
t45 277q0 54 -3 99h45q4 -64 4 -104q0 -181 -56.5 -305t-197.5 -124q-67 0 -105 37.5z" />
    <glyph glyph-name="uni0196" unicode="&#x196;" horiz-adv-x="325" 
d="M284 21q-46 -32 -100 -32q-47 0 -74.5 26t-27.5 76q0 8 2 28l11 73l69 492h48l-70 -492l-10 -77q-2 -18 -2 -24q0 -61 56 -61q24 0 42 6t38 18z" />
    <glyph glyph-name="uni0197" unicode="&#x197;" horiz-adv-x="317" 
d="M305 381l-6 -42h-102l-48 -339h-48l48 339h-108l6 42h108l43 303h47l-43 -303h103z" />
    <glyph glyph-name="uni0198" unicode="&#x198;" horiz-adv-x="567" 
d="M181 367l225 252q38 43 65.5 59t63.5 16q28 0 48.5 -10.5t38.5 -29.5l-27 -27q-16 14 -28.5 20.5t-31.5 6.5q-23 0 -42.5 -12t-55.5 -52l-201 -223l258 -367h-58zM77 0l97 684h48l-97 -684h-48z" />
    <glyph glyph-name="uni0199" unicode="&#x199;" horiz-adv-x="515" 
d="M445 311.5q-45 -47.5 -131 -74.5l119 -237h-51l-124 253q183 50 183 167q0 74 -77 74q-57 0 -108.5 -50t-94.5 -143l-43 -301h-46l74 521l13 93q9 60 50 93.5t104 33.5q62 0 118 -29l-20 -34q-49 23 -96 23q-97 0 -110 -93l-13 -87l-20 -140q42 78 93 114.5t108 36.5
q53 0 85 -29t32 -80q0 -64 -45 -111.5z" />
    <glyph glyph-name="uni019A" unicode="&#x19a;" horiz-adv-x="295" 
d="M145 83q-1 -6 -1 -16q0 -19 8.5 -28t27.5 -9q17 0 39 8l11 -36q-28 -13 -56 -13q-36 0 -56 19t-20 57q0 6 2 24l37 263h-106l6 41h106l48 342l46 6l-49 -348h107l-6 -41h-106z" />
    <glyph glyph-name="uni019B" unicode="&#x19b;" horiz-adv-x="463" 
d="M341.5 253q17.5 -90 38 -138.5t54.5 -106.5l-43 -15q-33 57 -54 107t-38 139t-25 229l-232 -476l-43 11l255 516l18 -4q-5 74 -21 113l-83 -73l-32 15l97 88q-26 35 -89 50l8 34q75 -16 110 -57l79 72l25 -25l-84 -77q14 -28 22 -68t12 -98q8 -146 25.5 -236z" />
    <glyph glyph-name="uni019C" unicode="&#x19c;" horiz-adv-x="924" 
d="M869 684l-96 -684h-41l9 96q-38 -50 -85.5 -78.5t-101.5 -28.5q-56 0 -90 30t-42 85q-42 -54 -92 -84.5t-105 -30.5q-65 0 -99.5 39t-34.5 110q0 22 3 46l70 500h47l-71 -506q-3 -21 -3 -39q0 -53 23.5 -80.5t69.5 -27.5q56 0 102 32.5t88 91.5l3 29l70 500h47l-71 -506
q-3 -21 -3 -39q0 -53 24 -80.5t70 -27.5q102 0 187 122l75 531h47z" />
    <glyph glyph-name="uni019D" unicode="&#x19d;" horiz-adv-x="667" 
d="M612 684l-96 -684h-60l-250 639q-3 -78 -26 -235l-57 -404l-11 -77q-9 -63 -43.5 -94.5t-86.5 -31.5t-94 34l23 29q17 -12 32.5 -17.5t38.5 -5.5q72 0 85 89l10 74l97 684h61l250 -638q5 87 21 209l61 429h45z" />
    <glyph glyph-name="uni019E" unicode="&#x19e;" horiz-adv-x="581" 
d="M463.5 499q31.5 -33 31.5 -94q0 -16 -3 -36l-80 -567l-47 -5l81 570q3 20 3 35q0 91 -83 91q-106 0 -204 -181l-44 -312h-46l74 522h39l-15 -140q40 72 92.5 111t111.5 39q58 0 89.5 -33z" />
    <glyph glyph-name="uni019F" unicode="&#x19f;" horiz-adv-x="689" 
d="M575 624.5q62 -69.5 62 -199.5q0 -100 -32.5 -200t-106.5 -168t-189 -68q-109 0 -171.5 71t-62.5 201q0 97 33.5 196.5t107.5 168t188 68.5q109 0 171 -69.5zM222.5 571q-65.5 -82 -88.5 -202h451q3 30 3 58q0 113 -48.5 169.5t-137.5 56.5q-114 0 -179.5 -82zM496 118
q65 87 85 212h-453q-4 -33 -4 -71q0 -113 49 -170.5t137 -57.5q121 0 186 87z" />
    <glyph glyph-name="Ohorn" unicode="&#x1a0;" horiz-adv-x="689" 
d="M661 637q-22 -27 -68 -37q44 -65 44 -175q0 -100 -32.5 -200t-106.5 -168t-189 -68q-109 0 -171.5 71t-62.5 201q0 97 33.5 196.5t107.5 168t188 68.5q107 0 167 -65q40 6 56.5 26t16.5 55q0 28 -8 49l37 8q10 -26 10 -58q0 -45 -22 -72zM473.5 94q62.5 63 88.5 154
t26 179q0 113 -48.5 169.5t-137.5 56.5q-98 0 -160.5 -62.5t-90 -153.5t-27.5 -178q0 -113 49.5 -170.5t136.5 -57.5q101 0 163.5 63z" />
    <glyph glyph-name="ohorn" unicode="&#x1a1;" horiz-adv-x="575" 
d="M485 434q20 -46 20 -109q0 -74 -25.5 -151.5t-83.5 -131t-149 -53.5q-87 0 -136 55.5t-49 154.5q0 75 26 151.5t84 129t148 52.5q102 0 149 -70q39 7 56.5 27.5t17.5 56.5q0 30 -8 51l37 8q10 -26 10 -60q0 -96 -97 -111zM369 77q47 47 67.5 115.5t20.5 134.5
q0 81 -36 123.5t-102 42.5q-75 0 -121.5 -48t-67 -116t-20.5 -133q0 -81 36 -123.5t102 -42.5q74 0 121 47z" />
    <glyph glyph-name="uni01A2" unicode="&#x1a2;" horiz-adv-x="893" 
d="M792 666q30 -29 30 -81q0 -10 -2 -30l-105 -750h-48l105 750q2 11 2 31q0 36 -17.5 53t-56.5 17q-32 0 -61 -9t-61 -26q59 -70 59 -196q0 -100 -32.5 -200t-106.5 -168t-189 -68q-109 0 -171.5 71t-62.5 201q0 97 33.5 196.5t107.5 168t188 68.5q89 0 147 -47
q80 48 151 48q60 0 90 -29zM473.5 94q62.5 63 88.5 154t26 179q0 113 -48.5 169.5t-137.5 56.5q-98 0 -160.5 -62.5t-90 -153.5t-27.5 -178q0 -113 49.5 -170.5t136.5 -57.5q101 0 163.5 63z" />
    <glyph glyph-name="uni01A3" unicode="&#x1a3;" horiz-adv-x="751" 
d="M637.5 502q29.5 -30 29.5 -83q0 -8 -2 -28l-83 -589l-47 -5l84 597q2 20 2 27q0 36 -18 54t-57 18q-47 0 -89 -17q48 -54 48 -151q0 -74 -25.5 -151.5t-83.5 -131t-149 -53.5q-87 0 -136 55.5t-49 154.5q0 75 26 151.5t84 129t148 52.5q63 0 107 -30q62 30 123 30
q58 0 87.5 -30zM369 77q47 47 67.5 115.5t20.5 134.5q0 81 -36 123.5t-102 42.5q-75 0 -121.5 -48t-67 -116t-20.5 -133q0 -81 36 -123.5t102 -42.5q74 0 121 47z" />
    <glyph glyph-name="uni01A4" unicode="&#x1a4;" horiz-adv-x="617" 
d="M544 642q57 -42 57 -128q0 -105 -65.5 -174t-216.5 -69h-104l-38 -271h-48l91 644h-26q-44 0 -65.5 -23.5t-21.5 -62.5q0 -16 3 -28.5t9 -29.5l-37 -17q-10 19 -15.5 37t-5.5 40q0 55 36.5 89.5t102.5 34.5h178q109 0 166 -42zM500 369.5q52 56.5 52 144.5q0 69 -45 99
t-133 30h-107l-46 -330h102q125 0 177 56.5z" />
    <glyph glyph-name="uni01A5" unicode="&#x1a5;" horiz-adv-x="569" 
d="M468 482q40 -50 40 -145q0 -80 -26 -159.5t-85.5 -134t-153.5 -54.5q-63 0 -122 23l-30 -209l-47 -6l102 724l13 93q9 60 50 93.5t104 33.5q62 0 118 -29l-20 -34q-49 23 -96 23q-97 0 -110 -93l-13 -87l-8 -70q73 81 167 81q77 0 117 -50zM370.5 78.5
q48.5 49.5 69.5 121t21 140.5q0 77 -30 115t-87 38q-50 0 -88.5 -23.5t-79.5 -69.5l-49 -348q27 -11 54 -17t63 -6q78 0 126.5 49.5z" />
    <glyph glyph-name="uni01A6" unicode="&#x1a6;" horiz-adv-x="583" 
d="M486.5 270.5q-42.5 -56.5 -139.5 -78.5l145 -320h-52l-140 313h-149l-26 -185h-48l97 684h47l-18 -128h112q109 0 161.5 -39t52.5 -117q0 -73 -42.5 -129.5zM281 225q72 0 116.5 26t63.5 66t19 84q0 59 -38.5 86.5t-124.5 27.5h-120l-40 -290h124z" />
    <glyph glyph-name="uni01A7" unicode="&#x1a7;" horiz-adv-x="527" 
d="M459.5 655q44.5 -39 44.5 -104q0 -56 -24.5 -93.5t-71.5 -63t-122 -48.5q-70 -21 -111.5 -45.5t-61.5 -59t-20 -86.5q0 -59 38.5 -91.5t101.5 -32.5q58 0 105 19t94 55l25 -32q-50 -41 -105 -62.5t-121 -21.5q-84 0 -135.5 45.5t-51.5 120.5q0 91 54.5 144.5t170.5 86.5
q68 19 107.5 39t59.5 50t20 76q0 48 -31.5 75t-88.5 27q-53 0 -94.5 -15t-88.5 -49l-25 33q50 37 98.5 54.5t110.5 17.5q78 0 122.5 -39z" />
    <glyph glyph-name="uni01A8" unicode="&#x1a8;" horiz-adv-x="461" 
d="M371 498.5q41 -33.5 41 -85.5q0 -51 -34.5 -90.5t-133.5 -66.5q-68 -17 -103.5 -38.5t-47 -44t-11.5 -51.5q0 -43 33 -67.5t84 -24.5q50 0 91.5 14.5t80.5 42.5l24 -31q-88 -67 -197 -67q-72 0 -118.5 35.5t-46.5 97.5q0 57 42.5 99.5t148.5 70.5q85 22 112.5 51.5
t27.5 69.5q0 36 -28.5 58t-73.5 22q-39 0 -73 -12t-72 -38l-22 31q80 58 170 58q65 0 106 -33.5z" />
    <glyph glyph-name="uni01A9" unicode="&#x1a9;" horiz-adv-x="490" 
d="M502 684l-6 -42h-333l176 -294l-3 -25l-255 -281h330l-6 -42h-394l4 32l277 307l-189 313l4 32h395z" />
    <glyph glyph-name="uni01AA" unicode="&#x1aa;" horiz-adv-x="276" 
d="M273 -171q-46 -32 -101 -32q-47 0 -74.5 26.5t-27.5 75.5q0 7 2 27l11 74l73 522q-30 -14 -62 -14q-42 0 -68.5 25.5t-26.5 69.5q0 39 17 70.5t46 49.5t63 18q43 0 68 -25t25 -69q0 -7 -2 -25l-87 -622l-11 -78q-1 -8 -1 -22q0 -63 57 -63q25 0 43 6t38 17zM161 560
l10 68q1 7 1 19q0 55 -48 55q-36 0 -57 -28.5t-21 -70.5q0 -56 54 -56q33 0 61 13z" />
    <glyph glyph-name="uni01AB" unicode="&#x1ab;" horiz-adv-x="333" 
d="M134 125q-2 -20 -2 -27q0 -68 67 -68q40 0 91 21l14 -30l-14 -98q-9 -62 -44.5 -94t-87.5 -32q-51 0 -94 34l23 29q16 -11 32.5 -17t39.5 -6q34 0 57 20.5t29 67.5l11 76q-30 -12 -64 -12q-50 0 -78 27t-28 78q0 20 2 30l51 359h-88l6 39h88l27 128l36 4l-18 -132h137
l-11 -39h-132z" />
    <glyph glyph-name="uni01AC" unicode="&#x1ac;" horiz-adv-x="511" 
d="M548 640h-203l-89 -640h-48l90 640h-104q-44 0 -65.5 -22.5t-21.5 -59.5q0 -16 3 -28.5t9 -29.5l-37 -17q-10 19 -15.5 37t-5.5 40q0 55 36 89.5t100 34.5h364z" />
    <glyph glyph-name="uni01AD" unicode="&#x1ad;" horiz-adv-x="333" 
d="M191 528l-1 -6h137l-11 -39h-131l-51 -358q-2 -20 -2 -27q0 -68 67 -68q39 0 88 26l17 -35q-53 -32 -111 -32q-50 0 -78.5 27t-28.5 78q0 19 2 30l51 359h-88l6 39h87l1 6l11 79q9 67 46 100.5t94 33.5q56 0 104 -32l-23 -31q-39 24 -79 24q-83 0 -96 -96z" />
    <glyph glyph-name="uni01AE" unicode="&#x1ae;" horiz-adv-x="486" 
d="M219 -77q-2 -18 -2 -24q0 -61 56 -61q24 0 42 6t38 18l18 -33q-46 -32 -100 -32q-47 0 -74.5 26t-27.5 76q0 8 2 28l11 73l90 640h-204l6 44h461l-12 -44h-203l-90 -640h-1z" />
    <glyph glyph-name="Uhorn" unicode="&#x1af;" horiz-adv-x="647" 
d="M669.5 632q-26.5 -28 -80.5 -35l-54 -387q-14 -101 -77 -161t-170 -60q-97 0 -145.5 47.5t-48.5 130.5q0 14 4 46l66 471h47l-65 -470q-3 -24 -3 -44q0 -66 36 -102t110 -36q88 0 137.5 49.5t61.5 135.5l66 467h47l-7 -54q34 7 48.5 27t14.5 53q0 28 -8 49l37 8
q10 -26 10 -58q0 -49 -26.5 -77z" />
    <glyph glyph-name="uhorn" unicode="&#x1b0;" horiz-adv-x="591" 
d="M491 432l-61 -432h-37l16 145q-35 -72 -86 -114t-114 -42q-58 0 -90 33.5t-32 93.5q0 23 2 35l52 371h46l-52 -370q-2 -12 -2 -33q0 -90 83 -90q59 0 109 49t89 131l44 313h46l-8 -58q34 8 48.5 28t14.5 54q0 30 -8 51l37 8q10 -26 10 -60q0 -100 -107 -113z" />
    <glyph glyph-name="uni01B1" unicode="&#x1b1;" horiz-adv-x="689" 
d="M137 59q-63 70 -63 193q0 124 50 225.5t143 165.5h-120l5 41h178l-4 -42q-100 -62 -151.5 -166t-51.5 -227q0 -105 50 -161.5t138 -56.5q87 0 149 51t93.5 136t31.5 185q0 156 -109 240l4 41h178l-6 -43h-119q47 -38 74 -94.5t27 -141.5q0 -114 -39 -209t-112.5 -151
t-172.5 -56q-110 0 -173 70z" />
    <glyph glyph-name="uni01B2" unicode="&#x1b2;" horiz-adv-x="635" 
d="M570 673.5q21 -20.5 21 -60.5q0 -6 -2 -22l-43 -301q-14 -96 -54 -164t-99.5 -102.5t-129.5 -34.5q-79 0 -125 44t-46 118q0 18 3 37l69 496h47l-69 -495q-2 -12 -2 -34q0 -60 32 -91.5t92 -31.5q91 0 154 68t81 197l42 297q2 14 2 18q0 42 -39 42q-25 0 -44 -10l-14 34
q29 16 65 16q38 0 59 -20.5z" />
    <glyph glyph-name="uni01B3" unicode="&#x1b3;" horiz-adv-x="541" 
d="M234 268l-159 416h52l136 -371l181 301q27 44 53.5 62t64.5 18q52 0 92 -42l-24 -27q-34 30 -67 30q-25 0 -42.5 -12.5t-37.5 -45.5l-201 -328l-38 -269h-48z" />
    <glyph glyph-name="uni01B4" unicode="&#x1b4;" horiz-adv-x="459" 
d="M-8 -165q53 14 86 34t55.5 50t47.5 81h-18l-109 522h49l96 -487l192 447q21 49 44.5 68.5t60.5 19.5q29 0 53 -14l-16 -33q-14 7 -36 7t-36 -12.5t-28 -44.5l-208 -474q-40 -91 -89.5 -135t-140.5 -65z" />
    <glyph glyph-name="uni01B5" unicode="&#x1b5;" horiz-adv-x="512" 
d="M523 684l-5 -40l-212 -280h104l-7 -40h-127l-213 -281h362l-13 -43h-412l6 41l215 283h-108l6 40h132l211 277h-334l6 43h389z" />
    <glyph glyph-name="uni01B6" unicode="&#x1b6;" horiz-adv-x="416" 
d="M418 522l-5 -37l-159 -197h94l-6 -39h-119l-168 -208h291l-10 -41h-345l6 37l171 212h-91l6 39h117l156 193h-272l6 41h328z" />
    <glyph glyph-name="uni01B7" unicode="&#x1b7;" horiz-adv-x="486" 
d="M466 644l-266 -262h30q99 0 149.5 -42t50.5 -120q0 -67 -32 -120t-88 -82t-127 -29q-66 0 -111.5 22t-79.5 65l31 25q33 -37 69 -53.5t90 -16.5q91 0 144.5 52t53.5 137q0 65 -40 94t-117 29h-84l6 39l259 261h-312l6 41h373z" />
    <glyph glyph-name="uni01B8" unicode="&#x1b8;" horiz-adv-x="487" 
d="M501 643h-316l190 -261l-5 -39l-4 4l3 -4h-81q-95 0 -149 -48.5t-54 -131.5q0 -62 37.5 -97t105.5 -35q58 0 101 16.5t87 54.5l27 -29q-46 -42 -97 -63t-120 -21q-86 0 -137.5 47.5t-51.5 126.5q0 66 31 115.5t88 76.5t132 27h38l-198 262l6 40h373z" />
    <glyph glyph-name="uni01B9" unicode="&#x1b9;" horiz-adv-x="455" 
d="M449 481h-305l176 -283l-5 -39h-57q-102 0 -158 -49t-56 -138q0 -63 35.5 -98.5t103.5 -35.5q52 0 94 16.5t83 54.5l27 -28q-44 -42 -93.5 -63t-112.5 -21q-86 0 -136 48.5t-50 126.5q0 69 32.5 120t92 78.5t138.5 27.5h15l-182 287l4 37h360z" />
    <glyph glyph-name="uni01BA" unicode="&#x1ba;" horiz-adv-x="451" 
d="M-16 -94q0 51 45.5 79t143.5 43q63 9 101 21.5t59 37.5t21 67q0 77 -93 77h-151l5 39l239 211h-290l5 41h355l-5 -37l-247 -215h95q64 0 99.5 -30t35.5 -85q0 -76 -54 -113.5t-161 -52.5q-86 -13 -121 -32t-35 -52q0 -24 15.5 -40.5t51.5 -35.5l-19 -32q-95 44 -95 109z
" />
    <glyph glyph-name="uni01BB" unicode="&#x1bb;" horiz-adv-x="471" 
d="M70 41l317 1l-13 -42h-367l5 42q149 140 229 223h-132l6 40h163q67 75 89.5 121t22.5 95q0 54 -31.5 84t-86.5 30q-48 0 -85.5 -19.5t-75.5 -58.5l-31 28q45 47 91.5 68.5t103.5 21.5q76 0 119.5 -41.5t43.5 -111.5q0 -52 -22 -100t-81 -117h115l-6 -40h-145
q-76 -81 -229 -224z" />
    <glyph glyph-name="uni01BC" unicode="&#x1bc;" horiz-adv-x="489" 
d="M86 10.5q-44 21.5 -76 62.5l33 25q27 -35 62 -51.5t86 -16.5q69 0 112.5 36t63 87.5t19.5 102.5q0 67 -33.5 101t-92.5 34q-37 0 -65 -8.5t-63 -26.5h-38l46 328h335l-14 -40h-282l-35 -249q58 34 124 34q79 0 122.5 -45.5t43.5 -128.5q0 -59 -24.5 -120t-79.5 -103.5
t-140 -42.5q-60 0 -104 21.5z" />
    <glyph glyph-name="uni01BD" unicode="&#x1bd;" horiz-adv-x="427" 
d="M379 481h-222l-25 -173q46 25 98 25q64 0 99.5 -36t35.5 -100q0 -59 -25.5 -106.5t-71.5 -74.5t-105 -27q-50 0 -85.5 17t-65.5 48l29 27q27 -27 54.5 -38.5t68.5 -11.5q67 0 110 46.5t43 118.5q0 48 -25.5 72t-70.5 24q-30 0 -53.5 -6t-51.5 -20h-35l36 256h277z" />
    <glyph glyph-name="uni01BE" unicode="&#x1be;" horiz-adv-x="495" 
d="M378.5 360q43.5 -40 44.5 -122q0 -68 -30 -123.5t-83.5 -88t-120.5 -32.5q-60 0 -102 20t-81 61l29 25q32 -33 67.5 -49.5t85.5 -16.5q56 0 98.5 27.5t65.5 74t23 102.5q0 66 -34 98t-92 47l-66 15l23 164h-69l6 38h69l19 135l46 6l-20 -141h119l-5 -38h-119l-19 -136
l33 -8q69 -18 112.5 -58z" />
    <glyph glyph-name="uni01BF" unicode="&#x1bf;" horiz-adv-x="571" 
d="M479 493q40 -39 40 -110q0 -83 -43.5 -148t-114 -114t-173.5 -99l-71 -34l-26 -183l-47 -8l102 725h40l-7 -78q44 43 90 65.5t101 22.5q69 0 109 -39zM335 151q62 45 99 102.5t37 129.5q0 54 -28.5 81.5t-79.5 27.5q-53 0 -98.5 -24.5t-90.5 -70.5l-51 -367l58 30
q92 46 154 91z" />
    <glyph glyph-name="uni01C0" unicode="&#x1c0;" horiz-adv-x="273" 
d="M225 741l-104 -741h-44l104 735z" />
    <glyph glyph-name="uni01C1" unicode="&#x1c1;" horiz-adv-x="423" 
d="M225 741l-104 -741h-44l104 735zM375 741l-104 -741h-44l104 735z" />
    <glyph glyph-name="uni01C2" unicode="&#x1c2;" horiz-adv-x="318" 
d="M312 423h-110l-16 -114h109l-5 -35h-109l-38 -274h-44l39 274h-105l4 35h106l16 114h-105l5 35h105l39 277l44 6l-40 -283h109z" />
    <glyph glyph-name="uni01C3" unicode="&#x1c3;" horiz-adv-x="309" 
d="M243 741l-76 -544h-43l76 538zM92.5 0q-10.5 11 -10.5 26q0 19 12.5 31t30.5 12q17 0 27 -10.5t10 -26.5q0 -18 -12 -30.5t-31 -12.5q-16 0 -26.5 11z" />
    <glyph glyph-name="uni01C4" unicode="&#x1c4;" horiz-adv-x="1113" 
d="M500 628.5q74 -55.5 74 -199.5q0 -114 -35.5 -211t-115 -157.5t-204.5 -60.5h-142l97 684h131q121 0 195 -55.5zM215 643l-83 -602h94q107 0 174 56.5t96.5 144.5t29.5 188q0 125 -60.5 169t-160.5 44h-90zM601 0l6 41l456 600h-334l6 43h389l-5 -40l-455 -601h362
l-13 -43h-412zM1064 880l20 -25l-140 -98h-28l-114 98l23 24l110 -78z" />
    <glyph glyph-name="uni01C5" unicode="&#x1c5;" horiz-adv-x="1032" 
d="M500 628.5q74 -55.5 74 -199.5q0 -114 -35.5 -211t-115 -157.5t-204.5 -60.5h-142l97 684h131q121 0 195 -55.5zM215 643l-83 -602h94q107 0 174 56.5t96.5 144.5t29.5 188q0 125 -60.5 169t-160.5 44h-90zM1034 522l-5 -37l-357 -444h290l-10 -41h-345l6 37l357 444
h-270l6 41h328zM1020 764l20 -25l-141 -104h-28l-113 104l23 25l108 -85z" />
    <glyph glyph-name="uni01C6" unicode="&#x1c6;" horiz-adv-x="990" 
d="M532 735l-104 -735h-39l9 113q-71 -124 -178 -124q-74 0 -116.5 54.5t-42.5 150.5q0 76 25 154t80 131t140 53q94 0 140 -74l40 283zM196.5 446q-45.5 -47 -66 -116t-20.5 -137q0 -79 30.5 -121.5t85.5 -42.5q56 0 97 38t85 113l32 232q-43 81 -128 81q-70 0 -115.5 -47z
M992 522l-5 -37l-357 -444h290l-10 -41h-345l6 37l357 444h-270l6 41h328zM978 764l20 -25l-141 -104h-28l-113 104l23 25l108 -85z" />
    <glyph glyph-name="uni01C7" unicode="&#x1c7;" horiz-adv-x="734" 
d="M221 684l-89 -640h286l-13 -44h-328l97 684h47zM601 89q-9 -58 -27 -93.5t-52 -60t-95 -48.5l-11 36q49 22 76 43t41 51t20 78l83 589h48z" />
    <glyph glyph-name="uni01C8" unicode="&#x1c8;" horiz-adv-x="716" 
d="M221 684l-89 -640h286l-13 -44h-328l97 684h47zM399 -166q41 20 64.5 39.5t39 52.5t23.5 89l71 507h46l-72 -509q-9 -67 -28 -105.5t-48.5 -61.5t-82.5 -46zM620 682.5q-9 8.5 -9 22.5q0 17 11 28t28 11q15 0 23.5 -8.5t8.5 -22.5q0 -17 -11 -28t-27 -11q-15 0 -24 8.5z
" />
    <glyph glyph-name="uni01C9" unicode="&#x1c9;" horiz-adv-x="546" 
d="M126 83q-1 -6 -1 -16q0 -19 8.5 -28t27.5 -9q17 0 39 8l11 -36q-28 -13 -56 -13q-36 0 -56 19t-20 57q0 6 2 24l91 646l46 6zM229 -166q41 20 64.5 39.5t39 52.5t23.5 89l71 507h46l-72 -509q-9 -67 -28 -105.5t-48.5 -61.5t-82.5 -46zM450 682.5q-9 8.5 -9 22.5
q0 17 11 28t28 11q15 0 23.5 -8.5t8.5 -22.5q0 -17 -11 -28t-27 -11q-15 0 -24 8.5z" />
    <glyph glyph-name="uni01CA" unicode="&#x1ca;" horiz-adv-x="952" 
d="M516 0h-60l-250 639q-3 -78 -26 -235l-57 -404h-46l97 684h61l250 -638q5 87 21 209l61 429h45zM819 89q-9 -58 -27 -93.5t-52 -60t-95 -48.5l-11 36q49 22 76 43t41 51t20 78l83 589h48z" />
    <glyph glyph-name="uni01CB" unicode="&#x1cb;" horiz-adv-x="933" 
d="M516 0h-60l-250 639q-3 -78 -26 -235l-57 -404h-46l97 684h61l250 -638q5 87 21 209l61 429h45zM616 -166q41 20 64.5 39.5t39 52.5t23.5 89l71 507h46l-72 -509q-9 -67 -28 -105.5t-48.5 -61.5t-82.5 -46zM837 682.5q-9 8.5 -9 22.5q0 17 11 28t28 11q15 0 23.5 -8.5
t8.5 -22.5q0 -17 -11 -28t-27 -11q-15 0 -24 8.5z" />
    <glyph glyph-name="uni01CC" unicode="&#x1cc;" horiz-adv-x="847" 
d="M463.5 499.5q31.5 -32.5 31.5 -92.5q0 -18 -3 -38l-52 -369h-46l52 367q3 20 3 35q0 91 -83 91q-106 0 -204 -181l-44 -312h-46l74 522h39l-15 -140q40 72 92.5 111t111.5 39q58 0 89.5 -32.5zM530 -166q41 20 64.5 39.5t39 52.5t23.5 89l71 507h46l-72 -509
q-9 -67 -28 -105.5t-48.5 -61.5t-82.5 -46zM751 682.5q-9 8.5 -9 22.5q0 17 11 28t28 11q15 0 23.5 -8.5t8.5 -22.5q0 -17 -11 -28t-27 -11q-15 0 -24 8.5z" />
    <glyph glyph-name="uni01CD" unicode="&#x1cd;" 
d="M454 0l-36 192h-296l-90 -192h-49l327 684h59l134 -684h-49zM142 234h268l-76 411zM484 880l20 -25l-140 -98h-28l-114 98l23 24l110 -78z" />
    <glyph glyph-name="uni01CE" unicode="&#x1ce;" horiz-adv-x="556" 
d="M410.5 521.5q36.5 -10.5 76.5 -31.5l-55 -378q-3 -19 -3 -34q0 -21 7.5 -34.5t26.5 -20.5l-13 -34q-31 9 -47 27t-16 55l1 15q-31 -45 -72.5 -71t-90.5 -26q-77 0 -120.5 54t-43.5 149q0 78 27.5 156.5t87 131t150.5 52.5q48 0 84.5 -10.5zM203.5 447
q-48.5 -47 -71 -116.5t-22.5 -137.5q0 -80 31.5 -122t88.5 -42q48 0 87.5 29.5t74.5 86.5l46 322q-48 27 -111 27q-75 0 -123.5 -47zM488 764l20 -25l-141 -104h-28l-113 104l23 25l108 -85z" />
    <glyph glyph-name="uni01CF" unicode="&#x1cf;" horiz-adv-x="277" 
d="M221 684l-96 -684h-48l97 684h47zM342 880l20 -25l-140 -98h-28l-114 98l23 24l110 -78z" />
    <glyph glyph-name="uni01D0" unicode="&#x1d0;" horiz-adv-x="265" 
d="M192 522l-74 -522h-46l74 522h46zM319 764l20 -25l-141 -104h-28l-113 104l23 25l108 -85z" />
    <glyph glyph-name="uni01D1" unicode="&#x1d1;" horiz-adv-x="689" 
d="M575 624.5q62 -69.5 62 -199.5q0 -100 -32.5 -200t-106.5 -168t-189 -68q-109 0 -171.5 71t-62.5 201q0 97 33.5 196.5t107.5 168t188 68.5q109 0 171 -69.5zM241.5 590.5q-62.5 -62.5 -90 -153.5t-27.5 -178q0 -113 49.5 -170.5t136.5 -57.5q101 0 163.5 63t88.5 154
t26 179q0 113 -48.5 169.5t-137.5 56.5q-98 0 -160.5 -62.5zM549 880l20 -25l-140 -98h-28l-114 98l23 24l110 -78z" />
    <glyph glyph-name="uni01D2" unicode="&#x1d2;" horiz-adv-x="566" 
d="M111 44.5q-49 55.5 -49 154.5q0 75 26 151.5t84 129t148 52.5q88 0 136.5 -54t48.5 -153q0 -74 -25.5 -151.5t-83.5 -131t-149 -53.5q-87 0 -136 55.5zM369 77q47 47 67.5 115.5t20.5 134.5q0 81 -36 123.5t-102 42.5q-75 0 -121.5 -48t-67 -116t-20.5 -133
q0 -81 36 -123.5t102 -42.5q74 0 121 47zM471 764l20 -25l-141 -104h-28l-113 104l23 25l108 -85z" />
    <glyph glyph-name="uni01D3" unicode="&#x1d3;" horiz-adv-x="647" 
d="M535 210q-14 -101 -77 -161t-170 -60q-97 0 -145.5 47.5t-48.5 130.5q0 14 4 46l66 471h47l-65 -470q-3 -24 -3 -44q0 -66 36 -102t110 -36q88 0 137.5 49.5t61.5 135.5l66 467h47zM527 880l20 -25l-140 -98h-28l-114 98l23 24l110 -78z" />
    <glyph glyph-name="uni01D4" unicode="&#x1d4;" horiz-adv-x="577" 
d="M119 22.5q-32 33.5 -32 93.5q0 23 2 35l52 371h46l-52 -370q-2 -12 -2 -33q0 -90 83 -90q59 0 109 49t89 131l44 313h46l-74 -522h-37l16 145q-35 -72 -86 -114t-114 -42q-58 0 -90 33.5zM473 764l20 -25l-141 -104h-28l-113 104l23 25l108 -85z" />
    <glyph glyph-name="uni01D5" unicode="&#x1d5;" horiz-adv-x="647" 
d="M535 210q-14 -101 -77 -161t-170 -60q-97 0 -145.5 47.5t-48.5 130.5q0 14 4 46l66 471h47l-65 -470q-3 -24 -3 -44q0 -66 36 -102t110 -36q88 0 137.5 49.5t61.5 135.5l66 467h47zM276.5 751q-8.5 8 -8.5 21q0 16 10.5 26.5t26.5 10.5q14 0 22.5 -8t8.5 -21
q0 -16 -11 -26.5t-27 -10.5q-13 0 -21.5 8zM457.5 751q-8.5 8 -8.5 21q0 16 10.5 26.5t26.5 10.5q14 0 22.5 -8t8.5 -21q0 -16 -10.5 -26.5t-26.5 -10.5q-14 0 -22.5 8zM516 869h-229l7 39h228z" />
    <glyph glyph-name="uni01D6" unicode="&#x1d6;" horiz-adv-x="577" 
d="M119 22.5q-32 33.5 -32 93.5q0 23 2 35l52 371h46l-52 -370q-2 -12 -2 -33q0 -90 83 -90q59 0 109 49t89 131l44 313h46l-74 -522h-37l16 145q-35 -72 -86 -114t-114 -42q-58 0 -90 33.5zM225.5 644q-8.5 8 -8.5 21q0 16 10.5 26.5t26.5 10.5q14 0 22.5 -8t8.5 -21
q0 -16 -11 -26.5t-27 -10.5q-13 0 -21.5 8zM406.5 644q-8.5 8 -8.5 21q0 16 10.5 26.5t26.5 10.5q14 0 22.5 -8t8.5 -21q0 -16 -10.5 -26.5t-26.5 -10.5q-14 0 -22.5 8zM466 766h-229l7 39h228z" />
    <glyph glyph-name="uni01D7" unicode="&#x1d7;" horiz-adv-x="647" 
d="M535 210q-14 -101 -77 -161t-170 -60q-97 0 -145.5 47.5t-48.5 130.5q0 14 4 46l66 471h47l-65 -470q-3 -24 -3 -44q0 -66 36 -102t110 -36q88 0 137.5 49.5t61.5 135.5l66 467h47zM494 956l30 -32l-130 -116l-21 21zM275 751.5q-9 8.5 -9 21.5q0 15 10.5 26t26.5 11
q14 0 22.5 -8.5t8.5 -21.5q0 -15 -10.5 -26t-26.5 -11q-13 0 -22 8.5zM456.5 751.5q-8.5 8.5 -8.5 21.5q0 15 10.5 26t26.5 11q13 0 22 -8.5t9 -21.5q0 -15 -10.5 -26t-26.5 -11q-14 0 -22.5 8.5z" />
    <glyph glyph-name="uni01D8" unicode="&#x1d8;" horiz-adv-x="577" 
d="M119 22.5q-32 33.5 -32 93.5q0 23 2 35l52 371h46l-52 -370q-2 -12 -2 -33q0 -90 83 -90q59 0 109 49t89 131l44 313h46l-74 -522h-37l16 145q-35 -72 -86 -114t-114 -42q-58 0 -90 33.5zM443 848l30 -32l-130 -116l-21 21zM223.5 644.5q-8.5 8.5 -8.5 21.5q0 15 10.5 26
t26.5 11q13 0 22 -8.5t9 -21.5q0 -16 -11 -26.5t-27 -10.5q-13 0 -21.5 8.5zM404.5 644q-8.5 8 -8.5 22q0 15 10.5 26t26.5 11q14 0 22.5 -8.5t8.5 -21.5q0 -16 -10.5 -26.5t-26.5 -10.5q-14 0 -22.5 8z" />
    <glyph glyph-name="uni01D9" unicode="&#x1d9;" horiz-adv-x="647" 
d="M535 210q-14 -101 -77 -161t-170 -60q-97 0 -145.5 47.5t-48.5 130.5q0 14 4 46l66 471h47l-65 -470q-3 -24 -3 -44q0 -66 36 -102t110 -36q88 0 137.5 49.5t61.5 135.5l66 467h47zM529 940l20 -25l-140 -98h-28l-114 98l23 24l110 -78zM276.5 751.5q-8.5 8.5 -8.5 21.5
q0 15 10.5 26t26.5 11q13 0 22 -8.5t9 -21.5q0 -15 -10.5 -26t-26.5 -11q-14 0 -22.5 8.5zM458 751.5q-9 8.5 -9 21.5q0 15 10.5 26t26.5 11q14 0 22.5 -8.5t8.5 -21.5q0 -15 -10.5 -26t-26.5 -11q-13 0 -22 8.5z" />
    <glyph glyph-name="uni01DA" unicode="&#x1da;" horiz-adv-x="577" 
d="M119 22.5q-32 33.5 -32 93.5q0 23 2 35l52 371h46l-52 -370q-2 -12 -2 -33q0 -90 83 -90q59 0 109 49t89 131l44 313h46l-74 -522h-37l16 145q-35 -72 -86 -114t-114 -42q-58 0 -90 33.5zM478 833l20 -25l-140 -98h-28l-114 98l23 24l110 -78zM223.5 644.5
q-8.5 8.5 -8.5 21.5q0 15 11 26t27 11q13 0 21.5 -8.5t8.5 -21.5q0 -16 -10.5 -26.5t-26.5 -10.5q-14 0 -22.5 8.5zM405.5 644q-8.5 8 -8.5 22q0 15 10.5 26t26.5 11q13 0 22 -8.5t9 -21.5q0 -16 -10.5 -26.5t-26.5 -10.5q-14 0 -22.5 8z" />
    <glyph glyph-name="uni01DB" unicode="&#x1db;" horiz-adv-x="647" 
d="M535 210q-14 -101 -77 -161t-170 -60q-97 0 -145.5 47.5t-48.5 130.5q0 14 4 46l66 471h47l-65 -470q-3 -24 -3 -44q0 -66 36 -102t110 -36q88 0 137.5 49.5t61.5 135.5l66 467h47zM328 956l86 -130l-23 -18l-99 119zM276 751.5q-9 8.5 -9 21.5q0 15 10.5 26t26.5 11
q14 0 22.5 -8.5t8.5 -21.5q0 -15 -10.5 -26t-26.5 -11q-13 0 -22 8.5zM457.5 751.5q-8.5 8.5 -8.5 21.5q0 15 10.5 26t26.5 11q13 0 22 -8.5t9 -21.5q0 -15 -10.5 -26t-26.5 -11q-14 0 -22.5 8.5z" />
    <glyph glyph-name="uni01DC" unicode="&#x1dc;" horiz-adv-x="577" 
d="M119 22.5q-32 33.5 -32 93.5q0 23 2 35l52 371h46l-52 -370q-2 -12 -2 -33q0 -90 83 -90q59 0 109 49t89 131l44 313h46l-74 -522h-37l16 145q-35 -72 -86 -114t-114 -42q-58 0 -90 33.5zM279 848l86 -130l-23 -18l-99 119zM227.5 644.5q-8.5 8.5 -8.5 21.5q0 15 11 26
t27 11q13 0 22 -8.5t9 -21.5q0 -16 -11 -26.5t-27 -10.5q-14 0 -22.5 8.5zM409.5 644q-8.5 8 -8.5 22q0 15 10.5 26t26.5 11q14 0 22.5 -8.5t8.5 -21.5q0 -16 -10.5 -26.5t-26.5 -10.5q-14 0 -22.5 8z" />
    <glyph glyph-name="uni01DD" unicode="&#x1dd;" horiz-adv-x="512" 
d="M401 478.5q49 -54.5 49 -154.5q0 -79 -29 -156t-88.5 -127.5t-147.5 -50.5q-70 0 -110.5 34.5t-40.5 88.5q0 93 95.5 140.5t272.5 59.5v10q0 86 -37.5 127.5t-102.5 41.5q-42 0 -76.5 -13t-73.5 -41l-22 33q42 31 84 46.5t90 15.5q88 0 137 -54.5zM295.5 64.5
q45.5 35.5 71 91.5t32.5 119q-159 -11 -238 -50t-79 -110q0 -38 26 -62t77 -24q65 0 110.5 35.5z" />
    <glyph glyph-name="uni01DE" unicode="&#x1de;" 
d="M454 0l-36 192h-296l-90 -192h-49l327 684h59l134 -684h-49zM142 234h268l-76 411zM233.5 751q-8.5 8 -8.5 21q0 16 10.5 26.5t26.5 10.5q14 0 22.5 -8t8.5 -21q0 -16 -11 -26.5t-27 -10.5q-13 0 -21.5 8zM414.5 751q-8.5 8 -8.5 21q0 16 10.5 26.5t26.5 10.5
q14 0 22.5 -8t8.5 -21q0 -16 -10.5 -26.5t-26.5 -10.5q-14 0 -22.5 8zM473 869h-229l7 39h228z" />
    <glyph glyph-name="uni01DF" unicode="&#x1df;" horiz-adv-x="556" 
d="M410.5 521.5q36.5 -10.5 76.5 -31.5l-55 -378q-3 -19 -3 -34q0 -21 7.5 -34.5t26.5 -20.5l-13 -34q-31 9 -47 27t-16 55l1 15q-31 -45 -72.5 -71t-90.5 -26q-77 0 -120.5 54t-43.5 149q0 78 27.5 156.5t87 131t150.5 52.5q48 0 84.5 -10.5zM203.5 447
q-48.5 -47 -71 -116.5t-22.5 -137.5q0 -80 31.5 -122t88.5 -42q48 0 87.5 29.5t74.5 86.5l46 322q-48 27 -111 27q-75 0 -123.5 -47zM240.5 644q-8.5 8 -8.5 21q0 16 10.5 26.5t26.5 10.5q14 0 22.5 -8t8.5 -21q0 -16 -11 -26.5t-27 -10.5q-13 0 -21.5 8zM421.5 644
q-8.5 8 -8.5 21q0 16 10.5 26.5t26.5 10.5q14 0 22.5 -8t8.5 -21q0 -16 -10.5 -26.5t-26.5 -10.5q-14 0 -22.5 8zM481 766h-229l7 39h228z" />
    <glyph glyph-name="uni01E0" unicode="&#x1e0;" 
d="M454 0l-36 192h-296l-90 -192h-49l327 684h59l134 -684h-49zM142 234h268l-76 411zM323 751.5q-9 8.5 -9 22.5q0 17 11 28t28 11q15 0 23.5 -8.5t8.5 -22.5q0 -17 -11 -28t-27 -11q-15 0 -24 8.5zM474 869h-229l7 39h228z" />
    <glyph glyph-name="uni01E1" unicode="&#x1e1;" horiz-adv-x="556" 
d="M410.5 521.5q36.5 -10.5 76.5 -31.5l-55 -378q-3 -19 -3 -34q0 -21 7.5 -34.5t26.5 -20.5l-13 -34q-31 9 -47 27t-16 55l1 15q-31 -45 -72.5 -71t-90.5 -26q-77 0 -120.5 54t-43.5 149q0 78 27.5 156.5t87 131t150.5 52.5q48 0 84.5 -10.5zM203.5 447
q-48.5 -47 -71 -116.5t-22.5 -137.5q0 -80 31.5 -122t88.5 -42q48 0 87.5 29.5t74.5 86.5l46 322q-48 27 -111 27q-75 0 -123.5 -47zM329 632.5q-9 8.5 -9 22.5q0 17 11 28t28 11q15 0 23.5 -8.5t8.5 -22.5q0 -17 -11 -28t-27 -11q-15 0 -24 8.5zM481 753h-229l7 39h228z
" />
    <glyph glyph-name="uni01E2" unicode="&#x1e2;" horiz-adv-x="770" 
d="M725 643h-329l32 -266h258l-5 -41h-248l35 -295h229l-7 -41h-264l-21 188h-290l-98 -188h-51l361 684h410zM400 229l-47 416l-217 -416h264zM640 805h-229l7 39h228z" />
    <glyph glyph-name="uni01E3" unicode="&#x1e3;" horiz-adv-x="818" 
d="M389 502.5q38 -29.5 49 -78.5q22 42 75 75t118 33q70 0 111.5 -34.5t41.5 -89.5q0 -92 -96 -139t-274 -59q0 -180 142 -180q42 0 76 13t74 41l22 -33q-42 -31 -84 -46.5t-90 -15.5q-62 0 -106 28t-63 81q-47 -59 -96 -84t-105 -25q-68 0 -108 37t-40 99q0 76 57 126.5
t179 50.5h109q13 50 25 80q-2 50 -35 80.5t-90 30.5q-35 0 -69 -7.5t-76 -23.5l-11 37q86 33 159 33q67 0 105 -29.5zM521 457.5q-46 -35.5 -71 -91.5t-33 -119q160 12 239.5 50t79.5 109q0 38 -27 62.5t-78 24.5q-64 0 -110 -35.5zM275 266q-99 0 -144.5 -38t-45.5 -103
q0 -47 27.5 -72t75.5 -25q51 0 96.5 26.5t89.5 83.5q-5 30 -5 63t5 65h-99zM582 679h-229l7 39h228z" />
    <glyph glyph-name="uni01E4" unicode="&#x1e4;" horiz-adv-x="628" 
d="M615 199h-79l-22 -155q-97 -55 -202 -55q-111 0 -174 69.5t-63 201.5q0 106 37.5 206t112.5 164t181 64q54 0 97 -16t80 -49l-31 -29q-33 28 -67 40.5t-79 12.5q-92 0 -155.5 -58.5t-95 -150t-31.5 -189.5q0 -112 50.5 -168t141.5 -56q82 0 153 38l19 130h-131l6 41h131
l12 83h-137v42h190l-18 -125h80z" />
    <glyph glyph-name="uni01E5" unicode="&#x1e5;" horiz-adv-x="499" 
d="M410 -46h71l-5 -37h-78q-50 -120 -189 -120q-87 0 -170 48l19 34q38 -20 73.5 -31.5t79.5 -11.5q100 0 140 81h-138l5 37h147q8 27 10 45l13 98q-30 -44 -71 -69t-90 -25q-77 0 -120.5 54t-44.5 147q0 74 28 149.5t87.5 127t150.5 51.5q49 0 85 -10.5t78 -31.5l-71 -488
q-2 -19 -10 -48zM397 156l45 311q-49 27 -113 27q-74 0 -123 -45t-72 -111t-23 -131q0 -79 32 -122t90 -43q92 0 164 114z" />
    <glyph glyph-name="Gcaron" unicode="&#x1e6;" horiz-adv-x="612" 
d="M503 678q43 -16 80 -49l-31 -28q-33 27 -67 39.5t-79 12.5q-92 0 -155.5 -58.5t-95 -150t-31.5 -189.5q0 -112 50.5 -168t141.5 -56q82 0 153 38l37 254h-137v42h190l-45 -321q-97 -55 -202 -55q-111 0 -174 69.5t-63 201.5q0 106 37.5 206t112.5 164t181 64q54 0 97 -16
zM552 880l20 -25l-140 -98h-28l-114 98l23 24l110 -78z" />
    <glyph glyph-name="gcaron" unicode="&#x1e7;" horiz-adv-x="563" 
d="M414 521.5q37 -10.5 77 -31.5l-71 -488q-16 -109 -71.5 -157t-139.5 -48q-87 0 -170 48l19 34q36 -20 72 -31.5t78 -11.5q65 0 109.5 38t56.5 125l14 95q-30 -44 -71.5 -69t-89.5 -25q-77 0 -121 55t-44 149q0 75 28 150.5t88 126.5t150 51q49 0 86 -10.5zM205 448
q-49 -46 -72 -113.5t-22 -133.5q0 -77 32 -119t89 -42q94 0 164 114l45 313q-48 27 -112 27q-75 0 -124 -46zM470 764l20 -25l-141 -104h-28l-113 104l23 25l108 -85z" />
    <glyph glyph-name="uni01E8" unicode="&#x1e8;" horiz-adv-x="531" 
d="M77 0l97 684h48l-97 -684h-48zM438 0l-257 367l335 317h58l-338 -319l258 -365h-56zM502 880l20 -25l-140 -98h-28l-114 98l23 24l110 -78z" />
    <glyph glyph-name="uni01E9" unicode="&#x1e9;" horiz-adv-x="515" 
d="M172 381q42 78 93 114.5t108 36.5q53 0 85 -29t32 -80q0 -64 -45 -111.5t-131 -74.5l119 -237h-51l-124 253q183 50 183 167q0 74 -77 74q-57 0 -108.5 -50t-94.5 -143l-43 -301h-46l104 735l47 6zM494 931l20 -25l-140 -98h-28l-114 98l23 24l110 -78z" />
    <glyph glyph-name="uni01EA" unicode="&#x1ea;" horiz-adv-x="689" 
d="M281 -60q-32 -28 -32 -64q0 -48 58 -48q24 0 57 6l-8 -41q-30 -6 -55 -6q-47 0 -72 21.5t-25 55.5q0 40 23 70t73 55q-105 3 -165 74t-60 198q0 97 33.5 196.5t107.5 168t188 68.5q109 0 171 -69.5t62 -199.5q0 -88 -25.5 -177.5t-82 -158.5t-145.5 -91q-71 -30 -103 -58
zM173.5 88.5q49.5 -57.5 136.5 -57.5q101 0 163.5 63t88.5 154t26 179q0 113 -48.5 169.5t-137.5 56.5q-98 0 -160.5 -62.5t-90 -153.5t-27.5 -178q0 -113 49.5 -170.5z" />
    <glyph glyph-name="uni01EB" unicode="&#x1eb;" horiz-adv-x="566" 
d="M210 -60.5q-32 -27.5 -32 -63.5q0 -48 58 -48q24 0 57 6l-8 -41q-30 -6 -55 -6q-47 0 -72 21.5t-25 55.5q0 40 23.5 70.5t73.5 55.5q-80 5 -124 60.5t-44 148.5q0 75 26 151.5t84 129t148 52.5q88 0 136.5 -54t48.5 -153q0 -64 -19.5 -132t-62.5 -122.5t-111 -73.5
q-70 -30 -102 -57.5zM146 72.5q36 -42.5 102 -42.5q74 0 121 47t67.5 115.5t20.5 134.5q0 81 -36 123.5t-102 42.5q-75 0 -121.5 -48t-67 -116t-20.5 -133q0 -81 36 -123.5z" />
    <glyph glyph-name="uni01EC" unicode="&#x1ec;" horiz-adv-x="689" 
d="M542 844l-6 -39h-229l7 39h228zM281 -60q-32 -28 -32 -64q0 -48 58 -48q24 0 57 6l-8 -41q-30 -6 -55 -6q-47 0 -72 21.5t-25 55.5q0 40 23 70t73 55q-105 3 -165 74t-60 198q0 97 33.5 196.5t107.5 168t188 68.5q109 0 171 -69.5t62 -199.5q0 -88 -25.5 -177.5
t-82 -158.5t-145.5 -91q-71 -30 -103 -58zM173.5 88.5q49.5 -57.5 136.5 -57.5q101 0 163.5 63t88.5 154t26 179q0 113 -48.5 169.5t-137.5 56.5q-98 0 -160.5 -62.5t-90 -153.5t-27.5 -178q0 -113 49.5 -170.5z" />
    <glyph glyph-name="uni01ED" unicode="&#x1ed;" horiz-adv-x="566" 
d="M463 718l-6 -39h-229l7 39h228zM210 -60.5q-32 -27.5 -32 -63.5q0 -48 58 -48q24 0 57 6l-8 -41q-30 -6 -55 -6q-47 0 -72 21.5t-25 55.5q0 40 23.5 70.5t73.5 55.5q-80 5 -124 60.5t-44 148.5q0 75 26 151.5t84 129t148 52.5q88 0 136.5 -54t48.5 -153q0 -64 -19.5 -132
t-62.5 -122.5t-111 -73.5q-70 -30 -102 -57.5zM146 72.5q36 -42.5 102 -42.5q74 0 121 47t67.5 115.5t20.5 134.5q0 81 -36 123.5t-102 42.5q-75 0 -121.5 -48t-67 -116t-20.5 -133q0 -81 36 -123.5z" />
    <glyph glyph-name="uni01EE" unicode="&#x1ee;" horiz-adv-x="486" 
d="M466 644l-266 -262h30q99 0 149.5 -42t50.5 -120q0 -67 -32 -120t-88 -82t-127 -29q-66 0 -111.5 22t-79.5 65l31 25q33 -37 69 -53.5t90 -16.5q91 0 144.5 52t53.5 137q0 65 -40 94t-117 29h-84l6 39l259 261h-312l6 41h373zM429 880l20 -25l-140 -98h-28l-114 98l23 24
l110 -78z" />
    <glyph glyph-name="uni01EF" unicode="&#x1ef;" horiz-adv-x="453" 
d="M426 485l-259 -287h11q207 0 207 -162q0 -69 -30.5 -123.5t-85.5 -85t-125 -30.5q-61 0 -104.5 22t-78.5 64l31 25q33 -37 68.5 -53.5t82.5 -16.5q60 0 104 25.5t67 70.5t23 102q0 66 -40 94.5t-126 28.5h-61l6 39l253 283h-303l6 41h360zM402 764l20 -25l-141 -104h-28
l-113 104l23 25l108 -85z" />
    <glyph glyph-name="uni01F0" unicode="&#x1f0;" horiz-adv-x="266" 
d="M-51 -166q41 20 64.5 39.5t39 52.5t23.5 89l71 507h46l-72 -509q-9 -67 -28 -105.5t-48.5 -61.5t-82.5 -46zM320 764l20 -25l-141 -104h-28l-113 104l23 25l108 -85z" />
    <glyph glyph-name="uni01F1" unicode="&#x1f1;" horiz-adv-x="1113" 
d="M500 628.5q74 -55.5 74 -199.5q0 -114 -35.5 -211t-115 -157.5t-204.5 -60.5h-142l97 684h131q121 0 195 -55.5zM215 643l-83 -602h94q107 0 174 56.5t96.5 144.5t29.5 188q0 125 -60.5 169t-160.5 44h-90zM601 0l6 41l456 600h-334l6 43h389l-5 -40l-455 -601h362
l-13 -43h-412z" />
    <glyph glyph-name="uni01F2" unicode="&#x1f2;" horiz-adv-x="1032" 
d="M500 628.5q74 -55.5 74 -199.5q0 -114 -35.5 -211t-115 -157.5t-204.5 -60.5h-142l97 684h131q121 0 195 -55.5zM215 643l-83 -602h94q107 0 174 56.5t96.5 144.5t29.5 188q0 125 -60.5 169t-160.5 44h-90zM1034 522l-5 -37l-357 -444h290l-10 -41h-345l6 37l357 444
h-270l6 41h328z" />
    <glyph glyph-name="uni01F3" unicode="&#x1f3;" horiz-adv-x="990" 
d="M532 735l-104 -735h-39l9 113q-71 -124 -178 -124q-74 0 -116.5 54.5t-42.5 150.5q0 76 25 154t80 131t140 53q94 0 140 -74l40 283zM196.5 446q-45.5 -47 -66 -116t-20.5 -137q0 -79 30.5 -121.5t85.5 -42.5q56 0 97 38t85 113l32 232q-43 81 -128 81q-70 0 -115.5 -47z
M992 522l-5 -37l-357 -444h290l-10 -41h-345l6 37l357 444h-270l6 41h328z" />
    <glyph glyph-name="uni01F4" unicode="&#x1f4;" horiz-adv-x="612" 
d="M503 678q43 -16 80 -49l-31 -28q-33 27 -67 39.5t-79 12.5q-92 0 -155.5 -58.5t-95 -150t-31.5 -189.5q0 -112 50.5 -168t141.5 -56q82 0 153 38l37 254h-137v42h190l-45 -321q-97 -55 -202 -55q-111 0 -174 69.5t-63 201.5q0 106 37.5 206t112.5 164t181 64q54 0 97 -16
zM505 878l16 -44l-201 -75l-11 28z" />
    <glyph glyph-name="uni01F5" unicode="&#x1f5;" horiz-adv-x="563" 
d="M414 521.5q37 -10.5 77 -31.5l-71 -488q-16 -109 -71.5 -157t-139.5 -48q-87 0 -170 48l19 34q36 -20 72 -31.5t78 -11.5q65 0 109.5 38t56.5 125l14 95q-30 -44 -71.5 -69t-89.5 -25q-77 0 -121 55t-44 149q0 75 28 150.5t88 126.5t150 51q49 0 86 -10.5zM205 448
q-49 -46 -72 -113.5t-22 -133.5q0 -77 32 -119t89 -42q94 0 164 114l45 313q-48 27 -112 27q-75 0 -124 -46zM436 776l17 -44l-201 -84l-13 27z" />
    <glyph glyph-name="uni01F6" unicode="&#x1f6;" horiz-adv-x="959" 
d="M524 28q-37 39 -37 102q0 10 2 30l25 179h-341l-48 -339h-48l97 684h47l-42 -303h341l42 303h48l-74 -524q-2 -20 -2 -29q0 -50 26.5 -75.5t74.5 -25.5q115 0 159.5 115.5t44.5 277.5q0 54 -3 99h46q3 -48 3 -104q0 -181 -56.5 -305t-197.5 -124q-70 0 -107 39z" />
    <glyph glyph-name="uni01F7" unicode="&#x1f7;" horiz-adv-x="565" 
d="M510 653.5q43 -40.5 43 -112.5q0 -111 -75.5 -176.5t-212.5 -112.5l-110 -37l-30 -215h-48l97 684h47l-8 -56q82 66 182 66q72 0 115 -40.5zM442 390.5q62 57.5 62 149.5q0 55 -30 84t-84 29t-98.5 -19t-84.5 -51l-46 -325l105 36q114 39 176 96.5z" />
    <glyph glyph-name="uni01F8" unicode="&#x1f8;" horiz-adv-x="667" 
d="M516 0h-60l-250 639q-3 -78 -26 -235l-57 -404h-46l97 684h61l250 -638q5 87 21 209l61 429h45zM348 877l171 -90l-17 -28l-177 75z" />
    <glyph glyph-name="uni01F9" unicode="&#x1f9;" horiz-adv-x="581" 
d="M463.5 499.5q31.5 -32.5 31.5 -92.5q0 -18 -3 -38l-52 -369h-46l52 367q3 20 3 35q0 91 -83 91q-106 0 -204 -181l-44 -312h-46l74 522h39l-15 -140q40 72 92.5 111t111.5 39q58 0 89.5 -32.5zM293 776l169 -101l-17 -27l-178 84z" />
    <glyph glyph-name="Aringacute" unicode="&#x1fa;" 
d="M454 0l-36 192h-296l-90 -192h-49l327 684h59l134 -684h-49zM142 234h268l-76 411zM424 884q23 -22 23 -56q0 -44 -30 -72.5t-74 -28.5q-38 0 -61 22.5t-23 56.5q0 44 30 72t74 28q38 0 61 -22zM314 856q-18 -20 -18 -50q0 -22 12.5 -35t35.5 -13q31 0 48.5 20.5
t17.5 48.5q0 23 -12.5 36t-35.5 13q-30 0 -48 -20zM461 1032l16 -44l-201 -75l-11 28z" />
    <glyph glyph-name="aringacute" unicode="&#x1fb;" horiz-adv-x="556" 
d="M410.5 521.5q36.5 -10.5 76.5 -31.5l-55 -378q-3 -19 -3 -34q0 -21 7.5 -34.5t26.5 -20.5l-13 -34q-31 9 -47 27t-16 55l1 15q-31 -45 -72.5 -71t-90.5 -26q-77 0 -120.5 54t-43.5 149q0 78 27.5 156.5t87 131t150.5 52.5q48 0 84.5 -10.5zM203.5 447
q-48.5 -47 -71 -116.5t-22.5 -137.5q0 -80 31.5 -122t88.5 -42q48 0 87.5 29.5t74.5 86.5l46 322q-48 27 -111 27q-75 0 -123.5 -47zM429 746q23 -22 23 -56q0 -44 -30 -72.5t-74 -28.5q-38 0 -61 22.5t-23 56.5q0 44 30 72t74 28q38 0 61 -22zM319 718q-18 -20 -18 -50
q0 -22 12.5 -35t35.5 -13q31 0 48.5 20.5t17.5 48.5q0 23 -12.5 36t-35.5 13q-30 0 -48 -20zM459 896l16 -44l-201 -75l-11 28z" />
    <glyph glyph-name="AEacute" unicode="&#x1fc;" horiz-adv-x="770" 
d="M725 643h-329l32 -266h258l-5 -41h-248l35 -295h229l-7 -41h-264l-21 188h-290l-98 -188h-51l361 684h410zM400 229l-47 416l-217 -416h264zM606 878l16 -44l-201 -75l-11 28z" />
    <glyph glyph-name="aeacute" unicode="&#x1fd;" horiz-adv-x="818" 
d="M389 502.5q38 -29.5 49 -78.5q22 42 75 75t118 33q70 0 111.5 -34.5t41.5 -89.5q0 -92 -96 -139t-274 -59q0 -180 142 -180q42 0 76 13t74 41l22 -33q-42 -31 -84 -46.5t-90 -15.5q-62 0 -106 28t-63 81q-47 -59 -96 -84t-105 -25q-68 0 -108 37t-40 99q0 76 57 126.5
t179 50.5h109q13 50 25 80q-2 50 -35 80.5t-90 30.5q-35 0 -69 -7.5t-76 -23.5l-11 37q86 33 159 33q67 0 105 -29.5zM521 457.5q-46 -35.5 -71 -91.5t-33 -119q160 12 239.5 50t79.5 109q0 38 -27 62.5t-78 24.5q-64 0 -110 -35.5zM275 266q-99 0 -144.5 -38t-45.5 -103
q0 -47 27.5 -72t75.5 -25q51 0 96.5 26.5t89.5 83.5q-5 30 -5 63t5 65h-99zM562 776l17 -44l-201 -84l-13 27z" />
    <glyph glyph-name="Oslashacute" unicode="&#x1fe;" horiz-adv-x="689" 
d="M606.5 576.5q30.5 -61.5 30.5 -151.5q0 -100 -32.5 -200t-106.5 -168t-189 -68q-44 0 -82 12l-51 -118l-40 12l54 122q-55 31 -85 93t-30 151q0 97 33.5 196.5t107.5 168t188 68.5q41 0 79 -11l52 124l41 -12l-56 -127q56 -30 86.5 -91.5zM211 55l258 589q-30 9 -67 9
q-99 0 -161 -63t-89.5 -154t-27.5 -180q0 -149 87 -201zM473.5 94.5q62.5 63.5 88.5 154.5t26 181q0 153 -90 201l-257 -589q33 -11 69 -11q101 0 163.5 63.5zM502 882l16 -44l-201 -75l-11 28z" />
    <glyph glyph-name="oslashacute" unicode="&#x1ff;" horiz-adv-x="566" 
d="M484 436q21 -46 21 -111q0 -74 -25.5 -151.5t-83.5 -131t-149 -53.5q-37 0 -66 10l-59 -122l-37 11l60 127q-40 26 -61.5 73t-21.5 111q0 75 26 151.5t84 129t148 52.5q38 0 67 -10l57 124l38 -12l-59 -128q40 -24 61 -70zM168 51l204 434q-26 8 -53 8q-75 0 -121.5 -48
t-67 -116t-20.5 -133q0 -105 58 -145zM369 77q47 47 67.5 115.5t20.5 134.5q0 103 -56 143l-204 -433q21 -7 51 -7q74 0 121 47zM436 776l17 -44l-201 -84l-13 27z" />
    <glyph glyph-name="uni0200" unicode="&#x200;" 
d="M454 0l-36 192h-296l-90 -192h-49l327 684h59l134 -684h-49zM142 234h268l-76 411zM259 930l56 -144l-33 -15l-69 136zM380 929l49 -139l-33 -15l-62 132z" />
    <glyph glyph-name="uni0201" unicode="&#x201;" horiz-adv-x="556" 
d="M410.5 521.5q36.5 -10.5 76.5 -31.5l-55 -378q-3 -19 -3 -34q0 -21 7.5 -34.5t26.5 -20.5l-13 -34q-31 9 -47 27t-16 55l1 15q-31 -45 -72.5 -71t-90.5 -26q-77 0 -120.5 54t-43.5 149q0 78 27.5 156.5t87 131t150.5 52.5q48 0 84.5 -10.5zM203.5 447
q-48.5 -47 -71 -116.5t-22.5 -137.5q0 -80 31.5 -122t88.5 -42q48 0 87.5 29.5t74.5 86.5l46 322q-48 27 -111 27q-75 0 -123.5 -47zM263 804l56 -144l-33 -15l-69 136zM384 803l49 -139l-33 -15l-62 132z" />
    <glyph glyph-name="uni0202" unicode="&#x202;" 
d="M454 0l-36 192h-296l-90 -192h-49l327 684h59l134 -684h-49zM142 234h268l-76 411zM230 797q13 46 50 73.5t86 27.5t79 -28.5t31 -75.5l-33 -4q-11 69 -79 69q-36 0 -62.5 -18.5t-40.5 -53.5z" />
    <glyph glyph-name="uni0203" unicode="&#x203;" horiz-adv-x="556" 
d="M410.5 521.5q36.5 -10.5 76.5 -31.5l-55 -378q-3 -19 -3 -34q0 -21 7.5 -34.5t26.5 -20.5l-13 -34q-31 9 -47 27t-16 55l1 15q-31 -45 -72.5 -71t-90.5 -26q-77 0 -120.5 54t-43.5 149q0 78 27.5 156.5t87 131t150.5 52.5q48 0 84.5 -10.5zM203.5 447
q-48.5 -47 -71 -116.5t-22.5 -137.5q0 -80 31.5 -122t88.5 -42q48 0 87.5 29.5t74.5 86.5l46 322q-48 27 -111 27q-75 0 -123.5 -47zM228 635q13 46 50 73.5t86 27.5t79 -28.5t31 -75.5l-33 -4q-11 69 -79 69q-36 0 -62.5 -18.5t-40.5 -53.5z" />
    <glyph glyph-name="uni0204" unicode="&#x204;" horiz-adv-x="502" 
d="M512 684l-12 -41h-285l-37 -266h247l-6 -41h-246l-42 -295h298l-7 -41h-345l97 684h338zM266 930l56 -144l-33 -15l-69 136zM387 929l49 -139l-33 -15l-62 132z" />
    <glyph glyph-name="uni0205" unicode="&#x205;" horiz-adv-x="512" 
d="M382.5 268.5q-95.5 -47.5 -272.5 -59.5v-10q0 -86 37.5 -127.5t102.5 -41.5q42 0 76.5 13t73.5 41l22 -33q-42 -31 -84 -46.5t-90 -15.5q-88 0 -137 54.5t-49 154.5q0 79 29 156t88.5 127.5t147.5 50.5q70 0 110.5 -34.5t40.5 -88.5q0 -93 -95.5 -140.5zM216.5 457.5
q-45.5 -35.5 -71 -91.5t-32.5 -119q159 11 238 50t79 110q0 38 -26 62t-77 24q-65 0 -110.5 -35.5zM237 804l56 -144l-33 -15l-69 136zM358 803l49 -139l-33 -15l-62 132z" />
    <glyph glyph-name="uni0206" unicode="&#x206;" horiz-adv-x="502" 
d="M512 684l-12 -41h-285l-37 -266h247l-6 -41h-246l-42 -295h298l-7 -41h-345l97 684h338zM237 797q13 46 50 73.5t86 27.5t79 -28.5t31 -75.5l-33 -4q-11 69 -79 69q-36 0 -62.5 -18.5t-40.5 -53.5z" />
    <glyph glyph-name="uni0207" unicode="&#x207;" horiz-adv-x="512" 
d="M382.5 268.5q-95.5 -47.5 -272.5 -59.5v-10q0 -86 37.5 -127.5t102.5 -41.5q42 0 76.5 13t73.5 41l22 -33q-42 -31 -84 -46.5t-90 -15.5q-88 0 -137 54.5t-49 154.5q0 79 29 156t88.5 127.5t147.5 50.5q70 0 110.5 -34.5t40.5 -88.5q0 -93 -95.5 -140.5zM216.5 457.5
q-45.5 -35.5 -71 -91.5t-32.5 -119q159 11 238 50t79 110q0 38 -26 62t-77 24q-65 0 -110.5 -35.5zM202 635q13 46 50 73.5t86 27.5t79 -28.5t31 -75.5l-33 -4q-11 69 -79 69q-36 0 -62.5 -18.5t-40.5 -53.5z" />
    <glyph glyph-name="uni0208" unicode="&#x208;" horiz-adv-x="277" 
d="M221 684l-96 -684h-48l97 684h47zM117 930l56 -144l-33 -15l-69 136zM238 929l49 -139l-33 -15l-62 132z" />
    <glyph glyph-name="uni0209" unicode="&#x209;" horiz-adv-x="265" 
d="M192 522l-74 -522h-46l74 522h46zM94 804l56 -144l-33 -15l-69 136zM215 803l49 -139l-33 -15l-62 132z" />
    <glyph glyph-name="uni020A" unicode="&#x20a;" horiz-adv-x="277" 
d="M221 684l-96 -684h-48l97 684h47zM88 797q13 46 50 73.5t86 27.5t79 -28.5t31 -75.5l-33 -4q-11 69 -79 69q-36 0 -62.5 -18.5t-40.5 -53.5z" />
    <glyph glyph-name="uni020B" unicode="&#x20b;" horiz-adv-x="265" 
d="M192 522l-74 -522h-46l74 522h46zM59 635q13 46 50 73.5t86 27.5t79 -28.5t31 -75.5l-33 -4q-11 69 -79 69q-36 0 -62.5 -18.5t-40.5 -53.5z" />
    <glyph glyph-name="uni020C" unicode="&#x20c;" horiz-adv-x="689" 
d="M575 624.5q62 -69.5 62 -199.5q0 -100 -32.5 -200t-106.5 -168t-189 -68q-109 0 -171.5 71t-62.5 201q0 97 33.5 196.5t107.5 168t188 68.5q109 0 171 -69.5zM241.5 590.5q-62.5 -62.5 -90 -153.5t-27.5 -178q0 -113 49.5 -170.5t136.5 -57.5q101 0 163.5 63t88.5 154
t26 179q0 113 -48.5 169.5t-137.5 56.5q-98 0 -160.5 -62.5zM324 930l56 -144l-33 -15l-69 136zM445 929l49 -139l-33 -15l-62 132z" />
    <glyph glyph-name="uni020D" unicode="&#x20d;" horiz-adv-x="566" 
d="M111 44.5q-49 55.5 -49 154.5q0 75 26 151.5t84 129t148 52.5q88 0 136.5 -54t48.5 -153q0 -74 -25.5 -151.5t-83.5 -131t-149 -53.5q-87 0 -136 55.5zM369 77q47 47 67.5 115.5t20.5 134.5q0 81 -36 123.5t-102 42.5q-75 0 -121.5 -48t-67 -116t-20.5 -133
q0 -81 36 -123.5t102 -42.5q74 0 121 47zM246 804l56 -144l-33 -15l-69 136zM367 803l49 -139l-33 -15l-62 132z" />
    <glyph glyph-name="uni020E" unicode="&#x20e;" horiz-adv-x="689" 
d="M575 624.5q62 -69.5 62 -199.5q0 -100 -32.5 -200t-106.5 -168t-189 -68q-109 0 -171.5 71t-62.5 201q0 97 33.5 196.5t107.5 168t188 68.5q109 0 171 -69.5zM241.5 590.5q-62.5 -62.5 -90 -153.5t-27.5 -178q0 -113 49.5 -170.5t136.5 -57.5q101 0 163.5 63t88.5 154
t26 179q0 113 -48.5 169.5t-137.5 56.5q-98 0 -160.5 -62.5zM295 797q13 46 50 73.5t86 27.5t79 -28.5t31 -75.5l-33 -4q-11 69 -79 69q-36 0 -62.5 -18.5t-40.5 -53.5z" />
    <glyph glyph-name="uni020F" unicode="&#x20f;" horiz-adv-x="566" 
d="M111 44.5q-49 55.5 -49 154.5q0 75 26 151.5t84 129t148 52.5q88 0 136.5 -54t48.5 -153q0 -74 -25.5 -151.5t-83.5 -131t-149 -53.5q-87 0 -136 55.5zM369 77q47 47 67.5 115.5t20.5 134.5q0 81 -36 123.5t-102 42.5q-75 0 -121.5 -48t-67 -116t-20.5 -133
q0 -81 36 -123.5t102 -42.5q74 0 121 47zM211 635q13 46 50 73.5t86 27.5t79 -28.5t31 -75.5l-33 -4q-11 69 -79 69q-36 0 -62.5 -18.5t-40.5 -53.5z" />
    <glyph glyph-name="uni0210" unicode="&#x210;" horiz-adv-x="583" 
d="M502.5 396.5q-44.5 -57.5 -137.5 -77.5l145 -319h-53l-140 313h-148l-44 -313h-48l97 684h165q208 0 208 -157q0 -73 -44.5 -130.5zM299 353q105 0 151.5 51.5t46.5 122.5q0 59 -38.5 87.5t-123.5 28.5h-120l-41 -290h125zM270 930l56 -144l-33 -15l-69 136zM391 929
l49 -139l-33 -15l-62 132z" />
    <glyph glyph-name="uni0211" unicode="&#x211;" horiz-adv-x="368" 
d="M391 525l-13 -42q-22 6 -41 6q-57 0 -97 -46t-78 -138l-44 -305h-46l74 522h40l-16 -134q31 70 72.5 107t98.5 37q29 0 50 -7zM193 804l56 -144l-33 -15l-69 136zM314 803l49 -139l-33 -15l-62 132z" />
    <glyph glyph-name="uni0212" unicode="&#x212;" horiz-adv-x="583" 
d="M502.5 396.5q-44.5 -57.5 -137.5 -77.5l145 -319h-53l-140 313h-148l-44 -313h-48l97 684h165q208 0 208 -157q0 -73 -44.5 -130.5zM299 353q105 0 151.5 51.5t46.5 122.5q0 59 -38.5 87.5t-123.5 28.5h-120l-41 -290h125zM241 797q13 46 50 73.5t86 27.5t79 -28.5
t31 -75.5l-33 -4q-11 69 -79 69q-36 0 -62.5 -18.5t-40.5 -53.5z" />
    <glyph glyph-name="uni0213" unicode="&#x213;" horiz-adv-x="368" 
d="M391 525l-13 -42q-22 6 -41 6q-57 0 -97 -46t-78 -138l-44 -305h-46l74 522h40l-16 -134q31 70 72.5 107t98.5 37q29 0 50 -7zM158 635q13 46 50 73.5t86 27.5t79 -28.5t31 -75.5l-33 -4q-11 69 -79 69q-36 0 -62.5 -18.5t-40.5 -53.5z" />
    <glyph glyph-name="uni0214" unicode="&#x214;" horiz-adv-x="647" 
d="M535 210q-14 -101 -77 -161t-170 -60q-97 0 -145.5 47.5t-48.5 130.5q0 14 4 46l66 471h47l-65 -470q-3 -24 -3 -44q0 -66 36 -102t110 -36q88 0 137.5 49.5t61.5 135.5l66 467h47zM302 930l56 -144l-33 -15l-69 136zM423 929l49 -139l-33 -15l-62 132z" />
    <glyph glyph-name="uni0215" unicode="&#x215;" horiz-adv-x="577" 
d="M119 22.5q-32 33.5 -32 93.5q0 23 2 35l52 371h46l-52 -370q-2 -12 -2 -33q0 -90 83 -90q59 0 109 49t89 131l44 313h46l-74 -522h-37l16 145q-35 -72 -86 -114t-114 -42q-58 0 -90 33.5zM248 804l56 -144l-33 -15l-69 136zM369 803l49 -139l-33 -15l-62 132z" />
    <glyph glyph-name="uni0216" unicode="&#x216;" horiz-adv-x="647" 
d="M535 210q-14 -101 -77 -161t-170 -60q-97 0 -145.5 47.5t-48.5 130.5q0 14 4 46l66 471h47l-65 -470q-3 -24 -3 -44q0 -66 36 -102t110 -36q88 0 137.5 49.5t61.5 135.5l66 467h47zM273 797q13 46 50 73.5t86 27.5t79 -28.5t31 -75.5l-33 -4q-11 69 -79 69
q-36 0 -62.5 -18.5t-40.5 -53.5z" />
    <glyph glyph-name="uni0217" unicode="&#x217;" horiz-adv-x="577" 
d="M119 22.5q-32 33.5 -32 93.5q0 23 2 35l52 371h46l-52 -370q-2 -12 -2 -33q0 -90 83 -90q59 0 109 49t89 131l44 313h46l-74 -522h-37l16 145q-35 -72 -86 -114t-114 -42q-58 0 -90 33.5zM213 635q13 46 50 73.5t86 27.5t79 -28.5t31 -75.5l-33 -4q-11 69 -79 69
q-36 0 -62.5 -18.5t-40.5 -53.5z" />
    <glyph glyph-name="Scommaaccent" unicode="&#x218;" horiz-adv-x="535" 
d="M426 675q44 -19 80 -56l-31 -29q-33 33 -68.5 48t-82.5 15q-76 0 -122.5 -37.5t-46.5 -97.5q0 -50 31.5 -78.5t110.5 -53.5q88 -28 130 -69.5t42 -113.5q0 -53 -26.5 -102t-82.5 -80.5t-139 -31.5q-66 0 -115.5 22.5t-88.5 64.5l32 29q34 -36 75 -55t97 -19q68 0 113 25
t65.5 64t20.5 82q0 54 -32.5 86.5t-110.5 59.5q-92 30 -131 67t-39 101q0 47 25.5 87.5t75 65.5t116.5 25q58 0 102 -19zM243 -97q10 -10 10 -25q0 -13 -5.5 -25.5t-23.5 -41.5l-51 -84h-30l50 114q-9 5 -13.5 13.5t-4.5 17.5q0 17 11.5 29t30.5 12q16 0 26 -10z" />
    <glyph glyph-name="scommaaccent" unicode="&#x219;" horiz-adv-x="461" 
d="M344 518q38 -14 71 -43l-25 -28q-30 23 -61 34.5t-70 11.5q-59 0 -94.5 -25.5t-35.5 -70.5q0 -35 25.5 -58t91.5 -43q78 -25 112 -59.5t34 -89.5q0 -69 -52 -113.5t-146 -44.5q-60 0 -103 18.5t-78 50.5l27 28q34 -28 70 -42t83 -14q70 0 110.5 29.5t40.5 84.5
q0 43 -26 68t-97 47q-78 24 -108.5 56t-30.5 81q0 38 22 69t62 49t93 18q47 0 85 -14zM206 -97q10 -10 10 -25q0 -13 -5.5 -25.5t-23.5 -41.5l-51 -84h-30l50 114q-9 5 -13.5 13.5t-4.5 17.5q0 17 11.5 29t30.5 12q16 0 26 -10z" />
    <glyph glyph-name="uni021A" unicode="&#x21a;" horiz-adv-x="486" 
d="M535 684l-12 -44h-203l-90 -640h-48l90 640h-204l6 44h461zM224 -97q10 -10 10 -25q0 -13 -5.5 -25.5t-23.5 -41.5l-51 -84h-30l50 114q-9 5 -13.5 13.5t-4.5 17.5q0 17 11.5 29t30.5 12q16 0 26 -10z" />
    <glyph glyph-name="uni021B" unicode="&#x21b;" horiz-adv-x="333" 
d="M134 125q-2 -20 -2 -27q0 -68 67 -68q38 0 88 25l17 -34q-53 -32 -110 -32q-50 0 -79 27.5t-29 78.5q0 19 2 29l51 359h-88l6 39h88l27 128l36 4l-18 -132h137l-11 -39h-132zM209 -97q10 -10 10 -25q0 -13 -5.5 -25.5t-23.5 -41.5l-51 -84h-30l50 114q-9 5 -13.5 13.5
t-4.5 17.5q0 17 11.5 29t30.5 12q16 0 26 -10z" />
    <glyph glyph-name="uni021C" unicode="&#x21c;" horiz-adv-x="498" 
d="M414.5 652.5q45.5 -41.5 45.5 -113.5t-42 -117t-113 -63q60 -6 95.5 -39t35.5 -96q0 -127 -111.5 -199.5t-304.5 -110.5l-1 40q172 38 269.5 100t97.5 169q0 117 -157 114l-63 -1l12 42h51q80 0 130.5 44t50.5 115q0 56 -32 86t-90 30q-51 0 -96.5 -18.5t-93.5 -53.5
l-24 31q53 42 104 62t112 20q79 0 124.5 -41.5z" />
    <glyph glyph-name="uni021D" unicode="&#x21d;" horiz-adv-x="459" 
d="M351 497q42 -35 42 -93q0 -56 -34.5 -90.5t-94.5 -45.5q58 -1 89.5 -26.5t31.5 -73.5q0 -97 -100 -161.5t-255 -99.5l-5 35q147 40 229 93t82 133q0 41 -29.5 59t-89.5 18h-80l9 38h43q71 0 113.5 32t42.5 88q0 43 -28 66.5t-79 23.5q-44 0 -78.5 -11t-76.5 -35l-20 31
q83 54 176 54q70 0 112 -35z" />
    <glyph glyph-name="uni021E" unicode="&#x21e;" horiz-adv-x="665" 
d="M125 0h-48l97 684h47l-42 -303h341l42 303h48l-96 -684h-48l48 339h-341zM534 880l20 -25l-140 -98h-28l-114 98l23 24l110 -78z" />
    <glyph glyph-name="uni021F" unicode="&#x21f;" horiz-adv-x="582" 
d="M464 500q31 -32 31 -92q0 -17 -3 -38l-52 -370h-46l52 367q3 20 3 37q0 89 -83 89q-58 0 -108 -48t-96 -133l-44 -312h-46l104 735l47 6l-51 -357q39 70 91 109t110 39q60 0 91 -32zM505 931l20 -25l-140 -98h-28l-114 98l23 24l110 -78z" />
    <glyph glyph-name="uni0220" unicode="&#x220;" horiz-adv-x="657" 
d="M547 654q39 -40 39 -114q0 -22 -3 -46l-97 -689h-47l96 684q4 34 4 46q0 118 -112 118q-65 0 -120 -32.5t-107 -88.5l-75 -532h-48l97 684h41l-9 -100q101 110 227 110q75 0 114 -40z" />
    <glyph glyph-name="uni0221" unicode="&#x221;" horiz-adv-x="673" 
d="M653 171.5q25 -22.5 25 -58.5q0 -55 -45.5 -89.5t-111.5 -34.5q-55 0 -86 25l-53 -77l-31 15l61 89q-16 29 -14 70q-73 -122 -178 -122q-74 0 -116.5 54.5t-42.5 150.5q0 76 25 154t80 131t140 53q94 0 140 -74l40 283l46 -6l-86 -610q-2 -13 -2 -34q33 53 66.5 78
t77.5 25q40 0 65 -22.5zM323.5 67q41.5 38 83.5 111l33 234q-43 81 -128 81q-70 0 -115.5 -47t-66 -116t-20.5 -137q0 -79 30.5 -121.5t85.5 -42.5q56 0 97.5 38zM603.5 52.5q31.5 21.5 31.5 59.5q0 22 -13.5 33.5t-36.5 11.5q-31 0 -58 -22t-68 -84q19 -20 66 -20
t78.5 21.5z" />
    <glyph glyph-name="uni0222" unicode="&#x222;" horiz-adv-x="633" 
d="M520.5 442q-31.5 -42 -90.5 -62q62 -17 94.5 -57.5t32.5 -99.5q0 -68 -34.5 -121.5t-97.5 -83t-144 -29.5q-108 0 -165 48.5t-57 129.5t48.5 137t132.5 77q-43 17 -64 49t-21 83q0 19 3 40l18 131h48l-19 -132q-3 -21 -3 -39q0 -58 32.5 -86t100.5 -28q86 0 127.5 41.5
t51.5 114.5l18 129h48l-19 -134q-9 -66 -40.5 -108zM333 358q-103 0 -164 -52t-61 -139q0 -65 43 -100.5t131 -35.5q105 0 165 51t60 140q0 136 -174 136z" />
    <glyph glyph-name="uni0223" unicode="&#x223;" horiz-adv-x="562" 
d="M465.5 468q-30.5 -41 -84.5 -60q54 -16 82 -57t28 -103q0 -74 -30.5 -133t-86 -92.5t-128.5 -33.5q-89 0 -139 49.5t-50 131.5q0 88 45 152.5t122 86.5q-78 30 -78 123q0 18 3 39l23 164h46l-24 -167q-3 -19 -3 -36q0 -51 27.5 -78.5t84.5 -27.5q70 0 108.5 40.5
t47.5 104.5l23 164h46l-23 -167q-9 -59 -39.5 -100zM409 351q-35 36 -108 36q-62 0 -106 -29t-67 -78.5t-23 -109.5q0 -68 36.5 -104t105.5 -36q94 0 145.5 61t51.5 157q0 67 -35 103z" />
    <glyph glyph-name="uni0224" unicode="&#x224;" horiz-adv-x="512" 
d="M518 644l-455 -601h359l-6 -43l-11 -77q-10 -63 -45 -94.5t-87 -31.5q-51 0 -94 34l24 30q16 -11 31.5 -17t38.5 -6q72 0 85 88l11 74h-369l6 41l456 600h-334l6 43h389z" />
    <glyph glyph-name="uni0225" unicode="&#x225;" horiz-adv-x="415" 
d="M413 485l-357 -444h288l-5 -41l-11 -77q-9 -62 -44.5 -94t-86.5 -32q-31 0 -53 9.5t-41 24.5l23 29q17 -11 32.5 -17t37.5 -6q34 0 57 20.5t29 67.5l11 75h-302l6 37l357 444h-270l6 41h328z" />
    <glyph glyph-name="uni0226" unicode="&#x226;" 
d="M454 0l-36 192h-296l-90 -192h-49l327 684h59l134 -684h-49zM142 234h268l-76 411zM336 808.5q-9 8.5 -9 22.5q0 17 11 28t28 11q15 0 23.5 -8.5t8.5 -22.5q0 -17 -11 -28t-27 -11q-15 0 -24 8.5z" />
    <glyph glyph-name="uni0227" unicode="&#x227;" horiz-adv-x="556" 
d="M410.5 521.5q36.5 -10.5 76.5 -31.5l-55 -378q-3 -19 -3 -34q0 -21 7.5 -34.5t26.5 -20.5l-13 -34q-31 9 -47 27t-16 55l1 15q-31 -45 -72.5 -71t-90.5 -26q-77 0 -120.5 54t-43.5 149q0 78 27.5 156.5t87 131t150.5 52.5q48 0 84.5 -10.5zM203.5 447
q-48.5 -47 -71 -116.5t-22.5 -137.5q0 -80 31.5 -122t88.5 -42q48 0 87.5 29.5t74.5 86.5l46 322q-48 27 -111 27q-75 0 -123.5 -47zM338 682.5q-9 8.5 -9 22.5q0 17 11 28t28 11q15 0 23.5 -8.5t8.5 -22.5q0 -17 -11 -28t-27 -11q-15 0 -24 8.5z" />
    <glyph glyph-name="uni0228" unicode="&#x228;" horiz-adv-x="502" 
d="M215 643l-37 -266h247l-6 -41h-246l-42 -295h298l-7 -41h-160l-12 -67q84 -6 84 -69q0 -39 -31 -63t-78 -24q-44 0 -75 22l19 28q26 -14 57 -14q29 0 47 12.5t18 36.5q0 23 -18 33t-64 10l20 95h-152l97 684h338l-12 -41h-285z" />
    <glyph glyph-name="uni0229" unicode="&#x229;" horiz-adv-x="512" 
d="M382.5 268.5q-95.5 -47.5 -272.5 -59.5v-10q0 -86 37.5 -127.5t102.5 -41.5q42 0 76.5 13t73.5 41l22 -33q-40 -30 -80 -45.5t-87 -16.5l-10 -56q84 -6 84 -70q0 -39 -30.5 -62.5t-77.5 -23.5q-45 0 -76 22l19 29q24 -15 57 -15q29 0 47 12.5t18 36.5q0 23 -18 33t-64 10
l18 85q-76 8 -118 62t-42 146q0 79 29 156t88.5 127.5t147.5 50.5q70 0 110.5 -34.5t40.5 -88.5q0 -93 -95.5 -140.5zM216.5 457.5q-45.5 -35.5 -71 -91.5t-32.5 -119q159 11 238 50t79 110q0 38 -26 62t-77 24q-65 0 -110.5 -35.5z" />
    <glyph glyph-name="uni022A" unicode="&#x22a;" horiz-adv-x="689" 
d="M575 624.5q62 -69.5 62 -199.5q0 -100 -32.5 -200t-106.5 -168t-189 -68q-109 0 -171.5 71t-62.5 201q0 97 33.5 196.5t107.5 168t188 68.5q109 0 171 -69.5zM241.5 590.5q-62.5 -62.5 -90 -153.5t-27.5 -178q0 -113 49.5 -170.5t136.5 -57.5q101 0 163.5 63t88.5 154
t26 179q0 113 -48.5 169.5t-137.5 56.5q-98 0 -160.5 -62.5zM298.5 751q-8.5 8 -8.5 21q0 16 10.5 26.5t26.5 10.5q14 0 22.5 -8t8.5 -21q0 -16 -11 -26.5t-27 -10.5q-13 0 -21.5 8zM479.5 751q-8.5 8 -8.5 21q0 16 10.5 26.5t26.5 10.5q14 0 22.5 -8t8.5 -21
q0 -16 -10.5 -26.5t-26.5 -10.5q-14 0 -22.5 8zM538 869h-229l7 39h228z" />
    <glyph glyph-name="uni022B" unicode="&#x22b;" horiz-adv-x="566" 
d="M111 44.5q-49 55.5 -49 154.5q0 75 26 151.5t84 129t148 52.5q88 0 136.5 -54t48.5 -153q0 -74 -25.5 -151.5t-83.5 -131t-149 -53.5q-87 0 -136 55.5zM369 77q47 47 67.5 115.5t20.5 134.5q0 81 -36 123.5t-102 42.5q-75 0 -121.5 -48t-67 -116t-20.5 -133
q0 -81 36 -123.5t102 -42.5q74 0 121 47zM223.5 644q-8.5 8 -8.5 21q0 16 10.5 26.5t26.5 10.5q14 0 22.5 -8t8.5 -21q0 -16 -11 -26.5t-27 -10.5q-13 0 -21.5 8zM404.5 644q-8.5 8 -8.5 21q0 16 10.5 26.5t26.5 10.5q14 0 22.5 -8t8.5 -21q0 -16 -10.5 -26.5t-26.5 -10.5
q-14 0 -22.5 8zM464 766h-229l7 39h228z" />
    <glyph glyph-name="uni022C" unicode="&#x22c;" horiz-adv-x="689" 
d="M545 888h-229l7 39h228zM445.5 763.5q-14.5 6.5 -34.5 18.5q-14 10 -24.5 14.5t-21.5 4.5q-19 0 -31.5 -8.5t-31.5 -31.5l-27 19q44 60 90 60q17 0 30.5 -6t32.5 -18q15 -10 26.5 -15.5t23.5 -5.5q16 0 30.5 10.5t32.5 33.5l28 -17q-41 -65 -90 -65q-19 0 -33.5 6.5z
M575 624.5q62 -69.5 62 -199.5q0 -100 -32.5 -200t-106.5 -168t-189 -68q-109 0 -171.5 71t-62.5 201q0 97 33.5 196.5t107.5 168t188 68.5q109 0 171 -69.5zM241.5 590.5q-62.5 -62.5 -90 -153.5t-27.5 -178q0 -113 49.5 -170.5t136.5 -57.5q101 0 163.5 63t88.5 154
t26 179q0 113 -48.5 169.5t-137.5 56.5q-98 0 -160.5 -62.5z" />
    <glyph glyph-name="uni022D" unicode="&#x22d;" horiz-adv-x="566" 
d="M111 44.5q-49 55.5 -49 154.5q0 75 26 151.5t84 129t148 52.5q88 0 136.5 -54t48.5 -153q0 -74 -25.5 -151.5t-83.5 -131t-149 -53.5q-87 0 -136 55.5zM369 77q47 47 67.5 115.5t20.5 134.5q0 81 -36 123.5t-102 42.5q-75 0 -121.5 -48t-67 -116t-20.5 -133
q0 -81 36 -123.5t102 -42.5q74 0 121 47zM353.5 609.5q-14.5 6.5 -34.5 18.5q-14 10 -24.5 14.5t-21.5 4.5q-19 0 -31.5 -8.5t-31.5 -31.5l-27 19q44 60 90 60q17 0 30.5 -6t32.5 -18q15 -10 26.5 -15.5t23.5 -5.5q16 0 30.5 10.5t32.5 33.5l28 -17q-41 -65 -90 -65
q-19 0 -33.5 6.5zM450 734h-229l7 39h228z" />
    <glyph glyph-name="uni022E" unicode="&#x22e;" horiz-adv-x="689" 
d="M575 624.5q62 -69.5 62 -199.5q0 -100 -32.5 -200t-106.5 -168t-189 -68q-109 0 -171.5 71t-62.5 201q0 97 33.5 196.5t107.5 168t188 68.5q109 0 171 -69.5zM241.5 590.5q-62.5 -62.5 -90 -153.5t-27.5 -178q0 -113 49.5 -170.5t136.5 -57.5q101 0 163.5 63t88.5 154
t26 179q0 113 -48.5 169.5t-137.5 56.5q-98 0 -160.5 -62.5zM401 808.5q-9 8.5 -9 22.5q0 17 11 28t28 11q15 0 23.5 -8.5t8.5 -22.5q0 -17 -11 -28t-27 -11q-15 0 -24 8.5z" />
    <glyph glyph-name="uni022F" unicode="&#x22f;" horiz-adv-x="566" 
d="M111 44.5q-49 55.5 -49 154.5q0 75 26 151.5t84 129t148 52.5q88 0 136.5 -54t48.5 -153q0 -74 -25.5 -151.5t-83.5 -131t-149 -53.5q-87 0 -136 55.5zM369 77q47 47 67.5 115.5t20.5 134.5q0 81 -36 123.5t-102 42.5q-75 0 -121.5 -48t-67 -116t-20.5 -133
q0 -81 36 -123.5t102 -42.5q74 0 121 47zM321 682.5q-9 8.5 -9 22.5q0 17 11 28t28 11q15 0 23.5 -8.5t8.5 -22.5q0 -17 -11 -28t-27 -11q-15 0 -24 8.5z" />
    <glyph glyph-name="uni0230" unicode="&#x230;" horiz-adv-x="689" 
d="M575 624.5q62 -69.5 62 -199.5q0 -100 -32.5 -200t-106.5 -168t-189 -68q-109 0 -171.5 71t-62.5 201q0 97 33.5 196.5t107.5 168t188 68.5q109 0 171 -69.5zM241.5 590.5q-62.5 -62.5 -90 -153.5t-27.5 -178q0 -113 49.5 -170.5t136.5 -57.5q101 0 163.5 63t88.5 154
t26 179q0 113 -48.5 169.5t-137.5 56.5q-98 0 -160.5 -62.5zM388 751.5q-9 8.5 -9 22.5q0 17 11 28t28 11q15 0 23.5 -8.5t8.5 -22.5q0 -17 -11 -28t-27 -11q-15 0 -24 8.5zM539 869h-229l7 39h228z" />
    <glyph glyph-name="uni0231" unicode="&#x231;" horiz-adv-x="566" 
d="M111 44.5q-49 55.5 -49 154.5q0 75 26 151.5t84 129t148 52.5q88 0 136.5 -54t48.5 -153q0 -74 -25.5 -151.5t-83.5 -131t-149 -53.5q-87 0 -136 55.5zM369 77q47 47 67.5 115.5t20.5 134.5q0 81 -36 123.5t-102 42.5q-75 0 -121.5 -48t-67 -116t-20.5 -133
q0 -81 36 -123.5t102 -42.5q74 0 121 47zM312 632.5q-9 8.5 -9 22.5q0 17 11 28t28 11q15 0 23.5 -8.5t8.5 -22.5q0 -17 -11 -28t-27 -11q-15 0 -24 8.5zM464 753h-229l7 39h228z" />
    <glyph glyph-name="uni0232" unicode="&#x232;" horiz-adv-x="512" 
d="M555 684l-273 -415l-38 -269h-48l38 268l-159 416h51l136 -371l239 371h54zM444 805h-229l7 39h228z" />
    <glyph glyph-name="uni0233" unicode="&#x233;" horiz-adv-x="458" 
d="M226 -4q-42 -89 -91.5 -133t-139.5 -64l-3 37q54 14 86 33.5t53.5 48.5t49.5 82h-18l-109 522h49l96 -487l229 487h50zM396 679h-229l7 39h228z" />
    <glyph glyph-name="uni0234" unicode="&#x234;" horiz-adv-x="358" 
d="M338 171.5q25 -22.5 25 -58.5q0 -55 -45.5 -89.5t-111.5 -34.5q-55 0 -86 25l-53 -77l-31 15l62 89q-14 26 -14 60q0 8 2 28l86 606l46 6l-87 -618q-2 -12 -2 -33q33 54 66.5 79t77.5 25q40 0 65 -22.5zM288.5 52.5q31.5 21.5 31.5 59.5q0 22 -13.5 33.5t-36.5 11.5
q-31 0 -58 -22t-68 -85q18 -19 66 -19q47 0 78.5 21.5z" />
    <glyph glyph-name="uni0235" unicode="&#x235;" horiz-adv-x="684" 
d="M665 171.5q25 -22.5 25 -58.5q0 -55 -45.5 -89.5t-112.5 -34.5q-55 0 -86 25l-52 -77l-32 15l62 89q-14 26 -14 60q0 8 2 28l34 238q3 20 3 35q0 91 -83 91q-106 0 -204 -181l-44 -312h-46l74 522h39l-15 -140q40 72 92.5 111t111.5 39q58 0 89.5 -33t31.5 -94
q0 -16 -3 -36l-35 -246q-2 -13 -2 -34q33 54 67 79.5t78 25.5q40 0 65 -22.5zM615 52.5q32 21.5 32 59.5q0 21 -13.5 33t-37.5 12q-30 0 -57.5 -22t-68.5 -85q19 -19 66 -19t79 21.5z" />
    <glyph glyph-name="uni0236" unicode="&#x236;" horiz-adv-x="361" 
d="M341 171.5q25 -22.5 25 -58.5q0 -55 -45.5 -89.5t-112.5 -34.5q-55 0 -86 25l-52 -77l-32 15l62 89q-14 26 -14 60q0 8 2 28l51 354h-88l6 39h88l27 128l36 4l-19 -132h138l-11 -39h-132l-51 -361q-2 -12 -2 -33q32 54 66.5 79.5t78.5 25.5q40 0 65 -22.5zM291 52.5
q32 21.5 32 59.5q0 21 -13.5 33t-37.5 12q-30 0 -57.5 -22t-68.5 -85q19 -19 66 -19t79 21.5z" />
    <glyph glyph-name="uni0237" unicode="&#x237;" horiz-adv-x="266" 
d="M-51 -166q41 20 64.5 39.5t39 52.5t23.5 89l71 507h46l-72 -509q-9 -67 -28 -105.5t-48.5 -61.5t-82.5 -46z" />
    <glyph glyph-name="uni0238" unicode="&#x238;" horiz-adv-x="840" 
d="M739.5 482q38.5 -50 38.5 -144q0 -88 -26 -168.5t-77.5 -130.5t-123.5 -50q-46 0 -78.5 27t-51.5 74l-19 -90h-34l8 90q-31 -49 -72 -75t-89 -26q-71 0 -112.5 54.5t-41.5 149.5q0 86 28.5 164t82 126.5t124.5 48.5q86 0 130 -85l40 288l46 6l-41 -294q34 41 74.5 63
t85.5 22q70 0 108.5 -50zM420 404q-26 45 -53 67t-66 22q-59 0 -102.5 -44.5t-66 -113.5t-22.5 -142q0 -79 29.5 -121.5t81.5 -42.5q49 0 88 29.5t75 92.5zM648.5 75.5q41.5 46.5 62 118t20.5 146.5q0 77 -28 115t-79 38q-46 0 -83 -24t-77 -70l-36 -257q20 -59 48.5 -86
t71.5 -27q59 0 100.5 46.5z" />
    <glyph glyph-name="uni0239" unicode="&#x239;" horiz-adv-x="840" 
d="M740.5 482q38.5 -50 38.5 -141q-1 -91 -27 -171.5t-77 -130.5t-123 -50q-45 0 -79 25.5t-53 68.5l-39 -278l-48 -8l40 282q-66 -90 -159 -90q-69 0 -111 55t-42 150q0 86 29 164t83 126t126 48q46 0 78 -24t50 -63l15 77h33l-6 -77q72 87 163 87q70 0 108.5 -50zM307 56
q38 27 74 81l37 264q-44 92 -116 92q-59 0 -103 -44t-66.5 -113t-22.5 -142q0 -80 29.5 -122.5t82.5 -42.5q47 0 85 27zM648.5 76q41.5 46 62 117.5t20.5 147.5q0 75 -27 113.5t-77 38.5q-46 0 -84.5 -24.5t-78.5 -69.5l-37 -263q39 -106 120 -106q60 0 101.5 46z" />
    <glyph glyph-name="uni023A" unicode="&#x23a;" 
d="M456 0l-36 192h-168l-105 -262l-29 7l103 255h-100l-90 -192h-48l327 684h59l16 -84l58 143l28 -8l-75 -187l107 -548h-47zM140 233h97l119 295l-22 118zM269 233h143l-46 242z" />
    <glyph glyph-name="uni023B" unicode="&#x23b;" horiz-adv-x="545" 
d="M463 645l-240 -593q37 -19 85 -19q50 0 86.5 14.5t74.5 43.5l25 -35q-85 -67 -189 -67q-54 0 -99 20l-32 -79l-29 7l35 86q-50 33 -77.5 93.5t-27.5 144.5q0 100 34 199.5t107.5 166.5t184.5 67q29 0 49 -4l21 53l28 -8l-21 -51q50 -16 87 -52l-28 -29q-39 32 -74 42z
M434 651q-20 2 -32 2q-97 0 -159.5 -61t-90.5 -151.5t-28 -180.5q0 -135 74 -193z" />
    <glyph glyph-name="uni023C" unicode="&#x23c;" horiz-adv-x="465" 
d="M377 484l-184 -443q24 -10 57 -10q66 0 131 45l21 -33q-70 -54 -154 -54q-39 0 -72 12l-29 -71l-26 7l31 75q-43 24 -66.5 72t-23.5 115q0 75 27 152t85 129t146 52q26 0 45 -4l26 63l27 -8l-26 -62q38 -14 65 -41l-27 -29q-25 22 -53 33zM350 491q-20 2 -31 2
q-73 0 -120 -46.5t-68 -115t-21 -134.5q0 -105 59 -144z" />
    <glyph glyph-name="uni023D" unicode="&#x23d;" horiz-adv-x="484" 
d="M151 44h286l-13 -44h-328l49 342h-103l6 42h102l43 300h47l-42 -300h108l-6 -42h-108z" />
    <glyph glyph-name="uni023E" unicode="&#x23e;" horiz-adv-x="486" 
d="M523 640h-120l-125 -292l-49 -348h-47l26 185l-109 -255l-27 9l151 353l49 348h-204l6 44h317l25 59l27 -9l-21 -50h113zM293 456l79 184h-53z" />
    <glyph glyph-name="uni023F" unicode="&#x23f;" horiz-adv-x="464" 
d="M361 236q34 -35 34 -91q0 -44 -22.5 -79.5t-66.5 -56t-104 -20.5q-41 0 -84 16q25 -21 41.5 -44t33.5 -56q20 -36 34.5 -52t40.5 -16q31 0 62 17l17 -31q-36 -26 -82 -26q-28 0 -47 11t-31 28.5t-31 51.5q-29 55 -58 93.5t-82 76.5l22 27q43 -28 78 -41.5t83 -13.5
q68 0 108 29t40 83q0 43 -26 69t-96 48q-78 24 -109 56t-31 81q0 38 22 69t62.5 49t93.5 18q47 0 85 -14t71 -43l-26 -28q-30 23 -61 34.5t-70 11.5q-59 0 -94.5 -25.5t-35.5 -69.5q0 -36 25.5 -59t91.5 -43q78 -25 112 -60z" />
    <glyph glyph-name="uni0240" unicode="&#x240;" horiz-adv-x="416" 
d="M-3 37l358 444h-271l6 41h328l-5 -37l-369 -457q61 -12 94.5 -42t64.5 -79q23 -36 41 -53t48 -17t61 17l17 -31q-36 -26 -81 -26q-30 0 -50.5 11t-34.5 27t-33 44q-23 35 -43 57t-53.5 40t-83.5 24z" />
    <glyph glyph-name="uni0241" unicode="&#x241;" horiz-adv-x="459" 
d="M166 300l69 17q87 21 130.5 70t43.5 130q0 64 -35 100t-100 36q-49 0 -93 -18.5t-89 -53.5l-26 31q50 41 101.5 61.5t109.5 20.5q85 0 133.5 -47.5t48.5 -126.5q0 -98 -53.5 -156.5t-155.5 -82.5l-41 -9l-39 -272h-47z" />
    <glyph glyph-name="uni0242" unicode="&#x242;" horiz-adv-x="423" 
d="M119 182l74 18q149 38 149 169q0 58 -32.5 90t-90.5 32q-47 0 -82.5 -14.5t-75.5 -43.5l-24 31q43 34 85.5 51t98.5 17q78 0 123.5 -44.5t45.5 -117.5q0 -83 -48.5 -134t-136.5 -72l-44 -10l-21 -154h-46z" />
    <glyph glyph-name="uni0243" unicode="&#x243;" horiz-adv-x="599" 
d="M497.5 319.5q38.5 -34.5 38.5 -102.5q0 -56 -25 -105t-84.5 -80.5t-155.5 -31.5h-187l25 177h-89l6 39h89l66 468h162q96 0 150.5 -38t54.5 -112q0 -70 -42 -115.5t-112 -56.5q65 -8 103.5 -42.5zM222 643l-36 -263h142q82 0 127 43.5t45 109.5q0 110 -154 110h-124z
M437.5 92q48.5 51 48.5 126q0 62 -40.5 92t-111.5 30h-154l-17 -124h182l-6 -39h-181l-19 -136h136q114 0 162.5 51z" />
    <glyph glyph-name="uni0244" unicode="&#x244;" horiz-adv-x="665" 
d="M653 515h-64l-42 -305q-14 -101 -77 -161t-170 -60q-97 0 -145.5 47.5t-48.5 130.5q0 14 4 46l42 302h-65l6 36h64l19 133h47l-18 -133h342l19 133h47l-19 -133h65zM542 515h-342l-42 -301q-3 -24 -3 -44q0 -66 36 -102t110 -36q88 0 137.5 49.5t61.5 135.5z" />
    <glyph glyph-name="uni0245" unicode="&#x245;" 
d="M369 684l134 -684h-49l-120 645l-302 -645h-49l327 684h59z" />
    <glyph glyph-name="uni0246" unicode="&#x246;" horiz-adv-x="502" 
d="M500 643h-58l-108 -266h91l-6 -41h-101l-119 -295h230l-7 -41h-240l-28 -70l-29 7l25 63h-73l97 684h253l24 59l28 -8l-21 -51h54zM303 377l108 266h-196l-37 -266h125zM167 41l119 295h-113l-42 -295h36z" />
    <glyph glyph-name="uni0247" unicode="&#x247;" horiz-adv-x="512" 
d="M424.5 296q-53.5 -43 -155.5 -66l-78 -189q23 -11 59 -11q42 0 76.5 13t73.5 41l22 -33q-42 -31 -84 -46.5t-90 -15.5q-41 0 -74 12l-29 -71l-26 7l31 75q-43 24 -65.5 71t-22.5 115q0 79 29 156t88.5 127.5t147.5 50.5q20 0 36 -3l26 62l26 -8l-25 -60q42 -13 65 -43.5
t23 -70.5q0 -70 -53.5 -113zM216.5 457.5q-45.5 -35.5 -71 -91.5t-32.5 -119q84 6 142 19l93 226q-7 1 -21 1q-65 0 -110.5 -35.5zM416.5 455q-13.5 21 -41.5 31l-88 -213q143 40 143 134q0 27 -13.5 48zM237 224q-56 -10 -127 -15v-10q0 -105 57 -145z" />
    <glyph glyph-name="uni0248" unicode="&#x248;" horiz-adv-x="298" 
d="M290 322h-103l-33 -233q-9 -58 -27 -93.5t-52 -60t-95 -48.5l-11 36q49 22 76 43t41 51t20 78l32 227h-106l6 42h106l45 320h48l-45 -320h104z" />
    <glyph glyph-name="uni0249" unicode="&#x249;" horiz-adv-x="297" 
d="M273 226h-106l-30 -213q-9 -67 -28 -105.5t-48.5 -61.5t-82.5 -46l-13 34q41 20 64.5 39.5t39 52.5t23.5 89l30 211h-106l5 39h106l36 257h46l-36 -257h106zM186 682.5q-9 8.5 -9 22.5q0 17 11 28t28 11q15 0 23.5 -8.5t8.5 -22.5q0 -17 -11 -28t-27 -11q-15 0 -24 8.5z
" />
    <glyph glyph-name="uni024A" unicode="&#x24a;" horiz-adv-x="658" 
d="M646 -171q-46 -32 -100 -32q-47 0 -74.5 26t-27.5 76q0 8 2 28l11 73h-1l9 63q-35 -35 -79.5 -54.5t-95.5 -19.5q-98 0 -157 68.5t-59 195.5q0 108 38 210t108 166.5t163 64.5q101 0 161 -77l14 67h41l-95 -684l-10 -77q-2 -18 -2 -24q0 -61 56 -61q24 0 42 6t38 18z
M472 111l65 464q-60 78 -154 78q-81 0 -140 -60.5t-89.5 -154t-30.5 -189.5q0 -108 46.5 -163t124.5 -55q104 0 178 80z" />
    <glyph glyph-name="uni024B" unicode="&#x24b;" horiz-adv-x="563" 
d="M491 -190q-30 -13 -56 -13q-36 0 -56.5 19.5t-20.5 56.5q0 7 2 21l16 107l12 81q-29 -42 -71.5 -67.5t-91.5 -25.5q-78 0 -121 54t-43 149q0 78 27.5 156.5t87 131t150.5 52.5q48 0 85 -10.5t78 -31.5l-67 -489l-16 -111q-1 -6 -1 -17q0 -19 8.5 -27.5t28.5 -8.5
q15 0 39 8zM396 145l44 322q-48 27 -113 27q-75 0 -123.5 -47t-71 -116.5t-22.5 -137.5q0 -80 31.5 -122t89.5 -42q93 0 165 116z" />
    <glyph glyph-name="uni024C" unicode="&#x24c;" horiz-adv-x="591" 
d="M510.5 396.5q-44.5 -57.5 -137.5 -77.5l145 -319h-53l-140 313h-148l-44 -313h-48l44 313h-90l6 40h90l47 331h165q208 0 208 -157q0 -73 -44.5 -130.5zM458.5 404.5q46.5 51.5 46.5 122.5q0 59 -38.5 87.5t-123.5 28.5h-120l-41 -290h125q105 0 151.5 51.5z" />
    <glyph glyph-name="uni024D" unicode="&#x24d;" horiz-adv-x="380" 
d="M404 525l-13 -42q-22 6 -41 6q-57 0 -97 -46t-78 -138l-1 -4h108l-6 -38h-107l-38 -263h-46l37 263h-104l6 38h104l31 221h40l-16 -134q31 70 72.5 107t98.5 37q29 0 50 -7z" />
    <glyph glyph-name="uni024E" unicode="&#x24e;" horiz-adv-x="515" 
d="M496 591h50l-6 -35h-67l-188 -287l-39 -269h-48l38 268l-109 288h-68l5 35h49l-35 93h51l34 -93h281l60 93h53zM264 313l157 243h-245z" />
    <glyph glyph-name="uni024F" unicode="&#x24f;" horiz-adv-x="465" 
d="M414 383h49l-6 -36h-60l-168 -351q-42 -89 -91.5 -133t-139.5 -64l-3 37q54 14 86 33.5t53.5 48.5t49.5 82h-18l-72 347h-63l6 36h49l-29 139h49l27 -139h233l65 139h50zM202 35l147 312h-209z" />
    <glyph glyph-name="uni0250" unicode="&#x250;" horiz-adv-x="521" 
d="M134 154q-2 -12 -2 -34q0 -47 24.5 -68.5t80.5 -21.5q36 0 70.5 8t75.5 23l12 -37q-46 -18 -84.5 -26.5t-79.5 -8.5q-146 0 -146 126q0 19 3 38l36 257q3 20 3 35q0 21 -7.5 34t-26.5 20l14 34q32 -10 48 -30t14 -60q36 46 78 67.5t95 21.5q68 0 105.5 -36t37.5 -97
q0 -90 -65.5 -140t-169.5 -50h-108zM147 246h100q87 0 138.5 40t51.5 112q0 47 -26.5 71.5t-74.5 24.5q-99 0 -169 -102z" />
    <glyph glyph-name="uni0251" unicode="&#x251;" horiz-adv-x="556" 
d="M429 78q0 -21 7.5 -34.5t26.5 -20.5l-13 -34q-31 9 -47 27t-16 55l1 15q-31 -45 -72.5 -71t-90.5 -26q-78 0 -121 54t-43 149q0 78 29 157t85 131t134 52q95 0 130 -83l18 73h36l-61 -410q-3 -19 -3 -34zM429 390q-16 56 -46.5 79.5t-74.5 23.5q-63 0 -107.5 -46
t-67.5 -115.5t-23 -138.5q0 -80 31.5 -122t89.5 -42q48 0 87.5 29.5t74.5 86.5z" />
    <glyph glyph-name="uni0252" unicode="&#x252;" horiz-adv-x="556" 
d="M452 479q43 -54 43 -149q0 -78 -29 -157t-85 -131t-134 -52q-95 0 -130 83l-18 -73h-36l61 410q3 20 3 34q0 21 -7.5 34.5t-26.5 20.5l13 34q31 -9 47 -27t16 -55l-1 -15q31 45 72.5 71t90.5 26q78 0 121 -54zM355.5 75q44.5 46 67.5 115.5t23 138.5q0 80 -31.5 122
t-89.5 42q-48 0 -87.5 -29.5t-74.5 -86.5l-36 -245q16 -56 46.5 -79.5t74.5 -23.5q63 0 107.5 46z" />
    <glyph glyph-name="uni0253" unicode="&#x253;" horiz-adv-x="569" 
d="M468.5 482q40.5 -50 40.5 -145q0 -80 -26 -159.5t-86 -134t-154 -54.5q-43 0 -80 8t-87 26l70 498l13 93q9 60 50 93.5t104 33.5q62 0 118 -29l-20 -34q-49 23 -96 23q-97 0 -110 -93l-13 -87h1l-10 -70q76 81 169 81q76 0 116.5 -50zM371 78.5q49 49.5 70 121t21 140.5
q0 153 -118 153q-49 0 -88 -24t-80 -69l-48 -348q27 -12 53.5 -17.5t62.5 -5.5q78 0 127 49.5z" />
    <glyph glyph-name="uni0254" unicode="&#x254;" horiz-adv-x="462" 
d="M66.5 4.5q-34.5 15.5 -64.5 44.5l27 27q25 -23 53.5 -34.5t66.5 -11.5q64 0 110 42t69.5 110t23.5 145q0 81 -34 123t-97 42q-38 0 -69 -11t-66 -34l-21 33q71 52 159 52q82 0 129 -54t47 -152q0 -89 -30 -166t-87 -124t-135 -47q-47 0 -81.5 15.5z" />
    <glyph glyph-name="uni0255" unicode="&#x255;" horiz-adv-x="476" 
d="M199.5 446q-47.5 -47 -68.5 -115.5t-21 -135.5q0 -86 41 -127q45 79 86.5 111.5t90.5 32.5q47 0 72.5 -24.5t25.5 -65.5q0 -62 -47.5 -97.5t-125.5 -35.5q-52 0 -94 20l-44 -72l-32 15l45 77q-32 27 -49 70t-17 100q0 75 27 152t85 129t146 52q84 0 137 -52l-27 -29
q-22 21 -48 31.5t-61 10.5q-74 0 -121.5 -47zM255 147q-32 -27 -73 -100q32 -16 74 -16q57 0 92.5 23t35.5 68q0 25 -14.5 38.5t-43.5 13.5q-39 0 -71 -27z" />
    <glyph glyph-name="uni0256" unicode="&#x256;" horiz-adv-x="575" 
d="M572 -171q-46 -32 -101 -32q-47 0 -74.5 26.5t-27.5 75.5q0 7 2 27l11 74l15 109q-71 -120 -177 -120q-74 0 -116.5 54.5t-42.5 150.5q0 76 25 154t80 131t140 53q94 0 140 -74l40 283l46 -6l-104 -735l-11 -78q-1 -8 -1 -22q0 -63 57 -63q25 0 43 6t38 17zM323 67
q41 38 85 113l32 232q-43 81 -128 81q-70 0 -115.5 -47t-66 -116t-20.5 -137q0 -79 30.5 -121.5t85.5 -42.5q56 0 97 38z" />
    <glyph glyph-name="uni0257" unicode="&#x257;" horiz-adv-x="574" 
d="M653 731.5q22 -9.5 42 -24.5l-24 -29q-15 12 -31.5 18t-39.5 6q-33 0 -56.5 -21t-29.5 -67l-13 -92l-73 -522h-39l9 113q-71 -124 -178 -124q-74 0 -116.5 54.5t-42.5 150.5q0 76 25 154t80 131t140 53q94 0 140 -74l9 64l14 93q10 63 44 94.5t86 31.5q32 0 54 -9.5z
M440 412q-43 81 -128 81q-70 0 -115.5 -47t-66 -116t-20.5 -137q0 -79 30.5 -121.5t85.5 -42.5q56 0 97 38t85 113z" />
    <glyph glyph-name="uni0258" unicode="&#x258;" horiz-adv-x="514" 
d="M401 470q50 -62 49 -158q1 -87 -30 -161t-89.5 -118t-136.5 -44q-51 0 -89.5 16t-72.5 48l29 28q29 -26 60 -38.5t73 -12.5q75 0 124.5 49t70.5 129q-163 6 -240.5 44t-77.5 121q0 45 23 81.5t64 57t93 20.5q100 0 150 -62zM147.5 303.5q28.5 -26.5 89 -40t160.5 -17.5
q5 37 5 68q0 79 -37 129t-114 50q-62 0 -97 -33t-35 -86q0 -44 28.5 -70.5z" />
    <glyph glyph-name="uni0259" unicode="&#x259;" horiz-adv-x="512" 
d="M401 478.5q49 -54.5 49 -154.5q0 -79 -29 -156t-88.5 -127.5t-147.5 -50.5q-70 0 -110.5 34.5t-40.5 88.5q0 93 95.5 140.5t272.5 59.5v10q0 86 -37.5 127.5t-102.5 41.5q-42 0 -76.5 -13t-73.5 -41l-22 33q42 31 84 46.5t90 15.5q88 0 137 -54.5zM295.5 64.5
q45.5 35.5 71 91.5t32.5 119q-159 -11 -238 -50t-79 -110q0 -38 26 -62t77 -24q65 0 110.5 35.5z" />
    <glyph glyph-name="uni025A" unicode="&#x25a;" horiz-adv-x="679" 
d="M720 358q-46 -32 -101 -32q-47 0 -74 25t-27 71q0 8 2 26l5 33l-96 -45q21 -46 21 -112q0 -79 -29 -156t-88.5 -127.5t-147.5 -50.5q-70 0 -110.5 34.5t-40.5 88.5q0 93 95.5 140.5t272.5 59.5v10q0 86 -37.5 127.5t-102.5 41.5q-42 0 -76.5 -13t-73.5 -41l-22 33
q42 31 84 46.5t90 15.5q98 0 146 -66l121 55h45l-11 -72q-2 -18 -2 -23q0 -61 58 -61q25 0 43 6t38 18zM295.5 64.5q45.5 35.5 71 91.5t32.5 119q-159 -11 -238 -50t-79 -110q0 -38 26 -62t77 -24q65 0 110.5 35.5z" />
    <glyph glyph-name="uni025B" unicode="&#x25b;" horiz-adv-x="467" 
d="M97 27.5q-47 38.5 -47 104.5q0 57 39 98t111 47q-44 12 -68 36.5t-24 69.5q0 36 20 70t62.5 56.5t105.5 22.5q89 0 152 -49l-28 -28q-26 19 -55.5 29t-68.5 10q-73 0 -107.5 -33.5t-34.5 -77.5q0 -42 29.5 -66t86.5 -24h60l-12 -39h-55q-91 0 -128 -35t-37 -88
q0 -48 33.5 -74.5t92.5 -26.5q49 0 83.5 12.5t75.5 41.5l22 -32q-83 -63 -183 -63q-78 0 -125 38.5z" />
    <glyph glyph-name="uni025C" unicode="&#x25c;" horiz-adv-x="471" 
d="M360 498q42 -34 42 -91q0 -54 -34.5 -87.5t-94.5 -42.5q56 -6 88.5 -36.5t32.5 -84.5q0 -42 -22 -80.5t-69 -62.5t-119 -24q-108 0 -180 68l28 29q61 -56 152 -56q85 0 123.5 37t38.5 90q0 50 -37.5 74t-106.5 24h-61l10 38h51q73 0 112.5 30.5t39.5 81.5q0 41 -27.5 65
t-79.5 24q-44 0 -77 -11t-77 -35l-21 30q43 27 85.5 40.5t92.5 13.5q68 0 110 -34z" />
    <glyph glyph-name="uni025D" unicode="&#x25d;" horiz-adv-x="646" 
d="M688 358q-46 -32 -101 -32q-47 0 -74 25t-27 71q0 8 2 26l5 33l-94 -44q3 -13 3 -30q0 -54 -34.5 -87.5t-94.5 -42.5q56 -6 88.5 -36.5t32.5 -84.5q0 -42 -22 -80.5t-69 -62.5t-119 -24q-108 0 -180 68l28 29q61 -56 152 -56q85 0 123.5 37t38.5 90q0 50 -37.5 74
t-106.5 24h-61l10 38h51q73 0 112.5 30.5t39.5 81.5q0 41 -27.5 65t-79.5 24q-44 0 -77 -11t-77 -35l-21 30q43 27 85.5 40.5t92.5 13.5q46 0 81.5 -16.5t53.5 -45.5l114 52h45l-11 -72q-2 -18 -2 -23q0 -61 58 -61q25 0 43 6t38 18z" />
    <glyph glyph-name="uni025E" unicode="&#x25e;" horiz-adv-x="547" 
d="M112.5 44q-50.5 55 -50.5 154q0 91 31.5 167.5t91.5 121.5t142 45q69 0 110.5 -34.5t41.5 -92.5q0 -52 -34 -84.5t-96 -43.5q56 -6 89 -36.5t33 -84.5q0 -42 -22 -80.5t-70 -62.5t-120 -24q-96 0 -146.5 55zM384.5 67q38.5 37 38.5 90q0 50 -37.5 74t-107.5 24h-34l9 38
h25q73 0 113 30.5t40 81.5q0 41 -27 64.5t-78 23.5q-71 0 -119.5 -41.5t-72.5 -109t-24 -145.5q0 -167 150 -167q86 0 124.5 37z" />
    <glyph glyph-name="uni025F" unicode="&#x25f;" horiz-adv-x="297" 
d="M273 226h-106l-30 -213q-9 -67 -28 -105.5t-48.5 -61.5t-82.5 -46l-13 34q41 20 64.5 39.5t39 52.5t23.5 89l30 211h-106l5 39h106l36 257h46l-36 -257h106z" />
    <glyph glyph-name="uni0260" unicode="&#x260;" horiz-adv-x="569" 
d="M648 731.5q22 -9.5 42 -24.5l-24 -29q-15 12 -31.5 18t-39.5 6q-33 0 -56.5 -21t-29.5 -67l-13 -92l-76 -520q-31 -205 -211 -205q-87 0 -170 48l19 34q36 -20 72 -31.5t78 -11.5q65 0 109.5 38t56.5 125l14 95q-30 -44 -71.5 -69t-89.5 -25q-77 0 -121 55t-44 149
q0 75 28 150.5t88 126.5t150 51q66 0 120 -26l2 16l14 93q10 63 44 94.5t86 31.5q32 0 54 -9.5zM442 468q-52 26 -113 26q-75 0 -124 -46t-72 -113.5t-22 -133.5q0 -77 32 -119t89 -42q94 0 164 114z" />
    <glyph glyph-name="uni0261" unicode="&#x261;" horiz-adv-x="563" 
d="M414 521.5q37 -10.5 77 -31.5l-71 -488q-16 -109 -71.5 -157t-139.5 -48q-87 0 -170 48l19 34q36 -20 72 -31.5t78 -11.5q65 0 109.5 38t56.5 125l14 95q-30 -44 -71.5 -69t-89.5 -25q-77 0 -121 55t-44 149q0 75 28 150.5t88 126.5t150 51q49 0 86 -10.5zM205 448
q-49 -46 -72 -113.5t-22 -133.5q0 -77 32 -119t89 -42q94 0 164 114l45 313q-48 27 -112 27q-75 0 -124 -46z" />
    <glyph glyph-name="uni0262" unicode="&#x262;" horiz-adv-x="552" 
d="M415 520q36 -14 69 -42l-29 -29q-28 23 -57.5 33.5t-65.5 10.5q-69 0 -119.5 -40.5t-76.5 -108t-26 -144.5q0 -169 153 -169q68 0 127 28l25 184h-114v39h166l-33 -246q-40 -22 -84.5 -33.5t-88.5 -11.5q-94 0 -146.5 53t-52.5 157q0 90 33.5 166t95 121.5t141.5 45.5
q47 0 83 -14z" />
    <glyph glyph-name="uni0263" unicode="&#x263;" horiz-adv-x="461" 
d="M226 49q19 -48 27.5 -81t8.5 -64q0 -48 -25.5 -77.5t-69.5 -29.5q-34 0 -54.5 20t-20.5 53q0 34 21 78t63 103l-122 471h50l101 -437l224 437h52zM214.5 -43q-5.5 26 -17.5 60q-62 -93 -62 -145q0 -37 33 -37q25 0 38.5 19t13.5 50q0 27 -5.5 53z" />
    <glyph glyph-name="uni0264" unicode="&#x264;" horiz-adv-x="517" 
d="M547 505l-20 -27q-12 9 -21.5 12.5t-21.5 3.5q-18 0 -32.5 -11t-30.5 -38l-142 -232q21 -43 31 -72t10 -56q0 -42 -25.5 -69t-68.5 -27q-35 0 -55.5 20.5t-20.5 53.5q0 30 19.5 66.5t58.5 85.5l-78 235q-8 25 -18.5 34.5t-27.5 9.5q-13 0 -24 -4t-26 -13l-15 31
q34 24 70 24q34 0 53 -18.5t31 -61.5l64 -205l120 206q25 43 48 61t56 18q35 0 66 -27zM271.5 126.5q-6.5 20.5 -21.5 57.5q-31 -42 -44.5 -68t-13.5 -51q0 -38 35 -38q24 0 37.5 15.5t13.5 42.5q0 21 -6.5 41.5z" />
    <glyph glyph-name="uni0265" unicode="&#x265;" horiz-adv-x="577" 
d="M409 138q-38 -70 -90 -109.5t-110 -39.5q-60 0 -91.5 33.5t-31.5 93.5q0 17 3 36l53 370h46l-52 -367q-3 -19 -3 -37q0 -89 83 -89q58 0 108 48t96 133l43 312h46l-101 -720l-46 -5z" />
    <glyph glyph-name="uni0266" unicode="&#x266;" horiz-adv-x="582" 
d="M464 500q31 -32 31 -92q0 -17 -3 -38l-52 -370h-46l52 367q3 20 3 37q0 89 -83 89q-58 0 -108 -48t-96 -133l-44 -312h-46l74 521l13 93q9 60 50 93.5t104 33.5q62 0 118 -29l-20 -34q-49 23 -96 23q-97 0 -110 -93l-13 -87l-19 -137q38 70 90 109t110 39q60 0 91 -32z
" />
    <glyph glyph-name="uni0267" unicode="&#x267;" horiz-adv-x="582" 
d="M464 500q31 -32 31 -92q0 -17 -3 -38l-52 -370l-11 -77q-9 -62 -44.5 -94t-87.5 -32q-51 0 -94 34l23 29q16 -12 32 -17.5t38 -5.5q34 0 57 20.5t30 67.5l11 75l52 367q3 20 3 37q0 89 -83 89q-58 0 -108 -48t-96 -133l-44 -312h-46l74 521l13 93q9 60 50 93.5t104 33.5
q62 0 118 -29l-20 -34q-49 23 -96 23q-97 0 -110 -93l-13 -87l-19 -137q38 70 90 109t110 39q60 0 91 -32z" />
    <glyph glyph-name="uni0268" unicode="&#x268;" horiz-adv-x="295" 
d="M183 682.5q-9 8.5 -9 22.5q0 17 11 28t28 11q15 0 23.5 -8.5t8.5 -22.5q0 -17 -11 -28t-27 -11q-15 0 -24 8.5zM282 301l-6 -38h-107l-37 -263h-46l37 263h-105l6 38h105l31 221h46l-31 -221h107z" />
    <glyph glyph-name="uni0269" unicode="&#x269;" horiz-adv-x="279" 
d="M141 522h46l-62 -439q-1 -6 -1 -17q0 -19 8.5 -28t28.5 -9q18 0 39 8l10 -35q-28 -13 -56 -13q-36 0 -56 19t-20 56q0 6 2 24z" />
    <glyph glyph-name="uni026A" unicode="&#x26a;" horiz-adv-x="306" 
d="M313 485h-106l-63 -448h106l-5 -37h-258l5 37h105l64 448h-106l6 37h257z" />
    <glyph glyph-name="uni026B" unicode="&#x26b;" horiz-adv-x="314" 
d="M338 379q-25 -33 -49 -50t-56 -17q-23 0 -55 15l-34 -244q-1 -6 -1 -16q0 -19 8.5 -28t27.5 -9q17 0 39 8l11 -36q-28 -13 -56 -13q-36 0 -56 19t-20 57q0 6 2 24l37 263q-27 17 -48 17q-24 0 -40.5 -11t-37.5 -34l-28 19q26 33 50 50t58 17q24 0 52 -13l48 338l46 6
l-52 -369q31 -18 51 -18q23 0 39 11t36 33z" />
    <glyph glyph-name="uni026C" unicode="&#x26c;" horiz-adv-x="325" 
d="M165 83q-1 -6 -1 -16q0 -19 8.5 -28t27.5 -9q17 0 39 8l11 -36q-28 -13 -56 -13q-36 0 -56 19t-20 57q0 6 2 24l25 181q-54 1 -84 23.5t-30 64.5q0 43 31 68.5t79 25.5q14 0 30 -2l40 285l46 6l-61 -435q34 1 86 10v-33q-36 -8 -91 -12zM91 318.5q19 -12.5 60 -12.5
l15 109q-16 2 -26 2q-31 0 -49.5 -16t-18.5 -43t19 -39.5z" />
    <glyph glyph-name="uni026D" unicode="&#x26d;" horiz-adv-x="266" 
d="M264 -171q-46 -32 -101 -32q-47 0 -74.5 26.5t-27.5 75.5q0 7 2 27l11 74h-1l104 735l46 6l-104 -741h1l-11 -78q-1 -8 -1 -22q0 -63 57 -63q25 0 43 6t38 17z" />
    <glyph glyph-name="uni026E" unicode="&#x26e;" horiz-adv-x="615" 
d="M589 485l-258 -287h7q210 0 210 -160q0 -70 -30.5 -125t-85.5 -85.5t-126 -30.5q-60 0 -103 21.5t-78 63.5l30 25q33 -37 68 -53t82 -16q60 0 104 25.5t67.5 71t23.5 102.5q0 65 -40 93.5t-126 28.5h-61l5 39l253 283h-349l-56 -398q-1 -6 -1 -16q0 -19 8.5 -28t27.5 -9
q17 0 39 8l11 -36q-28 -13 -56 -13q-36 0 -56 19t-20 57q0 6 2 24l91 646l46 6l-31 -219h407z" />
    <glyph glyph-name="uni026F" unicode="&#x26f;" horiz-adv-x="849" 
d="M777 522l-74 -522h-39l15 140q-83 -150 -190 -150q-53 0 -82 36t-25 102q-40 -67 -87.5 -102.5t-99.5 -35.5t-80.5 32.5t-28.5 91.5q0 18 3 37l53 371h46l-52 -367q-3 -21 -3 -38q0 -88 73 -88q50 0 95 47t91 132l44 314h46l-52 -367q-3 -19 -3 -36q0 -90 73 -90
q50 0 95 47t92 134l44 312h46z" />
    <glyph glyph-name="uni0270" unicode="&#x270;" horiz-adv-x="844" 
d="M776 522l-102 -720l-47 -5l48 336q-82 -144 -186 -144q-52 0 -79.5 34t-27.5 90l1 18q-84 -142 -189 -142q-50 0 -79 33t-29 91q0 19 3 38l52 371h46l-52 -367q-3 -19 -3 -36q0 -90 73 -90q51 0 97 47t91 132l43 314h46l-52 -367q-3 -21 -3 -37q0 -89 73 -89
q50 0 95.5 47t90.5 132l44 314h46z" />
    <glyph glyph-name="uni0271" unicode="&#x271;" horiz-adv-x="849" 
d="M734.5 499.5q28.5 -32.5 28.5 -91.5q0 -17 -3 -37l-53 -371h1l-11 -77q-9 -62 -44.5 -94t-87.5 -32q-51 0 -94 34l23 29q16 -12 32 -17.5t38 -5.5q34 0 57 20.5t30 67.5l11 75h-1l52 367q3 21 3 38q0 88 -73 88q-50 0 -95 -47t-91 -132l-44 -314h-46l52 367q3 20 3 36
q0 90 -73 90q-50 0 -95 -47t-92 -134l-44 -312h-46l74 522h39l-15 -140q83 150 190 150q53 0 82 -36t25 -102q40 67 87.5 102.5t99.5 35.5t80.5 -32.5z" />
    <glyph glyph-name="uni0272" unicode="&#x272;" horiz-adv-x="581" 
d="M463.5 499.5q31.5 -32.5 31.5 -92.5q0 -18 -3 -38l-52 -369h-46l52 367q3 20 3 35q0 91 -83 91q-106 0 -204 -181l-44 -312h1l-11 -77q-9 -62 -44.5 -94t-87.5 -32q-51 0 -94 34l23 29q16 -12 32 -17.5t38 -5.5q34 0 57 20.5t30 67.5l11 75h-1l74 522h39l-15 -140
q40 72 92.5 111t111.5 39q58 0 89.5 -32.5z" />
    <glyph glyph-name="uni0273" unicode="&#x273;" horiz-adv-x="581" 
d="M584 -171q-46 -32 -101 -32q-47 0 -74.5 26.5t-27.5 75.5q0 7 2 27l11 74l52 367q3 20 3 35q0 91 -83 91q-106 0 -204 -181l-44 -312h-46l74 522h39l-15 -140q40 72 92.5 111t111.5 39q58 0 89.5 -32.5t31.5 -92.5q0 -18 -3 -38l-63 -447q-1 -8 -1 -22q0 -63 57 -63
q25 0 43 6t38 17z" />
    <glyph glyph-name="uni0274" unicode="&#x274;" horiz-adv-x="586" 
d="M440 0h-59l-203 475q-5 -72 -23 -202l-39 -273h-44l74 522h59l203 -476q7 85 18 170l44 306h44z" />
    <glyph glyph-name="uni0275" unicode="&#x275;" horiz-adv-x="566" 
d="M456.5 478q48.5 -54 48.5 -153q0 -74 -25.5 -151.5t-83.5 -131t-149 -53.5q-87 0 -136 55.5t-49 154.5q0 75 26 151.5t84 129t148 52.5q88 0 136.5 -54zM185 433q-49 -60 -66 -148h336q2 30 2 42q0 81 -35.5 123.5t-102.5 42.5q-85 0 -134 -60zM384 92.5
q49 62.5 66 153.5h-337q-3 -27 -3 -50q0 -81 35.5 -123.5t102.5 -42.5q87 0 136 62.5z" />
    <glyph glyph-name="uni0276" unicode="&#x276;" horiz-adv-x="719" 
d="M698 483h-254q29 -23 45.5 -68t15.5 -102q0 -14 -1 -21h135l-6 -39h-133q-10 -68 -41 -125t-80 -89h267l-5 -39h-326q-38 -11 -69 -11q-87 0 -135.5 55.5t-48.5 154.5q0 75 26 151.5t84 129t148 52.5q33 0 68 -10h322zM421 450.5q-36 42.5 -102 42.5q-75 0 -121.5 -48
t-67 -116t-20.5 -133q0 -81 36 -123.5t102 -42.5q74 0 121 47t67.5 115.5t20.5 134.5q0 81 -36 123.5z" />
    <glyph glyph-name="uni0277" unicode="&#x277;" horiz-adv-x="746" 
d="M612 469.5q67 -62.5 67 -173.5q0 -78 -22.5 -148.5t-69.5 -114.5t-116 -44q-56 0 -87 30t-32 92q-37 -122 -150 -122q-66 0 -105 44.5t-39 133.5q1 113 42 195t120 126t191 44q134 0 201 -62.5zM562.5 68.5q36.5 38.5 53 98.5t16.5 128q0 198 -224 198q-149 0 -226 -87
t-77 -240q0 -136 102 -136q49 0 84.5 35t46.5 115l18 129l47 7l-20 -139q-3 -21 -3 -40q0 -107 90 -107q56 0 92.5 38.5z" />
    <glyph glyph-name="uni0278" unicode="&#x278;" horiz-adv-x="621" 
d="M539.5 156q-32.5 -68 -94.5 -107.5t-148 -42.5l-29 -201l-46 -8l30 209q-98 4 -150 57.5t-52 147.5q0 87 33 155.5t95 108t147 41.5l30 219l47 6l-32 -225q97 -4 149 -58t52 -146q1 -88 -31.5 -156zM320 478q-107 -6 -164.5 -79.5t-57.5 -188.5q0 -79 40.5 -120.5
t119.5 -44.5zM466 124.5q58 73.5 58 187.5q-2 157 -161 165l-62 -433q107 7 165 80.5z" />
    <glyph glyph-name="uni0279" unicode="&#x279;" horiz-adv-x="368" 
d="M-23 -3l13 42q22 -6 41 -6q57 0 97 46t78 138l44 305h46l-74 -522h-40l16 134q-31 -70 -72.5 -107t-98.5 -37q-29 0 -50 7z" />
    <glyph glyph-name="uni027A" unicode="&#x27a;" horiz-adv-x="368" 
d="M295 522h1l-74 -522h-40l16 134q-31 -70 -72.5 -107t-98.5 -37q-29 0 -50 7l13 42q22 -6 41 -6q57 0 97 46t78 138l44 305h-1l30 219l46 -6z" />
    <glyph glyph-name="uni027B" unicode="&#x27b;" horiz-adv-x="368" 
d="M366 -171q-46 -32 -101 -32q-47 0 -74.5 26.5t-27.5 75.5q0 7 2 27l11 74h-1l19 126q-27 -65 -69.5 -101t-98.5 -36q-21 0 -49 7l13 43q21 -6 41 -6q57 0 97.5 46t77.5 138l43 305h46l-74 -522h1l-11 -78q-1 -8 -1 -22q0 -63 57 -63q25 0 43 6t38 17z" />
    <glyph glyph-name="uni027C" unicode="&#x27c;" horiz-adv-x="369" 
d="M392 525l-13 -42q-22 6 -41 6q-57 0 -97 -46t-78 -138l-72 -502l-47 -6l103 725h40l-16 -134q31 70 72.5 107t98.5 37q29 0 50 -7z" />
    <glyph glyph-name="uni027D" unicode="&#x27d;" horiz-adv-x="368" 
d="M391 525l-13 -42q-22 6 -41 6q-57 0 -97 -46t-78 -138l-44 -305h1l-11 -78q-1 -8 -1 -22q0 -63 57 -63q25 0 43 6t38 17l18 -31q-46 -32 -101 -32q-47 0 -74.5 26.5t-27.5 75.5q0 7 2 27l11 74h-1l74 522h40l-16 -134q31 70 72.5 107t98.5 37q29 0 50 -7z" />
    <glyph glyph-name="uni027E" unicode="&#x27e;" horiz-adv-x="337" 
d="M351 497l-23 -29q-16 12 -32 17.5t-38 5.5q-34 0 -57 -20.5t-30 -67.5l-11 -75l-46 -328h-46l46 328l11 77q9 62 44.5 94t87.5 32q51 0 94 -34z" />
    <glyph glyph-name="uni027F" unicode="&#x27f;" horiz-adv-x="338" 
d="M227.5 504.5q27.5 -26.5 27.5 -75.5q0 -7 -2 -27l-11 -74h1l-46 -328h-46l46 328h-1l11 78q1 8 1 22q0 63 -57 63q-25 0 -43 -6t-38 -17l-18 31q46 32 101 32q47 0 74.5 -26.5z" />
    <glyph glyph-name="uni0280" unicode="&#x280;" horiz-adv-x="510" 
d="M417.5 283.5q-40.5 -39.5 -110.5 -56.5l121 -227h-51l-114 221h-113l-32 -221h-46l74 522h126q186 0 186 -133q0 -66 -40.5 -105.5zM242 259q79 0 123.5 34t44.5 96q0 49 -33.5 71.5t-109.5 22.5h-80l-32 -224h87z" />
    <glyph glyph-name="uni0281" unicode="&#x281;" horiz-adv-x="511" 
d="M397.5 250.5q28.5 -31.5 28.5 -79.5q0 -85 -60.5 -128t-164.5 -43h-129l74 522h46l-31 -221h115l175 221h51l-184 -228q51 -12 79.5 -43.5zM331.5 71q46.5 32 46.5 100q0 91 -126 91h-97l-31 -223h77q84 0 130.5 32z" />
    <glyph glyph-name="uni0282" unicode="&#x282;" horiz-adv-x="461" 
d="M358 236.5q34 -35.5 34 -91.5q0 -68 -52 -112t-146 -44q-81 0 -140 39l-16 -112q-2 -16 -2 -23q0 -62 59 -62q24 0 42 6t39 18l19 -31q-48 -32 -101 -32q-48 0 -75 26t-27 75q0 8 2 28l19 137l24 25q37 -26 73 -39.5t83 -13.5q69 0 110 29.5t41 82.5q0 43 -26 68.5
t-97 48.5q-77 25 -108 57t-31 81q0 38 22 68.5t62.5 48.5t93.5 18q91 0 155 -57l-26 -30q-29 25 -60 36.5t-69 11.5q-60 0 -95.5 -25.5t-35.5 -69.5q0 -36 25.5 -59t91.5 -43q78 -24 112 -59.5z" />
    <glyph glyph-name="uni0283" unicode="&#x283;" horiz-adv-x="265" 
d="M344 731.5q22 -9.5 42 -24.5l-24 -29q-15 12 -31.5 18t-39.5 6q-33 0 -56.5 -21t-29.5 -67l-13 -92l-74 -522h1l-11 -77q-9 -62 -44.5 -94t-87.5 -32q-51 0 -94 34l23 29q16 -12 32 -17.5t38 -5.5q34 0 57 20.5t30 67.5l11 75h-1l74 522l14 93q10 63 44 94.5t86 31.5
q32 0 54 -9.5z" />
    <glyph glyph-name="uni0284" unicode="&#x284;" horiz-adv-x="296" 
d="M360 731.5q22 -9.5 42 -24.5l-24 -29q-15 12 -31.5 18t-39.5 6q-33 0 -56.5 -21t-29.5 -67l-13 -92l-68 -483h105l-6 -39h-105q-10 -61 -29 -97.5t-48 -58t-80 -44.5l-14 35q40 19 63 37t38.5 48t23.5 80h-106l5 39h107l68 483l14 93q10 63 44 94.5t86 31.5q32 0 54 -9.5
z" />
    <glyph glyph-name="uni0285" unicode="&#x285;" horiz-adv-x="391" 
d="M353 21q-46 -32 -101 -32q-47 0 -74.5 26.5t-27.5 75.5q0 7 2 27l11 74l19 138l11 78q1 8 1 22q0 63 -57 63q-25 0 -43 -6t-38 -17l-18 31q46 32 101 32q47 0 74.5 -26.5t27.5 -75.5q0 -7 -2 -27l-11 -74l-19 -138l-11 -78q-1 -8 -1 -22q0 -63 57 -63q25 0 43 6t38 17z
" />
    <glyph glyph-name="uni0286" unicode="&#x286;" horiz-adv-x="280" 
d="M359 731.5q22 -9.5 42 -24.5l-24 -29q-15 12 -31.5 18t-39.5 6q-33 0 -56.5 -21t-29.5 -67l-13 -92h1l-76 -543q53 -14 97 -36l-17 -29q-48 21 -86 30q-14 -69 -53.5 -107.5t-105.5 -38.5q-48 0 -75.5 24.5t-27.5 65.5q0 50 39 78.5t98 28.5q50 0 85 -7l76 534h-1l14 93
q10 63 44 94.5t86 31.5q32 0 54 -9.5zM42.5 -137q25.5 29 37.5 90q-31 7 -79 7q-45 0 -70.5 -18.5t-25.5 -52.5q0 -26 16.5 -40.5t47.5 -14.5q48 0 73.5 29z" />
    <glyph glyph-name="uni0287" unicode="&#x287;" horiz-adv-x="333" 
d="M276 0h-88l-27 -128l-36 -4l18 132h-137l11 39h132l50 358q2 20 2 27q0 68 -67 68q-38 0 -88 -25l-17 34q53 32 110 32q50 0 79 -27.5t29 -78.5q0 -19 -2 -29l-51 -359h88z" />
    <glyph glyph-name="uni0288" unicode="&#x288;" horiz-adv-x="333" 
d="M184 483l-68 -483h1l-11 -78q-1 -8 -1 -22q0 -63 57 -63q25 0 43 6t38 17l18 -31q-46 -32 -101 -32q-47 0 -74.5 26.5t-27.5 75.5q0 7 2 27l11 74h-1l69 483h-88l6 39h88l27 128l36 4l-19 -132h138l-11 -39h-132z" />
    <glyph glyph-name="uni0289" unicode="&#x289;" horiz-adv-x="599" 
d="M575 347h-87l-49 -347h-37l16 145q-35 -72 -86 -114t-114 -42q-58 0 -90 33.5t-32 93.5q0 23 2 35l27 196h-87l6 36h87l19 139h46l-20 -139h271l20 139h46l-20 -139h87zM442 347h-271l-27 -195q-2 -12 -2 -33q0 -90 83 -90q59 0 109 49t89 131z" />
    <glyph glyph-name="uni028A" unicode="&#x28a;" horiz-adv-x="566" 
d="M110 43q-50 54 -50 146q0 89 37.5 163.5t102.5 130.5h-91l5 39h137l-5 -40q-68 -64 -103 -135.5t-35 -157.5q0 -79 36.5 -119.5t103.5 -40.5q66 0 112 36t69 95t23 128q0 64 -18.5 110.5t-49.5 85.5l4 38h138l-6 -39h-90q70 -85 70 -196q0 -81 -31 -149t-88.5 -108.5
t-133.5 -40.5q-87 0 -137 54z" />
    <glyph glyph-name="uni028B" unicode="&#x28b;" horiz-adv-x="570" 
d="M128 25q-40 36 -40 102q0 21 2 32l51 363h46l-51 -363q-2 -11 -2 -30q0 -51 27 -75t74 -24q72 0 124.5 54.5t70.5 180.5l24 174q1 6 1 16q0 38 -37 38q-19 0 -38 -8l-11 35q26 12 56 12q35 0 55.5 -19t20.5 -57q0 -13 -1 -20l-24 -173q-19 -139 -84.5 -206.5
t-159.5 -67.5q-64 0 -104 36z" />
    <glyph glyph-name="uni028C" unicode="&#x28c;" horiz-adv-x="461" 
d="M-20 0l255 522h58l114 -522h-50l-98 481l-227 -481h-52z" />
    <glyph glyph-name="uni028D" unicode="&#x28d;" horiz-adv-x="690" 
d="M-10 0l204 522h61l57 -478l192 478h62l59 -522h-45l-52 484l-195 -484h-55l-58 485l-184 -485h-46z" />
    <glyph glyph-name="uni028E" unicode="&#x28e;" horiz-adv-x="458" 
d="M231 525q33 69 66.5 111t76 67t105.5 39l3 -37q-55 -14 -90 -35t-61 -55.5t-56 -93.5l20 1l109 -522h-49l-96 487l-229 -487h-50z" />
    <glyph glyph-name="uni028F" unicode="&#x28f;" horiz-adv-x="434" 
d="M454 522l-220 -314l-30 -208h-46l30 207l-134 315h48l112 -277l187 277h53z" />
    <glyph glyph-name="uni0290" unicode="&#x290;" horiz-adv-x="416" 
d="M485 -171q-46 -32 -101 -32q-47 0 -74.5 26.5t-27.5 75.5q0 7 2 27l11 74h-304l6 37l357 444h-270l6 41h328l-5 -37l-357 -444h290l-5 -41l-11 -78q-1 -8 -1 -22q0 -63 57 -63q25 0 43 6t38 17z" />
    <glyph glyph-name="uni0291" unicode="&#x291;" horiz-adv-x="426" 
d="M382.5 26.5q-53.5 -26.5 -147.5 -26.5q-10 -47 -17 -109l-38 3q6 49 17 106h-206l6 37l359 444h-272l6 41h328l-5 -37l-359 -444h152q18 77 55 118.5t90 41.5q39 0 62 -22t23 -59q0 -67 -53.5 -93.5zM356 57.5q39 17.5 39 61.5q0 46 -47 46q-72 0 -103 -124
q72 -1 111 16.5z" />
    <glyph glyph-name="uni0292" unicode="&#x292;" horiz-adv-x="453" 
d="M426 485l-259 -287h11q207 0 207 -162q0 -69 -30.5 -123.5t-85.5 -85t-125 -30.5q-61 0 -104.5 22t-78.5 64l31 25q33 -37 68.5 -53.5t82.5 -16.5q60 0 104 25.5t67 70.5t23 102q0 66 -40 94.5t-126 28.5h-61l6 39l253 283h-303l6 41h360z" />
    </font>
</defs>
</svg>
