<?xml version="1.0" standalone="no"?>
<!DOCTYPE svg PUBLIC "-//W3C//DTD SVG 1.1//EN" "http://www.w3.org/Graphics/SVG/1.1/DTD/svg11.dtd" >
<svg xmlns="http://www.w3.org/2000/svg" xmlns:xlink="http://www.w3.org/1999/xlink" version="1.1">
<metadata>
Created by FontForge 20170731 at Fri Dec  2 11:32:35 2016
 By Aleksey,,,
Digitized data copyright 2012-2016, The Mozilla Foundation and Telefonica S.A.
</metadata>
<defs>
<font id="FiraSans-Italic" horiz-adv-x="560" >
  <font-face 
    font-family="Fira Sans"
    font-weight="400"
    font-style="italic"
    font-stretch="normal"
    units-per-em="1000"
    panose-1="2 11 5 3 5 0 0 2 0 4"
    ascent="800"
    descent="-200"
    x-height="527"
    cap-height="689"
    bbox="-775 -353 1417 1097"
    underline-thickness="50"
    underline-position="-150"
    slope="-8"
    unicode-range="U+000D-FEFF"
  />
<missing-glyph horiz-adv-x="660" 
d="M649 1050l-198 -1400h-416l198 1400h416zM587 998h-307l-183 -1296h307zM418.5 425.5q23.5 -25.5 23.5 -67.5q0 -9 -2 -27q-7 -52 -32 -79t-75 -34l-9 -48q-1 -10 -8 -15.5t-16 -5.5q-11 0 -18.5 8t-6.5 19l9 81q54 3 76.5 21.5t28.5 60.5q2 14 2 20q0 21 -11 32.5
t-39 11.5q-31 0 -54 -13l-12 -1q-13 0 -19.5 8.5t-4.5 19.5q2 17 30.5 25.5t61.5 8.5q52 0 75.5 -25.5zM312 110.5q9 -9.5 9 -24.5q0 -16 -10 -27t-25 -11q-16 0 -25.5 12.5t-6.5 29.5q1 13 10.5 21.5t23.5 8.5q15 0 24 -9.5z" />
    <glyph glyph-name="fi" unicode="fi" horiz-adv-x="580" 
d="M449 0h-92l64 456h-201l-60 -427q-10 -73 -33.5 -116.5t-61 -70.5t-102.5 -55l-26 69q42 19 66.5 37t41 50t24.5 86l60 427h-93l10 71h93l11 75q9 68 59 108t133 40q44 0 79 -12t67 -33l-35 -61q-23 15 -51.5 23.5t-56.5 8.5q-50 0 -75 -19.5t-30 -59.5l-10 -70h293z" />
    <glyph glyph-name="fl" unicode="fl" horiz-adv-x="592" 
d="M522 71l19 -66q-38 -17 -73 -17q-46 0 -71.5 25t-25.5 74q0 9 2 31l76 539q-31 10 -55.5 14.5t-54.5 4.5q-88 0 -99 -79l-10 -70h127l-20 -71h-117l-60 -427q-10 -73 -33.5 -116.5t-61 -70.5t-102.5 -55l-26 69q42 19 66.5 37t41 50t24.5 86l60 427h-93l10 71h93l11 75
q9 68 58.5 108t129.5 40q34 0 63.5 -5t62.5 -17l87 10l-89 -635q-1 -5 -1 -13q0 -14 6 -20t19 -6q15 0 36 7z" />
    <glyph glyph-name=".notdef" horiz-adv-x="660" 
d="M649 1050l-198 -1400h-416l198 1400h416zM587 998h-307l-183 -1296h307zM418.5 425.5q23.5 -25.5 23.5 -67.5q0 -9 -2 -27q-7 -52 -32 -79t-75 -34l-9 -48q-1 -10 -8 -15.5t-16 -5.5q-11 0 -18.5 8t-6.5 19l9 81q54 3 76.5 21.5t28.5 60.5q2 14 2 20q0 21 -11 32.5
t-39 11.5q-31 0 -54 -13l-12 -1q-13 0 -19.5 8.5t-4.5 19.5q2 17 30.5 25.5t61.5 8.5q52 0 75.5 -25.5zM312 110.5q9 -9.5 9 -24.5q0 -16 -10 -27t-25 -11q-16 0 -25.5 12.5t-6.5 29.5q1 13 10.5 21.5t23.5 8.5q15 0 24 -9.5z" />
    <glyph glyph-name=".null" horiz-adv-x="0" 
 />
    <glyph glyph-name="nonmarkingreturn" unicode="&#xd;" horiz-adv-x="259" 
 />
    <glyph glyph-name="space" unicode=" " horiz-adv-x="259" 
 />
    <glyph glyph-name="exclam" unicode="!" horiz-adv-x="235" 
d="M71 230l55 459h101l-75 -459h-81zM40.5 6q-17.5 18 -17.5 45q0 32 21.5 54t52.5 22q28 0 45.5 -18t17.5 -45q0 -32 -22 -54t-53 -22q-27 0 -44.5 18z" />
    <glyph glyph-name="quotedbl" unicode="&#x22;" horiz-adv-x="393" 
d="M95 427l23 262h98l-52 -262h-69zM275 427l23 262h98l-52 -262h-69z" />
    <glyph glyph-name="numbersign" unicode="#" horiz-adv-x="512" 
d="M524 447h-76l-58 -215h67l-10 -69h-76l-44 -163h-78l44 163h-152l-44 -163h-77l44 163h-64l10 69h73l58 215h-64l10 70h73l41 152h78l-41 -152h152l41 152h77l-41 -152h67zM312 232l59 215h-152l-59 -215h152z" />
    <glyph glyph-name="dollar" unicode="$" horiz-adv-x="525" 
d="M430.5 318q46.5 -43 46.5 -117q0 -80 -54.5 -139.5t-161.5 -71.5l-20 -145h-79l20 144q-115 10 -183 88l58 54q61 -67 167 -67q67 0 112.5 32.5t45.5 98.5q0 41 -27.5 68t-96.5 51q-87 30 -130.5 72.5t-43.5 107.5q0 81 53 130t142 55l21 145h79l-21 -148q87 -14 153 -76
l-55 -54q-66 58 -153 58q-57 0 -91.5 -25t-34.5 -79q0 -40 27 -65t99 -48q81 -26 127.5 -69z" />
    <glyph glyph-name="percent" unicode="%" horiz-adv-x="820" 
d="M670 711l-556 -700l59 -42l556 700zM118.5 380.5q-39.5 39.5 -39.5 103.5q0 45 19 90t60 75t102 30q64 0 103.5 -39t39.5 -101q0 -45 -18.5 -90.5t-59.5 -76.5t-104 -31t-102.5 39.5zM300.5 447.5q22.5 44.5 22.5 91.5q0 78 -63 78q-56 0 -79 -43t-23 -90q0 -81 64 -81
q56 0 78.5 44.5zM476.5 27.5q-39.5 39.5 -39.5 103.5q0 45 19 90t60 75t102 30q64 0 103.5 -39t39.5 -101q0 -45 -18.5 -90.5t-59.5 -76.5t-104 -31t-102.5 39.5zM658.5 94.5q22.5 44.5 22.5 91.5q0 78 -63 78q-56 0 -79 -43t-23 -90q0 -81 64 -81q56 0 78.5 44.5z" />
    <glyph glyph-name="ampersand" unicode="&#x26;" horiz-adv-x="723" 
d="M473.5 660.5q48.5 -40.5 48.5 -103.5q0 -45 -22.5 -78.5t-57 -58t-89.5 -53.5l152 -167q51 80 79 155l82 -30q-49 -102 -109 -181l95 -104l-70 -52l-83 94q-49 -47 -104 -70.5t-122 -23.5q-60 0 -105 23t-68.5 62.5t-23.5 88.5q0 65 33.5 115t122.5 103q-37 42 -56 78
t-19 76q0 46 22.5 84t65.5 60.5t102 22.5q78 0 126.5 -40.5zM272.5 606q-26.5 -27 -26.5 -72q0 -31 14 -59t43 -58q66 37 98 67.5t32 72.5q0 35 -23.5 55.5t-62.5 20.5q-48 0 -74.5 -27zM190 249q-21 -38 -21 -85q0 -48 29.5 -75.5t82.5 -27.5q47 0 88 19t81 56l-172 190
q-67 -39 -88 -77z" />
    <glyph glyph-name="quotesingle" unicode="'" horiz-adv-x="213" 
d="M95 427l23 262h98l-52 -262h-69z" />
    <glyph glyph-name="parenleft" unicode="(" horiz-adv-x="318" 
d="M357 803q-117 -144 -169.5 -275t-52.5 -299q0 -100 22.5 -174.5t69.5 -163.5l-60 -34q-43 74 -67.5 124.5t-41 115.5t-16.5 143q0 126 29.5 225.5t84.5 185.5t147 196z" />
    <glyph glyph-name="parenright" unicode=")" horiz-adv-x="318" 
d="M242.5 718.5q24.5 -50.5 41 -115.5t16.5 -143q0 -126 -29.5 -225.5t-84.5 -185.5t-147 -196l-54 44q117 144 170 276t53 300q0 99 -23 173t-70 163l60 34q43 -74 67.5 -124.5z" />
    <glyph glyph-name="asterisk" unicode="*" horiz-adv-x="433" 
d="M456 561l-157 -34l87 -115l-77 -53l-60 133l-96 -133l-65 52l119 117l-147 33l36 80l135 -60l6 158h93l-38 -157l146 62z" />
    <glyph glyph-name="plus" unicode="+" horiz-adv-x="493" 
d="M324 519l-21 -150h144l-11 -76h-144l-21 -149h-84l21 149h-143l11 76h143l21 150h84z" />
    <glyph glyph-name="comma" unicode="," horiz-adv-x="241" 
d="M143 109q18 -18 18 -45q0 -18 -6 -35.5t-20 -43.5l-88 -151h-67l65 168q-21 18 -21 49t21.5 53.5t52.5 22.5q27 0 45 -18z" />
    <glyph glyph-name="hyphen" unicode="-" horiz-adv-x="397" 
d="M59 274l11 78h281l-11 -78h-281z" />
    <glyph glyph-name="period" unicode="." horiz-adv-x="240" 
d="M40.5 6q-17.5 18 -17.5 45q0 32 21.5 54t52.5 22q28 0 45.5 -18t17.5 -45q0 -32 -22 -54t-53 -22q-27 0 -44.5 18z" />
    <glyph glyph-name="slash" unicode="/" horiz-adv-x="514" 
d="M408 809l77 -20l-355 -893l-77 21z" />
    <glyph glyph-name="zero" unicode="0" horiz-adv-x="552" 
d="M172 608.5q-62 -70.5 -89 -173t-27 -206.5q0 -117 46.5 -179t135.5 -62q99 0 161 70.5t89 173.5t27 206q0 117 -46.5 179t-135.5 62q-99 0 -161 -70.5zM399.5 570q23.5 -36 23.5 -115q0 -91 -19 -181.5t-59.5 -151.5t-102.5 -61q-46 0 -69.5 36t-23.5 115q0 91 19 181.5
t59.5 151.5t102.5 61q46 0 69.5 -36z" />
    <glyph glyph-name="one" unicode="1" horiz-adv-x="427" 
d="M376 669l-94 -669h-92l80 562l-167 -95l-31 74l223 128h81z" />
    <glyph glyph-name="two" unicode="2" horiz-adv-x="489" 
d="M412.5 632.5q49.5 -46.5 49.5 -121.5q0 -55 -28 -108t-101.5 -129t-215.5 -199l297 2l-22 -77h-391l10 75q162 149 233.5 222.5t97 118t25.5 92.5q0 46 -25.5 70.5t-69.5 24.5q-42 0 -76 -18t-72 -57l-58 53q48 50 100.5 74t112.5 24q84 0 133.5 -46.5z" />
    <glyph glyph-name="three" unicode="3" horiz-adv-x="493" 
d="M407 634q47 -45 47 -113q0 -60 -38.5 -104.5t-113.5 -62.5q56 -5 92 -41t36 -97q0 -54 -28.5 -106.5t-85.5 -87t-138 -34.5q-61 0 -109.5 23.5t-79.5 68.5l60 50q27 -36 59.5 -51.5t73.5 -15.5q69 0 112 46t43 118q0 48 -29.5 67.5t-86.5 19.5h-52l21 71h32
q66 0 103 37.5t37 94.5q0 42 -24.5 65t-68.5 23q-40 0 -74.5 -15t-72.5 -47l-45 58q94 78 199 78q84 0 131 -45z" />
    <glyph glyph-name="four" unicode="4" horiz-adv-x="526" 
d="M493 238l-10 -73h-86l-23 -165h-89l23 165h-283l9 66l258 448l77 -32l-234 -409h184l34 180h80l-25 -180h85z" />
    <glyph glyph-name="five" unicode="5" horiz-adv-x="495" 
d="M463 597h-259l-28 -196q50 25 106 25q77 0 120.5 -47.5t43.5 -133.5q0 -58 -27 -117.5t-85.5 -99.5t-145.5 -40q-63 0 -108 22.5t-80 64.5l60 51q25 -33 56.5 -48t73.5 -15q57 0 93.5 29t53 71.5t16.5 83.5q0 108 -99 108q-28 0 -50.5 -5.5t-51.5 -17.5h-72l47 337h358z
" />
    <glyph glyph-name="six" unicode="6" horiz-adv-x="526" 
d="M439 393.5q45 -46.5 45 -131.5q0 -61 -26.5 -124.5t-81 -106.5t-134.5 -43q-97 0 -142.5 61t-45.5 172q0 117 35.5 222t104.5 170.5t164 65.5q76 0 133 -42l-41 -60q-41 29 -95 29q-72 0 -125 -68.5t-74 -183.5q75 86 169 86q69 0 114 -46.5zM331.5 94q33.5 33 47.5 79.5
t14 89.5q0 104 -86 104q-45 0 -86.5 -26t-74.5 -70q-2 -46 -2 -61q0 -79 24 -114t77 -35t86.5 33z" />
    <glyph glyph-name="seven" unicode="7" horiz-adv-x="438" 
d="M466 669l-9 -69l-331 -610l-83 28l319 576h-292l11 75h385z" />
    <glyph glyph-name="eight" unicode="8" horiz-adv-x="545" 
d="M490 202q0 -61 -33.5 -110t-91.5 -76.5t-129 -27.5q-94 0 -149.5 48t-55.5 126q0 61 35 109t121 83q-82 47 -82 139q0 54 28.5 96t78 66t110.5 24q50 0 93 -17.5t69 -52.5t26 -84q0 -58 -32 -97t-103 -71q115 -53 115 -155zM223.5 575.5q-30.5 -34.5 -30.5 -81.5
q0 -43 25.5 -66t80.5 -42l14 -4q63 33 85.5 67t22.5 75t-25.5 63.5t-76.5 22.5q-65 0 -95.5 -34.5zM353.5 101.5q43.5 40.5 43.5 104.5q0 39 -28 63.5t-98 50.5l-22 7q-124 -54 -124 -164q0 -48 30.5 -75t84.5 -27q70 0 113.5 40.5z" />
    <glyph glyph-name="nine" unicode="9" horiz-adv-x="518" 
d="M447 622q49 -57 49 -156q0 -110 -32 -202.5t-124 -169t-260 -117.5l-15 71q138 38 220 105t106 176q-28 -38 -69 -62t-91 -24q-46 0 -83 22.5t-58 63.5t-21 95q0 63 26 121.5t79 96t130 37.5q94 0 143 -57zM401 408q4 31 4 60q0 73 -25.5 105.5t-77.5 32.5
q-76 0 -109.5 -57.5t-33.5 -128.5q0 -51 24.5 -78t65.5 -27q86 0 152 93z" />
    <glyph glyph-name="colon" unicode=":" horiz-adv-x="240" 
d="M40.5 6q-17.5 18 -17.5 45q0 32 21.5 54t52.5 22q28 0 45.5 -18t17.5 -45q0 -32 -22 -54t-53 -22q-27 0 -44.5 18zM92.5 374q-17.5 18 -17.5 45q0 32 21.5 54t52.5 22q28 0 45.5 -18t17.5 -45q0 -32 -22 -54t-53 -22q-27 0 -44.5 18z" />
    <glyph glyph-name="semicolon" unicode=";" horiz-adv-x="244" 
d="M143 109q18 -18 18 -45q0 -18 -6 -35.5t-20 -43.5l-88 -151h-67l65 168q-21 18 -21 49t21.5 53.5t52.5 22.5q27 0 45 -18zM96.5 374q-17.5 18 -17.5 45q0 32 21.5 54t52.5 22q28 0 45.5 -18t17.5 -45q0 -32 -22 -54t-53 -22q-27 0 -44.5 18z" />
    <glyph glyph-name="less" unicode="&#x3c;" horiz-adv-x="496" 
d="M451 551l28 -79l-348 -141l304 -142l-43 -74l-340 171l13 94z" />
    <glyph glyph-name="equal" unicode="=" horiz-adv-x="495" 
d="M79 389l11 77h372l-11 -77h-372zM52 196l11 77h372l-11 -77h-372z" />
    <glyph glyph-name="greater" unicode="&#x3e;" horiz-adv-x="494" 
d="M121 551l340 -171l-13 -94l-386 -171l-26 76l347 147l-304 137z" />
    <glyph glyph-name="question" unicode="?" horiz-adv-x="453" 
d="M419.5 660.5q44.5 -40.5 44.5 -100.5q0 -50 -19 -83t-46 -51.5t-72 -42.5q-37 -19 -58 -33.5t-35.5 -36t-14.5 -51.5q0 -17 3 -29l-82 -14q-4 11 -7 25.5t-3 24.5q0 44 18 74.5t44 49t68 40.5q37 20 58.5 34.5t36 37t14.5 53.5q0 33 -22.5 50t-62.5 17q-39 0 -77.5 -18.5
t-73.5 -55.5l-57 53q94 97 216 97q83 0 127.5 -40.5zM130.5 6q-17.5 18 -17.5 45q0 32 21.5 54t52.5 22q28 0 45.5 -18t17.5 -45q0 -32 -22 -54t-53 -22q-27 0 -44.5 18z" />
    <glyph glyph-name="at" unicode="@" horiz-adv-x="1014" 
d="M777.5 655.5q86.5 -45.5 130.5 -125t44 -179.5q0 -74 -23.5 -152.5t-76.5 -134t-136 -55.5q-55 0 -83.5 30t-32.5 71q-55 -99 -150 -99q-68 0 -109.5 47t-41.5 128q0 74 25.5 144t82.5 116t144 46q81 0 153 -42l-39 -282q-2 -20 -2 -29q0 -28 11.5 -43.5t40.5 -15.5
q52 0 85 44.5t47.5 108t14.5 124.5q0 128 -76 198t-218 70q-146 0 -239 -68.5t-134 -170t-41 -203.5q0 -91 38 -163.5t110 -114.5t171 -42q95 0 196 35l19 -73q-57 -19 -107 -28.5t-112 -9.5q-119 0 -211.5 51t-144 141.5t-51.5 205.5q0 118 52.5 237t167 199t288.5 80
q121 0 207.5 -45.5zM540 109q30 31 44 64l35 240q-31 13 -66 13q-90 0 -128 -73.5t-38 -171.5q0 -103 76 -103q47 0 77 31z" />
    <glyph glyph-name="A" unicode="A" horiz-adv-x="567" 
d="M427 0l-27 173h-259l-76 -173h-97l316 689h119l121 -689h-97zM174 250h214l-56 360z" />
    <glyph glyph-name="B" unicode="B" horiz-adv-x="602" 
d="M511.5 320q38.5 -33 38.5 -100q0 -100 -69.5 -160t-228.5 -60h-190l97 689h190q98 0 157 -38.5t59 -115.5q0 -69 -44 -113t-110 -58q62 -11 100.5 -44zM242 614l-30 -217h101q67 0 111.5 34t44.5 101q0 46 -31.5 64t-85.5 18h-110zM408.5 114.5q43.5 38.5 43.5 107.5
q0 102 -136 102h-114l-35 -248h89q109 0 152.5 38.5z" />
    <glyph glyph-name="C" unicode="C" horiz-adv-x="555" 
d="M497 683q45 -18 82 -53l-54 -53q-31 24 -61.5 35t-65.5 11q-84 0 -137.5 -55.5t-77 -138.5t-23.5 -169q0 -99 41 -145.5t111 -46.5q45 0 80 15.5t75 43.5l42 -64q-89 -75 -203 -75q-113 0 -179 73t-66 207q0 100 35.5 200t110.5 166.5t187 66.5q58 0 103 -18z" />
    <glyph glyph-name="D" unicode="D" horiz-adv-x="639" 
d="M519 632.5q82 -56.5 82 -204.5q0 -117 -38 -214t-121.5 -155.5t-213.5 -58.5h-166l97 689h141q137 0 219 -56.5zM242 613l-75 -538h75q94 0 153 52t84.5 132t25.5 171q0 76 -26 116t-67.5 53.5t-97.5 13.5h-72z" />
    <glyph glyph-name="E" unicode="E" horiz-adv-x="529" 
d="M528 689l-21 -76h-265l-32 -225h230l-10 -76h-230l-33 -236h283l-11 -76h-377l97 689h369z" />
    <glyph glyph-name="F" unicode="F" horiz-adv-x="485" 
d="M521 689l-21 -76h-258l-33 -235h223l-10 -75h-223l-43 -303h-94l97 689h362z" />
    <glyph glyph-name="G" unicode="G" horiz-adv-x="625" 
d="M517.5 681q48.5 -20 89.5 -59l-59 -51q-35 28 -67 40t-75 12q-84 0 -139.5 -56.5t-81.5 -143t-26 -176.5q0 -94 39 -137.5t117 -43.5q72 0 131 34l30 205h-120v77h224l-45 -328q-52 -33 -108 -49.5t-125 -16.5q-113 0 -177.5 69.5t-64.5 201.5q0 106 37.5 207.5
t115.5 168t192 66.5q64 0 112.5 -20z" />
    <glyph glyph-name="H" unicode="H" horiz-adv-x="674" 
d="M156 0h-94l97 689h94l-41 -288h288l41 288h94l-97 -689h-94l45 323h-288z" />
    <glyph glyph-name="I" unicode="I" horiz-adv-x="292" 
d="M253 689l-97 -689h-94l97 689h94z" />
    <glyph glyph-name="J" unicode="J" horiz-adv-x="300" 
d="M182 93q-14 -102 -64.5 -152t-143.5 -79l-19 71q48 18 74.5 39.5t40 52t19.5 78.5l83 586h94z" />
    <glyph glyph-name="K" unicode="K" horiz-adv-x="583" 
d="M62 0l97 689h95l-97 -689h-95zM434 0l-221 368l302 321h111l-307 -324l227 -365h-112z" />
    <glyph glyph-name="L" unicode="L" horiz-adv-x="492" 
d="M253 689l-85 -606h280l-22 -83h-364l97 689h94z" />
    <glyph glyph-name="M" unicode="M" horiz-adv-x="772" 
d="M673 0h-91l20 314q10 176 21 277l-218 -513h-90l-83 512q-12 -100 -53 -289l-64 -301h-90l154 689h119l78 -499l204 499h133z" />
    <glyph glyph-name="N" unicode="N" horiz-adv-x="677" 
d="M541 0h-123l-197 607q-1 -119 -26 -294l-44 -313h-89l97 689h124l198 -608q0 68 3.5 119.5t11.5 115.5l53 373h89z" />
    <glyph glyph-name="O" unicode="O" horiz-adv-x="686" 
d="M582 628q66 -73 66 -207q0 -101 -34.5 -200.5t-110.5 -166t-195 -66.5q-114 0 -180.5 72t-66.5 205q0 99 34.5 199t111 168.5t195.5 68.5q114 0 180 -73zM257.5 566q-53.5 -57 -76 -139.5t-22.5 -164.5q0 -196 152 -196q88 0 141.5 57.5t75.5 140t22 164.5
q0 195 -152 195q-87 0 -140.5 -57z" />
    <glyph glyph-name="P" unicode="P" horiz-adv-x="575" 
d="M513.5 643.5q62.5 -45.5 62.5 -136.5q0 -69 -29.5 -126t-96 -92.5t-170.5 -35.5h-89l-35 -253h-94l97 689h177q115 0 177.5 -45.5zM432.5 378.5q43.5 50.5 43.5 128.5q0 58 -37.5 83t-109.5 25h-87l-40 -287h80q107 0 150.5 50.5z" />
    <glyph glyph-name="Q" unicode="Q" horiz-adv-x="683" 
d="M628 268.5q-20 -76.5 -64 -139t-112 -92.5q51 -1 91.5 -18t78.5 -45l-70 -77q-34 36 -66.5 55.5t-73.5 27.5t-104 8q-114 0 -180.5 72t-66.5 205q0 99 34.5 199t111 168.5t195.5 68.5q114 0 180 -73t66 -207q0 -76 -20 -152.5zM199 111.5q40 -45.5 112 -45.5
q88 0 141.5 58t75.5 142.5t22 171.5q0 94 -39 139.5t-113 45.5q-87 0 -140.5 -57.5t-76 -141.5t-22.5 -169q0 -98 40 -143.5z" />
    <glyph glyph-name="R" unicode="R" horiz-adv-x="599" 
d="M530.5 390q-41.5 -58 -132.5 -84l139 -306h-104l-127 292h-109l-41 -292h-94l97 689h177q236 0 236 -171q0 -70 -41.5 -128zM207 365h101q88 0 126.5 45t38.5 107q0 53 -34 75.5t-108 22.5h-89z" />
    <glyph glyph-name="S" unicode="S" horiz-adv-x="539" 
d="M438 680q49 -21 89 -62l-59 -55q-32 32 -66.5 46t-77.5 14q-61 0 -101 -30t-40 -82q0 -40 27 -64t102 -49q86 -27 133 -68t47 -121q0 -56 -29.5 -106.5t-90 -82.5t-150.5 -32q-142 0 -223 92l60 56q32 -35 72 -52.5t93 -17.5q77 0 123.5 37.5t46.5 100.5q0 44 -27.5 69.5
t-99.5 50.5q-94 33 -137 72.5t-43 109.5q0 47 28 92t81.5 74t127.5 29q65 0 114 -21z" />
    <glyph glyph-name="T" unicode="T" horiz-adv-x="511" 
d="M562 689l-22 -81h-190l-85 -608h-94l85 608h-194l12 81h488z" />
    <glyph glyph-name="U" unicode="U" horiz-adv-x="656" 
d="M561 218q-15 -105 -86 -167.5t-183 -62.5q-102 0 -157 52.5t-55 141.5q0 21 3 42l66 465h94l-65 -464q-3 -22 -3 -42q0 -58 29.5 -86.5t91.5 -28.5q149 0 172 163l65 458h94z" />
    <glyph glyph-name="V" unicode="V" horiz-adv-x="550" 
d="M604 689l-315 -689h-101l-123 689h98l88 -586l255 586h98z" />
    <glyph glyph-name="W" unicode="W" horiz-adv-x="820" 
d="M855 689l-236 -689h-121l-44 577l-208 -577h-118l-42 689h90l24 -606l217 606h102l49 -606l200 606h87z" />
    <glyph glyph-name="X" unicode="X" horiz-adv-x="534" 
d="M567 689l-232 -318l157 -371h-103l-114 304l-203 -304h-105l258 367l-142 322h103l99 -259l178 259h104z" />
    <glyph glyph-name="Y" unicode="Y" horiz-adv-x="544" 
d="M600 689l-280 -424l-37 -265h-96l38 264l-160 425h99l118 -341l215 341h103z" />
    <glyph glyph-name="Z" unicode="Z" horiz-adv-x="516" 
d="M-8 0l10 76l414 533h-302l11 80h407l-10 -77l-411 -532l335 1l-22 -81h-432z" />
    <glyph glyph-name="bracketleft" unicode="[" horiz-adv-x="316" 
d="M346 816l-11 -77h-119l-110 -779h119l-10 -76h-205l131 932h205z" />
    <glyph glyph-name="backslash" unicode="\" horiz-adv-x="514" 
d="M255 805l105 -892l-78 -17l-103 893z" />
    <glyph glyph-name="bracketright" unicode="]" horiz-adv-x="316" 
d="M331 816l-131 -932h-205l10 76h119l110 779h-119l11 77h205z" />
    <glyph glyph-name="asciicircum" unicode="^" horiz-adv-x="534" 
d="M389 840l143 -313h-96l-97 233l-165 -233h-98l232 313h81z" />
    <glyph glyph-name="underscore" unicode="_" horiz-adv-x="514" 
d="M-41 -142l11 79h482l-11 -79h-482z" />
    <glyph glyph-name="grave" unicode="`" horiz-adv-x="293" 
d="M140 801l183 -114l-29 -49l-199 86z" />
    <glyph glyph-name="a" unicode="a" horiz-adv-x="569" 
d="M424.5 528q44.5 -11 91.5 -34l-54 -374q-2 -16 -2 -22q0 -18 7.5 -29t26.5 -18l-26 -63q-42 5 -65 26t-28 62q-32 -41 -72 -64.5t-85 -23.5q-80 0 -124 55t-44 147q0 80 29.5 160t92.5 134.5t159 54.5q49 0 93.5 -11zM228.5 423.5q-41.5 -42.5 -61 -106t-19.5 -128.5
t23 -96.5t66 -31.5q41 0 73.5 25t67.5 72l41 291q-21 9 -40.5 13t-45.5 4q-63 0 -104.5 -42.5z" />
    <glyph glyph-name="b" unicode="b" horiz-adv-x="579" 
d="M485 484.5q43 -54.5 43 -152.5q0 -82 -29 -160.5t-92.5 -131t-160.5 -52.5q-44 0 -86 8t-100 27l101 716l92 11l-38 -275q36 32 73 48t79 16q75 0 118 -54.5zM269.5 446q-32.5 -20 -66.5 -56l-43 -313q25 -9 45 -12.5t48 -3.5q61 0 101.5 42.5t59.5 106.5t19 129
q0 127 -92 127q-39 0 -71.5 -20z" />
    <glyph glyph-name="c" unicode="c" horiz-adv-x="472" 
d="M472 481l-49 -57q-24 21 -48 30t-55 9q-62 0 -100.5 -41.5t-55 -102.5t-16.5 -123q0 -130 107 -130q33 0 60.5 10t61.5 31l37 -64q-77 -55 -165 -55q-94 0 -145.5 56.5t-51.5 158.5q0 76 28 153.5t88 130t151 52.5q92 0 153 -58z" />
    <glyph glyph-name="d" unicode="d" horiz-adv-x="587" 
d="M560 738l-104 -738h-80l1 87q-29 -47 -69 -73t-90 -26q-80 0 -123.5 56t-43.5 153q0 76 25.5 155t80.5 133t139 54q83 0 135 -66l39 275zM217 422q-37 -44 -53 -107.5t-16 -124.5q0 -65 23 -97t65 -32q46 0 81 30t74 92l31 219q-21 32 -47 48t-62 16q-59 0 -96 -44z" />
    <glyph glyph-name="e" unicode="e" horiz-adv-x="517" 
d="M400 259q-90 -45 -252 -63q3 -131 114 -131q37 0 71 12t70 37l39 -62q-89 -64 -189 -64q-96 0 -148.5 56.5t-52.5 157.5q0 79 27.5 156.5t88.5 129t155 51.5q80 0 123.5 -39t43.5 -95q0 -101 -90 -146zM335.5 309q58.5 29 58.5 93q0 24 -17 44t-55 20q-76 0 -117 -58
t-52 -142q124 14 182.5 43z" />
    <glyph glyph-name="f" unicode="f" horiz-adv-x="329" 
d="M267 656.5q-22 -19.5 -27 -59.5l-10 -70h127l-20 -71h-117l-60 -427q-10 -73 -33.5 -116.5t-61 -70.5t-102.5 -55l-26 69q42 19 66.5 37t41 50t24.5 86l60 427h-93l10 71h93l11 75q9 68 56 108t123 40q36 0 64 -9t60 -29l-35 -61q-37 25 -86 25q-43 0 -65 -19.5z" />
    <glyph glyph-name="g" unicode="g" horiz-adv-x="580" 
d="M431.5 528q44.5 -11 91.5 -34l-73 -482q-18 -121 -80 -174.5t-161 -53.5q-47 0 -95.5 14t-86.5 37l35 70q29 -17 66.5 -29.5t75.5 -12.5q63 0 104 31t53 119l9 67q-31 -37 -69.5 -58.5t-80.5 -21.5q-79 0 -124 53.5t-45 144.5q0 85 30 163t94 128t162 50q50 0 94.5 -11z
M231.5 427q-42.5 -39 -62.5 -100.5t-20 -129.5q0 -63 24 -93.5t66 -30.5q40 0 74.5 26t69.5 73l43 277q-23 9 -43 13t-46 4q-63 0 -105.5 -39z" />
    <glyph glyph-name="h" unicode="h" horiz-adv-x="581" 
d="M475 504q34 -35 34 -97q0 -22 -2 -34l-53 -373h-91l52 368q2 22 2 30q0 35 -14.5 49.5t-40.5 14.5q-48 0 -91.5 -41t-79.5 -105l-43 -316h-91l104 738l92 10l-46 -320q74 111 174 111q60 0 94 -35z" />
    <glyph glyph-name="i" unicode="i" horiz-adv-x="279" 
d="M222 527l-74 -527h-91l74 527h91zM155 671.5q-16 16.5 -16 40.5q0 29 20 48.5t49 19.5q27 0 43 -16t16 -41q0 -29 -20 -48.5t-49 -19.5q-27 0 -43 16.5z" />
    <glyph glyph-name="j" unicode="j" horiz-adv-x="279" 
d="M-71 -145q42 19 66.5 37.5t41 50.5t24.5 86l70 498h91l-70 -498q-10 -73 -33.5 -116.5t-61 -70.5t-102.5 -55zM156 671.5q-16 16.5 -16 40.5q0 29 20 48.5t49 19.5q27 0 43 -16t16 -41q0 -29 -20 -48.5t-49 -19.5q-27 0 -43 16.5z" />
    <glyph glyph-name="k" unicode="k" horiz-adv-x="545" 
d="M209 435q37 52 83 78t97 26q56 0 92 -33.5t36 -86.5q0 -64 -41 -112t-122 -74l119 -233h-102l-126 257q93 26 134 61.5t41 90.5q0 28 -15 42.5t-42 14.5q-45 0 -92 -38.5t-79 -111.5l-44 -316h-91l104 739l92 11z" />
    <glyph glyph-name="l" unicode="l" horiz-adv-x="288" 
d="M158 103q-1 -5 -1 -13q0 -14 6 -20t19 -6q15 0 36 7l19 -66q-38 -17 -73 -17q-46 0 -71.5 25t-25.5 74q0 9 2 31l88 621l92 11z" />
    <glyph glyph-name="m" unicode="m" horiz-adv-x="848" 
d="M745.5 503.5q31.5 -35.5 31.5 -95.5q0 -22 -2 -33l-53 -375h-91l52 368q2 12 2 31q0 36 -15 49.5t-42 13.5q-38 0 -75 -39.5t-74 -104.5l-45 -318h-91l52 368q2 12 2 31q0 36 -15 49.5t-42 13.5q-38 0 -75 -40t-74 -106l-43 -316h-91l74 527h78l-8 -101q39 55 80.5 84
t91.5 29q44 0 76 -28t39 -79q40 53 82.5 80t90.5 27q53 0 84.5 -35.5z" />
    <glyph glyph-name="n" unicode="n" horiz-adv-x="580" 
d="M475.5 503.5q33.5 -35.5 33.5 -97.5q0 -16 -3 -36l-52 -370h-91l52 368q2 22 2 29q0 35 -15 50t-43 15q-46 0 -88.5 -41t-78.5 -105l-44 -316h-91l74 527h78l-8 -103q39 55 84 85t99 30q58 0 91.5 -35.5z" />
    <glyph glyph-name="o" unicode="o" horiz-adv-x="578" 
d="M104.5 46q-52.5 58 -52.5 160q0 74 27.5 150.5t88.5 129.5t157 53q97 0 149 -58t52 -160q0 -73 -27 -149.5t-88 -130t-157 -53.5q-97 0 -149.5 58zM359 105.5q39 43.5 55 105t16 120.5q0 134 -108 134q-63 0 -102 -43.5t-55.5 -105t-16.5 -120.5q0 -134 109 -134
q63 0 102 43.5z" />
    <glyph glyph-name="p" unicode="p" horiz-adv-x="579" 
d="M131 527h78l-2 -66q39 43 78 60.5t82 17.5q75 0 118 -54.5t43 -152.5q0 -81 -29 -160t-92 -131.5t-159 -52.5q-49 0 -100 17l-30 -209l-91 -12zM354.5 103.5q40.5 42.5 59.5 106.5t19 129q0 127 -92 127q-39 0 -71.5 -20t-66.5 -56l-43 -313q25 -9 45 -12.5t48 -3.5
q61 0 101.5 42.5z" />
    <glyph glyph-name="q" unicode="q" horiz-adv-x="576" 
d="M366 64q-26 -33 -65 -54.5t-83 -21.5q-79 0 -123.5 55t-44.5 147q0 80 29.5 160t92.5 134.5t159 54.5q49 0 93 -10t95 -35l-101 -698l-91 -12zM310.5 86q32.5 25 67.5 72l42 291q-22 9 -41.5 13t-45.5 4q-63 0 -104.5 -42.5t-61 -106t-19.5 -128.5t23 -96.5t66 -31.5
q41 0 73.5 25z" />
    <glyph glyph-name="r" unicode="r" horiz-adv-x="381" 
d="M409 532l-27 -89q-19 5 -43 5q-49 0 -85.5 -42.5t-65.5 -126.5l-40 -279h-91l74 527h78l-6 -108q29 60 68.5 90t84.5 30q25 0 53 -7z" />
    <glyph glyph-name="s" unicode="s" horiz-adv-x="461" 
d="M436 474l-45 -55q-59 47 -129 47q-48 0 -76.5 -19t-28.5 -52q0 -30 23.5 -46t82.5 -34q77 -24 113 -60.5t36 -97.5q0 -56 -31 -94t-80.5 -56.5t-107.5 -18.5q-117 0 -195 76l52 53q65 -55 147 -55q63 0 91 26.5t28 59.5q0 27 -10 43t-33.5 28t-67.5 26
q-76 23 -108.5 56.5t-32.5 87.5q0 37 22 71.5t67 56.5t110 22q100 0 173 -65z" />
    <glyph glyph-name="t" unicode="t" horiz-adv-x="355" 
d="M173 139q-2 -20 -2 -26q0 -25 11.5 -36.5t35.5 -11.5q18 0 35.5 5.5t40.5 16.5l30 -64q-55 -35 -117 -35q-61 0 -94 31.5t-33 89.5q0 21 2 32l44 315h-91l10 71h95l33 122l72 8l-18 -130h124l-20 -71h-114z" />
    <glyph glyph-name="u" unicode="u" horiz-adv-x="576" 
d="M104.5 22.5q-34.5 34.5 -34.5 95.5q0 17 3 35l53 374h91l-52 -370q-3 -18 -3 -33q0 -34 14.5 -49t43.5 -15q45 0 83.5 34t76.5 90l48 343h91l-74 -527h-78l7 97q-39 -54 -80.5 -81.5t-93.5 -27.5q-61 0 -95.5 34.5z" />
    <glyph glyph-name="v" unicode="v" horiz-adv-x="486" 
d="M514 527l-252 -527h-109l-106 527h99l72 -444l196 444h100z" />
    <glyph glyph-name="w" unicode="w" horiz-adv-x="711" 
d="M728 527l-191 -527h-125l-28 444l-157 -444h-121l-48 527h90l29 -463l167 463h103l33 -463l160 463h88z" />
    <glyph glyph-name="x" unicode="x" horiz-adv-x="480" 
d="M493 527l-196 -252l141 -275h-102l-100 222l-161 -222h-107l221 283l-125 244h101l84 -195l138 195h106z" />
    <glyph glyph-name="y" unicode="y" horiz-adv-x="486" 
d="M270 -5q-41 -91 -106 -144t-169 -64l-4 72q54 9 87.5 26t56.5 43.5t47 71.5h-34l-101 527h96l74 -457l202 457h95z" />
    <glyph glyph-name="z" unicode="z" horiz-adv-x="431" 
d="M436 527l-9 -70l-318 -380h267l-21 -77h-368l9 69l317 380h-240l11 78h352z" />
    <glyph glyph-name="braceleft" unicode="{" horiz-adv-x="316" 
d="M345 765q-50 0 -75 -16.5t-30 -54.5l-34 -239q-7 -51 -27 -72.5t-63 -35.5q32 -11 47 -28t15 -52q0 -8 -2 -28l-34 -239q-1 -6 -1 -16q0 -27 19.5 -38t64.5 -11l-6 -71q-163 0 -163 121q0 20 2 31l31 222q2 20 2 26q0 26 -14 36.5t-50 10.5l11 76q39 0 58.5 19.5
t25.5 61.5l31 222q8 54 29 85.5t61.5 46t107.5 14.5z" />
    <glyph glyph-name="bar" unicode="|" horiz-adv-x="397" 
d="M316 807l-127 -909h-83l127 909h83z" />
    <glyph glyph-name="braceright" unicode="}" horiz-adv-x="315" 
d="M-5 -65q50 0 75 16.5t30 54.5l34 239q7 51 27 72.5t63 35.5q-32 11 -47 28t-15 52q0 8 2 28l34 239q1 6 1 16q0 27 -19.5 38t-64.5 11l6 71q163 0 163 -121q0 -20 -2 -31l-31 -222q-2 -20 -2 -26q0 -26 14 -36.5t50 -10.5l-11 -76q-39 0 -58.5 -19.5t-25.5 -61.5
l-31 -222q-8 -54 -29 -85.5t-61.5 -46t-107.5 -14.5z" />
    <glyph glyph-name="asciitilde" unicode="~" horiz-adv-x="482" 
d="M271.5 259.5q-19.5 9.5 -41.5 26.5q-17 13 -29 19.5t-26 6.5q-45 0 -84 -56l-54 33q60 95 146 95q24 0 42 -8.5t41 -25.5q18 -14 31 -20.5t28 -6.5q25 0 46 14t36 36l53 -34q-59 -89 -143 -89q-26 0 -45.5 9.5z" />
    <glyph glyph-name="uni00A0" unicode="&#xa0;" horiz-adv-x="259" 
 />
    <glyph glyph-name="exclamdown" unicode="&#xa1;" horiz-adv-x="235" 
d="M92.5 374q-17.5 18 -17.5 45q0 32 21.5 54t52.5 22q28 0 45.5 -18t17.5 -45q0 -32 -22 -54t-53 -22q-27 0 -44.5 18zM160 247l-53 -449h-101l73 449h81z" />
    <glyph glyph-name="cent" unicode="&#xa2;" horiz-adv-x="472" 
d="M219.5 421.5q-38.5 -41.5 -55 -102.5t-16.5 -123q0 -130 107 -130q33 0 60.5 10t61.5 31l37 -64q-68 -48 -142 -54l-20 -143h-79l21 148q-68 16 -105 70t-37 139q0 69 23 140t72 124.5t124 67.5l21 149h78l-21 -147q73 -8 123 -56l-49 -57q-24 21 -48 30t-55 9
q-62 0 -100.5 -41.5z" />
    <glyph glyph-name="sterling" unicode="&#xa3;" horiz-adv-x="514" 
d="M458.5 658q41.5 -21 71.5 -64l-62 -43q-20 28 -44.5 40.5t-59.5 12.5q-50 0 -82 -29.5t-39 -83.5l-15 -109h205l-9 -60h-205l-17 -121q-7 -51 -23 -78t-53 -47h315l-22 -76h-417l8 74q37 13 56.5 28t29.5 39t16 67l16 114h-65l9 60h65l16 114q12 83 67 133t141 50
q56 0 97.5 -21z" />
    <glyph glyph-name="currency" unicode="&#xa4;" 
d="M455 218l76 -75l-55 -55l-78 76q-53 -32 -120 -32q-64 0 -117 34l-77 -78l-55 55l78 78q-36 53 -36 120q0 65 35 119l-77 80l55 55l78 -80q49 34 116 34t120 -32l78 78l55 -55l-76 -77q37 -52 37 -122q0 -69 -37 -123zM371.5 241q31.5 36 31.5 101t-31.5 101t-90.5 36
t-91 -36t-32 -101t32 -101t91 -36t90.5 36z" />
    <glyph glyph-name="yen" unicode="&#xa5;" horiz-adv-x="530" 
d="M583 669l-235 -323h112l-9 -62h-136l-13 -90h136l-8 -61h-136l-19 -133h-94l19 133h-137l8 61h138l13 90h-138l9 62h113l-144 323h100l120 -295l204 295h97z" />
    <glyph glyph-name="brokenbar" unicode="&#xa6;" horiz-adv-x="397" 
d="M316 807l-51 -364h-83l51 364h83zM240 262l-51 -364h-83l51 364h83z" />
    <glyph glyph-name="section" unicode="&#xa7;" horiz-adv-x="527" 
d="M429 385.5q34 -33.5 34 -79.5q0 -43 -23 -75.5t-71 -60.5q41 -35 41 -91q0 -38 -21.5 -72.5t-68 -56t-116.5 -21.5q-48 0 -90.5 14t-75.5 37l40 60q56 -39 131 -39q59 0 84.5 20.5t25.5 53.5q0 22 -9 36t-31.5 25t-66.5 26q-74 25 -105.5 56t-31.5 79q0 88 98 139
q-43 37 -43 89q0 72 56 112t139 40q99 0 172 -56l-40 -55q-32 21 -63 30.5t-69 9.5q-56 0 -80.5 -20t-24.5 -53q0 -31 22 -50t83 -40q70 -24 104 -57.5zM361.5 247.5q13.5 20.5 13.5 45.5q0 29 -19.5 48t-71.5 37q-41 14 -62 26q-33 -25 -45 -46t-12 -49q0 -29 16.5 -47
t60.5 -32q40 -13 73 -27q33 24 46.5 44.5z" />
    <glyph glyph-name="dieresis" unicode="&#xa8;" horiz-adv-x="384" 
d="M108 668.5q-15 14.5 -15 36.5q0 27 18 44.5t45 17.5q23 0 38 -14.5t15 -36.5q0 -27 -18 -44.5t-45 -17.5q-23 0 -38 14.5zM316 668.5q-15 14.5 -15 36.5q0 27 18 44.5t45 17.5q23 0 38 -14.5t15 -36.5q0 -27 -18 -44.5t-45 -17.5q-23 0 -38 14.5z" />
    <glyph glyph-name="copyright" unicode="&#xa9;" horiz-adv-x="810" 
d="M587.5 707.5q71.5 -40.5 113 -112t41.5 -161.5t-41.5 -161.5t-113 -111.5t-157.5 -40t-158 40t-114 111.5t-42 161.5t42 161.5t114 112t158 40.5t157.5 -40.5zM300.5 663q-57.5 -33 -90.5 -93t-33 -136t33 -135t90.5 -92t129.5 -33q71 0 128.5 33t90.5 92t33 135t-33 136
t-90.5 93t-128.5 33q-72 0 -129.5 -33zM495 615q27 -10 54 -30l-35 -47q-38 27 -78 27q-41 0 -66 -32t-25 -98q0 -63 24.5 -95t66.5 -32q25 0 44.5 7.5t39.5 23.5l32 -48q-52 -46 -119 -46q-74 0 -119 50t-45 140q0 60 22 103t59 65t82 22q36 0 63 -10z" />
    <glyph glyph-name="ordfeminine" unicode="&#xaa;" horiz-adv-x="494" 
d="M111.5 303q-32.5 32 -32.5 82q0 59 47 99.5t158 40.5h59l3 20q2 18 2 24q0 28 -16.5 39.5t-53.5 11.5q-47 0 -116 -22l-17 64q78 27 151 27q71 0 105.5 -28t34.5 -86q0 -15 -1 -24l-23 -170q-2 -12 -2 -17q0 -12 6 -19.5t20 -12.5l-25 -60q-65 6 -79 58q-49 -59 -130 -59
q-58 0 -90.5 32zM325 394l11 76h-52q-61 0 -87 -23t-26 -58q0 -52 53 -52q60 0 101 57zM25 0l11 77h372l-11 -77h-372z" />
    <glyph glyph-name="guillemotleft" unicode="&#xab;" horiz-adv-x="569" 
d="M259 535l55 -38l-164 -210l105 -210l-57 -38l-145 216l7 63zM494 535l55 -38l-164 -210l105 -210l-57 -38l-145 216l7 63z" />
    <glyph glyph-name="logicalnot" unicode="&#xac;" horiz-adv-x="494" 
d="M447 361l-31 -220h-87l20 143h-285l11 77h372z" />
    <glyph glyph-name="uni00AD" unicode="&#xad;" horiz-adv-x="397" 
d="M59 274l11 78h281l-11 -78h-281z" />
    <glyph glyph-name="registered" unicode="&#xae;" horiz-adv-x="641" 
d="M481.5 715.5q58.5 -34.5 92 -93.5t33.5 -129t-33.5 -128.5t-92 -92.5t-129.5 -34q-69 0 -127 34t-91.5 92.5t-33.5 128.5t33.5 129t91.5 93.5t127 34.5q71 0 129.5 -34.5zM455.5 313.5q45.5 26.5 71 73.5t25.5 106t-25.5 106.5t-71 74.5t-103.5 27q-56 0 -101 -27
t-70.5 -74.5t-25.5 -106.5t25.5 -106t70.5 -73.5t101 -26.5q58 0 103.5 26.5zM443 502.5q-18 -19.5 -47 -28.5l74 -115h-67l-61 106h-24v-106h-57v276h78q122 0 122 -84q0 -29 -18 -48.5zM318 509h30q54 0 54 42q0 21 -13.5 30.5t-42.5 9.5h-28v-82z" />
    <glyph glyph-name="macron" unicode="&#xaf;" horiz-adv-x="331" 
d="M358 667h-271l9 69h271z" />
    <glyph glyph-name="degree" unicode="&#xb0;" horiz-adv-x="517" 
d="M132 418q-40 37 -40 101q0 50 23.5 92t64.5 66t91 24q63 0 103 -37t40 -101q0 -50 -23.5 -92t-64.5 -66t-91 -24q-63 0 -103 37zM311.5 477.5q27.5 33.5 27.5 86.5q0 37 -18.5 55.5t-51.5 18.5q-47 0 -74.5 -33.5t-27.5 -86.5q0 -37 18.5 -55.5t51.5 -18.5
q47 0 74.5 33.5z" />
    <glyph glyph-name="plusminus" unicode="&#xb1;" horiz-adv-x="494" 
d="M24 0l11 77h372l-11 -77h-372zM328 542l-21 -150h144l-11 -76h-144l-21 -149h-84l21 149h-143l11 76h143l21 150h84z" />
    <glyph glyph-name="uni00B2" unicode="&#xb2;" horiz-adv-x="394" 
d="M349.5 716q32.5 -30 32.5 -78q0 -42 -26 -81.5t-64.5 -73.5t-118.5 -99h185l-17 -62h-267l8 60l39 34q65 55 100.5 88.5t58.5 67.5t23 65q0 23 -14 35t-39 12q-26 0 -47.5 -11.5t-45.5 -35.5l-46 43q64 66 148 66q58 0 90.5 -30z" />
    <glyph glyph-name="uni00B3" unicode="&#xb3;" horiz-adv-x="394" 
d="M350.5 718q32.5 -28 32.5 -70t-26.5 -68.5t-73.5 -37.5q38 -4 62 -26t24 -59q0 -40 -22 -73t-60.5 -52t-84.5 -19q-44 0 -79 16t-57 46l49 38q18 -21 39 -30t48 -9q40 0 64.5 23.5t24.5 63.5q0 29 -17 40t-53 11h-36l17 56h21q37 0 60 21t23 53q0 22 -14.5 33.5
t-40.5 11.5q-25 0 -47.5 -9t-47.5 -27l-35 44q63 51 139 51q58 0 90.5 -28z" />
    <glyph glyph-name="acute" unicode="&#xb4;" horiz-adv-x="294" 
d="M301 801l30 -77l-220 -86l-21 49z" />
    <glyph glyph-name="uni00B5" unicode="&#xb5;" horiz-adv-x="582" 
d="M463 81q0 -43 7 -83l-84 -8q-8 25 -10 45.5t-1 49.5q-30 -42 -69.5 -69.5t-87.5 -27.5q-52 0 -80 34q3 -13 3 -33q0 -36 -8 -88l-14 -103l-92 -11l104 740h91l-53 -374q-2 -18 -2 -24q0 -65 66 -65q84 0 145 99l50 364h91l-49 -350q-7 -50 -7 -96z" />
    <glyph glyph-name="paragraph" unicode="&#xb6;" horiz-adv-x="728" 
d="M649 689l-125 -891l-82 -13l116 830h-119l-113 -817l-82 -13l70 498q-98 5 -147 51t-49 120q0 73 34.5 126.5t96.5 81t142 27.5h258z" />
    <glyph glyph-name="periodcentered" unicode="&#xb7;" horiz-adv-x="239" 
d="M75.5 259q-17.5 18 -17.5 45q0 32 21.5 54t52.5 22q28 0 45.5 -18t17.5 -45q0 -32 -22 -54t-53 -22q-27 0 -44.5 18z" />
    <glyph glyph-name="cedilla" unicode="&#xb8;" horiz-adv-x="272" 
d="M103 -56q40 -4 61 -26t21 -55q0 -44 -34.5 -74t-94.5 -30q-57 0 -93 27l31 49q14 -8 27.5 -12t34.5 -4q24 0 39 11.5t15 31.5q0 22 -17.5 30.5t-64.5 8.5l28 115h59z" />
    <glyph glyph-name="uni00B9" unicode="&#xb9;" horiz-adv-x="394" 
d="M337 739l-59 -417h-76l47 338l-104 -57l-27 53l150 83h69z" />
    <glyph glyph-name="ordmasculine" unicode="&#xba;" horiz-adv-x="494" 
d="M428.5 644q43.5 -45 43.5 -125q0 -70 -27 -126.5t-77 -89t-116 -32.5q-81 0 -125 45t-44 125q0 70 27.5 126.5t77.5 89t116 32.5q81 0 124.5 -45zM207 567q-31 -53 -31 -131q0 -96 78 -96q63 0 94 53.5t31 131.5q0 95 -77 95q-64 0 -95 -53zM24 0l11 77h372l-11 -77h-372
z" />
    <glyph glyph-name="guillemotright" unicode="&#xbb;" horiz-adv-x="569" 
d="M141 535l146 -217l-7 -63l-201 -216l-53 38l163 210l-104 210zM376 535l146 -217l-7 -63l-201 -216l-53 38l163 210l-104 210z" />
    <glyph glyph-name="onequarter" unicode="&#xbc;" horiz-adv-x="914" 
d="M330 689l-59 -417h-76l47 338l-104 -57l-27 53l150 83h69zM696 750l56 -29l-513 -799l-57 29zM858 156l-9 -60h-51l-14 -96h-75l13 96h-184l7 54l165 274l63 -25l-146 -243h104l22 105h68l-15 -105h52z" />
    <glyph glyph-name="onehalf" unicode="&#xbd;" horiz-adv-x="914" 
d="M330 689l-59 -417h-76l47 338l-104 -57l-27 53l150 83h69zM696 750l56 -29l-513 -799l-57 29zM824.5 394q32.5 -30 32.5 -78q0 -42 -26 -81.5t-64.5 -73.5t-118.5 -99h185l-17 -62h-267l8 60l39 34q65 55 100.5 88.5t58.5 67.5t23 65q0 23 -14 35t-39 12
q-26 0 -47.5 -11.5t-45.5 -35.5l-46 43q64 66 148 66q58 0 90.5 -30z" />
    <glyph glyph-name="threequarters" unicode="&#xbe;" horiz-adv-x="914" 
d="M343.5 668q32.5 -28 32.5 -70t-26.5 -68.5t-73.5 -37.5q38 -4 62 -26t24 -59q0 -40 -22 -73t-60.5 -52t-84.5 -19q-44 0 -79 16t-57 46l49 38q18 -21 39 -30t48 -9q40 0 64.5 23.5t24.5 63.5q0 29 -17 40t-53 11h-36l17 56h21q37 0 60 21t23 53q0 22 -14.5 33.5
t-40.5 11.5q-25 0 -47.5 -9t-47.5 -27l-35 44q63 51 139 51q58 0 90.5 -28zM696 750l56 -29l-513 -799l-57 29zM858 156l-9 -60h-51l-14 -96h-75l13 96h-184l7 54l165 274l63 -25l-146 -243h104l22 105h68l-15 -105h52z" />
    <glyph glyph-name="questiondown" unicode="&#xbf;" horiz-adv-x="454" 
d="M316.5 489q17.5 -18 17.5 -45q0 -32 -21.5 -54t-52.5 -22q-28 0 -45.5 18t-17.5 45q0 32 22 54t53 22q27 0 44.5 -18zM27.5 -175.5q-44.5 40.5 -44.5 100.5q0 50 19 83t46 51.5t72 42.5q37 19 58 33.5t35.5 36t14.5 51.5q0 17 -3 29l82 14q4 -11 7 -25.5t3 -24.5
q0 -44 -18 -74.5t-44 -49t-68 -40.5q-37 -20 -58.5 -34.5t-36 -37t-14.5 -53.5q0 -33 22.5 -50t62.5 -17q39 0 77.5 18.5t73.5 55.5l57 -53q-94 -97 -216 -97q-83 0 -127.5 40.5z" />
    <glyph glyph-name="Agrave" unicode="&#xc0;" horiz-adv-x="567" 
d="M427 0l-27 173h-259l-76 -173h-97l316 689h119l121 -689h-97zM174 250h214l-56 360zM294 907l186 -104l-29 -49l-199 76z" />
    <glyph glyph-name="Aacute" unicode="&#xc1;" horiz-adv-x="567" 
d="M427 0l-27 173h-259l-76 -173h-97l316 689h119l121 -689h-97zM174 250h214l-56 360zM451 908l30 -77l-220 -76l-19 49z" />
    <glyph glyph-name="Acircumflex" unicode="&#xc2;" horiz-adv-x="567" 
d="M427 0l-27 173h-259l-76 -173h-97l316 689h119l121 -689h-97zM174 250h214l-56 360zM229 759l-37 45l149 110h60l119 -110l-41 -45l-115 81z" />
    <glyph glyph-name="Atilde" unicode="&#xc3;" horiz-adv-x="567" 
d="M427 0l-27 173h-259l-76 -173h-97l316 689h119l121 -689h-97zM174 250h214l-56 360zM382.5 790q-16.5 8 -34.5 22q-12 9 -20 13.5t-17 4.5q-18 0 -32.5 -12t-30.5 -36l-52 32q53 86 117 86q22 0 36 -7.5t33 -21.5q13 -10 21 -14.5t17 -4.5q16 0 30.5 11t30.5 35l54 -32
q-25 -42 -54 -63t-59 -21q-23 0 -39.5 8z" />
    <glyph glyph-name="Adieresis" unicode="&#xc4;" horiz-adv-x="567" 
d="M427 0l-27 173h-259l-76 -173h-97l316 689h119l121 -689h-97zM174 250h214l-56 360zM220 794.5q-15 14.5 -15 36.5q0 27 18 44.5t45 17.5q23 0 38 -14.5t15 -36.5q0 -27 -18 -44.5t-45 -17.5q-23 0 -38 14.5zM428 794.5q-15 14.5 -15 36.5q0 27 18 44.5t45 17.5
q23 0 38 -14.5t15 -36.5q0 -27 -18 -44.5t-45 -17.5q-23 0 -38 14.5z" />
    <glyph glyph-name="Aring" unicode="&#xc5;" horiz-adv-x="567" 
d="M427 0l-27 173h-259l-76 -173h-97l316 689h119l121 -689h-97zM174 250h214l-56 360zM454.5 934.5q28.5 -27.5 28.5 -68.5q0 -48 -36 -82t-88 -34q-46 0 -74.5 27.5t-28.5 68.5q0 48 36 82t88 34q46 0 74.5 -27.5zM333 893q-16 -19 -16 -46q0 -22 11.5 -34.5t32.5 -12.5
q29 0 45.5 20t16.5 46q0 22 -12 34t-33 12q-29 0 -45 -19z" />
    <glyph glyph-name="AE" unicode="&#xc6;" horiz-adv-x="808" 
d="M753 613h-307l24 -226h253l-10 -76h-234l25 -235h225l-11 -76h-297l-16 173h-266l-88 -173h-100l366 689h458zM179 250h219l-34 363z" />
    <glyph glyph-name="Ccedilla" unicode="&#xc7;" horiz-adv-x="555" 
d="M260.5 567.5q-53.5 -55.5 -77 -138.5t-23.5 -169q0 -99 41 -145.5t111 -46.5q45 0 80 15.5t75 43.5l42 -64q-76 -65 -173 -74l-8 -45q40 -4 61 -26t21 -55q0 -44 -34.5 -74t-94.5 -30q-57 0 -93 27l31 49q14 -8 27.5 -12t34.5 -4q24 0 39 11.5t15 31.5q0 22 -17.5 30.5
t-64.5 8.5l22 89q-100 10 -157 82t-57 196q0 100 35.5 200t110.5 166.5t187 66.5q58 0 103 -18t82 -53l-54 -53q-31 24 -61.5 35t-65.5 11q-84 0 -137.5 -55.5z" />
    <glyph glyph-name="Egrave" unicode="&#xc8;" horiz-adv-x="529" 
d="M528 689l-21 -76h-265l-32 -225h230l-10 -76h-230l-33 -236h283l-11 -76h-377l97 689h369zM297 907l186 -104l-29 -49l-199 76z" />
    <glyph glyph-name="Eacute" unicode="&#xc9;" horiz-adv-x="529" 
d="M528 689l-21 -76h-265l-32 -225h230l-10 -76h-230l-33 -236h283l-11 -76h-377l97 689h369zM454 908l30 -77l-220 -76l-19 49z" />
    <glyph glyph-name="Ecircumflex" unicode="&#xca;" horiz-adv-x="529" 
d="M528 689l-21 -76h-265l-32 -225h230l-10 -76h-230l-33 -236h283l-11 -76h-377l97 689h369zM232 759l-37 45l149 110h60l119 -110l-41 -45l-115 81z" />
    <glyph glyph-name="Edieresis" unicode="&#xcb;" horiz-adv-x="529" 
d="M528 689l-21 -76h-265l-32 -225h230l-10 -76h-230l-33 -236h283l-11 -76h-377l97 689h369zM223 794.5q-15 14.5 -15 36.5q0 27 18 44.5t45 17.5q23 0 38 -14.5t15 -36.5q0 -27 -18 -44.5t-45 -17.5q-23 0 -38 14.5zM431 794.5q-15 14.5 -15 36.5q0 27 18 44.5t45 17.5
q23 0 38 -14.5t15 -36.5q0 -27 -18 -44.5t-45 -17.5q-23 0 -38 14.5z" />
    <glyph glyph-name="Igrave" unicode="&#xcc;" horiz-adv-x="292" 
d="M253 689l-97 -689h-94l97 689h94zM156 907l186 -104l-29 -49l-199 76z" />
    <glyph glyph-name="Iacute" unicode="&#xcd;" horiz-adv-x="292" 
d="M253 689l-97 -689h-94l97 689h94zM313 908l30 -77l-220 -76l-19 49z" />
    <glyph glyph-name="Icircumflex" unicode="&#xce;" horiz-adv-x="292" 
d="M253 689l-97 -689h-94l97 689h94zM91 759l-37 45l149 110h60l119 -110l-41 -45l-115 81z" />
    <glyph glyph-name="Idieresis" unicode="&#xcf;" horiz-adv-x="292" 
d="M253 689l-97 -689h-94l97 689h94zM82 794.5q-15 14.5 -15 36.5q0 27 18 44.5t45 17.5q23 0 38 -14.5t15 -36.5q0 -27 -18 -44.5t-45 -17.5q-23 0 -38 14.5zM290 794.5q-15 14.5 -15 36.5q0 27 18 44.5t45 17.5q23 0 38 -14.5t15 -36.5q0 -27 -18 -44.5t-45 -17.5
q-23 0 -38 14.5z" />
    <glyph glyph-name="Eth" unicode="&#xd0;" horiz-adv-x="649" 
d="M529 632.5q82 -56.5 82 -204.5q0 -117 -38 -214t-121.5 -155.5t-213.5 -58.5h-166l45 318h-88l9 70h89l42 301h141q137 0 219 -56.5zM405 127q59 52 84.5 132t25.5 171q0 76 -26 116t-67.5 53.5t-97.5 13.5h-72l-31 -225h157l-9 -70h-158l-34 -243h75q94 0 153 52z" />
    <glyph glyph-name="Ntilde" unicode="&#xd1;" horiz-adv-x="677" 
d="M541 0h-123l-197 607q-1 -119 -26 -294l-44 -313h-89l97 689h124l198 -608q0 68 3.5 119.5t11.5 115.5l53 373h89zM448.5 790q-16.5 8 -34.5 22q-12 9 -20 13.5t-17 4.5q-18 0 -32.5 -12t-30.5 -36l-52 32q53 86 117 86q22 0 36 -7.5t33 -21.5q13 -10 21 -14.5t17 -4.5
q16 0 30.5 11t30.5 35l54 -32q-25 -42 -54 -63t-59 -21q-23 0 -39.5 8z" />
    <glyph glyph-name="Ograve" unicode="&#xd2;" horiz-adv-x="686" 
d="M582 628q66 -73 66 -207q0 -101 -34.5 -200.5t-110.5 -166t-195 -66.5q-114 0 -180.5 72t-66.5 205q0 99 34.5 199t111 168.5t195.5 68.5q114 0 180 -73zM257.5 566q-53.5 -57 -76 -139.5t-22.5 -164.5q0 -196 152 -196q88 0 141.5 57.5t75.5 140t22 164.5
q0 195 -152 195q-87 0 -140.5 -57zM357 907l186 -104l-29 -49l-199 76z" />
    <glyph glyph-name="Oacute" unicode="&#xd3;" horiz-adv-x="686" 
d="M582 628q66 -73 66 -207q0 -101 -34.5 -200.5t-110.5 -166t-195 -66.5q-114 0 -180.5 72t-66.5 205q0 99 34.5 199t111 168.5t195.5 68.5q114 0 180 -73zM257.5 566q-53.5 -57 -76 -139.5t-22.5 -164.5q0 -196 152 -196q88 0 141.5 57.5t75.5 140t22 164.5
q0 195 -152 195q-87 0 -140.5 -57zM514 908l30 -77l-220 -76l-19 49z" />
    <glyph glyph-name="Ocircumflex" unicode="&#xd4;" horiz-adv-x="686" 
d="M582 628q66 -73 66 -207q0 -101 -34.5 -200.5t-110.5 -166t-195 -66.5q-114 0 -180.5 72t-66.5 205q0 99 34.5 199t111 168.5t195.5 68.5q114 0 180 -73zM257.5 566q-53.5 -57 -76 -139.5t-22.5 -164.5q0 -196 152 -196q88 0 141.5 57.5t75.5 140t22 164.5
q0 195 -152 195q-87 0 -140.5 -57zM292 759l-37 45l149 110h60l119 -110l-41 -45l-115 81z" />
    <glyph glyph-name="Otilde" unicode="&#xd5;" horiz-adv-x="686" 
d="M582 628q66 -73 66 -207q0 -101 -34.5 -200.5t-110.5 -166t-195 -66.5q-114 0 -180.5 72t-66.5 205q0 99 34.5 199t111 168.5t195.5 68.5q114 0 180 -73zM257.5 566q-53.5 -57 -76 -139.5t-22.5 -164.5q0 -196 152 -196q88 0 141.5 57.5t75.5 140t22 164.5
q0 195 -152 195q-87 0 -140.5 -57zM445.5 790q-16.5 8 -34.5 22q-12 9 -20 13.5t-17 4.5q-18 0 -32.5 -12t-30.5 -36l-52 32q53 86 117 86q22 0 36 -7.5t33 -21.5q13 -10 21 -14.5t17 -4.5q16 0 30.5 11t30.5 35l54 -32q-25 -42 -54 -63t-59 -21q-23 0 -39.5 8z" />
    <glyph glyph-name="Odieresis" unicode="&#xd6;" horiz-adv-x="686" 
d="M582 628q66 -73 66 -207q0 -101 -34.5 -200.5t-110.5 -166t-195 -66.5q-114 0 -180.5 72t-66.5 205q0 99 34.5 199t111 168.5t195.5 68.5q114 0 180 -73zM257.5 566q-53.5 -57 -76 -139.5t-22.5 -164.5q0 -196 152 -196q88 0 141.5 57.5t75.5 140t22 164.5
q0 195 -152 195q-87 0 -140.5 -57zM283 794.5q-15 14.5 -15 36.5q0 27 18 44.5t45 17.5q23 0 38 -14.5t15 -36.5q0 -27 -18 -44.5t-45 -17.5q-23 0 -38 14.5zM491 794.5q-15 14.5 -15 36.5q0 27 18 44.5t45 17.5q23 0 38 -14.5t15 -36.5q0 -27 -18 -44.5t-45 -17.5
q-23 0 -38 14.5z" />
    <glyph glyph-name="multiply" unicode="&#xd7;" horiz-adv-x="495" 
d="M397 486l50 -57l-136 -121l104 -124l-63 -55l-102 123l-139 -123l-50 57l136 120l-104 125l63 55l102 -124z" />
    <glyph glyph-name="Oslash" unicode="&#xd8;" horiz-adv-x="686" 
d="M620 569.5q28 -61.5 28 -148.5q0 -101 -34.5 -200.5t-110.5 -166t-195 -66.5q-38 0 -67 7l-53 -122l-77 21l58 131q-52 33 -80 94t-28 146q0 99 34.5 199t111 168.5t195.5 68.5q37 0 65 -7l55 125l77 -21l-60 -133q53 -34 81 -95.5zM257.5 565.5q-53.5 -57.5 -76 -141.5
t-22.5 -169q0 -115 52 -159l231 523q-19 4 -44 4q-87 0 -140.5 -57.5zM452.5 124q53.5 58 75.5 142.5t22 171.5q0 115 -54 157l-230 -525q19 -4 45 -4q88 0 141.5 58z" />
    <glyph glyph-name="Ugrave" unicode="&#xd9;" horiz-adv-x="656" 
d="M561 218q-15 -105 -86 -167.5t-183 -62.5q-102 0 -157 52.5t-55 141.5q0 21 3 42l66 465h94l-65 -464q-3 -22 -3 -42q0 -58 29.5 -86.5t91.5 -28.5q149 0 172 163l65 458h94zM338 907l186 -104l-29 -49l-199 76z" />
    <glyph glyph-name="Uacute" unicode="&#xda;" horiz-adv-x="656" 
d="M561 218q-15 -105 -86 -167.5t-183 -62.5q-102 0 -157 52.5t-55 141.5q0 21 3 42l66 465h94l-65 -464q-3 -22 -3 -42q0 -58 29.5 -86.5t91.5 -28.5q149 0 172 163l65 458h94zM495 908l30 -77l-220 -76l-19 49z" />
    <glyph glyph-name="Ucircumflex" unicode="&#xdb;" horiz-adv-x="656" 
d="M561 218q-15 -105 -86 -167.5t-183 -62.5q-102 0 -157 52.5t-55 141.5q0 21 3 42l66 465h94l-65 -464q-3 -22 -3 -42q0 -58 29.5 -86.5t91.5 -28.5q149 0 172 163l65 458h94zM273 759l-37 45l149 110h60l119 -110l-41 -45l-115 81z" />
    <glyph glyph-name="Udieresis" unicode="&#xdc;" horiz-adv-x="656" 
d="M561 218q-15 -105 -86 -167.5t-183 -62.5q-102 0 -157 52.5t-55 141.5q0 21 3 42l66 465h94l-65 -464q-3 -22 -3 -42q0 -58 29.5 -86.5t91.5 -28.5q149 0 172 163l65 458h94zM264 794.5q-15 14.5 -15 36.5q0 27 18 44.5t45 17.5q23 0 38 -14.5t15 -36.5q0 -27 -18 -44.5
t-45 -17.5q-23 0 -38 14.5zM472 794.5q-15 14.5 -15 36.5q0 27 18 44.5t45 17.5q23 0 38 -14.5t15 -36.5q0 -27 -18 -44.5t-45 -17.5q-23 0 -38 14.5z" />
    <glyph glyph-name="Yacute" unicode="&#xdd;" horiz-adv-x="544" 
d="M600 689l-280 -424l-37 -265h-96l38 264l-160 425h99l118 -341l215 341h103zM442 908l30 -77l-220 -76l-19 49z" />
    <glyph glyph-name="Thorn" unicode="&#xde;" horiz-adv-x="575" 
d="M496.5 525q62.5 -46 62.5 -140q0 -66 -28.5 -124.5t-95 -96t-173.5 -37.5h-88l-18 -127h-94l97 689h94l-17 -118h83q115 0 177.5 -46zM414 254q45 52 45 131q0 61 -37 86.5t-109 25.5h-87l-42 -295h80q105 0 150 52z" />
    <glyph glyph-name="germandbls" unicode="&#xdf;" horiz-adv-x="587" 
d="M-71 -144q42 19 66.5 37t41 50t24.5 86l72 513q13 100 71.5 154t152.5 54q76 0 119.5 -36.5t43.5 -92.5q0 -46 -21.5 -73.5t-60.5 -55.5q-27 -20 -40.5 -35t-13.5 -35q0 -21 13.5 -37t42.5 -41q29 -24 48.5 -44t33 -51.5t13.5 -73.5q0 -45 -23 -88t-68 -71t-109 -28
q-36 0 -67 9t-54 22l33 62q16 -8 38 -13.5t43 -5.5q59 0 87 34t28 76q0 40 -19 66.5t-57 60.5q-35 29 -52.5 52.5t-17.5 57.5q0 40 18 63.5t54 51.5q32 23 48 43t16 51q0 30 -21.5 45t-55.5 15q-55 0 -89 -36t-44 -106l-71 -507q-10 -73 -33.5 -116.5t-61 -70.5t-102.5 -55z
" />
    <glyph glyph-name="agrave" unicode="&#xe0;" horiz-adv-x="569" 
d="M424.5 528q44.5 -11 91.5 -34l-54 -374q-2 -16 -2 -22q0 -18 7.5 -29t26.5 -18l-26 -63q-42 5 -65 26t-28 62q-32 -41 -72 -64.5t-85 -23.5q-80 0 -124 55t-44 147q0 80 29.5 160t92.5 134.5t159 54.5q49 0 93.5 -11zM228.5 423.5q-41.5 -42.5 -61 -106t-19.5 -128.5
t23 -96.5t66 -31.5q41 0 73.5 25t67.5 72l41 291q-21 9 -40.5 13t-45.5 4q-63 0 -104.5 -42.5zM304 801l183 -114l-29 -49l-199 86z" />
    <glyph glyph-name="aacute" unicode="&#xe1;" horiz-adv-x="569" 
d="M424.5 528q44.5 -11 91.5 -34l-54 -374q-2 -16 -2 -22q0 -18 7.5 -29t26.5 -18l-26 -63q-42 5 -65 26t-28 62q-32 -41 -72 -64.5t-85 -23.5q-80 0 -124 55t-44 147q0 80 29.5 160t92.5 134.5t159 54.5q49 0 93.5 -11zM228.5 423.5q-41.5 -42.5 -61 -106t-19.5 -128.5
t23 -96.5t66 -31.5q41 0 73.5 25t67.5 72l41 291q-21 9 -40.5 13t-45.5 4q-63 0 -104.5 -42.5zM456 801l30 -77l-220 -86l-21 49z" />
    <glyph glyph-name="acircumflex" unicode="&#xe2;" horiz-adv-x="569" 
d="M424.5 528q44.5 -11 91.5 -34l-54 -374q-2 -16 -2 -22q0 -18 7.5 -29t26.5 -18l-26 -63q-42 5 -65 26t-28 62q-32 -41 -72 -64.5t-85 -23.5q-80 0 -124 55t-44 147q0 80 29.5 160t92.5 134.5t159 54.5q49 0 93.5 -11zM228.5 423.5q-41.5 -42.5 -61 -106t-19.5 -128.5
t23 -96.5t66 -31.5q41 0 73.5 25t67.5 72l41 291q-21 9 -40.5 13t-45.5 4q-63 0 -104.5 -42.5zM230 634l-37 45l149 113h60l119 -113l-44 -45l-113 84z" />
    <glyph glyph-name="atilde" unicode="&#xe3;" horiz-adv-x="569" 
d="M424.5 528q44.5 -11 91.5 -34l-54 -374q-2 -16 -2 -22q0 -18 7.5 -29t26.5 -18l-26 -63q-42 5 -65 26t-28 62q-32 -41 -72 -64.5t-85 -23.5q-80 0 -124 55t-44 147q0 80 29.5 160t92.5 134.5t159 54.5q49 0 93.5 -11zM228.5 423.5q-41.5 -42.5 -61 -106t-19.5 -128.5
t23 -96.5t66 -31.5q41 0 73.5 25t67.5 72l41 291q-21 9 -40.5 13t-45.5 4q-63 0 -104.5 -42.5zM381.5 664q-16.5 8 -34.5 22q-12 9 -20 13.5t-17 4.5q-18 0 -32.5 -12t-30.5 -36l-52 32q53 86 117 86q22 0 36 -7.5t33 -21.5q13 -10 21 -14.5t17 -4.5q16 0 30.5 11t30.5 35
l54 -32q-25 -42 -54 -63t-59 -21q-23 0 -39.5 8z" />
    <glyph glyph-name="adieresis" unicode="&#xe4;" horiz-adv-x="569" 
d="M424.5 528q44.5 -11 91.5 -34l-54 -374q-2 -16 -2 -22q0 -18 7.5 -29t26.5 -18l-26 -63q-42 5 -65 26t-28 62q-32 -41 -72 -64.5t-85 -23.5q-80 0 -124 55t-44 147q0 80 29.5 160t92.5 134.5t159 54.5q49 0 93.5 -11zM228.5 423.5q-41.5 -42.5 -61 -106t-19.5 -128.5
t23 -96.5t66 -31.5q41 0 73.5 25t67.5 72l41 291q-21 9 -40.5 13t-45.5 4q-63 0 -104.5 -42.5zM216 668.5q-15 14.5 -15 36.5q0 27 18 44.5t45 17.5q23 0 38 -14.5t15 -36.5q0 -27 -18 -44.5t-45 -17.5q-23 0 -38 14.5zM424 668.5q-15 14.5 -15 36.5q0 27 18 44.5t45 17.5
q23 0 38 -14.5t15 -36.5q0 -27 -18 -44.5t-45 -17.5q-23 0 -38 14.5z" />
    <glyph glyph-name="aring" unicode="&#xe5;" horiz-adv-x="569" 
d="M424.5 528q44.5 -11 91.5 -34l-54 -374q-2 -16 -2 -22q0 -18 7.5 -29t26.5 -18l-26 -63q-42 5 -65 26t-28 62q-32 -41 -72 -64.5t-85 -23.5q-80 0 -124 55t-44 147q0 80 29.5 160t92.5 134.5t159 54.5q49 0 93.5 -11zM228.5 423.5q-41.5 -42.5 -61 -106t-19.5 -128.5
t23 -96.5t66 -31.5q41 0 73.5 25t67.5 72l41 291q-21 9 -40.5 13t-45.5 4q-63 0 -104.5 -42.5zM451.5 808.5q28.5 -27.5 28.5 -68.5q0 -48 -36 -82t-88 -34q-46 0 -74.5 27.5t-28.5 68.5q0 48 36 82t88 34q46 0 74.5 -27.5zM330 767q-16 -19 -16 -46q0 -22 11.5 -34.5
t32.5 -12.5q29 0 45.5 20t16.5 46q0 22 -12 34t-33 12q-29 0 -45 -19z" />
    <glyph glyph-name="ae" unicode="&#xe6;" horiz-adv-x="817" 
d="M443 456q30 37 76 60t104 23q80 0 123.5 -39t43.5 -95q0 -71 -45.5 -113t-119.5 -61.5t-182 -30.5q1 -71 32.5 -103t86.5 -32q37 0 71 12t70 37l39 -62q-89 -64 -189 -64q-62 0 -106 24t-68 69q-42 -50 -89 -71.5t-105 -21.5q-73 0 -115 38t-42 101q0 78 61 129.5
t195 51.5h81q8 41 20 76q-2 36 -33.5 58t-80.5 22q-36 0 -65.5 -6t-73.5 -20l-18 69q86 32 171 32q120 0 158 -83zM504.5 409q-42.5 -57 -55.5 -139q85 9 136.5 22.5t80 39.5t28.5 70q0 24 -17 44t-55 20q-75 0 -117.5 -57zM292 245q-82 0 -123 -28t-41 -91q0 -69 73 -69
q45 0 82.5 23t73.5 71q-2 9 -2 53q0 34 1 41h-64z" />
    <glyph glyph-name="ccedilla" unicode="&#xe7;" horiz-adv-x="472" 
d="M219.5 421.5q-38.5 -41.5 -55 -102.5t-16.5 -123q0 -130 107 -130q33 0 60.5 10t61.5 31l37 -64q-70 -49 -149 -55l-7 -44q40 -4 61 -26t21 -55q0 -44 -34.5 -74t-94.5 -30q-57 0 -93 27l31 49q14 -8 27.5 -12t34.5 -4q24 0 39 11.5t15 31.5q0 22 -17.5 30.5t-64.5 8.5
l22 91q-73 13 -113 67.5t-40 143.5q0 76 28 153.5t88 130t151 52.5q92 0 153 -58l-49 -57q-24 21 -48 30t-55 9q-62 0 -100.5 -41.5z" />
    <glyph glyph-name="egrave" unicode="&#xe8;" horiz-adv-x="517" 
d="M400 259q-90 -45 -252 -63q3 -131 114 -131q37 0 71 12t70 37l39 -62q-89 -64 -189 -64q-96 0 -148.5 56.5t-52.5 157.5q0 79 27.5 156.5t88.5 129t155 51.5q80 0 123.5 -39t43.5 -95q0 -101 -90 -146zM335.5 309q58.5 29 58.5 93q0 24 -17 44t-55 20q-76 0 -117 -58
t-52 -142q124 14 182.5 43zM280 801l183 -114l-29 -49l-199 86z" />
    <glyph glyph-name="eacute" unicode="&#xe9;" horiz-adv-x="517" 
d="M400 259q-90 -45 -252 -63q3 -131 114 -131q37 0 71 12t70 37l39 -62q-89 -64 -189 -64q-96 0 -148.5 56.5t-52.5 157.5q0 79 27.5 156.5t88.5 129t155 51.5q80 0 123.5 -39t43.5 -95q0 -101 -90 -146zM335.5 309q58.5 29 58.5 93q0 24 -17 44t-55 20q-76 0 -117 -58
t-52 -142q124 14 182.5 43zM432 801l30 -77l-220 -86l-21 49z" />
    <glyph glyph-name="ecircumflex" unicode="&#xea;" horiz-adv-x="517" 
d="M400 259q-90 -45 -252 -63q3 -131 114 -131q37 0 71 12t70 37l39 -62q-89 -64 -189 -64q-96 0 -148.5 56.5t-52.5 157.5q0 79 27.5 156.5t88.5 129t155 51.5q80 0 123.5 -39t43.5 -95q0 -101 -90 -146zM335.5 309q58.5 29 58.5 93q0 24 -17 44t-55 20q-76 0 -117 -58
t-52 -142q124 14 182.5 43zM206 634l-37 45l149 113h60l119 -113l-44 -45l-113 84z" />
    <glyph glyph-name="edieresis" unicode="&#xeb;" horiz-adv-x="517" 
d="M400 259q-90 -45 -252 -63q3 -131 114 -131q37 0 71 12t70 37l39 -62q-89 -64 -189 -64q-96 0 -148.5 56.5t-52.5 157.5q0 79 27.5 156.5t88.5 129t155 51.5q80 0 123.5 -39t43.5 -95q0 -101 -90 -146zM335.5 309q58.5 29 58.5 93q0 24 -17 44t-55 20q-76 0 -117 -58
t-52 -142q124 14 182.5 43zM192 668.5q-15 14.5 -15 36.5q0 27 18 44.5t45 17.5q23 0 38 -14.5t15 -36.5q0 -27 -18 -44.5t-45 -17.5q-23 0 -38 14.5zM400 668.5q-15 14.5 -15 36.5q0 27 18 44.5t45 17.5q23 0 38 -14.5t15 -36.5q0 -27 -18 -44.5t-45 -17.5q-23 0 -38 14.5z
" />
    <glyph glyph-name="igrave" unicode="&#xec;" horiz-adv-x="279" 
d="M222 527l-74 -527h-91l74 527h91zM142 801l183 -114l-29 -49l-199 86z" />
    <glyph glyph-name="iacute" unicode="&#xed;" horiz-adv-x="279" 
d="M222 527l-74 -527h-91l74 527h91zM294 801l30 -77l-220 -86l-21 49z" />
    <glyph glyph-name="icircumflex" unicode="&#xee;" horiz-adv-x="279" 
d="M222 527l-74 -527h-91l74 527h91zM68 634l-37 45l149 113h60l119 -113l-44 -45l-113 84z" />
    <glyph glyph-name="idieresis" unicode="&#xef;" horiz-adv-x="279" 
d="M222 527l-74 -527h-91l74 527h91zM54 668.5q-15 14.5 -15 36.5q0 27 18 44.5t45 17.5q23 0 38 -14.5t15 -36.5q0 -27 -18 -44.5t-45 -17.5q-23 0 -38 14.5zM262 668.5q-15 14.5 -15 36.5q0 27 18 44.5t45 17.5q23 0 38 -14.5t15 -36.5q0 -27 -18 -44.5t-45 -17.5
q-23 0 -38 14.5z" />
    <glyph glyph-name="eth" unicode="&#xf0;" horiz-adv-x="574" 
d="M483.5 538.5q28.5 -69.5 28.5 -161.5q0 -111 -30 -199t-91 -139t-151 -51q-85 0 -138 53.5t-53 148.5q0 66 25.5 131.5t78 109.5t128.5 44q92 0 140 -62q-3 62 -23.5 110t-62.5 87l-83 -71l-60 32l86 76q-46 21 -107 33l25 69q86 -18 140 -49l82 76l48 -47l-74 -69
q63 -52 91.5 -121.5zM367 136.5q43 75.5 51 191.5q-39 75 -125 75q-82 0 -116.5 -65t-34.5 -150q0 -63 26.5 -95t73.5 -32q82 0 125 75.5z" />
    <glyph glyph-name="ntilde" unicode="&#xf1;" horiz-adv-x="580" 
d="M475.5 503.5q33.5 -35.5 33.5 -97.5q0 -16 -3 -36l-52 -370h-91l52 368q2 22 2 29q0 35 -15 50t-43 15q-46 0 -88.5 -41t-78.5 -105l-44 -316h-91l74 527h78l-8 -103q39 55 84 85t99 30q58 0 91.5 -35.5zM370.5 664q-16.5 8 -34.5 22q-12 9 -20 13.5t-17 4.5
q-18 0 -32.5 -12t-30.5 -36l-52 32q53 86 117 86q22 0 36 -7.5t33 -21.5q13 -10 21 -14.5t17 -4.5q16 0 30.5 11t30.5 35l54 -32q-25 -42 -54 -63t-59 -21q-23 0 -39.5 8z" />
    <glyph glyph-name="ograve" unicode="&#xf2;" horiz-adv-x="578" 
d="M104.5 46q-52.5 58 -52.5 160q0 74 27.5 150.5t88.5 129.5t157 53q97 0 149 -58t52 -160q0 -73 -27 -149.5t-88 -130t-157 -53.5q-97 0 -149.5 58zM359 105.5q39 43.5 55 105t16 120.5q0 134 -108 134q-63 0 -102 -43.5t-55.5 -105t-16.5 -120.5q0 -134 109 -134
q63 0 102 43.5zM292 801l183 -114l-29 -49l-199 86z" />
    <glyph glyph-name="oacute" unicode="&#xf3;" horiz-adv-x="578" 
d="M104.5 46q-52.5 58 -52.5 160q0 74 27.5 150.5t88.5 129.5t157 53q97 0 149 -58t52 -160q0 -73 -27 -149.5t-88 -130t-157 -53.5q-97 0 -149.5 58zM359 105.5q39 43.5 55 105t16 120.5q0 134 -108 134q-63 0 -102 -43.5t-55.5 -105t-16.5 -120.5q0 -134 109 -134
q63 0 102 43.5zM444 801l30 -77l-220 -86l-21 49z" />
    <glyph glyph-name="ocircumflex" unicode="&#xf4;" horiz-adv-x="578" 
d="M104.5 46q-52.5 58 -52.5 160q0 74 27.5 150.5t88.5 129.5t157 53q97 0 149 -58t52 -160q0 -73 -27 -149.5t-88 -130t-157 -53.5q-97 0 -149.5 58zM359 105.5q39 43.5 55 105t16 120.5q0 134 -108 134q-63 0 -102 -43.5t-55.5 -105t-16.5 -120.5q0 -134 109 -134
q63 0 102 43.5zM218 634l-37 45l149 113h60l119 -113l-44 -45l-113 84z" />
    <glyph glyph-name="otilde" unicode="&#xf5;" horiz-adv-x="578" 
d="M104.5 46q-52.5 58 -52.5 160q0 74 27.5 150.5t88.5 129.5t157 53q97 0 149 -58t52 -160q0 -73 -27 -149.5t-88 -130t-157 -53.5q-97 0 -149.5 58zM359 105.5q39 43.5 55 105t16 120.5q0 134 -108 134q-63 0 -102 -43.5t-55.5 -105t-16.5 -120.5q0 -134 109 -134
q63 0 102 43.5zM369.5 664q-16.5 8 -34.5 22q-12 9 -20 13.5t-17 4.5q-18 0 -32.5 -12t-30.5 -36l-52 32q53 86 117 86q22 0 36 -7.5t33 -21.5q13 -10 21 -14.5t17 -4.5q16 0 30.5 11t30.5 35l54 -32q-25 -42 -54 -63t-59 -21q-23 0 -39.5 8z" />
    <glyph glyph-name="odieresis" unicode="&#xf6;" horiz-adv-x="578" 
d="M104.5 46q-52.5 58 -52.5 160q0 74 27.5 150.5t88.5 129.5t157 53q97 0 149 -58t52 -160q0 -73 -27 -149.5t-88 -130t-157 -53.5q-97 0 -149.5 58zM359 105.5q39 43.5 55 105t16 120.5q0 134 -108 134q-63 0 -102 -43.5t-55.5 -105t-16.5 -120.5q0 -134 109 -134
q63 0 102 43.5zM204 668.5q-15 14.5 -15 36.5q0 27 18 44.5t45 17.5q23 0 38 -14.5t15 -36.5q0 -27 -18 -44.5t-45 -17.5q-23 0 -38 14.5zM412 668.5q-15 14.5 -15 36.5q0 27 18 44.5t45 17.5q23 0 38 -14.5t15 -36.5q0 -27 -18 -44.5t-45 -17.5q-23 0 -38 14.5z" />
    <glyph glyph-name="divide" unicode="&#xf7;" horiz-adv-x="494" 
d="M177.5 53q-17.5 18 -17.5 45q0 32 21.5 54t52.5 22q28 0 45.5 -18t17.5 -45q0 -32 -22 -54t-53 -22q-27 0 -44.5 18zM241.5 510q-17.5 18 -17.5 45q0 32 21.5 54t52.5 22q28 0 45.5 -18t17.5 -45q0 -32 -22 -54t-53 -22q-27 0 -44.5 18zM65 294l11 77h372l-11 -77h-372z
" />
    <glyph glyph-name="oslash" unicode="&#xf8;" horiz-adv-x="578" 
d="M505.5 431q20.5 -47 20.5 -110q0 -73 -27 -149.5t-88 -130t-157 -53.5q-26 0 -53 5l-55 -123l-73 22l60 129q-40 27 -60.5 74.5t-20.5 110.5q0 74 27.5 150.5t88.5 129.5t157 53q26 0 53 -5l55 122l73 -22l-59 -126l-1 -2q39 -28 59.5 -75zM220 421.5
q-39 -43.5 -55.5 -105t-16.5 -120.5q0 -77 30 -107l175 373q-15 3 -31 3q-63 0 -102 -43.5zM359 105.5q39 43.5 55 105t16 120.5q0 73 -28 106l-176 -373q20 -2 31 -2q63 0 102 43.5z" />
    <glyph glyph-name="ugrave" unicode="&#xf9;" horiz-adv-x="576" 
d="M104.5 22.5q-34.5 34.5 -34.5 95.5q0 17 3 35l53 374h91l-52 -370q-3 -18 -3 -33q0 -34 14.5 -49t43.5 -15q45 0 83.5 34t76.5 90l48 343h91l-74 -527h-78l7 97q-39 -54 -80.5 -81.5t-93.5 -27.5q-61 0 -95.5 34.5zM289 801l183 -114l-29 -49l-199 86z" />
    <glyph glyph-name="uacute" unicode="&#xfa;" horiz-adv-x="576" 
d="M104.5 22.5q-34.5 34.5 -34.5 95.5q0 17 3 35l53 374h91l-52 -370q-3 -18 -3 -33q0 -34 14.5 -49t43.5 -15q45 0 83.5 34t76.5 90l48 343h91l-74 -527h-78l7 97q-39 -54 -80.5 -81.5t-93.5 -27.5q-61 0 -95.5 34.5zM441 801l30 -77l-220 -86l-21 49z" />
    <glyph glyph-name="ucircumflex" unicode="&#xfb;" horiz-adv-x="576" 
d="M104.5 22.5q-34.5 34.5 -34.5 95.5q0 17 3 35l53 374h91l-52 -370q-3 -18 -3 -33q0 -34 14.5 -49t43.5 -15q45 0 83.5 34t76.5 90l48 343h91l-74 -527h-78l7 97q-39 -54 -80.5 -81.5t-93.5 -27.5q-61 0 -95.5 34.5zM215 634l-37 45l149 113h60l119 -113l-44 -45l-113 84z
" />
    <glyph glyph-name="udieresis" unicode="&#xfc;" horiz-adv-x="576" 
d="M104.5 22.5q-34.5 34.5 -34.5 95.5q0 17 3 35l53 374h91l-52 -370q-3 -18 -3 -33q0 -34 14.5 -49t43.5 -15q45 0 83.5 34t76.5 90l48 343h91l-74 -527h-78l7 97q-39 -54 -80.5 -81.5t-93.5 -27.5q-61 0 -95.5 34.5zM201 668.5q-15 14.5 -15 36.5q0 27 18 44.5t45 17.5
q23 0 38 -14.5t15 -36.5q0 -27 -18 -44.5t-45 -17.5q-23 0 -38 14.5zM409 668.5q-15 14.5 -15 36.5q0 27 18 44.5t45 17.5q23 0 38 -14.5t15 -36.5q0 -27 -18 -44.5t-45 -17.5q-23 0 -38 14.5z" />
    <glyph glyph-name="yacute" unicode="&#xfd;" horiz-adv-x="486" 
d="M270 -5q-41 -91 -106 -144t-169 -64l-4 72q54 9 87.5 26t56.5 43.5t47 71.5h-34l-101 527h96l74 -457l202 457h95zM398 801l30 -77l-220 -86l-21 49z" />
    <glyph glyph-name="thorn" unicode="&#xfe;" horiz-adv-x="579" 
d="M486 485q42 -54 42 -153q0 -82 -29 -160.5t-92.5 -131t-160.5 -52.5q-50 0 -98 20l-29 -212l-93 -13l135 956l92 11l-39 -276q37 33 74.5 49t79.5 16q76 0 118 -54zM354.5 103.5q40.5 42.5 59.5 106.5t19 129q0 127 -94 127q-38 0 -70 -20t-66 -56l-43 -312q26 -9 46 -13
t47 -4q61 0 101.5 42.5z" />
    <glyph glyph-name="ydieresis" unicode="&#xff;" horiz-adv-x="486" 
d="M270 -5q-41 -91 -106 -144t-169 -64l-4 72q54 9 87.5 26t56.5 43.5t47 71.5h-34l-101 527h96l74 -457l202 457h95zM158 668.5q-15 14.5 -15 36.5q0 27 18 44.5t45 17.5q23 0 38 -14.5t15 -36.5q0 -27 -18 -44.5t-45 -17.5q-23 0 -38 14.5zM366 668.5q-15 14.5 -15 36.5
q0 27 18 44.5t45 17.5q23 0 38 -14.5t15 -36.5q0 -27 -18 -44.5t-45 -17.5q-23 0 -38 14.5z" />
    <glyph glyph-name="Amacron" unicode="&#x100;" horiz-adv-x="567" 
d="M427 0l-27 173h-259l-76 -173h-97l316 689h119l121 -689h-97zM174 250h214l-56 360zM496 793h-271l9 69h271z" />
    <glyph glyph-name="amacron" unicode="&#x101;" horiz-adv-x="569" 
d="M424.5 528q44.5 -11 91.5 -34l-54 -374q-2 -16 -2 -22q0 -18 7.5 -29t26.5 -18l-26 -63q-42 5 -65 26t-28 62q-32 -41 -72 -64.5t-85 -23.5q-80 0 -124 55t-44 147q0 80 29.5 160t92.5 134.5t159 54.5q49 0 93.5 -11zM228.5 423.5q-41.5 -42.5 -61 -106t-19.5 -128.5
t23 -96.5t66 -31.5q41 0 73.5 25t67.5 72l41 291q-21 9 -40.5 13t-45.5 4q-63 0 -104.5 -42.5zM494 667h-271l9 69h271z" />
    <glyph glyph-name="Abreve" unicode="&#x102;" horiz-adv-x="567" 
d="M427 0l-27 173h-259l-76 -173h-97l316 689h119l121 -689h-97zM174 250h214l-56 360zM255.5 793q-37.5 35 -35.5 91l59 8q14 -64 77 -64q35 0 61.5 18.5t41.5 49.5l60 -18q-13 -55 -59 -87.5t-106 -32.5q-61 0 -98.5 35z" />
    <glyph glyph-name="abreve" unicode="&#x103;" horiz-adv-x="569" 
d="M424.5 528q44.5 -11 91.5 -34l-54 -374q-2 -16 -2 -22q0 -18 7.5 -29t26.5 -18l-26 -63q-42 5 -65 26t-28 62q-32 -41 -72 -64.5t-85 -23.5q-80 0 -124 55t-44 147q0 80 29.5 160t92.5 134.5t159 54.5q49 0 93.5 -11zM228.5 423.5q-41.5 -42.5 -61 -106t-19.5 -128.5
t23 -96.5t66 -31.5q41 0 73.5 25t67.5 72l41 291q-21 9 -40.5 13t-45.5 4q-63 0 -104.5 -42.5zM252.5 680q-36.5 37 -34.5 99l62 8q5 -38 22.5 -56t50.5 -18q36 0 63 20t42 58l60 -18q-15 -61 -61 -95.5t-106 -34.5q-62 0 -98.5 37z" />
    <glyph glyph-name="Aogonek" unicode="&#x104;" horiz-adv-x="567" 
d="M373.5 -65.5q-28.5 -30.5 -28.5 -60.5q0 -17 12.5 -26t34.5 -9q25 0 63 8l-15 -72q-30 -6 -61 -6q-53 0 -83.5 26.5t-30.5 67.5q0 46 35 86t124 71l-24 153h-259l-76 -173h-97l316 689h119l121 -689h-37q-85 -35 -113.5 -65.5zM174 250h214l-56 360z" />
    <glyph glyph-name="aogonek" unicode="&#x105;" horiz-adv-x="569" 
d="M460 98q0 -18 7.5 -29t26.5 -18l-26 -63q-85 -35 -113.5 -65.5t-28.5 -60.5q0 -17 12.5 -26t34.5 -9q25 0 63 8l-15 -72q-30 -6 -61 -6q-53 0 -83.5 26.5t-30.5 67.5q0 102 163 158q-28 22 -34 67q-32 -41 -72 -64.5t-85 -23.5q-80 0 -124 55t-44 147q0 80 29.5 160
t92.5 134.5t159 54.5q49 0 93.5 -11t91.5 -34l-54 -374q-2 -16 -2 -22zM419 449q-21 9 -40.5 13t-45.5 4q-63 0 -104.5 -42.5t-61 -106t-19.5 -128.5t23 -96.5t66 -31.5q41 0 73.5 25t67.5 72z" />
    <glyph glyph-name="Cacute" unicode="&#x106;" horiz-adv-x="555" 
d="M497 683q45 -18 82 -53l-54 -53q-31 24 -61.5 35t-65.5 11q-84 0 -137.5 -55.5t-77 -138.5t-23.5 -169q0 -99 41 -145.5t111 -46.5q45 0 80 15.5t75 43.5l42 -64q-89 -75 -203 -75q-113 0 -179 73t-66 207q0 100 35.5 200t110.5 166.5t187 66.5q58 0 103 -18zM512 908
l30 -77l-220 -76l-19 49z" />
    <glyph glyph-name="cacute" unicode="&#x107;" horiz-adv-x="472" 
d="M472 481l-49 -57q-24 21 -48 30t-55 9q-62 0 -100.5 -41.5t-55 -102.5t-16.5 -123q0 -130 107 -130q33 0 60.5 10t61.5 31l37 -64q-77 -55 -165 -55q-94 0 -145.5 56.5t-51.5 158.5q0 76 28 153.5t88 130t151 52.5q92 0 153 -58zM441 801l30 -77l-220 -86l-21 49z" />
    <glyph glyph-name="Ccircumflex" unicode="&#x108;" horiz-adv-x="555" 
d="M497 683q45 -18 82 -53l-54 -53q-31 24 -61.5 35t-65.5 11q-84 0 -137.5 -55.5t-77 -138.5t-23.5 -169q0 -99 41 -145.5t111 -46.5q45 0 80 15.5t75 43.5l42 -64q-89 -75 -203 -75q-113 0 -179 73t-66 207q0 100 35.5 200t110.5 166.5t187 66.5q58 0 103 -18zM290 759
l-37 45l149 110h60l119 -110l-41 -45l-115 81z" />
    <glyph glyph-name="ccircumflex" unicode="&#x109;" horiz-adv-x="472" 
d="M472 481l-49 -57q-24 21 -48 30t-55 9q-62 0 -100.5 -41.5t-55 -102.5t-16.5 -123q0 -130 107 -130q33 0 60.5 10t61.5 31l37 -64q-77 -55 -165 -55q-94 0 -145.5 56.5t-51.5 158.5q0 76 28 153.5t88 130t151 52.5q92 0 153 -58zM215 634l-37 45l149 113h60l119 -113
l-44 -45l-113 84z" />
    <glyph glyph-name="Cdotaccent" unicode="&#x10a;" horiz-adv-x="555" 
d="M497 683q45 -18 82 -53l-54 -53q-31 24 -61.5 35t-65.5 11q-84 0 -137.5 -55.5t-77 -138.5t-23.5 -169q0 -99 41 -145.5t111 -46.5q45 0 80 15.5t75 43.5l42 -64q-89 -75 -203 -75q-113 0 -179 73t-66 207q0 100 35.5 200t110.5 166.5t187 66.5q58 0 103 -18zM382 797.5
q-16 16.5 -16 40.5q0 29 20 48.5t49 19.5q27 0 43 -16t16 -41q0 -29 -20 -48.5t-49 -19.5q-27 0 -43 16.5z" />
    <glyph glyph-name="cdotaccent" unicode="&#x10b;" horiz-adv-x="472" 
d="M472 481l-49 -57q-24 21 -48 30t-55 9q-62 0 -100.5 -41.5t-55 -102.5t-16.5 -123q0 -130 107 -130q33 0 60.5 10t61.5 31l37 -64q-77 -55 -165 -55q-94 0 -145.5 56.5t-51.5 158.5q0 76 28 153.5t88 130t151 52.5q92 0 153 -58zM302 671.5q-16 16.5 -16 40.5
q0 29 20 48.5t49 19.5q27 0 43 -16t16 -41q0 -29 -20 -48.5t-49 -19.5q-27 0 -43 16.5z" />
    <glyph glyph-name="Ccaron" unicode="&#x10c;" horiz-adv-x="555" 
d="M497 683q45 -18 82 -53l-54 -53q-31 24 -61.5 35t-65.5 11q-84 0 -137.5 -55.5t-77 -138.5t-23.5 -169q0 -99 41 -145.5t111 -46.5q45 0 80 15.5t75 43.5l42 -64q-89 -75 -203 -75q-113 0 -179 73t-66 207q0 100 35.5 200t110.5 166.5t187 66.5q58 0 103 -18zM557 909
l35 -45l-148 -110h-60l-120 110l43 45l113 -81z" />
    <glyph glyph-name="ccaron" unicode="&#x10d;" horiz-adv-x="472" 
d="M472 481l-49 -57q-24 21 -48 30t-55 9q-62 0 -100.5 -41.5t-55 -102.5t-16.5 -123q0 -130 107 -130q33 0 60.5 10t61.5 31l37 -64q-77 -55 -165 -55q-94 0 -145.5 56.5t-51.5 158.5q0 76 28 153.5t88 130t151 52.5q92 0 153 -58zM478 785l34 -45l-149 -113h-60l-119 113
l41 45l113 -84z" />
    <glyph glyph-name="Dcaron" unicode="&#x10e;" horiz-adv-x="639" 
d="M519 632.5q82 -56.5 82 -204.5q0 -117 -38 -214t-121.5 -155.5t-213.5 -58.5h-166l97 689h141q137 0 219 -56.5zM242 613l-75 -538h75q94 0 153 52t84.5 132t25.5 171q0 76 -26 116t-67.5 53.5t-97.5 13.5h-72zM512 909l35 -45l-148 -110h-60l-120 110l43 45l113 -81z
" />
    <glyph glyph-name="dcaron" unicode="&#x10f;" horiz-adv-x="587" 
d="M560 738l-104 -738h-80l1 87q-29 -47 -69 -73t-90 -26q-80 0 -123.5 56t-43.5 153q0 76 25.5 155t80.5 133t139 54q83 0 135 -66l39 275zM217 422q-37 -44 -53 -107.5t-16 -124.5q0 -65 23 -97t65 -32q46 0 81 30t74 92l31 219q-21 32 -47 48t-62 16q-59 0 -96 -44z
M618 749l82 -10l-72 -184l-52 8z" />
    <glyph glyph-name="Dcroat" unicode="&#x110;" horiz-adv-x="649" 
d="M529 632.5q82 -56.5 82 -204.5q0 -117 -38 -214t-121.5 -155.5t-213.5 -58.5h-166l45 318h-88l9 70h89l42 301h141q137 0 219 -56.5zM405 127q59 52 84.5 132t25.5 171q0 76 -26 116t-67.5 53.5t-97.5 13.5h-72l-31 -225h157l-9 -70h-158l-34 -243h75q94 0 153 52z" />
    <glyph glyph-name="dcroat" unicode="&#x111;" horiz-adv-x="595" 
d="M619 606h-78l-85 -606h-80l1 87q-29 -47 -69 -73t-90 -26q-80 0 -123.5 56t-43.5 153q0 76 25.5 155t80.5 133t139 54q83 0 135 -66l19 133h-151v70h161l10 72l90 -10l-9 -62h78zM422 402q-21 32 -47 48t-62 16q-59 0 -96 -44t-53 -107.5t-16 -124.5q0 -65 23 -97t65 -32
q46 0 81 30t74 92z" />
    <glyph glyph-name="Emacron" unicode="&#x112;" horiz-adv-x="529" 
d="M528 689l-21 -76h-265l-32 -225h230l-10 -76h-230l-33 -236h283l-11 -76h-377l97 689h369zM499 793h-271l9 69h271z" />
    <glyph glyph-name="emacron" unicode="&#x113;" horiz-adv-x="517" 
d="M400 259q-90 -45 -252 -63q3 -131 114 -131q37 0 71 12t70 37l39 -62q-89 -64 -189 -64q-96 0 -148.5 56.5t-52.5 157.5q0 79 27.5 156.5t88.5 129t155 51.5q80 0 123.5 -39t43.5 -95q0 -101 -90 -146zM335.5 309q58.5 29 58.5 93q0 24 -17 44t-55 20q-76 0 -117 -58
t-52 -142q124 14 182.5 43zM470 667h-271l9 69h271z" />
    <glyph glyph-name="Ebreve" unicode="&#x114;" horiz-adv-x="529" 
d="M528 689l-21 -76h-265l-32 -225h230l-10 -76h-230l-33 -236h283l-11 -76h-377l97 689h369zM258.5 793q-37.5 35 -35.5 91l59 8q14 -64 77 -64q35 0 61.5 18.5t41.5 49.5l60 -18q-13 -55 -59 -87.5t-106 -32.5q-61 0 -98.5 35z" />
    <glyph glyph-name="ebreve" unicode="&#x115;" horiz-adv-x="517" 
d="M400 259q-90 -45 -252 -63q3 -131 114 -131q37 0 71 12t70 37l39 -62q-89 -64 -189 -64q-96 0 -148.5 56.5t-52.5 157.5q0 79 27.5 156.5t88.5 129t155 51.5q80 0 123.5 -39t43.5 -95q0 -101 -90 -146zM335.5 309q58.5 29 58.5 93q0 24 -17 44t-55 20q-76 0 -117 -58
t-52 -142q124 14 182.5 43zM228.5 680q-36.5 37 -34.5 99l62 8q5 -38 22.5 -56t50.5 -18q36 0 63 20t42 58l60 -18q-15 -61 -61 -95.5t-106 -34.5q-62 0 -98.5 37z" />
    <glyph glyph-name="Edotaccent" unicode="&#x116;" horiz-adv-x="529" 
d="M528 689l-21 -76h-265l-32 -225h230l-10 -76h-230l-33 -236h283l-11 -76h-377l97 689h369zM324 797.5q-16 16.5 -16 40.5q0 29 20 48.5t49 19.5q27 0 43 -16t16 -41q0 -29 -20 -48.5t-49 -19.5q-27 0 -43 16.5z" />
    <glyph glyph-name="edotaccent" unicode="&#x117;" horiz-adv-x="517" 
d="M400 259q-90 -45 -252 -63q3 -131 114 -131q37 0 71 12t70 37l39 -62q-89 -64 -189 -64q-96 0 -148.5 56.5t-52.5 157.5q0 79 27.5 156.5t88.5 129t155 51.5q80 0 123.5 -39t43.5 -95q0 -101 -90 -146zM335.5 309q58.5 29 58.5 93q0 24 -17 44t-55 20q-76 0 -117 -58
t-52 -142q124 14 182.5 43zM293 671.5q-16 16.5 -16 40.5q0 29 20 48.5t49 19.5q27 0 43 -16t16 -41q0 -29 -20 -48.5t-49 -19.5q-27 0 -43 16.5z" />
    <glyph glyph-name="Eogonek" unicode="&#x118;" horiz-adv-x="529" 
d="M242 613l-32 -225h230l-10 -76h-230l-33 -236h283l-11 -76h-38q-85 -35 -113.5 -65.5t-28.5 -60.5q0 -17 12.5 -26t34.5 -9q25 0 63 8l-15 -72q-30 -6 -61 -6q-53 0 -83.5 26.5t-30.5 67.5q0 84 110 137h-227l97 689h369l-21 -76h-265z" />
    <glyph glyph-name="eogonek" unicode="&#x119;" horiz-adv-x="517" 
d="M400 259q-90 -45 -252 -63q3 -131 114 -131q37 0 71 12t70 37l39 -62q-52 -37 -108 -53q-62 -29 -84.5 -54t-22.5 -53q0 -48 56 -48q27 0 61 7l-9 -70q-35 -7 -63 -7q-57 0 -91 28.5t-34 72.5q0 71 83 114q-85 7 -131.5 63t-46.5 150q0 79 27.5 156.5t88.5 129t155 51.5
q80 0 123.5 -39t43.5 -95q0 -101 -90 -146zM335.5 309q58.5 29 58.5 93q0 24 -17 44t-55 20q-76 0 -117 -58t-52 -142q124 14 182.5 43z" />
    <glyph glyph-name="Ecaron" unicode="&#x11a;" horiz-adv-x="529" 
d="M528 689l-21 -76h-265l-32 -225h230l-10 -76h-230l-33 -236h283l-11 -76h-377l97 689h369zM499 909l35 -45l-148 -110h-60l-120 110l43 45l113 -81z" />
    <glyph glyph-name="ecaron" unicode="&#x11b;" horiz-adv-x="517" 
d="M400 259q-90 -45 -252 -63q3 -131 114 -131q37 0 71 12t70 37l39 -62q-89 -64 -189 -64q-96 0 -148.5 56.5t-52.5 157.5q0 79 27.5 156.5t88.5 129t155 51.5q80 0 123.5 -39t43.5 -95q0 -101 -90 -146zM335.5 309q58.5 29 58.5 93q0 24 -17 44t-55 20q-76 0 -117 -58
t-52 -142q124 14 182.5 43zM469 785l34 -45l-149 -113h-60l-119 113l41 45l113 -84z" />
    <glyph glyph-name="Gcircumflex" unicode="&#x11c;" horiz-adv-x="625" 
d="M517.5 681q48.5 -20 89.5 -59l-59 -51q-35 28 -67 40t-75 12q-84 0 -139.5 -56.5t-81.5 -143t-26 -176.5q0 -94 39 -137.5t117 -43.5q72 0 131 34l30 205h-120v77h224l-45 -328q-52 -33 -108 -49.5t-125 -16.5q-113 0 -177.5 69.5t-64.5 201.5q0 106 37.5 207.5
t115.5 168t192 66.5q64 0 112.5 -20zM297 759l-37 45l149 110h60l119 -110l-41 -45l-115 81z" />
    <glyph glyph-name="gcircumflex" unicode="&#x11d;" horiz-adv-x="580" 
d="M431.5 528q44.5 -11 91.5 -34l-73 -482q-18 -121 -80 -174.5t-161 -53.5q-47 0 -95.5 14t-86.5 37l35 70q29 -17 66.5 -29.5t75.5 -12.5q63 0 104 31t53 119l9 67q-31 -37 -69.5 -58.5t-80.5 -21.5q-79 0 -124 53.5t-45 144.5q0 85 30 163t94 128t162 50q50 0 94.5 -11z
M231.5 427q-42.5 -39 -62.5 -100.5t-20 -129.5q0 -63 24 -93.5t66 -30.5q40 0 74.5 26t69.5 73l43 277q-23 9 -43 13t-46 4q-63 0 -105.5 -39zM222 634l-37 45l149 113h60l119 -113l-44 -45l-113 84z" />
    <glyph glyph-name="Gbreve" unicode="&#x11e;" horiz-adv-x="625" 
d="M517.5 681q48.5 -20 89.5 -59l-59 -51q-35 28 -67 40t-75 12q-84 0 -139.5 -56.5t-81.5 -143t-26 -176.5q0 -94 39 -137.5t117 -43.5q72 0 131 34l30 205h-120v77h224l-45 -328q-52 -33 -108 -49.5t-125 -16.5q-113 0 -177.5 69.5t-64.5 201.5q0 106 37.5 207.5
t115.5 168t192 66.5q64 0 112.5 -20zM323.5 793q-37.5 35 -35.5 91l59 8q14 -64 77 -64q35 0 61.5 18.5t41.5 49.5l60 -18q-13 -55 -59 -87.5t-106 -32.5q-61 0 -98.5 35z" />
    <glyph glyph-name="gbreve" unicode="&#x11f;" horiz-adv-x="580" 
d="M431.5 528q44.5 -11 91.5 -34l-73 -482q-18 -121 -80 -174.5t-161 -53.5q-47 0 -95.5 14t-86.5 37l35 70q29 -17 66.5 -29.5t75.5 -12.5q63 0 104 31t53 119l9 67q-31 -37 -69.5 -58.5t-80.5 -21.5q-79 0 -124 53.5t-45 144.5q0 85 30 163t94 128t162 50q50 0 94.5 -11z
M231.5 427q-42.5 -39 -62.5 -100.5t-20 -129.5q0 -63 24 -93.5t66 -30.5q40 0 74.5 26t69.5 73l43 277q-23 9 -43 13t-46 4q-63 0 -105.5 -39zM244.5 680q-36.5 37 -34.5 99l62 8q5 -38 22.5 -56t50.5 -18q36 0 63 20t42 58l60 -18q-15 -61 -61 -95.5t-106 -34.5
q-62 0 -98.5 37z" />
    <glyph glyph-name="Gdotaccent" unicode="&#x120;" horiz-adv-x="625" 
d="M517.5 681q48.5 -20 89.5 -59l-59 -51q-35 28 -67 40t-75 12q-84 0 -139.5 -56.5t-81.5 -143t-26 -176.5q0 -94 39 -137.5t117 -43.5q72 0 131 34l30 205h-120v77h224l-45 -328q-52 -33 -108 -49.5t-125 -16.5q-113 0 -177.5 69.5t-64.5 201.5q0 106 37.5 207.5
t115.5 168t192 66.5q64 0 112.5 -20zM389 797.5q-16 16.5 -16 40.5q0 29 20 48.5t49 19.5q27 0 43 -16t16 -41q0 -29 -20 -48.5t-49 -19.5q-27 0 -43 16.5z" />
    <glyph glyph-name="gdotaccent" unicode="&#x121;" horiz-adv-x="580" 
d="M431.5 528q44.5 -11 91.5 -34l-73 -482q-18 -121 -80 -174.5t-161 -53.5q-47 0 -95.5 14t-86.5 37l35 70q29 -17 66.5 -29.5t75.5 -12.5q63 0 104 31t53 119l9 67q-31 -37 -69.5 -58.5t-80.5 -21.5q-79 0 -124 53.5t-45 144.5q0 85 30 163t94 128t162 50q50 0 94.5 -11z
M231.5 427q-42.5 -39 -62.5 -100.5t-20 -129.5q0 -63 24 -93.5t66 -30.5q40 0 74.5 26t69.5 73l43 277q-23 9 -43 13t-46 4q-63 0 -105.5 -39zM309 671.5q-16 16.5 -16 40.5q0 29 20 48.5t49 19.5q27 0 43 -16t16 -41q0 -29 -20 -48.5t-49 -19.5q-27 0 -43 16.5z" />
    <glyph glyph-name="Gcommaaccent" unicode="&#x122;" horiz-adv-x="625" 
d="M517.5 681q48.5 -20 89.5 -59l-59 -51q-35 28 -67 40t-75 12q-84 0 -139.5 -56.5t-81.5 -143t-26 -176.5q0 -94 39 -137.5t117 -43.5q72 0 131 34l30 205h-120v77h224l-45 -328q-52 -33 -108 -49.5t-125 -16.5q-113 0 -177.5 69.5t-64.5 201.5q0 106 37.5 207.5
t115.5 168t192 66.5q64 0 112.5 -20zM330 -93q14 -16 14 -36q0 -17 -7.5 -34t-28.5 -51l-52 -82h-54l48 118q-19 19 -19 42q0 25 18 42t43 17q24 0 38 -16z" />
    <glyph glyph-name="gcommaaccent" unicode="&#x123;" horiz-adv-x="580" 
d="M431.5 528q44.5 -11 91.5 -34l-73 -482q-18 -121 -80 -174.5t-161 -53.5q-47 0 -95.5 14t-86.5 37l35 70q29 -17 66.5 -29.5t75.5 -12.5q63 0 104 31t53 119l9 67q-31 -37 -69.5 -58.5t-80.5 -21.5q-79 0 -124 53.5t-45 144.5q0 85 30 163t94 128t162 50q50 0 94.5 -11z
M231.5 427q-42.5 -39 -62.5 -100.5t-20 -129.5q0 -63 24 -93.5t66 -30.5q40 0 74.5 26t69.5 73l43 277q-23 9 -43 13t-46 4q-63 0 -105.5 -39zM304 599q-14 16 -14 36q0 17 7.5 34t28.5 51l52 82h54l-48 -118q19 -19 19 -42q0 -25 -18 -42t-43 -17q-24 0 -38 16z" />
    <glyph glyph-name="Hcircumflex" unicode="&#x124;" horiz-adv-x="674" 
d="M156 0h-94l97 689h94l-41 -288h288l41 288h94l-97 -689h-94l45 323h-288zM282 759l-37 45l149 110h60l119 -110l-41 -45l-115 81z" />
    <glyph glyph-name="hcircumflex" unicode="&#x125;" horiz-adv-x="581" 
d="M475 504q34 -35 34 -97q0 -22 -2 -34l-53 -373h-91l52 368q2 22 2 30q0 35 -14.5 49.5t-40.5 14.5q-48 0 -91.5 -41t-79.5 -105l-43 -316h-91l104 738l92 10l-46 -320q74 111 174 111q60 0 94 -35zM241 809l-37 45l149 110h60l119 -110l-41 -45l-115 81z" />
    <glyph glyph-name="Hbar" unicode="&#x126;" horiz-adv-x="682" 
d="M691 577l-10 -69h-68l-72 -508h-94l45 323h-288l-45 -323h-94l72 508h-68l10 69h67l16 112h94l-16 -112h288l16 112h94l-16 -112h69zM503 401l15 107h-288l-15 -107h288z" />
    <glyph glyph-name="hbar" unicode="&#x127;" horiz-adv-x="589" 
d="M483 504q34 -35 34 -97q0 -22 -2 -34l-53 -373h-91l52 368q2 22 2 30q0 35 -14.5 49.5t-40.5 14.5q-48 0 -91.5 -41t-79.5 -105l-43 -316h-91l85 606h-78l10 70h78l9 62l92 10l-10 -72h152l-19 -70h-143l-26 -178q74 111 174 111q60 0 94 -35z" />
    <glyph glyph-name="Itilde" unicode="&#x128;" horiz-adv-x="292" 
d="M253 689l-97 -689h-94l97 689h94zM244.5 790q-16.5 8 -34.5 22q-12 9 -20 13.5t-17 4.5q-18 0 -32.5 -12t-30.5 -36l-52 32q53 86 117 86q22 0 36 -7.5t33 -21.5q13 -10 21 -14.5t17 -4.5q16 0 30.5 11t30.5 35l54 -32q-25 -42 -54 -63t-59 -21q-23 0 -39.5 8z" />
    <glyph glyph-name="itilde" unicode="&#x129;" horiz-adv-x="279" 
d="M222 527l-74 -527h-91l74 527h91zM219.5 664q-16.5 8 -34.5 22q-12 9 -20 13.5t-17 4.5q-18 0 -32.5 -12t-30.5 -36l-52 32q53 86 117 86q22 0 36 -7.5t33 -21.5q13 -10 21 -14.5t17 -4.5q16 0 30.5 11t30.5 35l54 -32q-25 -42 -54 -63t-59 -21q-23 0 -39.5 8z" />
    <glyph glyph-name="Imacron" unicode="&#x12a;" horiz-adv-x="292" 
d="M253 689l-97 -689h-94l97 689h94zM358 793h-271l9 69h271z" />
    <glyph glyph-name="imacron" unicode="&#x12b;" horiz-adv-x="279" 
d="M222 527l-74 -527h-91l74 527h91zM332 667h-271l9 69h271z" />
    <glyph glyph-name="Ibreve" unicode="&#x12c;" horiz-adv-x="292" 
d="M253 689l-97 -689h-94l97 689h94zM117.5 793q-37.5 35 -35.5 91l59 8q14 -64 77 -64q35 0 61.5 18.5t41.5 49.5l60 -18q-13 -55 -59 -87.5t-106 -32.5q-61 0 -98.5 35z" />
    <glyph glyph-name="ibreve" unicode="&#x12d;" horiz-adv-x="279" 
d="M222 527l-74 -527h-91l74 527h91zM90.5 680q-36.5 37 -34.5 99l62 8q5 -38 22.5 -56t50.5 -18q36 0 63 20t42 58l60 -18q-15 -61 -61 -95.5t-106 -34.5q-62 0 -98.5 37z" />
    <glyph glyph-name="Iogonek" unicode="&#x12e;" horiz-adv-x="292" 
d="M253 689l-97 -689h-20q-85 -35 -113.5 -65.5t-28.5 -60.5q0 -17 12.5 -26t34.5 -9q25 0 63 8l-15 -72q-30 -6 -61 -6q-53 0 -83.5 26.5t-30.5 67.5q0 45 33 84t117 70l95 672h94z" />
    <glyph glyph-name="iogonek" unicode="&#x12f;" horiz-adv-x="279" 
d="M251 764q16 -16 16 -41q0 -29 -20 -48.5t-49 -19.5q-26 0 -42.5 16.5t-16.5 40.5q0 29 20 48.5t49 19.5q27 0 43 -16zM131 527h91l-74 -527h-29q-85 -35 -113.5 -65.5t-28.5 -60.5q0 -17 12.5 -26t34.5 -9q25 0 63 8l-15 -72q-30 -6 -61 -6q-53 0 -83.5 26.5t-30.5 67.5
q0 102 163 158z" />
    <glyph glyph-name="Idotaccent" unicode="&#x130;" horiz-adv-x="292" 
d="M253 689l-97 -689h-94l97 689h94zM183 797.5q-16 16.5 -16 40.5q0 29 20 48.5t49 19.5q27 0 43 -16t16 -41q0 -29 -20 -48.5t-49 -19.5q-27 0 -43 16.5z" />
    <glyph glyph-name="dotlessi" unicode="&#x131;" horiz-adv-x="279" 
d="M222 527l-74 -527h-91l74 527h91z" />
    <glyph glyph-name="IJ" unicode="&#x132;" horiz-adv-x="592" 
d="M253 689l-97 -689h-94l97 689h94zM474 93q-14 -102 -64.5 -152t-143.5 -79l-19 71q48 18 74.5 39.5t40 52t19.5 78.5l83 586h94z" />
    <glyph glyph-name="ij" unicode="&#x133;" horiz-adv-x="558" 
d="M222 527l-74 -527h-91l74 527h91zM155 671.5q-16 16.5 -16 40.5q0 29 20 48.5t49 19.5q27 0 43 -16t16 -41q0 -29 -20 -48.5t-49 -19.5q-27 0 -43 16.5zM208 -145q42 19 66.5 37.5t41 50.5t24.5 86l70 498h91l-70 -498q-10 -73 -33.5 -116.5t-61 -70.5t-102.5 -55z
M435 671.5q-16 16.5 -16 40.5q0 29 20 48.5t49 19.5q27 0 43 -16t16 -41q0 -29 -20 -48.5t-49 -19.5q-27 0 -43 16.5z" />
    <glyph glyph-name="Jcircumflex" unicode="&#x134;" horiz-adv-x="300" 
d="M182 93q-14 -102 -64.5 -152t-143.5 -79l-19 71q48 18 74.5 39.5t40 52t19.5 78.5l83 586h94zM104 759l-37 45l149 110h60l119 -110l-41 -45l-115 81z" />
    <glyph glyph-name="jcircumflex" unicode="&#x135;" horiz-adv-x="279" 
d="M-71 -145q42 19 66.5 37.5t41 50.5t24.5 86l70 498h91l-70 -498q-10 -73 -33.5 -116.5t-61 -70.5t-102.5 -55zM69 634l-37 45l149 113h60l119 -113l-44 -45l-113 84z" />
    <glyph glyph-name="Kcommaaccent" unicode="&#x136;" horiz-adv-x="583" 
d="M62 0l97 689h95l-97 -689h-95zM434 0l-221 368l302 321h111l-307 -324l227 -365h-112zM302 -93q14 -16 14 -36q0 -17 -7.5 -34t-28.5 -51l-52 -82h-54l48 118q-19 19 -19 42q0 25 18 42t43 17q24 0 38 -16z" />
    <glyph glyph-name="kcommaaccent" unicode="&#x137;" horiz-adv-x="545" 
d="M209 435q37 52 83 78t97 26q56 0 92 -33.5t36 -86.5q0 -64 -41 -112t-122 -74l119 -233h-102l-126 257q93 26 134 61.5t41 90.5q0 28 -15 42.5t-42 14.5q-45 0 -92 -38.5t-79 -111.5l-44 -316h-91l104 739l92 11zM278 -93q14 -16 14 -36q0 -17 -7.5 -34t-28.5 -51
l-52 -82h-54l48 118q-19 19 -19 42q0 25 18 42t43 17q24 0 38 -16z" />
    <glyph glyph-name="kgreenlandic" unicode="&#x138;" horiz-adv-x="508" 
d="M222 527l-74 -527h-91l74 527h91zM520 527l-227 -249l173 -278h-104l-172 278l221 249h109z" />
    <glyph glyph-name="Lacute" unicode="&#x139;" horiz-adv-x="492" 
d="M253 689l-85 -606h280l-22 -83h-364l97 689h94zM313 908l30 -77l-220 -76l-19 49z" />
    <glyph glyph-name="lacute" unicode="&#x13a;" horiz-adv-x="288" 
d="M158 103q-1 -5 -1 -13q0 -14 6 -20t19 -6q15 0 36 7l19 -66q-38 -17 -73 -17q-46 0 -71.5 25t-25.5 74q0 9 2 31l88 621l92 11zM309 958l30 -77l-220 -76l-19 49z" />
    <glyph glyph-name="Lcommaaccent" unicode="&#x13b;" horiz-adv-x="492" 
d="M253 689l-85 -606h280l-22 -83h-364l97 689h94zM271 -93q14 -16 14 -36q0 -17 -7.5 -34t-28.5 -51l-52 -82h-54l48 118q-19 19 -19 42q0 25 18 42t43 17q24 0 38 -16z" />
    <glyph glyph-name="lcommaaccent" unicode="&#x13c;" horiz-adv-x="288" 
d="M158 103q-1 -5 -1 -13q0 -14 6 -20t19 -6q15 0 36 7l19 -66q-38 -17 -73 -17q-46 0 -71.5 25t-25.5 74q0 9 2 31l88 621l92 11zM185 -93q14 -16 14 -36q0 -17 -7.5 -34t-28.5 -51l-52 -82h-54l48 118q-19 19 -19 42q0 25 18 42t43 17q24 0 38 -16z" />
    <glyph glyph-name="Lcaron" unicode="&#x13d;" horiz-adv-x="492" 
d="M253 689l-85 -606h280l-22 -83h-364l97 689h94zM326 699l82 -10l-72 -184l-52 8z" />
    <glyph glyph-name="lcaron" unicode="&#x13e;" horiz-adv-x="288" 
d="M158 103q-1 -5 -1 -13q0 -14 6 -20t19 -6q15 0 36 7l19 -66q-38 -17 -73 -17q-46 0 -71.5 25t-25.5 74q0 9 2 31l88 621l92 11zM305 749l82 -10l-72 -184l-52 8z" />
    <glyph glyph-name="Ldot" unicode="&#x13f;" horiz-adv-x="492" 
d="M253 689l-85 -606h280l-22 -83h-364l97 689h94zM353 341.5q-16 16.5 -16 40.5q0 29 20 48.5t49 19.5q27 0 43 -16t16 -41q0 -29 -20 -48.5t-49 -19.5q-27 0 -43 16.5z" />
    <glyph glyph-name="ldot" unicode="&#x140;" horiz-adv-x="324" 
d="M158 103q-1 -5 -1 -13q0 -14 6 -20t19 -6q15 0 36 7l19 -66q-38 -17 -73 -17q-46 0 -71.5 25t-25.5 74q0 9 2 31l88 621l92 11zM260 331.5q-16 16.5 -16 40.5q0 29 20 48.5t49 19.5q27 0 43 -16t16 -41q0 -29 -20 -48.5t-49 -19.5q-27 0 -43 16.5z" />
    <glyph glyph-name="Lslash" unicode="&#x141;" horiz-adv-x="502" 
d="M178 83h280l-22 -83h-364l36 254l-56 -32l-30 60l98 56l49 351h94l-41 -292l175 101l30 -60l-217 -125z" />
    <glyph glyph-name="lslash" unicode="&#x142;" horiz-adv-x="296" 
d="M218 71l19 -66q-38 -17 -73 -17q-46 0 -71.5 25t-25.5 74q0 9 2 31l26 185l-49 -28l-22 66l83 48l50 350l92 11l-43 -305l80 46l22 -66l-114 -65l-36 -257q-1 -5 -1 -13q0 -14 6 -20t19 -6q15 0 36 7z" />
    <glyph glyph-name="Nacute" unicode="&#x143;" horiz-adv-x="677" 
d="M541 0h-123l-197 607q-1 -119 -26 -294l-44 -313h-89l97 689h124l198 -608q0 68 3.5 119.5t11.5 115.5l53 373h89zM517 908l30 -77l-220 -76l-19 49z" />
    <glyph glyph-name="nacute" unicode="&#x144;" horiz-adv-x="580" 
d="M475.5 503.5q33.5 -35.5 33.5 -97.5q0 -16 -3 -36l-52 -370h-91l52 368q2 22 2 29q0 35 -15 50t-43 15q-46 0 -88.5 -41t-78.5 -105l-44 -316h-91l74 527h78l-8 -103q39 55 84 85t99 30q58 0 91.5 -35.5zM445 801l30 -77l-220 -86l-21 49z" />
    <glyph glyph-name="Ncommaaccent" unicode="&#x145;" horiz-adv-x="677" 
d="M541 0h-123l-197 607q-1 -119 -26 -294l-44 -313h-89l97 689h124l198 -608q0 68 3.5 119.5t11.5 115.5l53 373h89zM330 -93q14 -16 14 -36q0 -17 -7.5 -34t-28.5 -51l-52 -82h-54l48 118q-19 19 -19 42q0 25 18 42t43 17q24 0 38 -16z" />
    <glyph glyph-name="ncommaaccent" unicode="&#x146;" horiz-adv-x="580" 
d="M475.5 503.5q33.5 -35.5 33.5 -97.5q0 -16 -3 -36l-52 -370h-91l52 368q2 22 2 29q0 35 -15 50t-43 15q-46 0 -88.5 -41t-78.5 -105l-44 -316h-91l74 527h78l-8 -103q39 55 84 85t99 30q58 0 91.5 -35.5zM282 -93q14 -16 14 -36q0 -17 -7.5 -34t-28.5 -51l-52 -82h-54
l48 118q-19 19 -19 42q0 25 18 42t43 17q24 0 38 -16z" />
    <glyph glyph-name="Ncaron" unicode="&#x147;" horiz-adv-x="677" 
d="M541 0h-123l-197 607q-1 -119 -26 -294l-44 -313h-89l97 689h124l198 -608q0 68 3.5 119.5t11.5 115.5l53 373h89zM562 909l35 -45l-148 -110h-60l-120 110l43 45l113 -81z" />
    <glyph glyph-name="ncaron" unicode="&#x148;" horiz-adv-x="580" 
d="M475.5 503.5q33.5 -35.5 33.5 -97.5q0 -16 -3 -36l-52 -370h-91l52 368q2 22 2 29q0 35 -15 50t-43 15q-46 0 -88.5 -41t-78.5 -105l-44 -316h-91l74 527h78l-8 -103q39 55 84 85t99 30q58 0 91.5 -35.5zM482 785l34 -45l-149 -113h-60l-119 113l41 45l113 -84z" />
    <glyph glyph-name="napostrophe" unicode="&#x149;" horiz-adv-x="690" 
d="M204 738.5q15 -14.5 15 -37.5q0 -15 -6.5 -29.5t-29.5 -53.5l-52 -84h-54l47 118q-19 19 -19 42q0 25 18 42t43 17q23 0 38 -14.5zM585.5 503.5q33.5 -35.5 33.5 -97.5q0 -16 -3 -36l-52 -370h-91l52 368q2 22 2 29q0 35 -15 50t-43 15q-46 0 -88.5 -41t-78.5 -105
l-44 -316h-91l74 527h78l-8 -103q39 55 84 85t99 30q58 0 91.5 -35.5z" />
    <glyph glyph-name="Eng" unicode="&#x14a;" horiz-adv-x="677" 
d="M638 689l-97 -689l-8 -60q-11 -77 -55 -115t-113 -38q-63 0 -111 40l41 58q18 -12 32 -17t36 -5q64 0 76 77l8 60h-29l-197 607q-1 -119 -26 -294l-44 -313h-89l97 689h124l198 -608q0 68 3.5 119.5t11.5 115.5l53 373h89z" />
    <glyph glyph-name="eng" unicode="&#x14b;" horiz-adv-x="580" 
d="M475.5 503.5q33.5 -35.5 33.5 -97.5q0 -16 -3 -36l-52 -370l-8 -60q-11 -76 -55.5 -114.5t-112.5 -38.5q-63 0 -111 40l41 56q18 -12 32 -17t34 -5q33 0 54 19t26 58l9 62l52 368q2 22 2 29q0 35 -15 50t-43 15q-46 0 -88.5 -41t-78.5 -105l-44 -316h-91l74 527h78
l-8 -103q39 55 84 85t99 30q58 0 91.5 -35.5z" />
    <glyph glyph-name="Omacron" unicode="&#x14c;" horiz-adv-x="686" 
d="M582 628q66 -73 66 -207q0 -101 -34.5 -200.5t-110.5 -166t-195 -66.5q-114 0 -180.5 72t-66.5 205q0 99 34.5 199t111 168.5t195.5 68.5q114 0 180 -73zM257.5 566q-53.5 -57 -76 -139.5t-22.5 -164.5q0 -196 152 -196q88 0 141.5 57.5t75.5 140t22 164.5
q0 195 -152 195q-87 0 -140.5 -57zM559 793h-271l9 69h271z" />
    <glyph glyph-name="omacron" unicode="&#x14d;" horiz-adv-x="578" 
d="M104.5 46q-52.5 58 -52.5 160q0 74 27.5 150.5t88.5 129.5t157 53q97 0 149 -58t52 -160q0 -73 -27 -149.5t-88 -130t-157 -53.5q-97 0 -149.5 58zM359 105.5q39 43.5 55 105t16 120.5q0 134 -108 134q-63 0 -102 -43.5t-55.5 -105t-16.5 -120.5q0 -134 109 -134
q63 0 102 43.5zM482 667h-271l9 69h271z" />
    <glyph glyph-name="Obreve" unicode="&#x14e;" horiz-adv-x="686" 
d="M582 628q66 -73 66 -207q0 -101 -34.5 -200.5t-110.5 -166t-195 -66.5q-114 0 -180.5 72t-66.5 205q0 99 34.5 199t111 168.5t195.5 68.5q114 0 180 -73zM257.5 566q-53.5 -57 -76 -139.5t-22.5 -164.5q0 -196 152 -196q88 0 141.5 57.5t75.5 140t22 164.5
q0 195 -152 195q-87 0 -140.5 -57zM318.5 793q-37.5 35 -35.5 91l59 8q14 -64 77 -64q35 0 61.5 18.5t41.5 49.5l60 -18q-13 -55 -59 -87.5t-106 -32.5q-61 0 -98.5 35z" />
    <glyph glyph-name="obreve" unicode="&#x14f;" horiz-adv-x="578" 
d="M104.5 46q-52.5 58 -52.5 160q0 74 27.5 150.5t88.5 129.5t157 53q97 0 149 -58t52 -160q0 -73 -27 -149.5t-88 -130t-157 -53.5q-97 0 -149.5 58zM359 105.5q39 43.5 55 105t16 120.5q0 134 -108 134q-63 0 -102 -43.5t-55.5 -105t-16.5 -120.5q0 -134 109 -134
q63 0 102 43.5zM240.5 680q-36.5 37 -34.5 99l62 8q5 -38 22.5 -56t50.5 -18q36 0 63 20t42 58l60 -18q-15 -61 -61 -95.5t-106 -34.5q-62 0 -98.5 37z" />
    <glyph glyph-name="Ohungarumlaut" unicode="&#x150;" horiz-adv-x="686" 
d="M582 628q66 -73 66 -207q0 -101 -34.5 -200.5t-110.5 -166t-195 -66.5q-114 0 -180.5 72t-66.5 205q0 99 34.5 199t111 168.5t195.5 68.5q114 0 180 -73zM257.5 566q-53.5 -57 -76 -139.5t-22.5 -164.5q0 -196 152 -196q88 0 141.5 57.5t75.5 140t22 164.5
q0 195 -152 195q-87 0 -140.5 -57zM411 958l72 -41l-115 -152l-56 25zM561 958l73 -41l-126 -157l-55 25z" />
    <glyph glyph-name="ohungarumlaut" unicode="&#x151;" horiz-adv-x="578" 
d="M104.5 46q-52.5 58 -52.5 160q0 74 27.5 150.5t88.5 129.5t157 53q97 0 149 -58t52 -160q0 -73 -27 -149.5t-88 -130t-157 -53.5q-97 0 -149.5 58zM359 105.5q39 43.5 55 105t16 120.5q0 134 -108 134q-63 0 -102 -43.5t-55.5 -105t-16.5 -120.5q0 -134 109 -134
q63 0 102 43.5zM340 832l72 -41l-115 -152l-56 25zM490 832l73 -41l-126 -157l-55 25z" />
    <glyph glyph-name="OE" unicode="&#x152;" horiz-adv-x="888" 
d="M866 613h-301q62 -68 62 -197q0 -18 -1 -28h173l-10 -76h-172q-13 -69 -43.5 -130t-80.5 -106h316l-11 -76h-427q-37 -12 -76 -12q-70 0 -123 32t-82 94t-29 150q0 97 34.5 198t108 170t183.5 69q43 0 78 -13l-2 1h424zM435 124.5q51 58.5 73 144t22 170.5q0 94 -37 139
t-105 45q-82 0 -133 -59t-73.5 -144t-22.5 -165q0 -98 37.5 -143.5t104.5 -45.5q83 0 134 58.5z" />
    <glyph glyph-name="oe" unicode="&#x153;" horiz-adv-x="885" 
d="M768 259q-90 -45 -252 -63q3 -131 114 -131q37 0 71 12t70 37l39 -62q-89 -64 -189 -64q-61 0 -104.5 27.5t-67.5 76.5q-66 -104 -195 -104q-97 0 -149.5 58t-52.5 160q0 74 27.5 150.5t88.5 129.5t157 53q59 0 101.5 -29t65.5 -77q70 106 199 106q80 0 123.5 -39
t43.5 -95q0 -101 -90 -146zM703 309.5q59 29.5 59 92.5q0 24 -17 44t-55 20q-79 0 -119.5 -56t-50.5 -144q124 14 183 43.5zM359 105.5q39 43.5 55 105t16 120.5q0 134 -108 134q-63 0 -102 -43.5t-55.5 -105t-16.5 -120.5q0 -134 109 -134q63 0 102 43.5z" />
    <glyph glyph-name="Racute" unicode="&#x154;" horiz-adv-x="599" 
d="M530.5 390q-41.5 -58 -132.5 -84l139 -306h-104l-127 292h-109l-41 -292h-94l97 689h177q236 0 236 -171q0 -70 -41.5 -128zM207 365h101q88 0 126.5 45t38.5 107q0 53 -34 75.5t-108 22.5h-89zM463 908l30 -77l-220 -76l-19 49z" />
    <glyph glyph-name="racute" unicode="&#x155;" horiz-adv-x="381" 
d="M409 532l-27 -89q-19 5 -43 5q-49 0 -85.5 -42.5t-65.5 -126.5l-40 -279h-91l74 527h78l-6 -108q29 60 68.5 90t84.5 30q25 0 53 -7zM391 801l30 -77l-220 -86l-21 49z" />
    <glyph glyph-name="Rcommaaccent" unicode="&#x156;" horiz-adv-x="599" 
d="M530.5 390q-41.5 -58 -132.5 -84l139 -306h-104l-127 292h-109l-41 -292h-94l97 689h177q236 0 236 -171q0 -70 -41.5 -128zM207 365h101q88 0 126.5 45t38.5 107q0 53 -34 75.5t-108 22.5h-89zM296 -93q14 -16 14 -36q0 -17 -7.5 -34t-28.5 -51l-52 -82h-54l48 118
q-19 19 -19 42q0 25 18 42t43 17q24 0 38 -16z" />
    <glyph glyph-name="rcommaaccent" unicode="&#x157;" horiz-adv-x="381" 
d="M409 532l-27 -89q-19 5 -43 5q-49 0 -85.5 -42.5t-65.5 -126.5l-40 -279h-91l74 527h78l-6 -108q29 60 68.5 90t84.5 30q25 0 53 -7zM129 -93q14 -16 14 -36q0 -17 -7.5 -34t-28.5 -51l-52 -82h-54l48 118q-19 19 -19 42q0 25 18 42t43 17q24 0 38 -16z" />
    <glyph glyph-name="Rcaron" unicode="&#x158;" horiz-adv-x="599" 
d="M530.5 390q-41.5 -58 -132.5 -84l139 -306h-104l-127 292h-109l-41 -292h-94l97 689h177q236 0 236 -171q0 -70 -41.5 -128zM207 365h101q88 0 126.5 45t38.5 107q0 53 -34 75.5t-108 22.5h-89zM508 909l35 -45l-148 -110h-60l-120 110l43 45l113 -81z" />
    <glyph glyph-name="rcaron" unicode="&#x159;" horiz-adv-x="381" 
d="M409 532l-27 -89q-19 5 -43 5q-49 0 -85.5 -42.5t-65.5 -126.5l-40 -279h-91l74 527h78l-6 -108q29 60 68.5 90t84.5 30q25 0 53 -7zM428 785l34 -45l-149 -113h-60l-119 113l41 45l113 -84z" />
    <glyph glyph-name="Sacute" unicode="&#x15a;" horiz-adv-x="539" 
d="M438 680q49 -21 89 -62l-59 -55q-32 32 -66.5 46t-77.5 14q-61 0 -101 -30t-40 -82q0 -40 27 -64t102 -49q86 -27 133 -68t47 -121q0 -56 -29.5 -106.5t-90 -82.5t-150.5 -32q-142 0 -223 92l60 56q32 -35 72 -52.5t93 -17.5q77 0 123.5 37.5t46.5 100.5q0 44 -27.5 69.5
t-99.5 50.5q-94 33 -137 72.5t-43 109.5q0 47 28 92t81.5 74t127.5 29q65 0 114 -21zM440 908l30 -77l-220 -76l-19 49z" />
    <glyph glyph-name="sacute" unicode="&#x15b;" horiz-adv-x="461" 
d="M436 474l-45 -55q-59 47 -129 47q-48 0 -76.5 -19t-28.5 -52q0 -30 23.5 -46t82.5 -34q77 -24 113 -60.5t36 -97.5q0 -56 -31 -94t-80.5 -56.5t-107.5 -18.5q-117 0 -195 76l52 53q65 -55 147 -55q63 0 91 26.5t28 59.5q0 27 -10 43t-33.5 28t-67.5 26
q-76 23 -108.5 56.5t-32.5 87.5q0 37 22 71.5t67 56.5t110 22q100 0 173 -65zM393 801l30 -77l-220 -86l-21 49z" />
    <glyph glyph-name="Scircumflex" unicode="&#x15c;" horiz-adv-x="539" 
d="M438 680q49 -21 89 -62l-59 -55q-32 32 -66.5 46t-77.5 14q-61 0 -101 -30t-40 -82q0 -40 27 -64t102 -49q86 -27 133 -68t47 -121q0 -56 -29.5 -106.5t-90 -82.5t-150.5 -32q-142 0 -223 92l60 56q32 -35 72 -52.5t93 -17.5q77 0 123.5 37.5t46.5 100.5q0 44 -27.5 69.5
t-99.5 50.5q-94 33 -137 72.5t-43 109.5q0 47 28 92t81.5 74t127.5 29q65 0 114 -21zM218 759l-37 45l149 110h60l119 -110l-41 -45l-115 81z" />
    <glyph glyph-name="scircumflex" unicode="&#x15d;" horiz-adv-x="461" 
d="M436 474l-45 -55q-59 47 -129 47q-48 0 -76.5 -19t-28.5 -52q0 -30 23.5 -46t82.5 -34q77 -24 113 -60.5t36 -97.5q0 -56 -31 -94t-80.5 -56.5t-107.5 -18.5q-117 0 -195 76l52 53q65 -55 147 -55q63 0 91 26.5t28 59.5q0 27 -10 43t-33.5 28t-67.5 26
q-76 23 -108.5 56.5t-32.5 87.5q0 37 22 71.5t67 56.5t110 22q100 0 173 -65zM167 634l-37 45l149 113h60l119 -113l-44 -45l-113 84z" />
    <glyph glyph-name="Scedilla" unicode="&#x15e;" horiz-adv-x="539" 
d="M445 330q47 -41 47 -121q0 -53 -25.5 -100.5t-78.5 -80.5t-132 -39l-8 -45q40 -4 61 -26t21 -55q0 -44 -34.5 -74t-94.5 -30q-57 0 -93 27l31 49q14 -8 27.5 -12t34.5 -4q24 0 39 11.5t15 31.5q0 22 -17.5 30.5t-64.5 8.5l21 88q-124 9 -195 91l60 56q32 -35 72 -52.5
t93 -17.5q77 0 123.5 37.5t46.5 100.5q0 44 -27.5 69.5t-99.5 50.5q-94 33 -137 72.5t-43 109.5q0 47 28 92t81.5 74t127.5 29q65 0 114 -21t89 -62l-59 -55q-32 32 -66.5 46t-77.5 14q-61 0 -101 -30t-40 -82q0 -40 27 -64t102 -49q86 -27 133 -68z" />
    <glyph glyph-name="scedilla" unicode="&#x15f;" horiz-adv-x="461" 
d="M376 254.5q36 -36.5 36 -97.5q0 -77 -56.5 -119.5t-139.5 -48.5l-7 -45q40 -4 61 -26t21 -55q0 -44 -34.5 -74t-94.5 -30q-57 0 -93 27l31 49q14 -8 27.5 -12t34.5 -4q24 0 39 11.5t15 31.5q0 22 -17.5 30.5t-64.5 8.5l22 89q-92 10 -158 74l52 53q65 -55 147 -55
q63 0 91 26.5t28 59.5q0 27 -10 43t-33.5 28t-67.5 26q-76 23 -108.5 56.5t-32.5 87.5q0 37 22 71.5t67 56.5t110 22q100 0 173 -65l-45 -55q-59 47 -129 47q-48 0 -76.5 -19t-28.5 -52q0 -30 23.5 -46t82.5 -34q77 -24 113 -60.5z" />
    <glyph glyph-name="Scaron" unicode="&#x160;" horiz-adv-x="539" 
d="M438 680q49 -21 89 -62l-59 -55q-32 32 -66.5 46t-77.5 14q-61 0 -101 -30t-40 -82q0 -40 27 -64t102 -49q86 -27 133 -68t47 -121q0 -56 -29.5 -106.5t-90 -82.5t-150.5 -32q-142 0 -223 92l60 56q32 -35 72 -52.5t93 -17.5q77 0 123.5 37.5t46.5 100.5q0 44 -27.5 69.5
t-99.5 50.5q-94 33 -137 72.5t-43 109.5q0 47 28 92t81.5 74t127.5 29q65 0 114 -21zM485 909l35 -45l-148 -110h-60l-120 110l43 45l113 -81z" />
    <glyph glyph-name="scaron" unicode="&#x161;" horiz-adv-x="461" 
d="M436 474l-45 -55q-59 47 -129 47q-48 0 -76.5 -19t-28.5 -52q0 -30 23.5 -46t82.5 -34q77 -24 113 -60.5t36 -97.5q0 -56 -31 -94t-80.5 -56.5t-107.5 -18.5q-117 0 -195 76l52 53q65 -55 147 -55q63 0 91 26.5t28 59.5q0 27 -10 43t-33.5 28t-67.5 26
q-76 23 -108.5 56.5t-32.5 87.5q0 37 22 71.5t67 56.5t110 22q100 0 173 -65zM430 785l34 -45l-149 -113h-60l-119 113l41 45l113 -84z" />
    <glyph glyph-name="uni0162" unicode="&#x162;" horiz-adv-x="511" 
d="M562 689l-22 -81h-190l-85 -608l-9 -56q42 -4 62 -25t20 -51q0 -44 -34 -76.5t-99 -32.5q-28 0 -51 7.5t-38 19.5l31 49q24 -16 56 -16q25 0 42.5 12t17.5 33q0 20 -18 28.5t-64 8.5l24 99h-34l85 608h-194l12 81h488z" />
    <glyph glyph-name="uni0163" unicode="&#x163;" horiz-adv-x="355" 
d="M173 139q-2 -20 -2 -26q0 -25 11.5 -36.5t35.5 -11.5q18 0 35.5 5.5t40.5 16.5l30 -64q-47 -29 -99 -34l-7 -45q40 -4 61 -26t21 -55q0 -44 -34.5 -74t-94.5 -30q-57 0 -93 27l31 49q14 -8 27.5 -12t34.5 -4q24 0 39 11.5t15 31.5q0 22 -17.5 30.5t-64.5 8.5l22 92
q-41 9 -63 38.5t-22 77.5q0 21 2 32l44 315h-91l10 71h95l33 122l72 8l-18 -130h124l-20 -71h-114z" />
    <glyph glyph-name="Tcaron" unicode="&#x164;" horiz-adv-x="511" 
d="M562 689l-22 -81h-190l-85 -608h-94l85 608h-194l12 81h488zM466 909l35 -45l-148 -110h-60l-120 110l43 45l113 -81z" />
    <glyph glyph-name="tcaron" unicode="&#x165;" horiz-adv-x="355" 
d="M173 139q-2 -20 -2 -26q0 -25 11.5 -36.5t35.5 -11.5q18 0 35.5 5.5t40.5 16.5l30 -64q-55 -35 -117 -35q-61 0 -94 31.5t-33 89.5q0 21 2 32l44 315h-91l10 71h95l33 122l72 8l-18 -130h124l-20 -71h-114zM325 755l82 -10l-72 -184l-52 8z" />
    <glyph glyph-name="Tbar" unicode="&#x166;" horiz-adv-x="511" 
d="M540 608h-190l-31 -219h121l-9 -70h-121l-45 -319h-94l45 319h-121l9 70h121l31 219h-194l12 81h488z" />
    <glyph glyph-name="tbar" unicode="&#x167;" horiz-adv-x="355" 
d="M217 456l-14 -99h117l-20 -71h-107l-20 -147q-2 -20 -2 -26q0 -25 11.5 -36.5t35.5 -11.5q18 0 35.5 5.5t40.5 16.5l30 -64q-55 -35 -117 -35q-61 0 -94 31.5t-33 89.5q0 21 2 32l20 145h-77l10 71h77l14 99h-91l10 71h95l33 122l72 8l-18 -130h124l-20 -71h-114z" />
    <glyph glyph-name="Utilde" unicode="&#x168;" horiz-adv-x="656" 
d="M561 218q-15 -105 -86 -167.5t-183 -62.5q-102 0 -157 52.5t-55 141.5q0 21 3 42l66 465h94l-65 -464q-3 -22 -3 -42q0 -58 29.5 -86.5t91.5 -28.5q149 0 172 163l65 458h94zM426.5 790q-16.5 8 -34.5 22q-12 9 -20 13.5t-17 4.5q-18 0 -32.5 -12t-30.5 -36l-52 32
q53 86 117 86q22 0 36 -7.5t33 -21.5q13 -10 21 -14.5t17 -4.5q16 0 30.5 11t30.5 35l54 -32q-25 -42 -54 -63t-59 -21q-23 0 -39.5 8z" />
    <glyph glyph-name="utilde" unicode="&#x169;" horiz-adv-x="576" 
d="M104.5 22.5q-34.5 34.5 -34.5 95.5q0 17 3 35l53 374h91l-52 -370q-3 -18 -3 -33q0 -34 14.5 -49t43.5 -15q45 0 83.5 34t76.5 90l48 343h91l-74 -527h-78l7 97q-39 -54 -80.5 -81.5t-93.5 -27.5q-61 0 -95.5 34.5zM366.5 664q-16.5 8 -34.5 22q-12 9 -20 13.5t-17 4.5
q-18 0 -32.5 -12t-30.5 -36l-52 32q53 86 117 86q22 0 36 -7.5t33 -21.5q13 -10 21 -14.5t17 -4.5q16 0 30.5 11t30.5 35l54 -32q-25 -42 -54 -63t-59 -21q-23 0 -39.5 8z" />
    <glyph glyph-name="Umacron" unicode="&#x16a;" horiz-adv-x="656" 
d="M561 218q-15 -105 -86 -167.5t-183 -62.5q-102 0 -157 52.5t-55 141.5q0 21 3 42l66 465h94l-65 -464q-3 -22 -3 -42q0 -58 29.5 -86.5t91.5 -28.5q149 0 172 163l65 458h94zM540 793h-271l9 69h271z" />
    <glyph glyph-name="umacron" unicode="&#x16b;" horiz-adv-x="576" 
d="M104.5 22.5q-34.5 34.5 -34.5 95.5q0 17 3 35l53 374h91l-52 -370q-3 -18 -3 -33q0 -34 14.5 -49t43.5 -15q45 0 83.5 34t76.5 90l48 343h91l-74 -527h-78l7 97q-39 -54 -80.5 -81.5t-93.5 -27.5q-61 0 -95.5 34.5zM479 667h-271l9 69h271z" />
    <glyph glyph-name="Ubreve" unicode="&#x16c;" horiz-adv-x="656" 
d="M561 218q-15 -105 -86 -167.5t-183 -62.5q-102 0 -157 52.5t-55 141.5q0 21 3 42l66 465h94l-65 -464q-3 -22 -3 -42q0 -58 29.5 -86.5t91.5 -28.5q149 0 172 163l65 458h94zM299.5 793q-37.5 35 -35.5 91l59 8q14 -64 77 -64q35 0 61.5 18.5t41.5 49.5l60 -18
q-13 -55 -59 -87.5t-106 -32.5q-61 0 -98.5 35z" />
    <glyph glyph-name="ubreve" unicode="&#x16d;" horiz-adv-x="576" 
d="M104.5 22.5q-34.5 34.5 -34.5 95.5q0 17 3 35l53 374h91l-52 -370q-3 -18 -3 -33q0 -34 14.5 -49t43.5 -15q45 0 83.5 34t76.5 90l48 343h91l-74 -527h-78l7 97q-39 -54 -80.5 -81.5t-93.5 -27.5q-61 0 -95.5 34.5zM237.5 680q-36.5 37 -34.5 99l62 8q5 -38 22.5 -56
t50.5 -18q36 0 63 20t42 58l60 -18q-15 -61 -61 -95.5t-106 -34.5q-62 0 -98.5 37z" />
    <glyph glyph-name="Uring" unicode="&#x16e;" horiz-adv-x="656" 
d="M561 218q-15 -105 -86 -167.5t-183 -62.5q-102 0 -157 52.5t-55 141.5q0 21 3 42l66 465h94l-65 -464q-3 -22 -3 -42q0 -58 29.5 -86.5t91.5 -28.5q149 0 172 163l65 458h94zM498.5 934.5q28.5 -27.5 28.5 -68.5q0 -48 -36 -82t-88 -34q-46 0 -74.5 27.5t-28.5 68.5
q0 48 36 82t88 34q46 0 74.5 -27.5zM377 893q-16 -19 -16 -46q0 -22 11.5 -34.5t32.5 -12.5q29 0 45.5 20t16.5 46q0 22 -12 34t-33 12q-29 0 -45 -19z" />
    <glyph glyph-name="uring" unicode="&#x16f;" horiz-adv-x="576" 
d="M104.5 22.5q-34.5 34.5 -34.5 95.5q0 17 3 35l53 374h91l-52 -370q-3 -18 -3 -33q0 -34 14.5 -49t43.5 -15q45 0 83.5 34t76.5 90l48 343h91l-74 -527h-78l7 97q-39 -54 -80.5 -81.5t-93.5 -27.5q-61 0 -95.5 34.5zM436.5 808.5q28.5 -27.5 28.5 -68.5q0 -48 -36 -82
t-88 -34q-46 0 -74.5 27.5t-28.5 68.5q0 48 36 82t88 34q46 0 74.5 -27.5zM315 767q-16 -19 -16 -46q0 -22 11.5 -34.5t32.5 -12.5q29 0 45.5 20t16.5 46q0 22 -12 34t-33 12q-29 0 -45 -19z" />
    <glyph glyph-name="Uhungarumlaut" unicode="&#x170;" horiz-adv-x="656" 
d="M561 218q-15 -105 -86 -167.5t-183 -62.5q-102 0 -157 52.5t-55 141.5q0 21 3 42l66 465h94l-65 -464q-3 -22 -3 -42q0 -58 29.5 -86.5t91.5 -28.5q149 0 172 163l65 458h94zM392 958l72 -41l-115 -152l-56 25zM542 958l73 -41l-126 -157l-55 25z" />
    <glyph glyph-name="uhungarumlaut" unicode="&#x171;" horiz-adv-x="576" 
d="M104.5 22.5q-34.5 34.5 -34.5 95.5q0 17 3 35l53 374h91l-52 -370q-3 -18 -3 -33q0 -34 14.5 -49t43.5 -15q45 0 83.5 34t76.5 90l48 343h91l-74 -527h-78l7 97q-39 -54 -80.5 -81.5t-93.5 -27.5q-61 0 -95.5 34.5zM337 832l72 -41l-115 -152l-56 25zM487 832l73 -41
l-126 -157l-55 25z" />
    <glyph glyph-name="Uogonek" unicode="&#x172;" horiz-adv-x="656" 
d="M627 689l-66 -471q-11 -85 -60.5 -143t-129.5 -78q-68 -29 -92.5 -55.5t-24.5 -55.5q0 -48 56 -48q27 0 61 7l-9 -70q-35 -7 -63 -7q-57 0 -91 28.5t-34 72.5q0 77 96 120q-92 6 -141 58t-49 135q0 21 3 42l66 465h94l-65 -464q-3 -22 -3 -42q0 -58 29.5 -86.5
t91.5 -28.5q149 0 172 163l65 458h94z" />
    <glyph glyph-name="uogonek" unicode="&#x173;" horiz-adv-x="576" 
d="M331.5 -65.5q-28.5 -30.5 -28.5 -60.5q0 -17 12.5 -26t34.5 -9q25 0 63 8l-15 -72q-30 -6 -61 -6q-53 0 -83.5 26.5t-30.5 67.5q0 97 145 152l6 82q-39 -54 -80.5 -81.5t-93.5 -27.5q-61 0 -95.5 34.5t-34.5 95.5q0 17 3 35l53 374h91l-52 -370q-3 -18 -3 -33
q0 -34 14.5 -49t43.5 -15q45 0 83.5 34t76.5 90l48 343h91l-74 -527q-85 -35 -113.5 -65.5z" />
    <glyph glyph-name="Wcircumflex" unicode="&#x174;" horiz-adv-x="820" 
d="M855 689l-236 -689h-121l-44 577l-208 -577h-118l-42 689h90l24 -606l217 606h102l49 -606l200 606h87zM355 759l-37 45l149 110h60l119 -110l-41 -45l-115 81z" />
    <glyph glyph-name="wcircumflex" unicode="&#x175;" horiz-adv-x="711" 
d="M728 527l-191 -527h-125l-28 444l-157 -444h-121l-48 527h90l29 -463l167 463h103l33 -463l160 463h88zM285 634l-37 45l149 113h60l119 -113l-44 -45l-113 84z" />
    <glyph glyph-name="Ycircumflex" unicode="&#x176;" horiz-adv-x="544" 
d="M600 689l-280 -424l-37 -265h-96l38 264l-160 425h99l118 -341l215 341h103zM220 759l-37 45l149 110h60l119 -110l-41 -45l-115 81z" />
    <glyph glyph-name="ycircumflex" unicode="&#x177;" horiz-adv-x="486" 
d="M270 -5q-41 -91 -106 -144t-169 -64l-4 72q54 9 87.5 26t56.5 43.5t47 71.5h-34l-101 527h96l74 -457l202 457h95zM172 634l-37 45l149 113h60l119 -113l-44 -45l-113 84z" />
    <glyph glyph-name="Ydieresis" unicode="&#x178;" horiz-adv-x="544" 
d="M600 689l-280 -424l-37 -265h-96l38 264l-160 425h99l118 -341l215 341h103zM211 794.5q-15 14.5 -15 36.5q0 27 18 44.5t45 17.5q23 0 38 -14.5t15 -36.5q0 -27 -18 -44.5t-45 -17.5q-23 0 -38 14.5zM419 794.5q-15 14.5 -15 36.5q0 27 18 44.5t45 17.5q23 0 38 -14.5
t15 -36.5q0 -27 -18 -44.5t-45 -17.5q-23 0 -38 14.5z" />
    <glyph glyph-name="Zacute" unicode="&#x179;" horiz-adv-x="516" 
d="M-8 0l10 76l414 533h-302l11 80h407l-10 -77l-411 -532l335 1l-22 -81h-432zM436 908l30 -77l-220 -76l-19 49z" />
    <glyph glyph-name="zacute" unicode="&#x17a;" horiz-adv-x="431" 
d="M436 527l-9 -70l-318 -380h267l-21 -77h-368l9 69l317 380h-240l11 78h352zM378 801l30 -77l-220 -86l-21 49z" />
    <glyph glyph-name="Zdotaccent" unicode="&#x17b;" horiz-adv-x="516" 
d="M-8 0l10 76l414 533h-302l11 80h407l-10 -77l-411 -532l335 1l-22 -81h-432zM306 797.5q-16 16.5 -16 40.5q0 29 20 48.5t49 19.5q27 0 43 -16t16 -41q0 -29 -20 -48.5t-49 -19.5q-27 0 -43 16.5z" />
    <glyph glyph-name="zdotaccent" unicode="&#x17c;" horiz-adv-x="431" 
d="M436 527l-9 -70l-318 -380h267l-21 -77h-368l9 69l317 380h-240l11 78h352zM239 671.5q-16 16.5 -16 40.5q0 29 20 48.5t49 19.5q27 0 43 -16t16 -41q0 -29 -20 -48.5t-49 -19.5q-27 0 -43 16.5z" />
    <glyph glyph-name="Zcaron" unicode="&#x17d;" horiz-adv-x="516" 
d="M-8 0l10 76l414 533h-302l11 80h407l-10 -77l-411 -532l335 1l-22 -81h-432zM481 909l35 -45l-148 -110h-60l-120 110l43 45l113 -81z" />
    <glyph glyph-name="zcaron" unicode="&#x17e;" horiz-adv-x="431" 
d="M436 527l-9 -70l-318 -380h267l-21 -77h-368l9 69l317 380h-240l11 78h352zM415 785l34 -45l-149 -113h-60l-119 113l41 45l113 -84z" />
    <glyph glyph-name="longs" unicode="&#x17f;" horiz-adv-x="329" 
d="M393 741q28 -9 60 -29l-35 -61q-37 25 -86 25q-43 0 -65 -19.5t-27 -59.5l-84 -597h-91l64 456h-93l10 71h93l11 75q9 68 56 108t123 40q36 0 64 -9z" />
    <glyph glyph-name="uni0180" unicode="&#x180;" horiz-adv-x="588" 
d="M494 484.5q43 -54.5 43 -152.5q0 -82 -29 -160.5t-92.5 -131t-160.5 -52.5q-44 0 -86 8t-100 27l82 583h-79l10 70h79l9 63l92 11l-10 -74h151l-19 -70h-142l-18 -131q36 32 73 48t79 16q75 0 118 -54.5zM363.5 103.5q40.5 42.5 59.5 106.5t19 129q0 127 -92 127
q-39 0 -71.5 -20t-66.5 -56l-43 -313q25 -9 45 -12.5t48 -3.5q61 0 101.5 42.5z" />
    <glyph glyph-name="uni0181" unicode="&#x181;" horiz-adv-x="684" 
d="M593.5 320q38.5 -33 38.5 -100q0 -100 -69.5 -160t-228.5 -60h-190l86 614h-27q-64 0 -64 -71q0 -21 10 -51l-71 -31q-26 46 -26 89q0 63 43 101t120 38h216q98 0 157 -38.5t59 -115.5q0 -69 -44 -113t-110 -58q62 -11 100.5 -44zM324 614l-30 -217h101q67 0 111.5 34
t44.5 101q0 46 -31.5 64t-85.5 18h-110zM490.5 114.5q43.5 38.5 43.5 107.5q0 102 -136 102h-114l-35 -248h89q109 0 152.5 38.5z" />
    <glyph glyph-name="uni0182" unicode="&#x182;" horiz-adv-x="573" 
d="M478 382.5q62 -47.5 62 -139.5q0 -64 -28 -118.5t-94 -89.5t-174 -35h-182l97 689h372l-23 -78h-266l-26 -181h88q112 0 174 -47.5zM399.5 123.5q40.5 47.5 40.5 120.5q0 60 -35.5 86t-105.5 26h-93l-39 -280h92q100 0 140.5 47.5z" />
    <glyph glyph-name="uni0183" unicode="&#x183;" horiz-adv-x="579" 
d="M486 485q42 -54 42 -153q0 -82 -29 -160.5t-92.5 -131t-160.5 -52.5q-44 0 -86 8t-100 27l101 716h314l-22 -70h-211l-27 -194q37 32 74 48t79 16q76 0 118 -54zM354.5 103.5q40.5 42.5 59.5 106.5t19 129q0 127 -94 127q-38 0 -70 -20.5t-65 -55.5l-44 -313
q25 -9 45 -12.5t48 -3.5q61 0 101.5 42.5z" />
    <glyph glyph-name="uni0184" unicode="&#x184;" horiz-adv-x="568" 
d="M479 386.5q62 -49.5 62 -145.5q0 -64 -29 -118.5t-95.5 -88.5t-172.5 -34h-182l74 524l-63 42q52 47 97 123h83l-35 -253h87q112 0 174 -49.5zM400 123q41 47 41 118q0 65 -35.5 93t-105.5 28h-93l-40 -286h92q100 0 141 47z" />
    <glyph glyph-name="uni0185" unicode="&#x185;" horiz-adv-x="510" 
d="M418 314.5q49 -42.5 49 -114.5q0 -53 -26 -101.5t-79 -79.5t-132 -31q-86 0 -171 26l50 358l-63 42q53 47 95 113h81l-24 -170h67q104 0 153 -42.5zM336.5 101q35.5 41 35.5 100q0 86 -114 86h-69l-31 -219q40 -8 69 -8q74 0 109.5 41z" />
    <glyph glyph-name="uni0186" unicode="&#x186;" horiz-adv-x="554" 
d="M452.5 628.5q62.5 -72.5 62.5 -205.5q0 -116 -40 -215.5t-116.5 -159.5t-180.5 -60q-64 0 -108 21.5t-80 57.5l52 56q34 -27 64 -41t72 -14q80 0 134 52.5t79.5 134t25.5 168.5q0 105 -38 152.5t-104 47.5q-40 0 -77.5 -12.5t-77.5 -39.5l-44 64q48 34 96 50t111 16
q107 0 169.5 -72.5z" />
    <glyph glyph-name="uni0187" unicode="&#x187;" 
d="M772 792l-41 -56q-18 12 -32 17t-36 5q-32 0 -52 -19t-25 -58l-7 -51l-47 -46q-29 18 -64 28.5t-68 10.5q-85 0 -138.5 -55.5t-77.5 -138.5t-24 -169q0 -99 41 -145.5t111 -46.5q45 0 79 15.5t76 44.5l42 -65q-89 -75 -203 -75q-113 0 -179 73t-66 207q0 100 35.5 200
t110 166.5t183.5 66.5q59 0 103 -22q10 75 53.5 114t113.5 39q64 0 112 -40z" />
    <glyph glyph-name="uni0188" unicode="&#x188;" horiz-adv-x="472" 
d="M675 710l-41 -56q-18 12 -32 17t-36 5q-31 0 -52 -19.5t-26 -57.5l-16 -118l-40 -47q-58 29 -112 29q-62 0 -100.5 -41.5t-55 -102.5t-16.5 -123q0 -130 107 -130q33 0 60.5 10t61.5 31l37 -64q-77 -55 -165 -55q-94 0 -145.5 56.5t-51.5 158.5q0 76 28 153.5t87 130
t148 52.5q41 0 72 -14l10 72q11 76 54.5 114.5t111.5 38.5q64 0 112 -40z" />
    <glyph glyph-name="uni0189" unicode="&#x189;" horiz-adv-x="649" 
d="M529 632.5q82 -56.5 82 -204.5q0 -117 -38 -214t-121.5 -155.5t-213.5 -58.5h-166l45 318h-88l9 70h89l42 301h141q137 0 219 -56.5zM405 127q59 52 84.5 132t25.5 171q0 76 -26 116t-67.5 53.5t-97.5 13.5h-72l-31 -225h157l-9 -70h-158l-34 -243h75q94 0 153 52z" />
    <glyph glyph-name="uni018A" unicode="&#x18a;" horiz-adv-x="721" 
d="M601 632.5q82 -56.5 82 -204.5q0 -117 -38 -214t-121.5 -155.5t-213.5 -58.5h-166l86 614h-27q-64 0 -64 -71q0 -21 10 -51l-71 -31q-26 46 -26 89q0 63 43 101t120 38h167q137 0 219 -56.5zM477 127q59 52 84.5 132t25.5 171q0 76 -26 116t-67.5 53.5t-97.5 13.5h-72
l-75 -538h75q94 0 153 52z" />
    <glyph glyph-name="uni018B" unicode="&#x18b;" horiz-adv-x="575" 
d="M439 0h-188q-104 0 -167 47t-63 152q0 109 78 170t214 61h93l25 181h-274l10 78h369zM356 76l39 280h-89q-93 0 -139 -40.5t-46 -117.5q0 -66 33 -94t106 -28h96z" />
    <glyph glyph-name="uni018C" unicode="&#x18c;" horiz-adv-x="587" 
d="M456 0h-80l1 87q-29 -47 -69 -73t-90 -26q-80 0 -123.5 56t-43.5 153q0 76 25.5 155t80.5 133t139 54q83 0 135 -66l28 196h-218l10 70h309zM421 402q-20 32 -46 48t-62 16q-59 0 -96 -44t-53 -107.5t-16 -124.5q0 -65 23 -97t65 -32q46 0 81 30.5t73 91.5z" />
    <glyph glyph-name="uni018D" unicode="&#x18d;" horiz-adv-x="574" 
d="M124.5 -201q-38.5 15 -73.5 46l50 52q28 -23 54.5 -32t63.5 -9q50 0 75.5 21.5t25.5 55.5q0 28 -21 47t-81 46q-83 38 -123 87t-40 125q0 60 27.5 130t87.5 120.5t151 50.5q93 0 147.5 -59t54.5 -155q0 -94 -43 -161.5t-145 -111.5q42 -27 60 -54.5t18 -61.5
q0 -38 -22 -73t-66 -57t-105 -22q-57 0 -95.5 15zM393.5 186.5q32.5 59.5 32.5 147.5q0 60 -27.5 95.5t-80.5 35.5q-60 0 -97.5 -39t-53 -92.5t-15.5 -98.5q0 -55 28.5 -89.5t96.5 -65.5q84 47 116.5 106.5z" />
    <glyph glyph-name="uni018E" unicode="&#x18e;" horiz-adv-x="530" 
d="M119 689h371l-96 -689h-377l10 76h283l33 236h-230l11 76h230l32 225h-277z" />
    <glyph glyph-name="uni018F" unicode="&#x18f;" horiz-adv-x="643" 
d="M545 635q62 -66 62 -195q0 -121 -37.5 -224t-112 -165.5t-180.5 -62.5q-109 0 -168.5 67.5t-59.5 192.5q0 30 5 74.5t11 66.5h442q4 29 4 61q0 91 -37.5 132t-110.5 41q-96 0 -189 -67l-43 62q107 83 239 83q113 0 175 -66zM495 307h-351q-5 -43 -5 -70q0 -173 140 -173
q168 0 216 243z" />
    <glyph glyph-name="uni0190" unicode="&#x190;" horiz-adv-x="517" 
d="M537 614l-56 -53q-65 62 -146 62q-66 0 -101 -35.5t-35 -88.5q0 -47 30 -71.5t84 -24.5h67l-23 -78h-50q-81 0 -127.5 -37.5t-46.5 -110.5q0 -53 33 -81t95 -28q95 0 169 69l51 -58q-47 -46 -105.5 -68.5t-122.5 -22.5q-65 0 -115 23.5t-77.5 66.5t-27.5 98
q0 80 51 132.5t132 61.5q-52 12 -83 46.5t-31 87.5q0 57 30 102t83 70t118 25q120 0 204 -87z" />
    <glyph glyph-name="uni0191" unicode="&#x191;" horiz-adv-x="485" 
d="M242 613l-33 -235h223l-10 -75h-223l-43 -303l-8 -60q-11 -77 -55 -115t-113 -38q-63 0 -111 40l41 58q18 -12 32 -17t36 -5q64 0 76 77l8 60l97 689h362l-21 -76h-258z" />
    <glyph glyph-name="florin" unicode="&#x192;" horiz-adv-x="329" 
d="M267 656.5q-22 -19.5 -27 -59.5l-10 -70h127l-20 -71h-117l-60 -427q-10 -73 -33.5 -116.5t-61 -70.5t-102.5 -55l-26 69q42 19 66.5 37t41 50t24.5 86l60 427h-93l10 71h93l11 75q9 68 56 108t123 40q36 0 64 -9t60 -29l-35 -61q-37 25 -86 25q-43 0 -65 -19.5z" />
    <glyph glyph-name="uni0193" unicode="&#x193;" horiz-adv-x="589" 
d="M801 792l-41 -56q-18 12 -32 17t-36 5q-32 0 -52 -19t-25 -58l-8 -59l-51 -44q-71 45 -150 45q-84 0 -139.5 -56.5t-81.5 -143t-26 -176.5q0 -94 39 -137.5t117 -43.5q72 0 131 34l30 205h-120v77h224l-45 -328q-52 -33 -108 -49.5t-125 -16.5q-113 0 -177.5 69.5
t-64.5 201.5q0 106 37.5 207.5t115.5 168t192 66.5q71 0 117 -27v5q10 74 54 113.5t114 39.5q63 0 111 -40z" />
    <glyph glyph-name="uni0194" unicode="&#x194;" horiz-adv-x="550" 
d="M304 68q20 -49 29 -85t9 -72q0 -59 -35 -91.5t-96 -32.5q-52 0 -80 26t-28 68q0 37 20.5 78.5t68.5 109.5l-127 620h98l92 -554l251 554h98zM239 9q-24 -40 -37 -69.5t-13 -51.5q0 -28 26 -28q20 0 30.5 13.5t10.5 35.5q0 39 -17 100z" />
    <glyph glyph-name="uni0195" unicode="&#x195;" horiz-adv-x="875" 
d="M426 30.5q-41 42.5 -41 108.5q0 10 2 30l28 199q2 22 2 30q0 35 -14.5 49.5t-40.5 14.5q-48 0 -91.5 -41t-79.5 -105l-43 -316h-91l104 738l92 10l-46 -320q74 111 174 111q60 0 94 -35t34 -97q0 -22 -2 -34l-29 -205q-2 -18 -2 -26q0 -80 75 -80q101 0 137.5 102
t36.5 249q0 65 -5 114h88q8 -70 8 -130q0 -180 -63.5 -294.5t-206.5 -114.5q-79 0 -120 42.5z" />
    <glyph glyph-name="uni0196" unicode="&#x196;" horiz-adv-x="354" 
d="M320 24q-51 -36 -116 -36q-63 0 -98.5 32t-35.5 93q0 21 2 33l8 55l70 488h94l-70 -488l-9 -66q-2 -16 -2 -21q0 -50 49 -50q23 0 39.5 5.5t37.5 17.5z" />
    <glyph glyph-name="uni0197" unicode="&#x197;" horiz-adv-x="313" 
d="M316 396l-11 -74h-92l-45 -322h-94l45 322h-95l11 74h95l41 293h94l-41 -293h92z" />
    <glyph glyph-name="uni0198" unicode="&#x198;" horiz-adv-x="622" 
d="M213 368l211 244q43 50 75 69.5t77 19.5q33 0 56 -11t45 -33l-48 -51q-16 10 -26.5 14t-24.5 4q-22 0 -39 -12t-49 -48l-171 -196l227 -368h-114zM62 0l97 689h95l-97 -689h-95z" />
    <glyph glyph-name="uni0199" unicode="&#x199;" horiz-adv-x="545" 
d="M476 307q-41 -48 -122 -74l119 -233h-102l-126 257q93 26 134 61.5t41 90.5q0 28 -15 42.5t-42 14.5q-45 0 -92 -38.5t-79 -111.5l-44 -316h-91l74 526l11 76q9 68 56.5 108t123.5 40q36 0 63.5 -6.5t59.5 -21.5l-34 -65q-41 19 -86 19q-44 0 -65.5 -19.5t-26.5 -59.5
l-10 -71l-13 -91q36 52 82 78t97 26q56 0 92 -33.5t36 -86.5q0 -64 -41 -112z" />
    <glyph glyph-name="uni019A" unicode="&#x19a;" horiz-adv-x="312" 
d="M178 103q-1 -5 -1 -13q0 -14 6 -20t19 -6q15 0 36 7l19 -66q-38 -17 -73 -17q-46 0 -71.5 25t-25.5 74q0 9 2 31l31 219h-95l11 70h94l47 332l92 11l-48 -343h96l-11 -70h-95z" />
    <glyph glyph-name="uni019B" unicode="&#x19b;" horiz-adv-x="489" 
d="M396 174q23 -87 69 -154l-86 -31q-31 52 -51 104t-33.5 130t-19.5 198l-205 -433l-86 22l247 496l38 -7q-5 68 -18 103l-76 -65l-58 32l94 87q-27 20 -80 32l18 64q75 -15 116 -48l77 72l48 -47l-79 -74l-3 -2q20 -35 31.5 -87.5t18.5 -131.5q15 -173 38 -260z" />
    <glyph glyph-name="uni019C" unicode="&#x19c;" horiz-adv-x="923" 
d="M884 689l-97 -689h-81l3 74q-39 -44 -80.5 -65t-87.5 -21q-53 0 -87.5 26.5t-48.5 72.5q-45 -51 -90.5 -75t-94.5 -24q-69 0 -106.5 44.5t-37.5 117.5q0 20 3 42l70 497h94l-71 -501q-3 -19 -3 -36q0 -42 18 -64t53 -22q44 0 78 22t78 74l3 30l70 497h95l-71 -501
q-3 -19 -3 -36q0 -42 18 -64t53 -22q43 0 77.5 21.5t77.5 73.5l74 528h94z" />
    <glyph glyph-name="uni019D" unicode="&#x19d;" horiz-adv-x="677" 
d="M638 689l-97 -689h-123l-197 607q-1 -119 -26 -294l-44 -313l-8 -60q-11 -76 -54.5 -114.5t-108.5 -38.5q-63 0 -111 40l41 56q18 -12 32 -17t36 -5q32 0 51.5 19.5t24.5 59.5l8 60l97 689h124l198 -608q0 68 3.5 119.5t11.5 115.5l53 373h89z" />
    <glyph glyph-name="uni019E" unicode="&#x19e;" horiz-adv-x="580" 
d="M475.5 503.5q33.5 -35.5 33.5 -97.5q0 -16 -3 -36l-81 -575l-93 -11l83 584q2 11 2 30q0 35 -15 49.5t-43 14.5q-46 0 -89 -41t-79 -105l-43 -316h-91l74 527h78l-8 -103q39 55 84 85t99 30q58 0 91.5 -35.5z" />
    <glyph glyph-name="uni019F" unicode="&#x19f;" horiz-adv-x="686" 
d="M582 628q66 -73 66 -207q0 -101 -34.5 -200.5t-110.5 -166t-195 -66.5q-114 0 -180.5 72t-66.5 205q0 99 34.5 199t111 168.5t195.5 68.5q114 0 180 -73zM246.5 555.5q-55.5 -67.5 -77.5 -169.5h383q1 15 1 42q0 101 -39.5 148t-115.5 47q-96 0 -151.5 -67.5zM467 137.5
q56 71.5 76 178.5h-385q-2 -38 -2 -54q0 -196 155 -196q100 0 156 71.5z" />
    <glyph glyph-name="Ohorn" unicode="&#x1a0;" horiz-adv-x="692" 
d="M687.5 630.5q-26.5 -32.5 -76.5 -43.5q37 -66 37 -166q0 -101 -34.5 -200.5t-110.5 -166t-195 -66.5q-114 0 -180.5 72t-66.5 205q0 99 34.5 199t111 168.5t195.5 68.5q106 0 170 -62q67 6 67 78q0 17 -6 43l72 11q9 -25 9 -56q0 -52 -26.5 -84.5zM452.5 123.5
q53.5 57.5 75.5 140t22 164.5q0 195 -152 195q-87 0 -140.5 -57t-76 -139.5t-22.5 -164.5q0 -196 152 -196q88 0 141.5 57.5z" />
    <glyph glyph-name="ohorn" unicode="&#x1a1;" horiz-adv-x="589" 
d="M593.5 461q-28.5 -33 -83.5 -41q16 -42 16 -99q0 -73 -27 -149.5t-88 -130t-157 -53.5q-97 0 -149.5 58t-52.5 160q0 74 27.5 150.5t88.5 129.5t157 53q103 0 156 -66q66 6 66 78q0 28 -6 47l72 11q9 -25 9 -60q0 -55 -28.5 -88zM359 105.5q39 43.5 55 105t16 120.5
q0 134 -108 134q-63 0 -102 -43.5t-55.5 -105t-16.5 -120.5q0 -134 109 -134q63 0 102 43.5z" />
    <glyph glyph-name="uni01A2" unicode="&#x1a2;" horiz-adv-x="917" 
d="M823 669q36 -34 36 -96q0 -21 -2 -33l-104 -742h-94l105 745q2 20 2 27q0 30 -14 44.5t-46 14.5q-53 0 -103 -29q45 -70 45 -179q0 -101 -34.5 -200.5t-110.5 -166t-195 -66.5q-114 0 -180.5 72t-66.5 205q0 99 34.5 199t111 168.5t195.5 68.5q94 0 156 -50q77 52 157 52
q72 0 108 -34zM452.5 123.5q53.5 57.5 75.5 140t22 164.5q0 195 -152 195q-87 0 -140.5 -57t-76 -139.5t-22.5 -164.5q0 -196 152 -196q88 0 141.5 57.5z" />
    <glyph glyph-name="uni01A3" unicode="&#x1a3;" horiz-adv-x="780" 
d="M673.5 504q34.5 -35 34.5 -96q0 -10 -2 -32l-81 -581l-93 -11l84 601q2 16 2 23q0 57 -58 57q-36 0 -66 -13q32 -53 32 -131q0 -73 -27 -149.5t-88 -130t-157 -53.5q-97 0 -149.5 58t-52.5 160q0 74 27.5 150.5t88.5 129.5t157 53q71 0 119 -34q66 34 127 34
q68 0 102.5 -35zM359 105.5q39 43.5 55 105t16 120.5q0 134 -108 134q-63 0 -102 -43.5t-55.5 -105t-16.5 -120.5q0 -134 109 -134q63 0 102 43.5z" />
    <glyph glyph-name="uni01A4" unicode="&#x1a4;" horiz-adv-x="656" 
d="M594.5 643.5q62.5 -45.5 62.5 -136.5q0 -69 -29.5 -126t-96 -92.5t-170.5 -35.5h-89l-35 -253h-94l86 614h-26q-64 0 -64 -71q0 -21 10 -51l-71 -31q-26 46 -26 89q0 63 43 101t120 38h202q115 0 177.5 -45.5zM513.5 378.5q43.5 50.5 43.5 128.5q0 58 -37.5 83t-109.5 25
h-87l-40 -287h80q107 0 150.5 50.5z" />
    <glyph glyph-name="uni01A5" unicode="&#x1a5;" horiz-adv-x="580" 
d="M487 485q42 -54 42 -153q0 -81 -29 -160t-92 -131.5t-159 -52.5q-49 0 -100 17l-28 -209l-93 -12l104 742h-1l11 76q9 68 56.5 108t123.5 40q36 0 63.5 -6.5t59.5 -21.5l-34 -65q-41 19 -86 19q-44 0 -65.5 -19.5t-26.5 -59.5l-10 -71h1l-7 -57q34 38 71 54t81 16
q76 0 118 -54zM355.5 103.5q40.5 42.5 59.5 106.5t19 129q0 127 -94 127q-38 0 -70 -20.5t-65 -57.5l-44 -311q25 -9 45 -12.5t48 -3.5q61 0 101.5 42.5z" />
    <glyph glyph-name="uni01A6" unicode="&#x1a6;" horiz-adv-x="599" 
d="M513.5 268.5q-41.5 -58.5 -132.5 -84.5l139 -306h-104l-127 292h-109l-24 -170h-94l97 689h94l-17 -122h83q236 0 236 -169q0 -71 -41.5 -129.5zM190 243h101q88 0 126.5 45.5t38.5 109.5q0 52 -33.5 73.5t-108.5 21.5h-89z" />
    <glyph glyph-name="uni01A7" unicode="&#x1a7;" horiz-adv-x="531" 
d="M471 659.5q52 -41.5 52 -113.5q0 -87 -55.5 -136.5t-171.5 -84.5q-68 -21 -105.5 -42.5t-53 -49.5t-15.5 -71q0 -47 34 -71.5t87 -24.5q97 0 191 70l46 -61q-101 -87 -243 -87q-65 0 -113 22t-73.5 61.5t-25.5 89.5q0 91 56 147t173 90q62 18 98 35.5t55 43.5t19 66
q0 80 -100 80q-46 0 -86.5 -15t-84.5 -46l-46 61q52 40 105 59t118 19q87 0 139 -41.5z" />
    <glyph glyph-name="uni01A8" unicode="&#x1a8;" horiz-adv-x="461" 
d="M383.5 502.5q45.5 -36.5 45.5 -93.5q0 -54 -36.5 -97.5t-135.5 -70.5q-64 -17 -95 -34t-39.5 -33.5t-8.5 -40.5q0 -30 23.5 -49.5t67.5 -19.5q43 0 84 14.5t75 40.5l46 -64q-40 -31 -95 -49t-115 -18q-78 0 -131.5 39t-53.5 106q0 60 44.5 103.5t152.5 73.5
q73 19 96.5 43.5t23.5 55.5q0 27 -21 42t-56 15q-37 0 -70 -12t-69 -37l-41 61q85 61 186 61q77 0 122.5 -36.5z" />
    <glyph glyph-name="uni01A9" unicode="&#x1a9;" horiz-adv-x="500" 
d="M520 689l-11 -78h-314l164 -245l-6 -62l-231 -226h312l-11 -78h-419l10 78l258 262l-181 271l10 78h419z" />
    <glyph glyph-name="uni01AA" unicode="&#x1aa;" horiz-adv-x="309" 
d="M325 -177q-53 -36 -118 -36q-63 0 -99 33t-36 94q0 21 2 32l8 54l68 488q-26 -12 -55 -12q-46 0 -79 32t-33 83q0 48 21 84t56 55.5t75 19.5q59 0 91.5 -31t32.5 -91q0 -16 -3 -36l-83 -592l-9 -68q-1 -7 -1 -19q0 -52 51 -52q23 0 40 5.5t39 16.5zM160 556l8 58
q2 16 2 22q0 42 -35 42q-29 0 -45.5 -24t-15.5 -62q-1 -44 41 -44q19 0 45 8z" />
    <glyph glyph-name="uni01AB" unicode="&#x1ab;" horiz-adv-x="355" 
d="M173 139q-2 -10 -2 -27q0 -25 11.5 -36t37.5 -11q35 0 77 17l27 -59l-12 -83q-11 -76 -55.5 -114.5t-112.5 -38.5q-63 0 -111 40l41 56q17 -12 33 -17t40 -5q33 0 54 19t26 58l8 54q-15 -4 -34 -4q-58 0 -89.5 31t-31.5 89q0 21 2 33l44 315h-91l10 71h95l33 122l72 8
l-18 -130h124l-20 -71h-114z" />
    <glyph glyph-name="uni01AC" unicode="&#x1ac;" horiz-adv-x="549" 
d="M578 608h-190l-85 -608h-94l85 608h-91q-32 0 -48 -17t-16 -48q0 -21 10 -51l-71 -31q-26 46 -26 89q0 63 42 101t116 38h390z" />
    <glyph glyph-name="uni01AD" unicode="&#x1ad;" horiz-adv-x="355" 
d="M263 656.5q-20 -19.5 -26 -57.5l-10 -72h124l-20 -71h-114l-44 -317q-2 -20 -2 -26q0 -26 11.5 -37t37.5 -11q32 0 74 24l30 -66q-55 -35 -119 -35q-60 0 -92.5 31t-32.5 89q0 21 2 33l44 315h-91l10 71h91l10 70q10 76 53 114.5t110 38.5q61 0 109 -40l-41 -56
q-16 11 -30.5 16.5t-34.5 5.5q-29 0 -49 -19.5z" />
    <glyph glyph-name="uni01AE" unicode="&#x1ae;" horiz-adv-x="511" 
d="M256 -66q-2 -16 -2 -21q0 -50 49 -50q23 0 39.5 5.5t37.5 17.5l31 -63q-51 -36 -116 -36q-63 0 -98.5 32t-35.5 93q0 21 2 33l8 55l85 608h-194l12 81h488l-22 -81h-190l-85 -608z" />
    <glyph glyph-name="Uhorn" unicode="&#x1af;" horiz-adv-x="666" 
d="M713 620.5q-35 -33.5 -101 -37.5l-51 -365q-15 -105 -86 -167.5t-183 -62.5q-102 0 -157 52.5t-55 141.5q0 21 3 42l66 465h94l-65 -464q-3 -22 -3 -42q0 -58 29.5 -86.5t91.5 -28.5q149 0 172 163l65 458h94l-7 -48q53 11 53 76q0 17 -6 43l72 11q9 -25 9 -56
q0 -61 -35 -94.5z" />
    <glyph glyph-name="uhorn" unicode="&#x1b0;" horiz-adv-x="606" 
d="M604.5 455q-34.5 -33 -100.5 -38l-59 -417h-78l7 97q-39 -54 -80.5 -81.5t-93.5 -27.5q-61 0 -95.5 34.5t-34.5 95.5q0 17 3 35l53 374h91l-52 -370q-3 -18 -3 -33q0 -34 14.5 -49t43.5 -15q45 0 83.5 34t76.5 90l48 343h91l-7 -52q52 12 52 76q0 28 -6 47l72 11
q9 -25 9 -60q0 -61 -34.5 -94z" />
    <glyph glyph-name="uni01B1" unicode="&#x1b1;" horiz-adv-x="685" 
d="M125 59q-67 71 -67 192q0 116 44 205t135 157h-111l10 76h201l-10 -80q-170 -124 -170 -361q0 -89 40 -135.5t115 -46.5t127.5 44.5t79 118.5t26.5 163q0 76 -21 127.5t-63 93.5l9 76h199l-10 -80h-107q42 -36 67 -88.5t25 -131.5q0 -110 -42 -202t-118 -145.5
t-175 -53.5q-117 0 -184 71z" />
    <glyph glyph-name="uni01B2" unicode="&#x1b2;" horiz-adv-x="641" 
d="M584 673.5q28 -27.5 28 -77.5q0 -7 -2 -27l-38 -271q-14 -96 -55 -166t-103.5 -107t-139.5 -37q-92 0 -143.5 52t-51.5 136q0 19 3 38l67 475h94l-67 -476q-3 -19 -3 -36q0 -53 27 -81t78 -28q81 0 132.5 61.5t68.5 181.5l37 269q1 5 1 13q0 16 -7 23.5t-21 7.5
q-16 0 -39 -7l-19 67q34 17 75 17q50 0 78 -27.5z" />
    <glyph glyph-name="uni01B3" unicode="&#x1b3;" horiz-adv-x="582" 
d="M225 264l-160 425h100l118 -341l148 250q35 59 67 81t83 22q63 0 106 -43l-41 -52q-30 21 -60 21q-23 0 -39 -13t-37 -46l-190 -303l-38 -265h-95z" />
    <glyph glyph-name="uni01B4" unicode="&#x1b4;" horiz-adv-x="489" 
d="M-9 -141q53 9 87.5 26t57.5 44t46 71h-34l-101 527h96l74 -458l159 400q23 57 51.5 81t75.5 24q37 0 68 -19l-28 -61q-15 6 -31 6q-20 0 -31 -10.5t-22 -36.5l-188 -449q-41 -99 -105.5 -152t-170.5 -65z" />
    <glyph glyph-name="uni01B5" unicode="&#x1b5;" horiz-adv-x="516" 
d="M532 689l-10 -77l-177 -228h94l-13 -74h-138l-179 -230l337 1l-22 -81h-432l10 76l183 234h-96l13 74h140l176 225h-304l11 80h407z" />
    <glyph glyph-name="uni01B6" unicode="&#x1b6;" horiz-adv-x="431" 
d="M436 527l-9 -70l-134 -158h79l-11 -71h-129l-128 -151h272l-21 -77h-368l9 69l135 159h-79l11 71h128l127 150h-245l11 78h352z" />
    <glyph glyph-name="uni01B7" unicode="&#x1b7;" horiz-adv-x="514" 
d="M495 612l-237 -215q103 -1 154 -45.5t51 -124.5q0 -72 -35 -126t-97 -83.5t-140 -29.5q-72 0 -121 23t-83 69l59 50q28 -34 61.5 -49t83.5 -15q79 0 126 43t47 117q0 56 -33 79t-105 23h-90l1 1l9 67l234 215h-288l11 78h402z" />
    <glyph glyph-name="uni01B8" unicode="&#x1b8;" horiz-adv-x="515" 
d="M519 611h-297l180 -216l-8 -67l-2 1l1 -1h-84q-84 0 -131.5 -41.5t-47.5 -112.5q0 -52 30.5 -80t90.5 -28q55 0 95 16t80 50l50 -56q-46 -44 -101.5 -66t-129.5 -22q-98 0 -155 50.5t-57 134.5q0 67 33 118t92.5 78.5t136.5 27.5h7l-184 215l10 77h402z" />
    <glyph glyph-name="uni01B9" unicode="&#x1b9;" horiz-adv-x="479" 
d="M473 451h-293l172 -246l-8 -67l-2 1l1 -1h-75q-88 0 -134 -43t-46 -119q0 -57 30.5 -85.5t88.5 -28.5q49 0 88.5 16t80.5 50l48 -53q-46 -45 -100 -66.5t-122 -21.5q-97 0 -154 52t-57 139q0 68 33 119.5t92.5 80t136.5 28.5h10l-180 251l8 70h392z" />
    <glyph glyph-name="uni01BA" unicode="&#x1ba;" horiz-adv-x="467" 
d="M10 -155q-30 33 -30 69q0 57 44.5 84.5t142.5 44.5q59 10 92 20.5t50.5 30t17.5 53.5q0 31 -18 44t-55 13h-152l9 67l215 180h-274l10 76h387l-8 -70l-226 -185h50q74 0 116.5 -32t42.5 -92q0 -76 -56 -117.5t-163 -59.5q-55 -9 -83.5 -17.5t-39 -18t-10.5 -23.5
q0 -18 15 -33.5t46 -33.5l-38 -59q-55 26 -85 59z" />
    <glyph glyph-name="uni01BB" unicode="&#x1bb;" horiz-adv-x="489" 
d="M311 252q-67 -67 -194 -177l297 2l-22 -77h-391l10 75q126 117 188 177h-109l11 74h171q56 61 75.5 100t19.5 82q0 46 -25.5 70.5t-69.5 24.5q-42 0 -76 -18t-72 -57l-58 53q48 50 100.5 74t112.5 24q84 0 133.5 -46.5t49.5 -121.5q0 -45 -18.5 -88t-63.5 -97h86l-11 -74
h-144z" />
    <glyph glyph-name="uni01BC" unicode="&#x1bc;" horiz-adv-x="505" 
d="M0 75l59 50q50 -62 134 -62q62 0 100 31.5t54.5 77.5t16.5 91q0 102 -100 102q-28 0 -51 -5.5t-55 -18.5l-76 1l49 347h367l-22 -72h-268l-29 -209q52 28 114 28q76 0 120.5 -46.5t44.5 -128.5q0 -63 -27 -126t-87 -105t-153 -42q-117 0 -191 87z" />
    <glyph glyph-name="uni01BD" unicode="&#x1bd;" horiz-adv-x="448" 
d="M388 451h-206l-20 -124q21 9 41 14t50 5q64 0 103.5 -40t40.5 -107q0 -62 -29.5 -110t-81.5 -74.5t-117 -26.5q-57 0 -96 18.5t-71 54.5l54 51q28 -25 52 -35t63 -10q54 0 91.5 35t37.5 95q0 37 -20.5 55.5t-54.5 18.5q-25 0 -47 -5t-48 -17l-66 1l39 277h312z" />
    <glyph glyph-name="uni01BE" unicode="&#x1be;" horiz-adv-x="505" 
d="M400.5 372q42.5 -45 42.5 -127q0 -73 -33 -131.5t-91 -91.5t-131 -33q-59 0 -104 22t-83 65l53 48q32 -32 63.5 -46.5t71.5 -14.5q75 0 117 50.5t42 131.5q0 58 -25 87.5t-78 43.5l-70 15l22 154h-77l10 70h77l17 123l91 10l-19 -133h112l-10 -70h-112l-15 -108l26 -6
q61 -14 103.5 -59z" />
    <glyph glyph-name="uni01BF" unicode="&#x1bf;" horiz-adv-x="585" 
d="M499.5 496.5q42.5 -42.5 42.5 -118.5q0 -84 -41.5 -147.5t-108.5 -109.5t-167 -95l-78 -36l-27 -192l-93 -11l104 740h78l-2 -72q39 41 81.5 62.5t96.5 21.5q72 0 114.5 -42.5zM385.5 219.5q58.5 65.5 58.5 158.5q0 45 -20 66t-60 21q-84 0 -163 -84l-44 -315l62 33
q108 55 166.5 120.5z" />
    <glyph glyph-name="uni01C0" unicode="&#x1c0;" horiz-adv-x="283" 
d="M252 749l-105 -749h-85l104 739z" />
    <glyph glyph-name="uni01C1" unicode="&#x1c1;" horiz-adv-x="455" 
d="M252 749l-105 -749h-85l104 739zM424 749l-105 -749h-85l104 739z" />
    <glyph glyph-name="uni01C2" unicode="&#x1c2;" horiz-adv-x="313" 
d="M317 408h-99l-12 -86h99l-9 -63h-99l-36 -259h-85l36 259h-97l9 63h97l12 86h-97l9 63h97l38 268l86 10l-39 -278h99z" />
    <glyph glyph-name="uni01C3" unicode="&#x1c3;" horiz-adv-x="335" 
d="M278 749l-76 -539h-84l74 529zM87.5 6q-17.5 18 -17.5 45q0 32 21.5 54t52.5 22q28 0 45.5 -18t17.5 -45q0 -32 -22 -54t-53 -22q-27 0 -44.5 18z" />
    <glyph glyph-name="uni01C4" unicode="&#x1c4;" horiz-adv-x="1130" 
d="M519 632.5q82 -56.5 82 -204.5q0 -117 -38 -214t-121.5 -155.5t-213.5 -58.5h-166l97 689h141q137 0 219 -56.5zM242 613l-75 -538h75q94 0 153 52t84.5 132t25.5 171q0 76 -26 116t-67.5 53.5t-97.5 13.5h-72zM606 0l10 76l414 533h-302l11 80h407l-10 -77l-411 -532
l335 1l-22 -81h-432zM1095 909l35 -45l-148 -110h-60l-120 110l43 45l113 -81z" />
    <glyph glyph-name="uni01C5" unicode="&#x1c5;" horiz-adv-x="1060" 
d="M519 632.5q82 -56.5 82 -204.5q0 -117 -38 -214t-121.5 -155.5t-213.5 -58.5h-166l97 689h141q137 0 219 -56.5zM242 613l-75 -538h75q94 0 153 52t84.5 132t25.5 171q0 76 -26 116t-67.5 53.5t-97.5 13.5h-72zM1065 527l-9 -70l-318 -380h267l-21 -77h-368l9 69l317 380
h-240l11 78h352zM1044 785l34 -45l-149 -113h-60l-119 113l41 45l113 -84z" />
    <glyph glyph-name="uni01C6" unicode="&#x1c6;" horiz-adv-x="1018" 
d="M560 738l-104 -738h-80l1 87q-29 -47 -69 -73t-90 -26q-80 0 -123.5 56t-43.5 153q0 76 25.5 155t80.5 133t139 54q83 0 135 -66l39 275zM217 422q-37 -44 -53 -107.5t-16 -124.5q0 -65 23 -97t65 -32q46 0 81 30t74 92l31 219q-21 32 -47 48t-62 16q-59 0 -96 -44z
M1023 527l-9 -70l-318 -380h267l-21 -77h-368l9 69l317 380h-240l11 78h352zM1002 785l34 -45l-149 -113h-60l-119 113l41 45l113 -84z" />
    <glyph glyph-name="uni01C7" unicode="&#x1c7;" horiz-adv-x="773" 
d="M253 689l-85 -606h280l-22 -83h-364l97 689h94zM655 93q-14 -102 -64.5 -152t-143.5 -79l-19 71q48 18 74.5 39.5t40 52t19.5 78.5l83 586h94z" />
    <glyph glyph-name="uni01C8" unicode="&#x1c8;" horiz-adv-x="756" 
d="M253 689l-85 -606h280l-22 -83h-364l97 689h94zM406 -145q42 19 66.5 37.5t41 50.5t24.5 86l70 498h91l-70 -498q-10 -73 -33.5 -116.5t-61 -70.5t-102.5 -55zM633 671.5q-16 16.5 -16 40.5q0 29 20 48.5t49 19.5q27 0 43 -16t16 -41q0 -29 -20 -48.5t-49 -19.5
q-27 0 -43 16.5z" />
    <glyph glyph-name="uni01C9" unicode="&#x1c9;" horiz-adv-x="567" 
d="M158 103q-1 -5 -1 -13q0 -14 6 -20t19 -6q15 0 36 7l19 -66q-38 -17 -73 -17q-46 0 -71.5 25t-25.5 74q0 9 2 31l88 621l92 11zM217 -145q42 19 66.5 37.5t41 50.5t24.5 86l70 498h91l-70 -498q-10 -73 -33.5 -116.5t-61 -70.5t-102.5 -55zM444 671.5q-16 16.5 -16 40.5
q0 29 20 48.5t49 19.5q27 0 43 -16t16 -41q0 -29 -20 -48.5t-49 -19.5q-27 0 -43 16.5z" />
    <glyph glyph-name="uni01CA" unicode="&#x1ca;" horiz-adv-x="977" 
d="M541 0h-123l-197 607q-1 -119 -26 -294l-44 -313h-89l97 689h124l198 -608q0 68 3.5 119.5t11.5 115.5l53 373h89zM859 93q-14 -102 -64.5 -152t-143.5 -79l-19 71q48 18 74.5 39.5t40 52t19.5 78.5l83 586h94z" />
    <glyph glyph-name="uni01CB" unicode="&#x1cb;" horiz-adv-x="956" 
d="M541 0h-123l-197 607q-1 -119 -26 -294l-44 -313h-89l97 689h124l198 -608q0 68 3.5 119.5t11.5 115.5l53 373h89zM606 -145q42 19 66.5 37.5t41 50.5t24.5 86l70 498h91l-70 -498q-10 -73 -33.5 -116.5t-61 -70.5t-102.5 -55zM833 671.5q-16 16.5 -16 40.5q0 29 20 48.5
t49 19.5q27 0 43 -16t16 -41q0 -29 -20 -48.5t-49 -19.5q-27 0 -43 16.5z" />
    <glyph glyph-name="uni01CC" unicode="&#x1cc;" horiz-adv-x="859" 
d="M475.5 503.5q33.5 -35.5 33.5 -97.5q0 -16 -3 -36l-52 -370h-91l52 368q2 22 2 29q0 35 -15 50t-43 15q-46 0 -88.5 -41t-78.5 -105l-44 -316h-91l74 527h78l-8 -103q39 55 84 85t99 30q58 0 91.5 -35.5zM509 -145q42 19 66.5 37.5t41 50.5t24.5 86l70 498h91l-70 -498
q-10 -73 -33.5 -116.5t-61 -70.5t-102.5 -55zM736 671.5q-16 16.5 -16 40.5q0 29 20 48.5t49 19.5q27 0 43 -16t16 -41q0 -29 -20 -48.5t-49 -19.5q-27 0 -43 16.5z" />
    <glyph glyph-name="uni01CD" unicode="&#x1cd;" horiz-adv-x="567" 
d="M427 0l-27 173h-259l-76 -173h-97l316 689h119l121 -689h-97zM174 250h214l-56 360zM496 909l35 -45l-148 -110h-60l-120 110l43 45l113 -81z" />
    <glyph glyph-name="uni01CE" unicode="&#x1ce;" horiz-adv-x="569" 
d="M424.5 528q44.5 -11 91.5 -34l-54 -374q-2 -16 -2 -22q0 -18 7.5 -29t26.5 -18l-26 -63q-42 5 -65 26t-28 62q-32 -41 -72 -64.5t-85 -23.5q-80 0 -124 55t-44 147q0 80 29.5 160t92.5 134.5t159 54.5q49 0 93.5 -11zM228.5 423.5q-41.5 -42.5 -61 -106t-19.5 -128.5
t23 -96.5t66 -31.5q41 0 73.5 25t67.5 72l41 291q-21 9 -40.5 13t-45.5 4q-63 0 -104.5 -42.5zM493 785l34 -45l-149 -113h-60l-119 113l41 45l113 -84z" />
    <glyph glyph-name="uni01CF" unicode="&#x1cf;" horiz-adv-x="292" 
d="M253 689l-97 -689h-94l97 689h94zM358 909l35 -45l-148 -110h-60l-120 110l43 45l113 -81z" />
    <glyph glyph-name="uni01D0" unicode="&#x1d0;" horiz-adv-x="279" 
d="M222 527l-74 -527h-91l74 527h91zM331 785l34 -45l-149 -113h-60l-119 113l41 45l113 -84z" />
    <glyph glyph-name="uni01D1" unicode="&#x1d1;" horiz-adv-x="686" 
d="M582 628q66 -73 66 -207q0 -101 -34.5 -200.5t-110.5 -166t-195 -66.5q-114 0 -180.5 72t-66.5 205q0 99 34.5 199t111 168.5t195.5 68.5q114 0 180 -73zM257.5 566q-53.5 -57 -76 -139.5t-22.5 -164.5q0 -196 152 -196q88 0 141.5 57.5t75.5 140t22 164.5
q0 195 -152 195q-87 0 -140.5 -57zM559 909l35 -45l-148 -110h-60l-120 110l43 45l113 -81z" />
    <glyph glyph-name="uni01D2" unicode="&#x1d2;" horiz-adv-x="578" 
d="M104.5 46q-52.5 58 -52.5 160q0 74 27.5 150.5t88.5 129.5t157 53q97 0 149 -58t52 -160q0 -73 -27 -149.5t-88 -130t-157 -53.5q-97 0 -149.5 58zM359 105.5q39 43.5 55 105t16 120.5q0 134 -108 134q-63 0 -102 -43.5t-55.5 -105t-16.5 -120.5q0 -134 109 -134
q63 0 102 43.5zM481 785l34 -45l-149 -113h-60l-119 113l41 45l113 -84z" />
    <glyph glyph-name="uni01D3" unicode="&#x1d3;" horiz-adv-x="656" 
d="M561 218q-15 -105 -86 -167.5t-183 -62.5q-102 0 -157 52.5t-55 141.5q0 21 3 42l66 465h94l-65 -464q-3 -22 -3 -42q0 -58 29.5 -86.5t91.5 -28.5q149 0 172 163l65 458h94zM540 909l35 -45l-148 -110h-60l-120 110l43 45l113 -81z" />
    <glyph glyph-name="uni01D4" unicode="&#x1d4;" horiz-adv-x="576" 
d="M104.5 22.5q-34.5 34.5 -34.5 95.5q0 17 3 35l53 374h91l-52 -370q-3 -18 -3 -33q0 -34 14.5 -49t43.5 -15q45 0 83.5 34t76.5 90l48 343h91l-74 -527h-78l7 97q-39 -54 -80.5 -81.5t-93.5 -27.5q-61 0 -95.5 34.5zM478 785l34 -45l-149 -113h-60l-119 113l41 45l113 -84
z" />
    <glyph glyph-name="uni01D5" unicode="&#x1d5;" horiz-adv-x="656" 
d="M561 218q-15 -105 -86 -167.5t-183 -62.5q-102 0 -157 52.5t-55 141.5q0 21 3 42l66 465h94l-65 -464q-3 -22 -3 -42q0 -58 29.5 -86.5t91.5 -28.5q149 0 172 163l65 458h94zM250 760.5q-15 14.5 -15 36.5q0 27 18 44.5t45 17.5q23 0 38 -14.5t15 -36.5q0 -27 -18 -44.5
t-45 -17.5q-23 0 -38 14.5zM458 760.5q-15 14.5 -15 36.5q0 27 18 44.5t45 17.5q23 0 38 -14.5t15 -36.5q0 -27 -18 -44.5t-45 -17.5q-23 0 -38 14.5zM544 903h-271l9 69h271z" />
    <glyph glyph-name="uni01D6" unicode="&#x1d6;" horiz-adv-x="576" 
d="M104.5 22.5q-34.5 34.5 -34.5 95.5q0 17 3 35l53 374h91l-52 -370q-3 -18 -3 -33q0 -34 14.5 -49t43.5 -15q45 0 83.5 34t76.5 90l48 343h91l-74 -527h-78l7 97q-39 -54 -80.5 -81.5t-93.5 -27.5q-61 0 -95.5 34.5zM197 638.5q-15 14.5 -15 36.5q0 27 18 44.5t45 17.5
q23 0 38 -14.5t15 -36.5q0 -27 -18 -44.5t-45 -17.5q-23 0 -38 14.5zM405 638.5q-15 14.5 -15 36.5q0 27 18 44.5t45 17.5q23 0 38 -14.5t15 -36.5q0 -27 -18 -44.5t-45 -17.5q-23 0 -38 14.5zM489 791h-271l9 69h271z" />
    <glyph glyph-name="uni01D7" unicode="&#x1d7;" horiz-adv-x="656" 
d="M561 218q-15 -105 -86 -167.5t-183 -62.5q-102 0 -157 52.5t-55 141.5q0 21 3 42l66 465h94l-65 -464q-3 -22 -3 -42q0 -58 29.5 -86.5t91.5 -28.5q149 0 172 163l65 458h94zM503 1015l51 -54l-150 -126l-36 35zM254 761.5q-15 14.5 -15 36.5q0 27 18 44.5t45 17.5
q23 0 38 -14.5t15 -36.5q0 -27 -18 -44.5t-45 -17.5q-23 0 -38 14.5zM462 761.5q-15 14.5 -15 36.5q0 27 18 44.5t45 17.5q23 0 38 -14.5t15 -36.5q0 -27 -18 -44.5t-45 -17.5q-23 0 -38 14.5z" />
    <glyph glyph-name="uni01D8" unicode="&#x1d8;" horiz-adv-x="576" 
d="M104.5 22.5q-34.5 34.5 -34.5 95.5q0 17 3 35l53 374h91l-52 -370q-3 -18 -3 -33q0 -34 14.5 -49t43.5 -15q45 0 83.5 34t76.5 90l48 343h91l-74 -527h-78l7 97q-39 -54 -80.5 -81.5t-93.5 -27.5q-61 0 -95.5 34.5zM439 893l51 -54l-150 -126l-36 35zM193 639.5
q-15 14.5 -15 36.5q0 27 18 44.5t45 17.5q23 0 38 -14.5t15 -36.5q0 -27 -18 -44.5t-45 -17.5q-23 0 -38 14.5zM401 639.5q-15 14.5 -15 36.5q0 27 18 44.5t45 17.5q23 0 38 -14.5t15 -36.5q0 -27 -18 -44.5t-45 -17.5q-23 0 -38 14.5z" />
    <glyph glyph-name="uni01D9" unicode="&#x1d9;" horiz-adv-x="656" 
d="M561 218q-15 -105 -86 -167.5t-183 -62.5q-102 0 -157 52.5t-55 141.5q0 21 3 42l66 465h94l-65 -464q-3 -22 -3 -42q0 -58 29.5 -86.5t91.5 -28.5q149 0 172 163l65 458h94zM547 1021l35 -45l-148 -110h-60l-120 110l43 45l113 -81zM254 761.5q-15 14.5 -15 36.5
q0 27 18 44.5t45 17.5q23 0 38 -14.5t15 -36.5q0 -27 -18 -44.5t-45 -17.5q-23 0 -38 14.5zM462 761.5q-15 14.5 -15 36.5q0 27 18 44.5t45 17.5q23 0 38 -14.5t15 -36.5q0 -27 -18 -44.5t-45 -17.5q-23 0 -38 14.5z" />
    <glyph glyph-name="uni01DA" unicode="&#x1da;" horiz-adv-x="576" 
d="M104.5 22.5q-34.5 34.5 -34.5 95.5q0 17 3 35l53 374h91l-52 -370q-3 -18 -3 -33q0 -34 14.5 -49t43.5 -15q45 0 83.5 34t76.5 90l48 343h91l-74 -527h-78l7 97q-39 -54 -80.5 -81.5t-93.5 -27.5q-61 0 -95.5 34.5zM482 899l35 -45l-148 -110h-60l-120 110l43 45l113 -81
zM190 639.5q-15 14.5 -15 36.5q0 27 18 44.5t45 17.5q23 0 38 -14.5t15 -36.5q0 -27 -18 -44.5t-45 -17.5q-23 0 -38 14.5zM398 639.5q-15 14.5 -15 36.5q0 27 18 44.5t45 17.5q23 0 38 -14.5t15 -36.5q0 -27 -18 -44.5t-45 -17.5q-23 0 -38 14.5z" />
    <glyph glyph-name="uni01DB" unicode="&#x1db;" horiz-adv-x="656" 
d="M561 218q-15 -105 -86 -167.5t-183 -62.5q-102 0 -157 52.5t-55 141.5q0 21 3 42l66 465h94l-65 -464q-3 -22 -3 -42q0 -58 29.5 -86.5t91.5 -28.5q149 0 172 163l65 458h94zM345 1013l97 -147l-38 -31l-118 127zM254 761.5q-15 14.5 -15 36.5q0 27 18 44.5t45 17.5
q23 0 38 -14.5t15 -36.5q0 -27 -18 -44.5t-45 -17.5q-23 0 -38 14.5zM462 761.5q-15 14.5 -15 36.5q0 27 18 44.5t45 17.5q23 0 38 -14.5t15 -36.5q0 -27 -18 -44.5t-45 -17.5q-23 0 -38 14.5z" />
    <glyph glyph-name="uni01DC" unicode="&#x1dc;" horiz-adv-x="576" 
d="M104.5 22.5q-34.5 34.5 -34.5 95.5q0 17 3 35l53 374h91l-52 -370q-3 -18 -3 -33q0 -34 14.5 -49t43.5 -15q45 0 83.5 34t76.5 90l48 343h91l-74 -527h-78l7 97q-39 -54 -80.5 -81.5t-93.5 -27.5q-61 0 -95.5 34.5zM285 891l97 -147l-38 -31l-118 127zM198 639.5
q-15 14.5 -15 36.5q0 27 18 44.5t45 17.5q23 0 38 -14.5t15 -36.5q0 -27 -18 -44.5t-45 -17.5q-23 0 -38 14.5zM406 639.5q-15 14.5 -15 36.5q0 27 18 44.5t45 17.5q23 0 38 -14.5t15 -36.5q0 -27 -18 -44.5t-45 -17.5q-23 0 -38 14.5z" />
    <glyph glyph-name="uni01DD" unicode="&#x1dd;" horiz-adv-x="517" 
d="M412.5 482.5q52.5 -56.5 52.5 -157.5q0 -79 -27.5 -156.5t-88.5 -129t-155 -51.5q-80 0 -123.5 39t-43.5 95q0 102 90 146.5t252 62.5q-3 131 -114 131q-37 0 -71 -12t-70 -37l-39 62q89 64 189 64q96 0 148.5 -56.5zM312 119q41 58 52 142q-124 -14 -182.5 -43
t-58.5 -93q0 -24 17 -44t55 -20q76 0 117 58z" />
    <glyph glyph-name="uni01DE" unicode="&#x1de;" horiz-adv-x="567" 
d="M427 0l-27 173h-259l-76 -173h-97l316 689h119l121 -689h-97zM174 250h214l-56 360zM206 760.5q-15 14.5 -15 36.5q0 27 18 44.5t45 17.5q23 0 38 -14.5t15 -36.5q0 -27 -18 -44.5t-45 -17.5q-23 0 -38 14.5zM414 760.5q-15 14.5 -15 36.5q0 27 18 44.5t45 17.5
q23 0 38 -14.5t15 -36.5q0 -27 -18 -44.5t-45 -17.5q-23 0 -38 14.5zM500 903h-271l9 69h271z" />
    <glyph glyph-name="uni01DF" unicode="&#x1df;" horiz-adv-x="569" 
d="M424.5 528q44.5 -11 91.5 -34l-54 -374q-2 -16 -2 -22q0 -18 7.5 -29t26.5 -18l-26 -63q-42 5 -65 26t-28 62q-32 -41 -72 -64.5t-85 -23.5q-80 0 -124 55t-44 147q0 80 29.5 160t92.5 134.5t159 54.5q49 0 93.5 -11zM228.5 423.5q-41.5 -42.5 -61 -106t-19.5 -128.5
t23 -96.5t66 -31.5q41 0 73.5 25t67.5 72l41 291q-21 9 -40.5 13t-45.5 4q-63 0 -104.5 -42.5zM212 638.5q-15 14.5 -15 36.5q0 27 18 44.5t45 17.5q23 0 38 -14.5t15 -36.5q0 -27 -18 -44.5t-45 -17.5q-23 0 -38 14.5zM420 638.5q-15 14.5 -15 36.5q0 27 18 44.5t45 17.5
q23 0 38 -14.5t15 -36.5q0 -27 -18 -44.5t-45 -17.5q-23 0 -38 14.5zM504 791h-271l9 69h271z" />
    <glyph glyph-name="uni01E0" unicode="&#x1e0;" horiz-adv-x="567" 
d="M427 0l-27 173h-259l-76 -173h-97l316 689h119l121 -689h-97zM174 250h214l-56 360zM308 757.5q-16 16.5 -16 40.5q0 29 20 48.5t49 19.5q27 0 43 -16t16 -41q0 -29 -20 -48.5t-49 -19.5q-27 0 -43 16.5zM502 904h-271l9 69h271z" />
    <glyph glyph-name="uni01E1" unicode="&#x1e1;" horiz-adv-x="569" 
d="M424.5 528q44.5 -11 91.5 -34l-54 -374q-2 -16 -2 -22q0 -18 7.5 -29t26.5 -18l-26 -63q-42 5 -65 26t-28 62q-32 -41 -72 -64.5t-85 -23.5q-80 0 -124 55t-44 147q0 80 29.5 160t92.5 134.5t159 54.5q49 0 93.5 -11zM228.5 423.5q-41.5 -42.5 -61 -106t-19.5 -128.5
t23 -96.5t66 -31.5q41 0 73.5 25t67.5 72l41 291q-21 9 -40.5 13t-45.5 4q-63 0 -104.5 -42.5zM308 621.5q-16 16.5 -16 40.5q0 29 20 48.5t49 19.5q27 0 43 -16t16 -41q0 -29 -20 -48.5t-49 -19.5q-27 0 -43 16.5zM507 768h-271l9 69h271z" />
    <glyph glyph-name="uni01E2" unicode="&#x1e2;" horiz-adv-x="808" 
d="M753 613h-307l24 -226h253l-10 -76h-234l25 -235h225l-11 -76h-297l-16 173h-266l-88 -173h-100l366 689h458zM179 250h219l-34 363zM682 793h-271l9 69h271z" />
    <glyph glyph-name="uni01E3" unicode="&#x1e3;" horiz-adv-x="817" 
d="M443 456q30 37 76 60t104 23q80 0 123.5 -39t43.5 -95q0 -71 -45.5 -113t-119.5 -61.5t-182 -30.5q1 -71 32.5 -103t86.5 -32q37 0 71 12t70 37l39 -62q-89 -64 -189 -64q-62 0 -106 24t-68 69q-42 -50 -89 -71.5t-105 -21.5q-73 0 -115 38t-42 101q0 78 61 129.5
t195 51.5h81q8 41 20 76q-2 36 -33.5 58t-80.5 22q-36 0 -65.5 -6t-73.5 -20l-18 69q86 32 171 32q120 0 158 -83zM504.5 409q-42.5 -57 -55.5 -139q85 9 136.5 22.5t80 39.5t28.5 70q0 24 -17 44t-55 20q-75 0 -117.5 -57zM292 245q-82 0 -123 -28t-41 -91q0 -69 73 -69
q45 0 82.5 23t73.5 71q-2 9 -2 53q0 34 1 41h-64zM611 667h-271l9 69h271z" />
    <glyph glyph-name="uni01E4" unicode="&#x1e4;" horiz-adv-x="641" 
d="M623 169h-72l-16 -115q-52 -33 -108 -49.5t-125 -16.5q-113 0 -177.5 69.5t-64.5 201.5q0 106 37.5 207.5t115.5 168t192 66.5q64 0 112.5 -20t89.5 -59l-59 -51q-35 28 -67 40t-75 12q-84 0 -139.5 -56.5t-81.5 -143t-26 -176.5q0 -94 39 -137.5t117 -43.5q72 0 131 34
l10 69h-114l11 78h115l8 58h-120v77h224l-19 -135h73z" />
    <glyph glyph-name="uni01E5" unicode="&#x1e5;" horiz-adv-x="524" 
d="M445 -23h71l-8 -63h-83q-57 -130 -215 -130q-47 0 -95.5 14t-86.5 37l35 68q29 -17 68 -29.5t83 -12.5q43 0 71.5 11.5t46.5 41.5h-127l8 63h143l6 36l11 77q-30 -36 -69.5 -58t-80.5 -22q-81 0 -126 53.5t-45 144.5q0 80 30 156t94 125.5t160 49.5q49 0 93 -10t95 -35
l-73 -482zM315.5 109.5q35.5 26.5 70.5 72.5l41 267q-22 10 -41.5 13.5t-47.5 3.5q-63 0 -105.5 -38.5t-62.5 -98t-20 -122.5t24 -93.5t66 -30.5q40 0 75.5 26.5z" />
    <glyph glyph-name="Gcaron" unicode="&#x1e6;" horiz-adv-x="625" 
d="M517.5 681q48.5 -20 89.5 -59l-59 -51q-35 28 -67 40t-75 12q-84 0 -139.5 -56.5t-81.5 -143t-26 -176.5q0 -94 39 -137.5t117 -43.5q72 0 131 34l30 205h-120v77h224l-45 -328q-52 -33 -108 -49.5t-125 -16.5q-113 0 -177.5 69.5t-64.5 201.5q0 106 37.5 207.5
t115.5 168t192 66.5q64 0 112.5 -20zM564 909l35 -45l-148 -110h-60l-120 110l43 45l113 -81z" />
    <glyph glyph-name="gcaron" unicode="&#x1e7;" horiz-adv-x="580" 
d="M431.5 528q44.5 -11 91.5 -34l-73 -482q-18 -121 -80 -174.5t-161 -53.5q-47 0 -95.5 14t-86.5 37l35 70q29 -17 66.5 -29.5t75.5 -12.5q63 0 104 31t53 119l9 67q-31 -37 -69.5 -58.5t-80.5 -21.5q-79 0 -124 53.5t-45 144.5q0 85 30 163t94 128t162 50q50 0 94.5 -11z
M231.5 427q-42.5 -39 -62.5 -100.5t-20 -129.5q0 -63 24 -93.5t66 -30.5q40 0 74.5 26t69.5 73l43 277q-23 9 -43 13t-46 4q-63 0 -105.5 -39zM485 785l34 -45l-149 -113h-60l-119 113l41 45l113 -84z" />
    <glyph glyph-name="uni01E8" unicode="&#x1e8;" horiz-adv-x="583" 
d="M62 0l97 689h95l-97 -689h-95zM434 0l-221 368l302 321h111l-307 -324l227 -365h-112zM537 909l35 -45l-148 -110h-60l-120 110l43 45l113 -81z" />
    <glyph glyph-name="uni01E9" unicode="&#x1e9;" horiz-adv-x="545" 
d="M209 435q37 52 83 78t97 26q56 0 92 -33.5t36 -86.5q0 -64 -41 -112t-122 -74l119 -233h-102l-126 257q93 26 134 61.5t41 90.5q0 28 -15 42.5t-42 14.5q-45 0 -92 -38.5t-79 -111.5l-44 -316h-91l104 739l92 11zM506 959l35 -45l-148 -110h-60l-120 110l43 45l113 -81z
" />
    <glyph glyph-name="uni01EA" unicode="&#x1ea;" horiz-adv-x="686" 
d="M283 -66.5q-28 -30.5 -28 -59.5q0 -17 12.5 -26t34.5 -9q25 0 63 8l-15 -72q-30 -6 -61 -6q-53 0 -83.5 26.5t-30.5 67.5q0 78 92 128q-97 12 -151.5 83t-54.5 191q0 99 34.5 199t111 168.5t195.5 68.5q114 0 180 -73t66 -207q0 -88 -26 -175.5t-83 -155.5t-145 -91
q-83 -35 -111 -65.5zM311 66q88 0 141.5 57.5t75.5 140t22 164.5q0 195 -152 195q-87 0 -140.5 -57t-76 -139.5t-22.5 -164.5q0 -196 152 -196z" />
    <glyph glyph-name="uni01EB" unicode="&#x1eb;" horiz-adv-x="578" 
d="M220 -66.5q-28 -30.5 -28 -59.5q0 -17 12.5 -26t34.5 -9q25 0 63 8l-15 -72q-30 -6 -61 -6q-53 0 -83.5 26.5t-30.5 67.5q0 78 94 129q-75 14 -114.5 70t-39.5 144q0 74 27.5 150.5t88.5 129.5t157 53q97 0 149 -58t52 -160q0 -62 -19.5 -128t-63 -119.5t-112.5 -74.5
q-83 -35 -111 -65.5zM257 62q63 0 102 43.5t55 105t16 120.5q0 134 -108 134q-63 0 -102 -43.5t-55.5 -105t-16.5 -120.5q0 -134 109 -134z" />
    <glyph glyph-name="uni01EC" unicode="&#x1ec;" horiz-adv-x="686" 
d="M568 862l-9 -69h-271l9 69h271zM283 -66.5q-28 -30.5 -28 -59.5q0 -17 12.5 -26t34.5 -9q25 0 63 8l-15 -72q-30 -6 -61 -6q-53 0 -83.5 26.5t-30.5 67.5q0 78 92 128q-97 12 -151.5 83t-54.5 191q0 99 34.5 199t111 168.5t195.5 68.5q114 0 180 -73t66 -207
q0 -88 -26 -175.5t-83 -155.5t-145 -91q-83 -35 -111 -65.5zM311 66q88 0 141.5 57.5t75.5 140t22 164.5q0 195 -152 195q-87 0 -140.5 -57t-76 -139.5t-22.5 -164.5q0 -196 152 -196z" />
    <glyph glyph-name="uni01ED" unicode="&#x1ed;" horiz-adv-x="578" 
d="M491 736l-9 -69h-271l9 69h271zM220 -66.5q-28 -30.5 -28 -59.5q0 -17 12.5 -26t34.5 -9q25 0 63 8l-15 -72q-30 -6 -61 -6q-53 0 -83.5 26.5t-30.5 67.5q0 78 94 129q-75 14 -114.5 70t-39.5 144q0 74 27.5 150.5t88.5 129.5t157 53q97 0 149 -58t52 -160
q0 -62 -19.5 -128t-63 -119.5t-112.5 -74.5q-83 -35 -111 -65.5zM257 62q63 0 102 43.5t55 105t16 120.5q0 134 -108 134q-63 0 -102 -43.5t-55.5 -105t-16.5 -120.5q0 -134 109 -134z" />
    <glyph glyph-name="uni01EE" unicode="&#x1ee;" horiz-adv-x="514" 
d="M495 612l-237 -215q103 -1 154 -45.5t51 -124.5q0 -72 -35 -126t-97 -83.5t-140 -29.5q-72 0 -121 23t-83 69l59 50q28 -34 61.5 -49t83.5 -15q79 0 126 43t47 117q0 56 -33 79t-105 23h-90l1 1l9 67l234 215h-288l11 78h402zM456 909l35 -45l-148 -110h-60l-120 110
l43 45l113 -81z" />
    <glyph glyph-name="uni01EF" unicode="&#x1ef;" horiz-adv-x="475" 
d="M450 457l-246 -251q103 -1 155 -46t52 -125q0 -73 -34 -129.5t-94.5 -87.5t-137.5 -31q-68 0 -116 23t-83 69l57 48q33 -36 65 -50.5t77 -14.5q79 0 124.5 49t45.5 124q0 57 -32 80t-106 23h-81l1 1l9 66l237 246h-287l11 76h392zM418 785l34 -45l-149 -113h-60l-119 113
l41 45l113 -84z" />
    <glyph glyph-name="uni01F0" unicode="&#x1f0;" horiz-adv-x="279" 
d="M-71 -145q42 19 66.5 37.5t41 50.5t24.5 86l70 498h91l-70 -498q-10 -73 -33.5 -116.5t-61 -70.5t-102.5 -55zM332 785l34 -45l-149 -113h-60l-119 113l41 45l113 -84z" />
    <glyph glyph-name="uni01F1" unicode="&#x1f1;" horiz-adv-x="1130" 
d="M519 632.5q82 -56.5 82 -204.5q0 -117 -38 -214t-121.5 -155.5t-213.5 -58.5h-166l97 689h141q137 0 219 -56.5zM242 613l-75 -538h75q94 0 153 52t84.5 132t25.5 171q0 76 -26 116t-67.5 53.5t-97.5 13.5h-72zM606 0l10 76l414 533h-302l11 80h407l-10 -77l-411 -532
l335 1l-22 -81h-432z" />
    <glyph glyph-name="uni01F2" unicode="&#x1f2;" horiz-adv-x="1060" 
d="M519 632.5q82 -56.5 82 -204.5q0 -117 -38 -214t-121.5 -155.5t-213.5 -58.5h-166l97 689h141q137 0 219 -56.5zM242 613l-75 -538h75q94 0 153 52t84.5 132t25.5 171q0 76 -26 116t-67.5 53.5t-97.5 13.5h-72zM1065 527l-9 -70l-318 -380h267l-21 -77h-368l9 69l317 380
h-240l11 78h352z" />
    <glyph glyph-name="uni01F3" unicode="&#x1f3;" horiz-adv-x="1018" 
d="M560 738l-104 -738h-80l1 87q-29 -47 -69 -73t-90 -26q-80 0 -123.5 56t-43.5 153q0 76 25.5 155t80.5 133t139 54q83 0 135 -66l39 275zM217 422q-37 -44 -53 -107.5t-16 -124.5q0 -65 23 -97t65 -32q46 0 81 30t74 92l31 219q-21 32 -47 48t-62 16q-59 0 -96 -44z
M1023 527l-9 -70l-318 -380h267l-21 -77h-368l9 69l317 380h-240l11 78h352z" />
    <glyph glyph-name="uni01F4" unicode="&#x1f4;" horiz-adv-x="625" 
d="M517.5 681q48.5 -20 89.5 -59l-59 -51q-35 28 -67 40t-75 12q-84 0 -139.5 -56.5t-81.5 -143t-26 -176.5q0 -94 39 -137.5t117 -43.5q72 0 131 34l30 205h-120v77h224l-45 -328q-52 -33 -108 -49.5t-125 -16.5q-113 0 -177.5 69.5t-64.5 201.5q0 106 37.5 207.5
t115.5 168t192 66.5q64 0 112.5 -20zM519 908l30 -77l-220 -76l-19 49z" />
    <glyph glyph-name="uni01F5" unicode="&#x1f5;" horiz-adv-x="580" 
d="M431.5 528q44.5 -11 91.5 -34l-73 -482q-18 -121 -80 -174.5t-161 -53.5q-47 0 -95.5 14t-86.5 37l35 70q29 -17 66.5 -29.5t75.5 -12.5q63 0 104 31t53 119l9 67q-31 -37 -69.5 -58.5t-80.5 -21.5q-79 0 -124 53.5t-45 144.5q0 85 30 163t94 128t162 50q50 0 94.5 -11z
M231.5 427q-42.5 -39 -62.5 -100.5t-20 -129.5q0 -63 24 -93.5t66 -30.5q40 0 74.5 26t69.5 73l43 277q-23 9 -43 13t-46 4q-63 0 -105.5 -39zM448 801l30 -77l-220 -86l-21 49z" />
    <glyph glyph-name="uni01F6" unicode="&#x1f6;" horiz-adv-x="959" 
d="M506 31.5q-40 43.5 -40 107.5q0 9 2 29l21 155h-288l-45 -323h-94l97 689h94l-41 -288h288l41 288h94l-73 -521q-2 -20 -2 -28q0 -78 73 -78q176 0 176 351q0 65 -5 114h88q8 -70 8 -130q0 -180 -63.5 -294.5t-206.5 -114.5q-84 0 -124 43.5z" />
    <glyph glyph-name="uni01F7" unicode="&#x1f7;" horiz-adv-x="575" 
d="M531.5 656.5q48.5 -44.5 48.5 -122.5q0 -111 -79 -179t-223 -121l-94 -33l-28 -201h-94l97 689h94l-7 -49q73 61 163 61q74 0 122.5 -44.5zM427 403.5q54 53.5 54 127.5q0 92 -90 92q-88 0 -156 -64l-40 -279l86 34q92 36 146 89.5z" />
    <glyph glyph-name="uni01F8" unicode="&#x1f8;" horiz-adv-x="677" 
d="M541 0h-123l-197 607q-1 -119 -26 -294l-44 -313h-89l97 689h124l198 -608q0 68 3.5 119.5t11.5 115.5l53 373h89zM360 907l186 -104l-29 -49l-199 76z" />
    <glyph glyph-name="uni01F9" unicode="&#x1f9;" horiz-adv-x="580" 
d="M475.5 503.5q33.5 -35.5 33.5 -97.5q0 -16 -3 -36l-52 -370h-91l52 368q2 22 2 29q0 35 -15 50t-43 15q-46 0 -88.5 -41t-78.5 -105l-44 -316h-91l74 527h78l-8 -103q39 55 84 85t99 30q58 0 91.5 -35.5zM293 801l183 -114l-29 -49l-199 86z" />
    <glyph glyph-name="Aringacute" unicode="&#x1fa;" horiz-adv-x="567" 
d="M427 0l-27 173h-259l-76 -173h-97l316 689h119l121 -689h-97zM174 250h214l-56 360zM444.5 914.5q28.5 -27.5 28.5 -68.5q0 -48 -36 -82t-88 -34q-46 0 -74.5 27.5t-28.5 68.5q0 48 36 82t88 34q46 0 74.5 -27.5zM323 873q-16 -19 -16 -46q0 -22 11.5 -34.5t32.5 -12.5
q29 0 45.5 20t16.5 46q0 22 -12 34t-33 12q-29 0 -45 -19zM460 1097l30 -77l-220 -76l-19 49z" />
    <glyph glyph-name="aringacute" unicode="&#x1fb;" horiz-adv-x="569" 
d="M424.5 528q44.5 -11 91.5 -34l-54 -374q-2 -16 -2 -22q0 -18 7.5 -29t26.5 -18l-26 -63q-42 5 -65 26t-28 62q-32 -41 -72 -64.5t-85 -23.5q-80 0 -124 55t-44 147q0 80 29.5 160t92.5 134.5t159 54.5q49 0 93.5 -11zM228.5 423.5q-41.5 -42.5 -61 -106t-19.5 -128.5
t23 -96.5t66 -31.5q41 0 73.5 25t67.5 72l41 291q-21 9 -40.5 13t-45.5 4q-63 0 -104.5 -42.5zM445.5 768.5q28.5 -27.5 28.5 -68.5q0 -48 -36 -82t-88 -34q-46 0 -74.5 27.5t-28.5 68.5q0 48 36 82t88 34q46 0 74.5 -27.5zM324 727q-16 -19 -16 -46q0 -22 11.5 -34.5
t32.5 -12.5q29 0 45.5 20t16.5 46q0 22 -12 34t-33 12q-29 0 -45 -19zM461 955l30 -77l-220 -76l-19 49z" />
    <glyph glyph-name="AEacute" unicode="&#x1fc;" horiz-adv-x="808" 
d="M753 613h-307l24 -226h253l-10 -76h-234l25 -235h225l-11 -76h-297l-16 173h-266l-88 -173h-100l366 689h458zM179 250h219l-34 363zM637 908l30 -77l-220 -76l-19 49z" />
    <glyph glyph-name="aeacute" unicode="&#x1fd;" horiz-adv-x="817" 
d="M443 456q30 37 76 60t104 23q80 0 123.5 -39t43.5 -95q0 -71 -45.5 -113t-119.5 -61.5t-182 -30.5q1 -71 32.5 -103t86.5 -32q37 0 71 12t70 37l39 -62q-89 -64 -189 -64q-62 0 -106 24t-68 69q-42 -50 -89 -71.5t-105 -21.5q-73 0 -115 38t-42 101q0 78 61 129.5
t195 51.5h81q8 41 20 76q-2 36 -33.5 58t-80.5 22q-36 0 -65.5 -6t-73.5 -20l-18 69q86 32 171 32q120 0 158 -83zM504.5 409q-42.5 -57 -55.5 -139q85 9 136.5 22.5t80 39.5t28.5 70q0 24 -17 44t-55 20q-75 0 -117.5 -57zM292 245q-82 0 -123 -28t-41 -91q0 -69 73 -69
q45 0 82.5 23t73.5 71q-2 9 -2 53q0 34 1 41h-64zM573 801l30 -77l-220 -86l-21 49z" />
    <glyph glyph-name="Oslashacute" unicode="&#x1fe;" horiz-adv-x="686" 
d="M620 569.5q28 -61.5 28 -148.5q0 -101 -34.5 -200.5t-110.5 -166t-195 -66.5q-38 0 -67 7l-53 -122l-77 21l58 131q-52 33 -80 94t-28 146q0 99 34.5 199t111 168.5t195.5 68.5q37 0 65 -7l55 125l77 -21l-60 -133q53 -34 81 -95.5zM257.5 565.5q-53.5 -57.5 -76 -141.5
t-22.5 -169q0 -115 52 -159l231 523q-19 4 -44 4q-87 0 -140.5 -57.5zM452.5 124q53.5 58 75.5 142.5t22 171.5q0 115 -54 157l-230 -525q19 -4 45 -4q88 0 141.5 58zM509 923l30 -77l-220 -76l-19 49z" />
    <glyph glyph-name="oslashacute" unicode="&#x1ff;" horiz-adv-x="578" 
d="M505.5 431q20.5 -47 20.5 -110q0 -73 -27 -149.5t-88 -130t-157 -53.5q-26 0 -53 5l-55 -123l-73 22l60 129q-40 27 -60.5 74.5t-20.5 110.5q0 74 27.5 150.5t88.5 129.5t157 53q26 0 53 -5l55 122l73 -22l-59 -126l-1 -2q39 -28 59.5 -75zM220 421.5
q-39 -43.5 -55.5 -105t-16.5 -120.5q0 -77 30 -107l175 373q-15 3 -31 3q-63 0 -102 -43.5zM359 105.5q39 43.5 55 105t16 120.5q0 73 -28 106l-176 -373q20 -2 31 -2q63 0 102 43.5zM442 801l30 -77l-220 -86l-21 49z" />
    <glyph glyph-name="uni0200" unicode="&#x200;" horiz-adv-x="567" 
d="M427 0l-27 173h-259l-76 -173h-97l316 689h119l121 -689h-97zM174 250h214l-56 360zM260 958l61 -173l-59 -25l-84 157zM410 958l52 -168l-59 -25l-75 152z" />
    <glyph glyph-name="uni0201" unicode="&#x201;" horiz-adv-x="569" 
d="M424.5 528q44.5 -11 91.5 -34l-54 -374q-2 -16 -2 -22q0 -18 7.5 -29t26.5 -18l-26 -63q-42 5 -65 26t-28 62q-32 -41 -72 -64.5t-85 -23.5q-80 0 -124 55t-44 147q0 80 29.5 160t92.5 134.5t159 54.5q49 0 93.5 -11zM228.5 423.5q-41.5 -42.5 -61 -106t-19.5 -128.5
t23 -96.5t66 -31.5q41 0 73.5 25t67.5 72l41 291q-21 9 -40.5 13t-45.5 4q-63 0 -104.5 -42.5zM262 832l61 -173l-59 -25l-84 157zM412 832l52 -168l-59 -25l-75 152z" />
    <glyph glyph-name="uni0202" unicode="&#x202;" horiz-adv-x="567" 
d="M427 0l-27 173h-259l-76 -173h-97l316 689h119l121 -689h-97zM174 250h214l-56 360zM206 792q15 62 60.5 96t106.5 34q62 0 99.5 -37t35.5 -99l-61 -8q-10 74 -78 74q-70 0 -103 -78z" />
    <glyph glyph-name="uni0203" unicode="&#x203;" horiz-adv-x="569" 
d="M424.5 528q44.5 -11 91.5 -34l-54 -374q-2 -16 -2 -22q0 -18 7.5 -29t26.5 -18l-26 -63q-42 5 -65 26t-28 62q-32 -41 -72 -64.5t-85 -23.5q-80 0 -124 55t-44 147q0 80 29.5 160t92.5 134.5t159 54.5q49 0 93.5 -11zM228.5 423.5q-41.5 -42.5 -61 -106t-19.5 -128.5
t23 -96.5t66 -31.5q41 0 73.5 25t67.5 72l41 291q-21 9 -40.5 13t-45.5 4q-63 0 -104.5 -42.5zM200 630q15 62 60.5 96t106.5 34q62 0 99.5 -37t35.5 -99l-61 -8q-10 74 -78 74q-70 0 -103 -78z" />
    <glyph glyph-name="uni0204" unicode="&#x204;" horiz-adv-x="529" 
d="M528 689l-21 -76h-265l-32 -225h230l-10 -76h-230l-33 -236h283l-11 -76h-377l97 689h369zM263 958l61 -173l-59 -25l-84 157zM413 958l52 -168l-59 -25l-75 152z" />
    <glyph glyph-name="uni0205" unicode="&#x205;" horiz-adv-x="517" 
d="M400 259q-90 -45 -252 -63q3 -131 114 -131q37 0 71 12t70 37l39 -62q-89 -64 -189 -64q-96 0 -148.5 56.5t-52.5 157.5q0 79 27.5 156.5t88.5 129t155 51.5q80 0 123.5 -39t43.5 -95q0 -101 -90 -146zM335.5 309q58.5 29 58.5 93q0 24 -17 44t-55 20q-76 0 -117 -58
t-52 -142q124 14 182.5 43zM238 832l61 -173l-59 -25l-84 157zM388 832l52 -168l-59 -25l-75 152z" />
    <glyph glyph-name="uni0206" unicode="&#x206;" horiz-adv-x="529" 
d="M528 689l-21 -76h-265l-32 -225h230l-10 -76h-230l-33 -236h283l-11 -76h-377l97 689h369zM209 792q15 62 60.5 96t106.5 34q62 0 99.5 -37t35.5 -99l-61 -8q-10 74 -78 74q-70 0 -103 -78z" />
    <glyph glyph-name="uni0207" unicode="&#x207;" horiz-adv-x="517" 
d="M400 259q-90 -45 -252 -63q3 -131 114 -131q37 0 71 12t70 37l39 -62q-89 -64 -189 -64q-96 0 -148.5 56.5t-52.5 157.5q0 79 27.5 156.5t88.5 129t155 51.5q80 0 123.5 -39t43.5 -95q0 -101 -90 -146zM335.5 309q58.5 29 58.5 93q0 24 -17 44t-55 20q-76 0 -117 -58
t-52 -142q124 14 182.5 43zM176 630q15 62 60.5 96t106.5 34q62 0 99.5 -37t35.5 -99l-61 -8q-10 74 -78 74q-70 0 -103 -78z" />
    <glyph glyph-name="uni0208" unicode="&#x208;" horiz-adv-x="292" 
d="M253 689l-97 -689h-94l97 689h94zM122 958l61 -173l-59 -25l-84 157zM272 958l52 -168l-59 -25l-75 152z" />
    <glyph glyph-name="uni0209" unicode="&#x209;" horiz-adv-x="279" 
d="M222 527l-74 -527h-91l74 527h91zM100 832l61 -173l-59 -25l-84 157zM250 832l52 -168l-59 -25l-75 152z" />
    <glyph glyph-name="uni020A" unicode="&#x20a;" horiz-adv-x="292" 
d="M253 689l-97 -689h-94l97 689h94zM68 792q15 62 60.5 96t106.5 34q62 0 99.5 -37t35.5 -99l-61 -8q-10 74 -78 74q-70 0 -103 -78z" />
    <glyph glyph-name="uni020B" unicode="&#x20b;" horiz-adv-x="279" 
d="M222 527l-74 -527h-91l74 527h91zM38 630q15 62 60.5 96t106.5 34q62 0 99.5 -37t35.5 -99l-61 -8q-10 74 -78 74q-70 0 -103 -78z" />
    <glyph glyph-name="uni020C" unicode="&#x20c;" horiz-adv-x="686" 
d="M582 628q66 -73 66 -207q0 -101 -34.5 -200.5t-110.5 -166t-195 -66.5q-114 0 -180.5 72t-66.5 205q0 99 34.5 199t111 168.5t195.5 68.5q114 0 180 -73zM257.5 566q-53.5 -57 -76 -139.5t-22.5 -164.5q0 -196 152 -196q88 0 141.5 57.5t75.5 140t22 164.5
q0 195 -152 195q-87 0 -140.5 -57zM323 958l61 -173l-59 -25l-84 157zM473 958l52 -168l-59 -25l-75 152z" />
    <glyph glyph-name="uni020D" unicode="&#x20d;" horiz-adv-x="578" 
d="M104.5 46q-52.5 58 -52.5 160q0 74 27.5 150.5t88.5 129.5t157 53q97 0 149 -58t52 -160q0 -73 -27 -149.5t-88 -130t-157 -53.5q-97 0 -149.5 58zM359 105.5q39 43.5 55 105t16 120.5q0 134 -108 134q-63 0 -102 -43.5t-55.5 -105t-16.5 -120.5q0 -134 109 -134
q63 0 102 43.5zM250 832l61 -173l-59 -25l-84 157zM400 832l52 -168l-59 -25l-75 152z" />
    <glyph glyph-name="uni020E" unicode="&#x20e;" horiz-adv-x="686" 
d="M582 628q66 -73 66 -207q0 -101 -34.5 -200.5t-110.5 -166t-195 -66.5q-114 0 -180.5 72t-66.5 205q0 99 34.5 199t111 168.5t195.5 68.5q114 0 180 -73zM257.5 566q-53.5 -57 -76 -139.5t-22.5 -164.5q0 -196 152 -196q88 0 141.5 57.5t75.5 140t22 164.5
q0 195 -152 195q-87 0 -140.5 -57zM269 792q15 62 60.5 96t106.5 34q62 0 99.5 -37t35.5 -99l-61 -8q-10 74 -78 74q-70 0 -103 -78z" />
    <glyph glyph-name="uni020F" unicode="&#x20f;" horiz-adv-x="578" 
d="M104.5 46q-52.5 58 -52.5 160q0 74 27.5 150.5t88.5 129.5t157 53q97 0 149 -58t52 -160q0 -73 -27 -149.5t-88 -130t-157 -53.5q-97 0 -149.5 58zM359 105.5q39 43.5 55 105t16 120.5q0 134 -108 134q-63 0 -102 -43.5t-55.5 -105t-16.5 -120.5q0 -134 109 -134
q63 0 102 43.5zM188 630q15 62 60.5 96t106.5 34q62 0 99.5 -37t35.5 -99l-61 -8q-10 74 -78 74q-70 0 -103 -78z" />
    <glyph glyph-name="uni0210" unicode="&#x210;" horiz-adv-x="599" 
d="M530.5 390q-41.5 -58 -132.5 -84l139 -306h-104l-127 292h-109l-41 -292h-94l97 689h177q236 0 236 -171q0 -70 -41.5 -128zM207 365h101q88 0 126.5 45t38.5 107q0 53 -34 75.5t-108 22.5h-89zM272 958l61 -173l-59 -25l-84 157zM422 958l52 -168l-59 -25l-75 152z" />
    <glyph glyph-name="uni0211" unicode="&#x211;" horiz-adv-x="381" 
d="M409 532l-27 -89q-19 5 -43 5q-49 0 -85.5 -42.5t-65.5 -126.5l-40 -279h-91l74 527h78l-6 -108q29 60 68.5 90t84.5 30q25 0 53 -7zM197 832l61 -173l-59 -25l-84 157zM347 832l52 -168l-59 -25l-75 152z" />
    <glyph glyph-name="uni0212" unicode="&#x212;" horiz-adv-x="599" 
d="M530.5 390q-41.5 -58 -132.5 -84l139 -306h-104l-127 292h-109l-41 -292h-94l97 689h177q236 0 236 -171q0 -70 -41.5 -128zM207 365h101q88 0 126.5 45t38.5 107q0 53 -34 75.5t-108 22.5h-89zM218 792q15 62 60.5 96t106.5 34q62 0 99.5 -37t35.5 -99l-61 -8
q-10 74 -78 74q-70 0 -103 -78z" />
    <glyph glyph-name="uni0213" unicode="&#x213;" horiz-adv-x="381" 
d="M409 532l-27 -89q-19 5 -43 5q-49 0 -85.5 -42.5t-65.5 -126.5l-40 -279h-91l74 527h78l-6 -108q29 60 68.5 90t84.5 30q25 0 53 -7zM135 630q15 62 60.5 96t106.5 34q62 0 99.5 -37t35.5 -99l-61 -8q-10 74 -78 74q-70 0 -103 -78z" />
    <glyph glyph-name="uni0214" unicode="&#x214;" horiz-adv-x="656" 
d="M561 218q-15 -105 -86 -167.5t-183 -62.5q-102 0 -157 52.5t-55 141.5q0 21 3 42l66 465h94l-65 -464q-3 -22 -3 -42q0 -58 29.5 -86.5t91.5 -28.5q149 0 172 163l65 458h94zM304 958l61 -173l-59 -25l-84 157zM454 958l52 -168l-59 -25l-75 152z" />
    <glyph glyph-name="uni0215" unicode="&#x215;" horiz-adv-x="576" 
d="M104.5 22.5q-34.5 34.5 -34.5 95.5q0 17 3 35l53 374h91l-52 -370q-3 -18 -3 -33q0 -34 14.5 -49t43.5 -15q45 0 83.5 34t76.5 90l48 343h91l-74 -527h-78l7 97q-39 -54 -80.5 -81.5t-93.5 -27.5q-61 0 -95.5 34.5zM247 832l61 -173l-59 -25l-84 157zM397 832l52 -168
l-59 -25l-75 152z" />
    <glyph glyph-name="uni0216" unicode="&#x216;" horiz-adv-x="656" 
d="M561 218q-15 -105 -86 -167.5t-183 -62.5q-102 0 -157 52.5t-55 141.5q0 21 3 42l66 465h94l-65 -464q-3 -22 -3 -42q0 -58 29.5 -86.5t91.5 -28.5q149 0 172 163l65 458h94zM250 792q15 62 60.5 96t106.5 34q62 0 99.5 -37t35.5 -99l-61 -8q-10 74 -78 74
q-70 0 -103 -78z" />
    <glyph glyph-name="uni0217" unicode="&#x217;" horiz-adv-x="576" 
d="M104.5 22.5q-34.5 34.5 -34.5 95.5q0 17 3 35l53 374h91l-52 -370q-3 -18 -3 -33q0 -34 14.5 -49t43.5 -15q45 0 83.5 34t76.5 90l48 343h91l-74 -527h-78l7 97q-39 -54 -80.5 -81.5t-93.5 -27.5q-61 0 -95.5 34.5zM185 630q15 62 60.5 96t106.5 34q62 0 99.5 -37
t35.5 -99l-61 -8q-10 74 -78 74q-70 0 -103 -78z" />
    <glyph glyph-name="Scommaaccent" unicode="&#x218;" horiz-adv-x="539" 
d="M438 680q49 -21 89 -62l-59 -55q-32 32 -66.5 46t-77.5 14q-61 0 -101 -30t-40 -82q0 -40 27 -64t102 -49q86 -27 133 -68t47 -121q0 -56 -29.5 -106.5t-90 -82.5t-150.5 -32q-142 0 -223 92l60 56q32 -35 72 -52.5t93 -17.5q77 0 123.5 37.5t46.5 100.5q0 44 -27.5 69.5
t-99.5 50.5q-94 33 -137 72.5t-43 109.5q0 47 28 92t81.5 74t127.5 29q65 0 114 -21zM254 -93q14 -16 14 -36q0 -17 -7.5 -34t-28.5 -51l-52 -82h-54l48 118q-19 19 -19 42q0 25 18 42t43 17q24 0 38 -16z" />
    <glyph glyph-name="scommaaccent" unicode="&#x219;" horiz-adv-x="461" 
d="M436 474l-45 -55q-59 47 -129 47q-48 0 -76.5 -19t-28.5 -52q0 -30 23.5 -46t82.5 -34q77 -24 113 -60.5t36 -97.5q0 -56 -31 -94t-80.5 -56.5t-107.5 -18.5q-117 0 -195 76l52 53q65 -55 147 -55q63 0 91 26.5t28 59.5q0 27 -10 43t-33.5 28t-67.5 26
q-76 23 -108.5 56.5t-32.5 87.5q0 37 22 71.5t67 56.5t110 22q100 0 173 -65zM221 -93q14 -16 14 -36q0 -17 -7.5 -34t-28.5 -51l-52 -82h-54l48 118q-19 19 -19 42q0 25 18 42t43 17q24 0 38 -16z" />
    <glyph glyph-name="uni021A" unicode="&#x21a;" horiz-adv-x="511" 
d="M562 689l-22 -81h-190l-85 -608h-94l85 608h-194l12 81h488zM246 -93q14 -16 14 -36q0 -17 -7.5 -34t-28.5 -51l-52 -82h-54l48 118q-19 19 -19 42q0 25 18 42t43 17q24 0 38 -16z" />
    <glyph glyph-name="uni021B" unicode="&#x21b;" horiz-adv-x="355" 
d="M173 139q-2 -20 -2 -26q0 -25 11.5 -36.5t35.5 -11.5q18 0 35.5 5.5t40.5 16.5l30 -64q-55 -35 -117 -35q-61 0 -94 31.5t-33 89.5q0 21 2 32l44 315h-91l10 71h95l33 122l72 8l-18 -130h124l-20 -71h-114zM230 -93q14 -16 14 -36q0 -17 -7.5 -34t-28.5 -51l-52 -82h-54
l48 118q-19 19 -19 42q0 25 18 42t43 17q24 0 38 -16z" />
    <glyph glyph-name="uni021C" unicode="&#x21c;" horiz-adv-x="499" 
d="M421 656q49 -45 49 -118q0 -71 -41 -116t-116 -64q58 -6 96.5 -41.5t38.5 -96.5q0 -127 -120 -208t-309 -114l-4 77q156 35 244 92.5t88 151.5q0 49 -32.5 72.5t-100.5 23.5h-67l23 78h52q64 0 107 38t43 102q0 90 -98 90q-43 0 -83.5 -16t-85.5 -47l-45 58
q53 42 107 62.5t115 20.5q90 0 139 -45z" />
    <glyph glyph-name="uni021D" unicode="&#x21d;" horiz-adv-x="481" 
d="M373 502.5q50 -36.5 50 -102.5q0 -51 -32 -81.5t-91 -47.5q56 -1 86.5 -26t30.5 -70q0 -103 -112 -172.5t-275 -105.5l-8 69q153 45 225.5 92.5t72.5 113.5q0 32 -22 44.5t-64 12.5h-101l16 72h51q58 0 93.5 25t35.5 73q0 35 -24 51.5t-64 16.5q-43 0 -76.5 -11
t-71.5 -33l-36 58q44 30 89.5 44t98.5 14q78 0 128 -36.5z" />
    <glyph glyph-name="uni021E" unicode="&#x21e;" horiz-adv-x="674" 
d="M156 0h-94l97 689h94l-41 -288h288l41 288h94l-97 -689h-94l45 323h-288zM549 909l35 -45l-148 -110h-60l-120 110l43 45l113 -81z" />
    <glyph glyph-name="uni021F" unicode="&#x21f;" horiz-adv-x="581" 
d="M475 504q34 -35 34 -97q0 -22 -2 -34l-53 -373h-91l52 368q2 22 2 30q0 35 -14.5 49.5t-40.5 14.5q-48 0 -91.5 -41t-79.5 -105l-43 -316h-91l104 738l92 10l-46 -320q74 111 174 111q60 0 94 -35zM508 959l35 -45l-148 -110h-60l-120 110l43 45l113 -81z" />
    <glyph glyph-name="uni0220" unicode="&#x220;" horiz-adv-x="662" 
d="M566.5 656.5q42.5 -44.5 42.5 -116.5q0 -18 -3 -36l-99 -706h-94l97 693q3 23 3 40q0 47 -21 69.5t-68 22.5q-53 0 -97 -23.5t-96 -70.5l-75 -529h-94l97 689h81l-3 -78q48 44 98 67t109 23q80 0 122.5 -44.5z" />
    <glyph glyph-name="uni0221" unicode="&#x221;" horiz-adv-x="729" 
d="M700.5 198.5q28.5 -25.5 28.5 -67.5q0 -67 -54.5 -105t-135.5 -38q-34 0 -64 8l-41 -71l-56 26l44 72q-31 26 -37 70q-69 -105 -167 -105q-80 0 -123.5 56t-43.5 153q0 76 25.5 155t80.5 133t139 54q83 0 135 -66l39 275l90 -10l-86 -608q-2 -18 -2 -24l2 3
q30 54 67 84.5t87 30.5q44 0 72.5 -25.5zM421 402q-20 32 -46 48t-62 16q-59 0 -96 -44t-53 -107.5t-16 -124.5q0 -65 23 -97t65 -32q46 0 81 30.5t73 91.5zM623 82.5q27 16.5 27 45.5t-30 29q-25 0 -45.5 -19t-53.5 -71q9 -1 31 -1q44 0 71 16.5z" />
    <glyph glyph-name="uni0222" unicode="&#x222;" horiz-adv-x="646" 
d="M550 445.5q-29 -38.5 -82 -60.5q56 -21 86.5 -60.5t30.5 -94.5q0 -65 -36.5 -120.5t-104 -88.5t-156.5 -33q-77 0 -131.5 25.5t-82.5 69.5t-28 99q0 72 44.5 125.5t122.5 79.5q-75 38 -75 124q0 19 3 38l20 140h94l-20 -141q-4 -26 -4 -36q0 -91 111 -91q70 0 107 37
t45 96l19 135h95l-21 -146q-8 -59 -37 -97.5zM434.5 109q51.5 43 51.5 118q0 56 -36.5 86t-111.5 30q-90 0 -142 -42.5t-52 -116.5q0 -118 147 -118q92 0 143.5 43z" />
    <glyph glyph-name="uni0223" unicode="&#x223;" horiz-adv-x="572" 
d="M484.5 466.5q-28.5 -37.5 -75.5 -59.5q50 -20 76 -60t26 -98q0 -72 -34 -131.5t-93.5 -94.5t-132.5 -35q-64 0 -110 25.5t-70 69t-24 98.5q0 83 40.5 142t112.5 84q-67 39 -67 121q0 10 2 32l26 179h91l-26 -185q-2 -11 -2 -32q0 -85 83 -85q52 0 84 35t39 88l25 179h91
l-26 -185q-7 -50 -35.5 -87.5zM374 115q40 53 40 134q0 59 -27.5 88t-84.5 29q-52 0 -87.5 -25.5t-53.5 -68t-18 -91.5q0 -59 28 -89t82 -30q81 0 121 53z" />
    <glyph glyph-name="uni0224" unicode="&#x224;" horiz-adv-x="516" 
d="M522 612l-411 -532l330 1l-12 -81l-9 -60q-12 -77 -54.5 -115t-110.5 -38q-63 0 -111 40l41 57q18 -12 32 -17t36 -5q63 0 75 78l9 60h-345l10 76l414 533h-302l11 80h407z" />
    <glyph glyph-name="uni0225" unicode="&#x225;" horiz-adv-x="429" 
d="M427 457l-318 -380h261l-10 -77l-8 -60q-11 -76 -54.5 -114.5t-110.5 -38.5q-63 0 -111 40l41 56q18 -12 32 -17t34 -5q33 0 54 19t26 58l9 62h-285l9 69l317 380h-240l11 78h352z" />
    <glyph glyph-name="uni0226" unicode="&#x226;" horiz-adv-x="567" 
d="M427 0l-27 173h-259l-76 -173h-97l316 689h119l121 -689h-97zM174 250h214l-56 360zM321 797.5q-16 16.5 -16 40.5q0 29 20 48.5t49 19.5q27 0 43 -16t16 -41q0 -29 -20 -48.5t-49 -19.5q-27 0 -43 16.5z" />
    <glyph glyph-name="uni0227" unicode="&#x227;" horiz-adv-x="569" 
d="M424.5 528q44.5 -11 91.5 -34l-54 -374q-2 -16 -2 -22q0 -18 7.5 -29t26.5 -18l-26 -63q-42 5 -65 26t-28 62q-32 -41 -72 -64.5t-85 -23.5q-80 0 -124 55t-44 147q0 80 29.5 160t92.5 134.5t159 54.5q49 0 93.5 -11zM228.5 423.5q-41.5 -42.5 -61 -106t-19.5 -128.5
t23 -96.5t66 -31.5q41 0 73.5 25t67.5 72l41 291q-21 9 -40.5 13t-45.5 4q-63 0 -104.5 -42.5zM317 671.5q-16 16.5 -16 40.5q0 29 20 48.5t49 19.5q27 0 43 -16t16 -41q0 -29 -20 -48.5t-49 -19.5q-27 0 -43 16.5z" />
    <glyph glyph-name="uni0228" unicode="&#x228;" horiz-adv-x="529" 
d="M242 613l-32 -225h230l-10 -76h-230l-33 -236h283l-11 -76h-159l-9 -56q42 -4 62 -25.5t20 -54.5q0 -42 -35 -73.5t-98 -31.5q-53 0 -89 27l31 47q26 -14 61 -14q25 0 40 11t15 32q0 22 -17.5 30.5t-64.5 8.5l24 99h-158l97 689h369l-21 -76h-265z" />
    <glyph glyph-name="uni0229" unicode="&#x229;" horiz-adv-x="517" 
d="M400 259q-90 -45 -252 -63q3 -131 114 -131q37 0 71 12t70 37l39 -62q-79 -57 -167 -63l-7 -45q40 -4 61 -26t21 -55q0 -44 -34.5 -74t-94.5 -30q-57 0 -93 27l31 49q14 -8 27.5 -12t34.5 -4q24 0 39 11.5t15 31.5q0 22 -17.5 30.5t-64.5 8.5l22 90q-78 10 -120.5 65.5
t-42.5 145.5q0 79 27.5 156.5t88.5 129t155 51.5q80 0 123.5 -39t43.5 -95q0 -101 -90 -146zM335.5 309q58.5 29 58.5 93q0 24 -17 44t-55 20q-76 0 -117 -58t-52 -142q124 14 182.5 43z" />
    <glyph glyph-name="uni022A" unicode="&#x22a;" horiz-adv-x="686" 
d="M582 628q66 -73 66 -207q0 -101 -34.5 -200.5t-110.5 -166t-195 -66.5q-114 0 -180.5 72t-66.5 205q0 99 34.5 199t111 168.5t195.5 68.5q114 0 180 -73zM257.5 566q-53.5 -57 -76 -139.5t-22.5 -164.5q0 -196 152 -196q88 0 141.5 57.5t75.5 140t22 164.5
q0 195 -152 195q-87 0 -140.5 -57zM269 760.5q-15 14.5 -15 36.5q0 27 18 44.5t45 17.5q23 0 38 -14.5t15 -36.5q0 -27 -18 -44.5t-45 -17.5q-23 0 -38 14.5zM477 760.5q-15 14.5 -15 36.5q0 27 18 44.5t45 17.5q23 0 38 -14.5t15 -36.5q0 -27 -18 -44.5t-45 -17.5
q-23 0 -38 14.5zM563 903h-271l9 69h271z" />
    <glyph glyph-name="uni022B" unicode="&#x22b;" horiz-adv-x="578" 
d="M104.5 46q-52.5 58 -52.5 160q0 74 27.5 150.5t88.5 129.5t157 53q97 0 149 -58t52 -160q0 -73 -27 -149.5t-88 -130t-157 -53.5q-97 0 -149.5 58zM359 105.5q39 43.5 55 105t16 120.5q0 134 -108 134q-63 0 -102 -43.5t-55.5 -105t-16.5 -120.5q0 -134 109 -134
q63 0 102 43.5zM200 638.5q-15 14.5 -15 36.5q0 27 18 44.5t45 17.5q23 0 38 -14.5t15 -36.5q0 -27 -18 -44.5t-45 -17.5q-23 0 -38 14.5zM408 638.5q-15 14.5 -15 36.5q0 27 18 44.5t45 17.5q23 0 38 -14.5t15 -36.5q0 -27 -18 -44.5t-45 -17.5q-23 0 -38 14.5zM492 791
h-271l9 69h271z" />
    <glyph glyph-name="uni022C" unicode="&#x22c;" horiz-adv-x="686" 
d="M567 911h-271l9 69h271zM437.5 766q-16.5 8 -34.5 22q-12 9 -20 13.5t-17 4.5q-18 0 -32.5 -12t-30.5 -36l-52 32q53 86 117 86q22 0 36 -7.5t33 -21.5q13 -10 21 -14.5t17 -4.5q16 0 30.5 11t30.5 35l54 -32q-25 -42 -54 -63t-59 -21q-23 0 -39.5 8zM582 628
q66 -73 66 -207q0 -101 -34.5 -200.5t-110.5 -166t-195 -66.5q-114 0 -180.5 72t-66.5 205q0 99 34.5 199t111 168.5t195.5 68.5q114 0 180 -73zM257.5 566q-53.5 -57 -76 -139.5t-22.5 -164.5q0 -196 152 -196q88 0 141.5 57.5t75.5 140t22 164.5q0 195 -152 195
q-87 0 -140.5 -57z" />
    <glyph glyph-name="uni022D" unicode="&#x22d;" horiz-adv-x="578" 
d="M104.5 46q-52.5 58 -52.5 160q0 74 27.5 150.5t88.5 129.5t157 53q97 0 149 -58t52 -160q0 -73 -27 -149.5t-88 -130t-157 -53.5q-97 0 -149.5 58zM359 105.5q39 43.5 55 105t16 120.5q0 134 -108 134q-63 0 -102 -43.5t-55.5 -105t-16.5 -120.5q0 -134 109 -134
q63 0 102 43.5zM352.5 604q-16.5 8 -34.5 22q-12 9 -20 13.5t-17 4.5q-18 0 -32.5 -12t-30.5 -36l-52 32q53 86 117 86q22 0 36 -7.5t33 -21.5q13 -10 21 -14.5t17 -4.5q16 0 30.5 11t30.5 35l54 -32q-25 -42 -54 -63t-59 -21q-23 0 -39.5 8zM484 749h-271l9 69h271z" />
    <glyph glyph-name="uni022E" unicode="&#x22e;" horiz-adv-x="686" 
d="M582 628q66 -73 66 -207q0 -101 -34.5 -200.5t-110.5 -166t-195 -66.5q-114 0 -180.5 72t-66.5 205q0 99 34.5 199t111 168.5t195.5 68.5q114 0 180 -73zM257.5 566q-53.5 -57 -76 -139.5t-22.5 -164.5q0 -196 152 -196q88 0 141.5 57.5t75.5 140t22 164.5
q0 195 -152 195q-87 0 -140.5 -57zM384 797.5q-16 16.5 -16 40.5q0 29 20 48.5t49 19.5q27 0 43 -16t16 -41q0 -29 -20 -48.5t-49 -19.5q-27 0 -43 16.5z" />
    <glyph glyph-name="uni022F" unicode="&#x22f;" horiz-adv-x="578" 
d="M104.5 46q-52.5 58 -52.5 160q0 74 27.5 150.5t88.5 129.5t157 53q97 0 149 -58t52 -160q0 -73 -27 -149.5t-88 -130t-157 -53.5q-97 0 -149.5 58zM359 105.5q39 43.5 55 105t16 120.5q0 134 -108 134q-63 0 -102 -43.5t-55.5 -105t-16.5 -120.5q0 -134 109 -134
q63 0 102 43.5zM305 671.5q-16 16.5 -16 40.5q0 29 20 48.5t49 19.5q27 0 43 -16t16 -41q0 -29 -20 -48.5t-49 -19.5q-27 0 -43 16.5z" />
    <glyph glyph-name="uni0230" unicode="&#x230;" horiz-adv-x="686" 
d="M582 628q66 -73 66 -207q0 -101 -34.5 -200.5t-110.5 -166t-195 -66.5q-114 0 -180.5 72t-66.5 205q0 99 34.5 199t111 168.5t195.5 68.5q114 0 180 -73zM257.5 566q-53.5 -57 -76 -139.5t-22.5 -164.5q0 -196 152 -196q88 0 141.5 57.5t75.5 140t22 164.5
q0 195 -152 195q-87 0 -140.5 -57zM371 757.5q-16 16.5 -16 40.5q0 29 20 48.5t49 19.5q27 0 43 -16t16 -41q0 -29 -20 -48.5t-49 -19.5q-27 0 -43 16.5zM565 904h-271l9 69h271z" />
    <glyph glyph-name="uni0231" unicode="&#x231;" horiz-adv-x="578" 
d="M104.5 46q-52.5 58 -52.5 160q0 74 27.5 150.5t88.5 129.5t157 53q97 0 149 -58t52 -160q0 -73 -27 -149.5t-88 -130t-157 -53.5q-97 0 -149.5 58zM359 105.5q39 43.5 55 105t16 120.5q0 134 -108 134q-63 0 -102 -43.5t-55.5 -105t-16.5 -120.5q0 -134 109 -134
q63 0 102 43.5zM296 621.5q-16 16.5 -16 40.5q0 29 20 48.5t49 19.5q27 0 43 -16t16 -41q0 -29 -20 -48.5t-49 -19.5q-27 0 -43 16.5zM495 768h-271l9 69h271z" />
    <glyph glyph-name="uni0232" unicode="&#x232;" horiz-adv-x="544" 
d="M600 689l-280 -424l-37 -265h-96l38 264l-160 425h99l118 -341l215 341h103zM487 793h-271l9 69h271z" />
    <glyph glyph-name="uni0233" unicode="&#x233;" horiz-adv-x="486" 
d="M270 -5q-41 -91 -106 -144t-169 -64l-4 72q54 9 87.5 26t56.5 43.5t47 71.5h-34l-101 527h96l74 -457l202 457h95zM436 667h-271l9 69h271z" />
    <glyph glyph-name="uni0234" unicode="&#x234;" horiz-adv-x="417" 
d="M388.5 198.5q28.5 -25.5 28.5 -67.5q0 -67 -54.5 -105t-135.5 -38q-34 0 -64 8l-41 -71l-56 26l44 72q-39 33 -39 95q0 9 2 29l84 592l92 11l-87 -620q-2 -20 -2 -25q35 60 71 89.5t85 29.5q44 0 72.5 -25.5zM311 82.5q27 16.5 27 45.5t-30 29q-25 0 -45.5 -19t-53.5 -71
q9 -1 31 -1q44 0 71 16.5z" />
    <glyph glyph-name="uni0235" unicode="&#x235;" horiz-adv-x="728" 
d="M699.5 198.5q28.5 -25.5 28.5 -67.5q0 -67 -54.5 -105t-135.5 -38q-34 0 -63 8l-42 -71l-56 26l44 72q-39 33 -39 96q0 8 2 28l31 221q2 22 2 29q0 35 -15 50t-43 15q-46 0 -89 -41t-79 -105l-43 -316h-91l74 527h78l-8 -103q39 55 84 85t99 30q58 0 91.5 -35.5
t33.5 -97.5q0 -16 -3 -36l-34 -240q-2 -19 -1 -26q34 60 70.5 90t85.5 30q44 0 72.5 -25.5zM622 82.5q27 16.5 27 45.5t-30 29q-25 0 -45.5 -19t-53.5 -71q9 -1 31 -1q44 0 71 16.5z" />
    <glyph glyph-name="uni0236" unicode="&#x236;" horiz-adv-x="427" 
d="M398.5 198.5q28.5 -25.5 28.5 -67.5q0 -67 -54.5 -105t-135.5 -38q-34 0 -63 8l-42 -71l-56 26l44 72q-39 33 -39 96q0 8 2 28l43 309h-91l10 71h95l33 122l72 8l-18 -130h124l-20 -71h-114l-46 -327q-2 -19 -1 -25q34 60 70.5 90t85.5 30q44 0 72.5 -25.5zM321 82.5
q27 16.5 27 45.5t-30 29q-25 0 -45.5 -19t-53.5 -71q9 -1 31 -1q44 0 71 16.5z" />
    <glyph glyph-name="uni0237" unicode="&#x237;" horiz-adv-x="279" 
d="M-71 -145q42 19 66.5 37.5t41 50.5t24.5 86l70 498h91l-70 -498q-10 -73 -33.5 -116.5t-61 -70.5t-102.5 -55z" />
    <glyph glyph-name="uni0238" unicode="&#x238;" horiz-adv-x="850" 
d="M758.5 485q40.5 -54 40.5 -151q0 -87 -28 -167t-81.5 -129.5t-125.5 -49.5q-40 0 -68.5 21t-51.5 61l-19 -70h-69l2 76q-33 -44 -72 -66t-78 -22q-73 0 -115 56t-42 152q0 87 29 166t82 128t123 49q41 0 73 -21t51 -58l39 279l93 11l-41 -289q32 39 67 58.5t80 19.5
q71 0 111.5 -54zM299 83q32 22 68 69l33 240q-38 74 -100 74q-50 0 -84.5 -42t-51 -104.5t-16.5 -122.5q0 -136 82 -136q37 0 69 22zM635 104q34 43 51 106.5t17 123.5q0 71 -21.5 101.5t-60.5 30.5q-40 0 -71.5 -22.5t-59.5 -59.5l-35 -245q22 -43 42 -60.5t55 -17.5
q49 0 83 43z" />
    <glyph glyph-name="uni0239" unicode="&#x239;" horiz-adv-x="850" 
d="M759.5 486.5q40.5 -52.5 40.5 -143.5q-1 -94 -28 -175t-80.5 -130.5t-126.5 -49.5q-81 0 -119 84l-38 -274l-94 -11l40 284q-63 -83 -150 -83q-44 0 -79 25.5t-54.5 73t-19.5 109.5q0 87 29.5 166t84.5 128t128 49q38 0 70 -21t51 -60l17 69h65l-2 -69q66 81 151 81
q74 0 114.5 -52.5zM300.5 84q32.5 23 65.5 74l33 228q-18 41 -42 60.5t-56 19.5q-49 0 -84 -41.5t-52 -104t-17 -124.5q0 -135 82 -135q38 0 70.5 23zM635.5 104.5q34.5 41.5 51 106t16.5 132.5q0 123 -80 123q-67 0 -134 -87l-31 -223q14 -49 36.5 -71t55.5 -22
q51 0 85.5 41.5z" />
    <glyph glyph-name="uni023A" unicode="&#x23a;" horiz-adv-x="567" 
d="M432 0l-28 173h-134l-99 -243l-45 11l94 232h-82l-77 -173h-93l316 689h119l8 -47l44 108l45 -11l-74 -182l98 -557h-92zM170 247h80l102 250l-19 117zM300 247h92l-26 162z" />
    <glyph glyph-name="uni023B" unicode="&#x23b;" horiz-adv-x="555" 
d="M468 611l-217 -533q27 -10 61 -10q45 0 80 15.5t75 43.5l42 -64q-89 -75 -203 -75q-48 0 -86 13l-29 -71l-45 11l32 79q-56 32 -86.5 95t-30.5 153q0 100 35.5 200t110.5 166.5t187 66.5q29 0 59 -5l22 54l45 -11l-23 -56q45 -17 82 -53l-54 -53q-27 21 -57 34zM423 622
q-8 1 -25 1q-84 0 -137.5 -55.5t-77 -138.5t-23.5 -169q0 -108 52 -157z" />
    <glyph glyph-name="uni023C" unicode="&#x23c;" horiz-adv-x="472" 
d="M377 453l-159 -382q18 -5 37 -5q33 0 60.5 10t61.5 31l37 -64q-77 -55 -165 -55q-32 0 -62 8l-27 -66l-41 11l29 70q-47 24 -71.5 73t-24.5 119q0 76 28 153.5t88 130t151 52.5q26 0 46 -4l25 60l41 -11l-25 -60q37 -15 66 -43l-49 -57q-24 21 -46 29zM335 462
q-5 1 -15 1q-62 0 -100.5 -41.5t-55 -102.5t-16.5 -123q0 -72 33 -105z" />
    <glyph glyph-name="uni023D" unicode="&#x23d;" horiz-adv-x="499" 
d="M175 83h280l-22 -83h-364l46 324h-90l11 78h90l40 287h94l-40 -287h97l-11 -78h-97z" />
    <glyph glyph-name="uni023E" unicode="&#x23e;" horiz-adv-x="511" 
d="M540 608h-100l-126 -253l-50 -355h-92l14 100l-85 -170l-38 16l141 282l53 380h-195l12 81h361l30 61l38 -16l-22 -45h81zM332 483l62 125h-45z" />
    <glyph glyph-name="uni023F" unicode="&#x23f;" horiz-adv-x="471" 
d="M386 254.5q36 -36.5 36 -97.5q0 -55 -31 -93t-77.5 -57t-93.5 -19q-29 0 -66 10q24 -19 38.5 -38.5t29.5 -46.5t27 -39t36 -12q18 0 31.5 4t29.5 11l26 -62q-40 -28 -98 -28q-34 0 -57.5 14t-38 36t-36.5 62q-30 56 -58 94.5t-76 70.5l44 52q39 -26 77 -40t83 -14
q59 0 86.5 26.5t27.5 59.5q0 27 -10 43t-33.5 28t-67.5 26q-76 23 -108.5 56.5t-32.5 87.5q0 37 22 71.5t67 56.5t110 22q100 0 173 -65l-44 -55q-61 47 -130 47q-48 0 -76.5 -19t-28.5 -52q0 -30 23.5 -46t82.5 -34q77 -24 113 -60.5z" />
    <glyph glyph-name="uni0240" unicode="&#x240;" horiz-adv-x="431" 
d="M-4 69l319 380h-242l11 78h352l-9 -70l-344 -406q50 -13 77.5 -41.5t56.5 -75.5q22 -37 39.5 -54.5t45.5 -17.5q31 0 61 16l26 -63q-40 -28 -98 -28q-35 0 -59 12t-39 30.5t-35 49.5q-23 36 -41.5 58t-50.5 40t-79 23z" />
    <glyph glyph-name="uni0241" unicode="&#x241;" horiz-adv-x="466" 
d="M159 319l72 20q74 21 111 63.5t37 112.5q0 52 -27 80t-79 28q-43 0 -83.5 -16.5t-82.5 -48.5l-46 60q99 83 220 83q91 0 145 -49.5t54 -129.5q0 -193 -209 -243l-25 -6l-38 -273h-94z" />
    <glyph glyph-name="uni0242" unicode="&#x242;" horiz-adv-x="441" 
d="M112 197l71 20q133 37 133 148q0 45 -24.5 70.5t-71.5 25.5q-40 0 -70.5 -13.5t-70.5 -41.5l-46 60q47 37 92 55t103 18q86 0 135 -48t49 -124q0 -82 -49 -135.5t-136 -73.5l-31 -7l-21 -151h-91z" />
    <glyph glyph-name="uni0243" unicode="&#x243;" horiz-adv-x="614" 
d="M523.5 320q38.5 -33 38.5 -100q0 -100 -69.5 -160t-228.5 -60h-190l24 168h-90l11 70h89l63 451h190q98 0 157 -38.5t59 -115.5q0 -69 -44 -113t-110 -58q62 -11 100.5 -44zM254 614l-30 -217h101q67 0 111.5 34t44.5 101q0 46 -31.5 64t-85.5 18h-110zM420.5 114.5
q43.5 38.5 43.5 107.5q0 102 -136 102h-114l-12 -86h157l-11 -70h-156l-13 -92h89q109 0 152.5 38.5z" />
    <glyph glyph-name="uni0244" unicode="&#x244;" horiz-adv-x="685" 
d="M684 508h-68l-41 -290q-15 -105 -86 -167.5t-183 -62.5q-102 0 -157 52.5t-55 141.5q0 21 3 42l40 284h-68l10 69h68l16 112h94l-16 -112h290l16 112h94l-16 -112h69zM521 508h-289l-40 -283q-3 -22 -3 -42q0 -58 29.5 -86.5t91.5 -28.5q149 0 172 163z" />
    <glyph glyph-name="uni0245" unicode="&#x245;" horiz-adv-x="567" 
d="M403 689l121 -689h-97l-95 610l-267 -610h-97l316 689h119z" />
    <glyph glyph-name="uni0246" unicode="&#x246;" horiz-adv-x="529" 
d="M507 613h-58l-92 -225h83l-10 -76h-104l-96 -236h220l-11 -76h-240l-28 -70l-45 11l24 59h-88l97 689h271l25 61l45 -11l-20 -50h48zM308 388l91 225h-157l-32 -225h98zM181 76l96 236h-77l-33 -236h14z" />
    <glyph glyph-name="uni0247" unicode="&#x247;" horiz-adv-x="517" 
d="M432 279.5q-58 -44.5 -164 -65.5l-58 -140q23 -9 52 -9q37 0 71 12t70 37l39 -62q-89 -64 -189 -64q-39 0 -75 11l-28 -69l-41 11l31 75q-43 26 -65.5 73.5t-22.5 112.5q0 79 27.5 156.5t88.5 129t155 51.5q13 0 33 -2l24 58l41 -11l-23 -57q44 -15 68 -48.5t24 -73.5
q0 -81 -58 -125.5zM205 408q-41 -58 -52 -142q53 6 97 15l77 185h-5q-76 0 -117 -58zM387.5 430.5q-6.5 14.5 -20.5 23.5l-66 -159q46 15 69.5 41t23.5 66q0 14 -6.5 28.5zM219 205l-71 -9q1 -61 27 -95z" />
    <glyph glyph-name="uni0248" unicode="&#x248;" horiz-adv-x="313" 
d="M309 304h-93l-30 -211q-14 -102 -64.5 -152t-143.5 -79l-19 71q48 18 74.5 39.5t40 52t19.5 78.5l28 201h-93l11 78h94l43 307h94l-43 -307h93z" />
    <glyph glyph-name="uni0249" unicode="&#x249;" horiz-adv-x="318" 
d="M296 217h-95l-26 -188q-10 -73 -33.5 -116.5t-61 -70.5t-102.5 -55l-26 68q42 19 66.5 37.5t41 50.5t24.5 86l26 188h-95l10 70h95l34 240h91l-34 -240h95zM179 671.5q-16 16.5 -16 40.5q0 29 20 48.5t49 19.5q27 0 43 -16t16 -41q0 -29 -20 -48.5t-49 -19.5
q-27 0 -43 16.5z" />
    <glyph glyph-name="uni024A" unicode="&#x24a;" horiz-adv-x="665" 
d="M672 -177q-51 -36 -116 -36q-63 0 -98.5 32t-35.5 93q0 21 2 33l8 55l7 51q-64 -63 -156 -63q-101 0 -162.5 69t-61.5 197q0 110 39.5 213t112 168.5t167.5 65.5q89 0 146 -64l16 52h83l-97 -689l-9 -66q-2 -16 -2 -21q0 -50 49 -50q23 0 39.5 5.5t37.5 17.5zM377 81.5
q37 15.5 73 47.5l61 437q-26 28 -57 42.5t-73 14.5q-72 0 -123 -57t-76 -143.5t-25 -173.5q0 -183 139 -183q44 0 81 15.5z" />
    <glyph glyph-name="uni024B" unicode="&#x24b;" horiz-adv-x="575" 
d="M494 -132l19 -64q-32 -17 -72 -17q-45 0 -71.5 25.5t-26.5 70.5q0 7 2 23l13 95l9 63q-27 -33 -66 -54.5t-83 -21.5q-81 0 -124.5 54.5t-43.5 147.5q0 80 29.5 160t92.5 134.5t159 54.5q49 0 93 -10t95 -35l-70 -493l-14 -101q-1 -6 -1 -15q0 -13 5.5 -18.5t18.5 -5.5
q15 0 36 7zM311 86q32 25 67 72l44 291q-22 10 -41.5 13.5t-47.5 3.5q-63 0 -104.5 -42.5t-61 -106t-19.5 -128.5q0 -128 92 -128q39 0 71 25z" />
    <glyph glyph-name="uni024C" unicode="&#x24c;" horiz-adv-x="612" 
d="M543.5 390q-41.5 -58 -132.5 -84l139 -306h-104l-127 292h-109l-41 -292h-94l41 292h-91l10 73h91l46 324h177q236 0 236 -171q0 -70 -41.5 -128zM447.5 410q38.5 45 38.5 107q0 53 -34 75.5t-108 22.5h-89l-35 -250h101q88 0 126.5 45z" />
    <glyph glyph-name="uni024D" unicode="&#x24d;" horiz-adv-x="395" 
d="M423 532l-27 -89q-19 5 -43 5q-43 0 -76.5 -33t-60.5 -98h89l-11 -70h-97l-35 -247h-91l35 247h-93l11 70h92l29 210h78l-6 -108q29 60 68.5 90t84.5 30q25 0 53 -7z" />
    <glyph glyph-name="uni024E" unicode="&#x24e;" horiz-adv-x="544" 
d="M544 604h44l-10 -69h-80l-178 -270l-37 -265h-96l38 264l-102 271h-76l10 69h40l-32 85h99l29 -85h250l54 85h103zM282 348l118 187h-183z" />
    <glyph glyph-name="uni024F" unicode="&#x24f;" horiz-adv-x="497" 
d="M455 387h44l-10 -70h-66l-148 -322q-41 -91 -106 -144t-169 -64l-4 72q54 9 87.5 26t56.5 43.5t47 71.5h-34l-61 317h-68l10 70h45l-27 140h96l23 -140h191l62 140h95zM222 70l109 247h-149z" />
    <glyph glyph-name="uni0250" unicode="&#x250;" horiz-adv-x="534" 
d="M164 164q-1 -9 -1 -24q0 -42 20.5 -59.5t71.5 -17.5q58 0 142 29l21 -69q-98 -35 -183 -35q-81 0 -123 36.5t-42 105.5q0 18 3 36l34 242q2 16 2 22q0 18 -7.5 29t-26.5 18l26 63q39 -6 62 -24t30 -55q60 78 162 78q70 0 110.5 -38t40.5 -101q0 -94 -70 -144t-184 -50
h-82zM258 448.5q-34 -21.5 -63 -64.5l-16 -117h65q80 0 122.5 33t42.5 99q0 35 -19 53t-55 18q-43 0 -77 -21.5z" />
    <glyph glyph-name="uni0251" unicode="&#x251;" horiz-adv-x="569" 
d="M460 98q0 -18 7.5 -29t26.5 -18l-26 -63q-42 5 -65 26t-28 62q-32 -41 -72 -64.5t-85 -23.5q-81 0 -124.5 54.5t-43.5 148.5q0 84 31.5 164.5t90 132t135.5 51.5q43 0 73.5 -18t49.5 -59l21 65h72l-61 -407q-2 -16 -2 -22zM410 371q-13 53 -38.5 74t-64.5 21
q-49 0 -85 -39t-55 -102.5t-19 -134.5q0 -129 92 -129q39 0 71 25t67 72z" />
    <glyph glyph-name="uni0252" unicode="&#x252;" horiz-adv-x="569" 
d="M475.5 484.5q43.5 -54.5 43.5 -148.5q0 -84 -31.5 -164.5t-90 -132t-135.5 -51.5q-43 0 -73.5 18t-49.5 59l-21 -65h-72l61 407q2 16 2 22q0 18 -7.5 29t-26.5 18l26 63q42 -5 65 -26t28 -62q32 41 72 64.5t85 23.5q81 0 124.5 -54.5zM347 100q36 39 55 102.5t19 134.5
q0 129 -92 129q-39 0 -71 -25t-67 -72l-32 -213q13 -53 38.5 -74t64.5 -21q49 0 85 39z" />
    <glyph glyph-name="uni0253" unicode="&#x253;" horiz-adv-x="579" 
d="M486 485q42 -54 42 -153q0 -82 -29 -160.5t-92.5 -131t-160.5 -52.5q-44 0 -86 8t-100 27l71 503l11 76q9 68 56.5 108t123.5 40q36 0 63.5 -6.5t59.5 -21.5l-34 -65q-41 19 -86 19q-44 0 -65.5 -19.5t-26.5 -59.5l-10 -71l-8 -51q37 32 74 48t79 16q76 0 118 -54z
M354.5 103.5q40.5 42.5 59.5 106.5t19 129q0 127 -94 127q-38 0 -70 -20t-66 -56l-43 -313q25 -9 45 -12.5t48 -3.5q61 0 101.5 42.5z" />
    <glyph glyph-name="uni0254" unicode="&#x254;" horiz-adv-x="475" 
d="M-3 48l47 54q26 -21 50.5 -30t59.5 -10q58 0 97 38t57.5 98.5t18.5 127.5q0 72 -27 105.5t-82 33.5q-30 0 -58.5 -9.5t-61.5 -30.5l-38 59q74 55 165 55q95 0 146.5 -58t51.5 -159q0 -91 -32.5 -167.5t-94.5 -121.5t-145 -45q-91 0 -154 60z" />
    <glyph glyph-name="uni0255" unicode="&#x255;" horiz-adv-x="484" 
d="M410 208q29 -26 29 -73q0 -69 -54 -108t-136 -39q-37 0 -72 11l-43 -74l-56 26l44 75l1 1q-71 58 -71 176q0 76 28 153.5t88 130t151 52.5q92 0 153 -58l-49 -57q-24 21 -48 30t-55 9q-62 0 -100.5 -40.5t-55 -101.5t-16.5 -125q0 -59 22 -90l2 3q36 66 72 95.5t88 29.5
q49 0 78 -26zM333 84q27 18 27 51q0 15 -9 23.5t-26 8.5q-27 0 -48.5 -20t-54.5 -76q15 -5 40 -5q44 0 71 18z" />
    <glyph glyph-name="uni0256" unicode="&#x256;" horiz-adv-x="588" 
d="M608 -177q-53 -36 -118 -36q-63 0 -99 33t-36 94q0 21 2 32l8 54l13 86q-29 -47 -69.5 -72.5t-90.5 -25.5q-80 0 -123.5 56t-43.5 153q0 76 25.5 155t80.5 133t139 54q83 0 135 -66l39 275l90 -10l-104 -738l-9 -68q-1 -7 -1 -19q0 -52 51 -52q23 0 40 5.5t39 16.5z
M317 91.5q35 30.5 73 91.5l31 219q-20 32 -46 48t-62 16q-59 0 -96 -44t-53 -107.5t-16 -124.5q0 -65 23 -97t65 -32q46 0 81 30.5z" />
    <glyph glyph-name="uni0257" unicode="&#x257;" horiz-adv-x="587" 
d="M678.5 739q26.5 -11 49.5 -29l-41 -56q-18 12 -32 17t-36 5q-32 0 -53 -19.5t-26 -57.5l-10 -72l-74 -527h-80l1 87q-29 -47 -69 -73t-90 -26q-80 0 -123.5 56t-43.5 153q0 76 25.5 155t80.5 133t139 54q83 0 135 -66l8 54l10 70q11 76 54.5 114.5t112.5 38.5
q36 0 62.5 -11zM421 402q-20 32 -46 48t-62 16q-59 0 -96 -44t-53 -107.5t-16 -124.5q0 -65 23 -97t65 -32q46 0 81 30.5t73 91.5z" />
    <glyph glyph-name="uni0258" unicode="&#x258;" horiz-adv-x="518" 
d="M413 476q51 -63 50 -168q1 -90 -31 -162.5t-92.5 -115t-141.5 -42.5q-59 0 -102.5 17t-78.5 49l51 55q30 -23 60 -33.5t72 -10.5q57 0 95.5 35.5t56.5 95.5q-290 15 -290 173q0 50 26 89t70.5 60t96.5 21q107 0 158 -63zM209 295q52 -24 157 -30q3 26 3 52
q0 69 -27.5 109t-86.5 40q-45 0 -71.5 -25.5t-26.5 -68.5q0 -53 52 -77z" />
    <glyph glyph-name="uni0259" unicode="&#x259;" horiz-adv-x="517" 
d="M412.5 482.5q52.5 -56.5 52.5 -157.5q0 -79 -27.5 -156.5t-88.5 -129t-155 -51.5q-80 0 -123.5 39t-43.5 95q0 102 90 146.5t252 62.5q-3 131 -114 131q-37 0 -71 -12t-70 -37l-39 62q89 64 189 64q96 0 148.5 -56.5zM312 119q41 58 52 142q-124 -14 -182.5 -43
t-58.5 -93q0 -24 17 -44t55 -20q76 0 117 58z" />
    <glyph glyph-name="uni025A" unicode="&#x25a;" horiz-adv-x="754" 
d="M786 349q-53 -36 -120 -36q-61 0 -94.5 30.5t-33.5 81.5q0 13 1 19l2 9l-87 -44q11 -39 11 -84q0 -79 -27.5 -156.5t-88.5 -129t-155 -51.5q-80 0 -123.5 39t-43.5 95q0 102 90 146.5t252 62.5q-3 131 -114 131q-37 0 -71 -12t-70 -37l-39 62q89 64 189 64q109 0 162 -73
l124 61h87l-10 -73q-1 -7 -1 -19q0 -26 12.5 -37t37.5 -11q24 0 41 6t38 18zM312 119q41 58 52 142q-124 -14 -182.5 -43t-58.5 -93q0 -24 17 -44t55 -20q76 0 117 58z" />
    <glyph glyph-name="uni025B" unicode="&#x25b;" horiz-adv-x="483" 
d="M92.5 29.5q-52.5 41.5 -52.5 107.5q0 55 36 95t116 50q-94 26 -94 105q0 38 21 73t66 57t112 22q97 0 164 -55l-48 -53q-26 18 -52.5 27t-63.5 9q-53 0 -80.5 -23t-27.5 -59t24 -55t68 -19h62l-21 -72h-53q-72 0 -102 -28t-30 -73q0 -36 26 -56t77 -20q38 0 71.5 11.5
t75.5 37.5l40 -60q-89 -63 -195 -63q-87 0 -139.5 41.5z" />
    <glyph glyph-name="uni025C" unicode="&#x25c;" horiz-adv-x="490" 
d="M379 503q50 -36 50 -97q0 -46 -31 -79t-91 -46q56 -9 86.5 -38.5t30.5 -79.5q0 -45 -25.5 -85t-78 -65t-129.5 -25q-117 0 -195 65l49 56q65 -47 146 -47q69 0 102.5 29.5t33.5 72.5q0 41 -33 58t-92 17h-71l16 72h51q69 0 103 25.5t34 64.5q0 34 -23.5 50t-63.5 16
q-43 0 -75 -11t-72 -32l-39 56q44 30 91 44.5t104 14.5q72 0 122 -36z" />
    <glyph glyph-name="uni025D" unicode="&#x25d;" horiz-adv-x="732" 
d="M764 349q-53 -36 -120 -36q-61 0 -94.5 30.5t-33.5 81.5q0 13 1 19l2 9l-90 -46v-1q0 -46 -31 -79t-91 -46q56 -9 86.5 -38.5t30.5 -79.5q0 -45 -25.5 -85t-78 -65t-129.5 -25q-117 0 -195 65l49 56q65 -47 146 -47q69 0 102.5 29.5t33.5 72.5q0 41 -33 58t-92 17h-71
l16 72h51q69 0 103 25.5t34 64.5q0 34 -23.5 50t-63.5 16q-43 0 -75 -11t-72 -32l-39 56q44 30 91 44.5t104 14.5q50 0 91.5 -18.5t62.5 -51.5l117 58h87l-10 -73q-1 -7 -1 -19q0 -26 12.5 -37t37.5 -11q24 0 41 6t38 18z" />
    <glyph glyph-name="uni025E" unicode="&#x25e;" horiz-adv-x="556" 
d="M104 44.5q-52 56.5 -52 157.5q0 94 33 170.5t95 121.5t146 45q71 0 120 -37t49 -98q0 -46 -31 -78t-91 -45q56 -9 86.5 -38.5t30.5 -79.5q0 -45 -25.5 -85t-77.5 -65t-128 -25q-103 0 -155 56.5zM362.5 91.5q32.5 29.5 32.5 72.5q0 41 -33.5 58t-93.5 17h-28l16 72h8
q70 0 104.5 25.5t34.5 64.5q0 32 -21 49t-61 17q-59 0 -98 -39.5t-58 -101t-19 -128.5q0 -72 27.5 -104t89.5 -32q67 0 99.5 29.5z" />
    <glyph glyph-name="uni025F" unicode="&#x25f;" horiz-adv-x="318" 
d="M296 217h-95l-26 -188q-10 -73 -33.5 -116.5t-61 -70.5t-102.5 -55l-26 68q42 19 66.5 37.5t41 50.5t24.5 86l26 188h-95l10 70h95l34 240h91l-34 -240h95z" />
    <glyph glyph-name="uni0260" unicode="&#x260;" horiz-adv-x="584" 
d="M675.5 739q26.5 -11 49.5 -29l-41 -56q-18 12 -32 17t-36 5q-32 0 -53 -19.5t-26 -57.5l-10 -72l-77 -515q-18 -121 -80 -174.5t-161 -53.5q-47 0 -95.5 14t-86.5 37l35 70q29 -17 66.5 -29.5t75.5 -12.5q63 0 104 31t53 119l9 67q-30 -37 -68.5 -58.5t-79.5 -21.5
q-81 0 -126 53.5t-45 144.5q0 85 30 163t93.5 128t160.5 50q53 0 100 -19l11 77q11 76 54.5 114.5t112.5 38.5q36 0 62.5 -11zM313.5 99q34.5 26 69.5 73l41 277q-22 10 -41 13.5t-46 3.5q-63 0 -105.5 -39t-62.5 -100.5t-20 -129.5q0 -63 24 -93.5t66 -30.5q40 0 74.5 26z
" />
    <glyph glyph-name="uni0261" unicode="&#x261;" horiz-adv-x="580" 
d="M431.5 528q44.5 -11 91.5 -34l-73 -482q-18 -121 -80 -174.5t-161 -53.5q-47 0 -95.5 14t-86.5 37l35 70q29 -17 66.5 -29.5t75.5 -12.5q63 0 104 31t53 119l9 67q-31 -37 -69.5 -58.5t-80.5 -21.5q-79 0 -124 53.5t-45 144.5q0 85 30 163t94 128t162 50q50 0 94.5 -11z
M231.5 427q-42.5 -39 -62.5 -100.5t-20 -129.5q0 -63 24 -93.5t66 -30.5q40 0 74.5 26t69.5 73l43 277q-23 9 -43 13t-46 4q-63 0 -105.5 -39z" />
    <glyph glyph-name="uni0262" unicode="&#x262;" horiz-adv-x="555" 
d="M432 522.5q39 -16.5 76 -49.5l-55 -54q-28 24 -55.5 34t-64.5 10q-60 0 -101.5 -37.5t-62.5 -98.5t-21 -130q0 -72 28 -103.5t85 -31.5q53 0 108 23l17 141h-95v71h194l-34 -256q-97 -52 -198 -52q-96 0 -148.5 54.5t-52.5 157.5q0 92 36 169.5t100.5 123t147.5 45.5
q57 0 96 -16.5z" />
    <glyph glyph-name="uni0263" unicode="&#x263;" horiz-adv-x="486" 
d="M262 62q21 -51 31 -83.5t10 -65.5q0 -63 -33 -94.5t-91 -31.5q-48 0 -75 24.5t-27 64.5q0 38 22.5 84.5t66.5 104.5l-119 462h99l76 -400l192 400h100zM220 -47q-4 20 -13 49q-21 -32 -36 -65.5t-15 -54.5q0 -26 27 -26q41 0 41 55q0 22 -4 42z" />
    <glyph glyph-name="uni0264" unicode="&#x264;" horiz-adv-x="523" 
d="M522.5 531.5q16.5 -7.5 33.5 -22.5l-35 -49q-14 10 -29 10t-26 -10t-28 -36l-133 -201q21 -41 30.5 -68t9.5 -57q0 -49 -31 -79.5t-87 -30.5q-45 0 -71 24t-26 63q0 35 20.5 71t58.5 81l-76 210q-7 19 -14 26t-20 7q-18 0 -36 -12l-26 55q34 26 76 26t65.5 -25t37.5 -78
l48 -151l92 155q32 54 59 76.5t67 22.5q24 0 40.5 -7.5zM263.5 133q-4.5 16 -13.5 39q-43 -55 -43 -89q0 -26 25 -26q16 0 26 11.5t10 31.5q0 17 -4.5 33z" />
    <glyph glyph-name="uni0265" unicode="&#x265;" horiz-adv-x="576" 
d="M374 99q-74 -111 -174 -111q-60 0 -94 35.5t-34 97.5q0 21 2 33l53 373h91l-52 -368q-2 -22 -2 -29q0 -35 14.5 -50t40.5 -15q48 0 91.5 41t79.5 105l43 316h91l-103 -732l-91 -11z" />
    <glyph glyph-name="uni0266" unicode="&#x266;" horiz-adv-x="581" 
d="M475 504q34 -35 34 -97q0 -22 -2 -34l-53 -373h-91l52 368q2 22 2 30q0 35 -14.5 49.5t-40.5 14.5q-48 0 -91.5 -41t-79.5 -105l-43 -316h-91l74 526l11 76q9 68 56.5 108t123.5 40q36 0 63.5 -6.5t59.5 -21.5l-34 -65q-41 19 -86 19q-44 0 -65.5 -19.5t-26.5 -59.5
l-10 -71l-14 -98q71 111 172 111q60 0 94 -35z" />
    <glyph glyph-name="uni0267" unicode="&#x267;" horiz-adv-x="581" 
d="M475 504q34 -35 34 -97q0 -22 -2 -34l-53 -373l-8 -60q-11 -76 -55.5 -114.5t-112.5 -38.5q-63 0 -111 40l41 56q18 -12 32 -17t34 -5q33 0 54 19t26 58l9 62l52 368q2 22 2 30q0 35 -14.5 49.5t-40.5 14.5q-48 0 -91.5 -41t-79.5 -105l-43 -316h-91l74 526l11 76
q9 68 56.5 108t123.5 40q36 0 63.5 -6.5t59.5 -21.5l-34 -65q-41 19 -86 19q-44 0 -65.5 -19.5t-26.5 -59.5l-10 -71l-14 -98q71 111 172 111q60 0 94 -35z" />
    <glyph glyph-name="uni0268" unicode="&#x268;" horiz-adv-x="313" 
d="M170.5 671.5q-16.5 16.5 -16.5 40.5q0 29 20 48.5t49 19.5q27 0 43 -16t16 -41q0 -29 -20 -48.5t-49 -19.5q-26 0 -42.5 16.5zM305 317l-11 -70h-96l-35 -247h-91l35 247h-94l11 70h93l29 210h91l-29 -210h97z" />
    <glyph glyph-name="uni0269" unicode="&#x269;" horiz-adv-x="288" 
d="M126 527h91l-60 -424q-1 -5 -1 -13q0 -14 6 -20t20 -6q15 0 36 7l19 -66q-38 -17 -73 -17q-46 0 -71.5 25t-25.5 74q0 9 2 31z" />
    <glyph glyph-name="uni026A" unicode="&#x26a;" horiz-adv-x="322" 
d="M329 457h-96l-54 -387h95l-10 -70h-281l10 70h94l54 387h-93l9 70h281z" />
    <glyph glyph-name="uni026B" unicode="&#x26b;" horiz-adv-x="388" 
d="M206 103q-1 -5 -1 -13q0 -14 6 -20t19 -6q15 0 36 7l19 -66q-38 -17 -73 -17q-46 0 -71.5 25t-25.5 74q0 9 2 31l33 234q-14 8 -28 8q-45 0 -84 -56l-54 33q60 95 146 95q16 0 31 -5l44 312l92 11l-52 -372q14 -7 27 -7q25 0 46 14t36 36l53 -34q-59 -89 -143 -89
q-18 0 -30 4z" />
    <glyph glyph-name="uni026C" unicode="&#x26c;" horiz-adv-x="365" 
d="M275 71l19 -66q-38 -17 -73 -17q-46 0 -71.5 25t-25.5 74q0 9 2 31l19 136h-1q-61 3 -93 30t-32 72q0 47 34 77t85 30q24 0 36 -4l40 280l92 11l-61 -434q28 1 78 11l3 -57q-44 -10 -89 -14l-22 -153q-1 -5 -1 -13q0 -14 6 -20t19 -6q15 0 36 7zM154 316l13 88
q-12 3 -26 3q-21 0 -35 -13t-14 -37q0 -41 61 -41h1z" />
    <glyph glyph-name="uni026D" unicode="&#x26d;" horiz-adv-x="279" 
d="M300 -177q-53 -36 -118 -36q-63 0 -99 33t-36 94q0 21 2 32l8 54l105 739l92 11l-106 -750l-9 -68q-1 -7 -1 -19q0 -52 51 -52q23 0 40 5.5t39 16.5z" />
    <glyph glyph-name="uni026E" unicode="&#x26e;" horiz-adv-x="656" 
d="M631 457l-246 -251q103 -1 155 -46t52 -125q0 -73 -34 -129.5t-94.5 -87.5t-137.5 -31q-66 0 -112.5 21.5t-81.5 64.5l55 49q31 -33 63 -46.5t76 -13.5q79 0 124.5 49t45.5 124q0 57 -32 80t-106 23h-81l1 1l9 66l237 246h-317l-49 -348q-1 -5 -1 -13q0 -14 6 -20t19 -6
q15 0 36 7l19 -66q-38 -17 -73 -17q-46 0 -71.5 25t-25.5 74q0 9 2 31l88 621l92 11l-31 -223h422z" />
    <glyph glyph-name="uni026F" unicode="&#x26f;" horiz-adv-x="848" 
d="M791 527l-74 -527h-78l8 101q-39 -55 -80.5 -84t-91.5 -29q-44 0 -76 28t-39 79q-40 -53 -82.5 -80t-90.5 -27q-53 0 -84.5 35.5t-31.5 95.5q0 22 2 33l53 375h91l-52 -368q-2 -12 -2 -31q0 -36 15 -49.5t42 -13.5q38 0 75 39.5t74 104.5l45 318h91l-52 -368
q-2 -12 -2 -31q0 -36 15 -49.5t42 -13.5q38 0 75 40t74 106l43 316h91z" />
    <glyph glyph-name="uni0270" unicode="&#x270;" horiz-adv-x="843" 
d="M791 527l-104 -732l-94 -11l46 305q-73 -101 -164 -101q-42 0 -75 27t-40 79q-79 -106 -173 -106q-53 0 -84.5 35.5t-31.5 95.5q0 22 2 33l53 375h91l-52 -368q-2 -12 -2 -31q0 -36 15 -49.5t42 -13.5q71 0 148 136l46 326h91l-52 -368q-2 -12 -2 -31q0 -36 15 -49.5
t42 -13.5q39 0 75.5 37t72.5 100l44 325h91z" />
    <glyph glyph-name="uni0271" unicode="&#x271;" horiz-adv-x="848" 
d="M745.5 503.5q31.5 -35.5 31.5 -95.5q0 -22 -2 -33l-53 -375l-8 -60q-11 -76 -55.5 -114.5t-112.5 -38.5q-63 0 -111 40l41 56q18 -12 32 -17t34 -5q33 0 54 19t26 58l9 62l52 368q2 12 2 31q0 36 -15 49.5t-42 13.5q-38 0 -75 -39.5t-74 -104.5l-45 -318h-91l52 368
q2 12 2 31q0 36 -15 49.5t-42 13.5q-38 0 -75 -40t-74 -106l-43 -316h-91l74 527h78l-8 -101q39 55 80.5 84t91.5 29q44 0 76 -28t39 -79q40 53 82.5 80t90.5 27q53 0 84.5 -35.5z" />
    <glyph glyph-name="uni0272" unicode="&#x272;" horiz-adv-x="580" 
d="M475.5 503.5q33.5 -35.5 33.5 -97.5q0 -16 -3 -36l-52 -370h-91l52 368q2 22 2 29q0 35 -15 50t-43 15q-46 0 -88.5 -41t-78.5 -105l-44 -316l-8 -60q-11 -76 -55.5 -114.5t-112.5 -38.5q-63 0 -111 40l41 56q18 -12 32 -17t34 -5q33 0 54 19t26 58l9 62l74 527h78
l-8 -103q39 55 84 85t99 30q58 0 91.5 -35.5z" />
    <glyph glyph-name="uni0273" unicode="&#x273;" horiz-adv-x="580" 
d="M606 -177q-53 -36 -118 -36q-63 0 -99 33t-36 94q0 21 2 32l8 54l52 368q2 22 2 29q0 35 -15 50t-43 15q-46 0 -88.5 -41t-78.5 -105l-44 -316h-91l74 527h78l-8 -103q39 55 84 85t99 30q58 0 91.5 -35.5t33.5 -97.5q0 -16 -3 -36l-52 -370l-9 -68q-1 -7 -1 -19
q0 -52 51 -52q23 0 40 5.5t39 16.5z" />
    <glyph glyph-name="uni0274" unicode="&#x274;" horiz-adv-x="589" 
d="M458 0h-116l-151 433q-4 -106 -21 -227l-29 -206h-84l74 527h116l151 -435q-2 62 10 151l40 284h84z" />
    <glyph glyph-name="uni0275" unicode="&#x275;" horiz-adv-x="578" 
d="M474 481q52 -58 52 -160q0 -73 -27 -149.5t-88 -130t-157 -53.5q-97 0 -149.5 58t-52.5 160q0 74 27.5 150.5t88.5 129.5t157 53q97 0 149 -58zM215 419.5q-40 -45.5 -57 -116.5h274q1 10 1 28q0 134 -111 134q-67 0 -107 -45.5zM366.5 110.5q40.5 48.5 55.5 122.5h-275
q-2 -13 -2 -37q0 -68 28 -101t84 -33q69 0 109.5 48.5z" />
    <glyph glyph-name="uni0276" unicode="&#x276;" horiz-adv-x="746" 
d="M728 456h-250q22 -25 34.5 -66t12.5 -87h152l-10 -71h-150q-11 -49 -34.5 -90.5t-59.5 -70.5h266l-10 -71h-352q-36 -12 -75 -12q-96 0 -148 58t-52 160q0 74 27.5 150.5t88.5 129.5t157 53q41 0 78 -12h345zM359 105.5q39 43.5 55 105t16 120.5q0 134 -108 134
q-63 0 -102 -43.5t-55.5 -105t-16.5 -120.5q0 -134 109 -134q63 0 102 43.5z" />
    <glyph glyph-name="uni0277" unicode="&#x277;" horiz-adv-x="756" 
d="M627.5 471q71.5 -68 71.5 -182q0 -78 -25.5 -147t-75 -111.5t-118.5 -42.5q-57 0 -89 29t-34 88q-22 -62 -59 -89.5t-96 -27.5q-68 0 -111 46.5t-43 140.5q0 112 45 194t127.5 126t194.5 44q141 0 212.5 -68zM576.5 125.5q31.5 63.5 31.5 162.5q0 88 -47 133t-152 45
q-135 0 -202 -77.5t-67 -217.5q0 -57 18 -83t56 -26q43 0 71 27t37 95l17 121l90 12l-19 -139q-3 -19 -3 -36q0 -80 70 -80q68 0 99.5 63.5z" />
    <glyph glyph-name="uni0278" unicode="&#x278;" horiz-adv-x="621" 
d="M548 158.5q-31 -69.5 -90 -111t-141 -44.5l-28 -205l-92 -11l31 217q-88 7 -137 62t-49 146q0 87 30.5 157t89.5 111t140 44l29 214l92 10l-31 -225q88 -7 137.5 -62.5t49.5 -146.5q0 -86 -31 -155.5zM295 453q-79 -9 -118 -75.5t-39 -168.5q0 -63 25 -96t78 -37z
M443.5 150.5q39.5 66.5 39.5 165.5q0 127 -103 136l-54 -377q78 9 117.5 75.5z" />
    <glyph glyph-name="uni0279" unicode="&#x279;" horiz-adv-x="381" 
d="M-28 -5l27 89q19 -5 43 -5q49 0 85.5 42.5t65.5 126.5l40 279h91l-74 -527h-78l6 108q-29 -60 -68.5 -90t-84.5 -30q-25 0 -53 7z" />
    <glyph glyph-name="uni027A" unicode="&#x27a;" horiz-adv-x="381" 
d="M354 738l-30 -211l-74 -527h-78l6 108q-29 -60 -68.5 -90t-84.5 -30q-25 0 -53 7l27 89q19 -5 43 -5q49 0 85.5 42.5t65.5 126.5l40 279l31 221z" />
    <glyph glyph-name="uni027B" unicode="&#x27b;" horiz-adv-x="381" 
d="M402 -177q-53 -36 -118 -36q-63 0 -99 33t-36 94q0 21 2 32l8 54l15 94q-28 -52 -66.5 -79t-82.5 -27q-25 0 -53 7l27 89q19 -5 43 -5q49 0 85.5 42.5t65.5 126.5l40 279h91l-74 -527l-9 -68q-1 -7 -1 -19q0 -52 51 -52q23 0 40 5.5t39 16.5z" />
    <glyph glyph-name="uni027C" unicode="&#x27c;" horiz-adv-x="382" 
d="M410 532l-27 -89q-19 5 -43 5q-49 0 -86 -43t-66 -126l-70 -483l-91 -12l105 743h78l-6 -108q29 60 68.5 90t84.5 30q25 0 53 -7z" />
    <glyph glyph-name="uni027D" unicode="&#x27d;" horiz-adv-x="381" 
d="M409 532l-27 -89q-19 5 -43 5q-49 0 -85.5 -42.5t-65.5 -126.5l-40 -279l-9 -68q-1 -7 -1 -19q0 -52 51 -52q23 0 40 5.5t39 16.5l32 -60q-53 -36 -118 -36q-63 0 -99 33t-36 94q0 21 2 32l8 54l74 527h78l-6 -108q29 60 68.5 90t84.5 30q25 0 53 -7z" />
    <glyph glyph-name="uni027E" unicode="&#x27e;" horiz-adv-x="365" 
d="M385 501l-41 -56q-18 12 -32 17t-34 5q-33 0 -54 -19t-26 -58l-9 -62l-46 -328h-91l46 328l8 60q11 76 55.5 114.5t112.5 38.5q63 0 111 -40z" />
    <glyph glyph-name="uni027F" unicode="&#x27f;" horiz-adv-x="370" 
d="M264 508q36 -33 36 -94q0 -21 -2 -32l-8 -54l-46 -328h-91l46 328l9 68q1 7 1 19q0 52 -51 52q-23 0 -40 -5.5t-39 -16.5l-32 60q53 36 118 36q63 0 99 -33z" />
    <glyph glyph-name="uni0280" unicode="&#x280;" horiz-adv-x="519" 
d="M335 219l114 -219h-99l-98 202h-76l-28 -202h-91l74 527h139q97 0 148 -37t51 -108q0 -119 -134 -163zM186 272h61q61 0 94 29t33 79q0 42 -26.5 59.5t-83.5 17.5h-52z" />
    <glyph glyph-name="uni0281" unicode="&#x281;" horiz-adv-x="521" 
d="M440 183q0 -91 -64.5 -137t-174.5 -46h-144l74 527h91l-28 -202h79l154 202h98l-175 -218q90 -36 90 -126zM309 98.5q37 28.5 37 82.5q0 40 -26 57t-75 17h-61l-26 -185h47q67 0 104 28.5z" />
    <glyph glyph-name="uni0282" unicode="&#x282;" horiz-adv-x="461" 
d="M376 255q36 -37 36 -100q0 -55 -31 -92.5t-80.5 -56t-107.5 -18.5q-60 0 -114 26l-12 -85q-1 -7 -1 -19q0 -28 13.5 -40t40.5 -12q24 0 40 5.5t38 18.5l32 -62q-53 -36 -116 -36q-64 0 -99 32.5t-35 94.5q0 21 2 32l16 121l44 51q37 -24 74 -38.5t81 -14.5q63 0 91 27.5
t28 58.5q0 26 -10.5 42t-33 28t-67.5 27q-75 25 -108 58.5t-33 86.5q0 37 22.5 71t68 56t111.5 22q97 0 170 -65l-45 -58q-26 25 -59 37.5t-66 12.5q-51 0 -80 -19t-29 -52q0 -30 24 -46.5t82 -33.5q77 -23 113 -60z" />
    <glyph glyph-name="uni0283" unicode="&#x283;" horiz-adv-x="279" 
d="M370.5 739q26.5 -11 49.5 -29l-41 -56q-18 12 -32 17t-36 5q-32 0 -53 -19.5t-26 -57.5l-10 -72l-74 -527l-8 -60q-11 -76 -55.5 -114.5t-112.5 -38.5q-63 0 -111 40l41 56q18 -12 32 -17t34 -5q33 0 54 19t26 58l9 62l74 527l10 70q11 76 54.5 114.5t112.5 38.5
q36 0 62.5 -11z" />
    <glyph glyph-name="uni0284" unicode="&#x284;" horiz-adv-x="314" 
d="M389.5 739q26.5 -11 49.5 -29l-41 -56q-18 12 -32 17t-36 5q-32 0 -53 -19.5t-26 -57.5l-10 -72l-64 -457h92l-10 -70h-93q-12 -61 -35.5 -99.5t-59.5 -63t-97 -50.5l-26 69q39 17 62.5 33t40 42.5t25.5 68.5h-98l10 70h98l64 457l10 70q11 76 54.5 114.5t112.5 38.5
q36 0 62.5 -11z" />
    <glyph glyph-name="uni0285" unicode="&#x285;" horiz-adv-x="445" 
d="M411 24q-53 -36 -118 -36q-63 0 -99 33t-36 94q0 21 2 32l8 54l18 125l9 68q1 7 1 19q0 52 -51 52q-23 0 -40 -5.5t-39 -16.5l-32 60q53 36 118 36q63 0 99 -33t36 -94q0 -21 -2 -32l-8 -54l-18 -125l-9 -68q-1 -7 -1 -19q0 -52 51 -52q23 0 40 5.5t39 16.5z" />
    <glyph glyph-name="uni0286" unicode="&#x286;" horiz-adv-x="303" 
d="M394.5 739q26.5 -11 49.5 -29l-41 -56q-18 12 -32 17t-36 5q-32 0 -53 -19.5t-26 -57.5l-10 -72l-76 -537q51 -12 105 -39l-26 -49q-48 20 -90 31q-20 -71 -66.5 -108t-116.5 -37q-54 0 -85.5 27t-31.5 74q0 57 44.5 90.5t110.5 33.5q41 0 69 -5l72 519l10 70
q11 76 54.5 114.5t112.5 38.5q36 0 62.5 -11zM40.5 -124.5q22.5 24.5 33.5 75.5q-21 4 -60 4t-60.5 -17t-21.5 -45q0 -20 12 -31t36 -11q38 0 60.5 24.5z" />
    <glyph glyph-name="uni0287" unicode="&#x287;" horiz-adv-x="355" 
d="M310 0h-95l-33 -122l-72 -8l18 130h-124l20 71h114l44 317q2 20 2 26q0 25 -11.5 36.5t-35.5 11.5q-18 0 -35.5 -5.5t-40.5 -16.5l-30 64q55 35 117 35q61 0 94 -31.5t33 -89.5q0 -21 -2 -32l-44 -315h91z" />
    <glyph glyph-name="uni0288" unicode="&#x288;" horiz-adv-x="355" 
d="M145 -68q-1 -7 -1 -19q0 -52 51 -52q23 0 40 5.5t39 16.5l32 -60q-53 -36 -118 -36q-63 0 -99 33t-36 94q0 21 2 32l8 54l63 456h-91l10 71h95l33 122l72 8l-18 -130h124l-20 -71h-114l-63 -456z" />
    <glyph glyph-name="uni0289" unicode="&#x289;" horiz-adv-x="598" 
d="M585 317h-85l-45 -317h-78l7 97q-39 -54 -80.5 -81.5t-93.5 -27.5q-61 0 -95.5 34.5t-34.5 95.5q0 17 3 35l23 164h-84l10 70h84l20 140h91l-20 -140h211l20 140h91l-20 -140h86zM409 317h-212l-22 -160q-3 -18 -3 -33q0 -34 14.5 -49t43.5 -15q45 0 83.5 34t76.5 90z
" />
    <glyph glyph-name="uni028A" unicode="&#x28a;" horiz-adv-x="578" 
d="M104.5 45.5q-54.5 57.5 -54.5 150.5q0 160 126 262h-80l10 69h160l-9 -72q-58 -57 -85.5 -120t-27.5 -139q0 -135 113 -135q56 0 94.5 32t57 84t18.5 111q0 61 -13 99.5t-37 71.5l7 68h160l-10 -69h-81q33 -37 50.5 -79t17.5 -95q0 -80 -34 -148t-95 -108t-138 -40
q-95 0 -149.5 57.5z" />
    <glyph glyph-name="uni028B" unicode="&#x28b;" horiz-adv-x="576" 
d="M117.5 27q-44.5 39 -44.5 107q0 10 2 30l51 363h91l-51 -361q-2 -20 -2 -27q0 -77 73 -77q61 0 107 47.5t61 156.5l22 158q1 4 1 11q0 28 -28 28q-16 0 -32 -7l-19 66q34 17 70 17q46 0 73 -26t27 -74q0 -7 -2 -25l-22 -152q-19 -140 -91.5 -207t-172.5 -67
q-69 0 -113.5 39z" />
    <glyph glyph-name="uni028C" unicode="&#x28c;" horiz-adv-x="486" 
d="M-28 0l252 527h109l106 -527h-99l-72 444l-196 -444h-100z" />
    <glyph glyph-name="uni028D" unicode="&#x28d;" horiz-adv-x="711" 
d="M-17 0l191 527h125l28 -444l157 444h121l48 -527h-90l-29 463l-167 -463h-103l-33 463l-160 -463h-88z" />
    <glyph glyph-name="uni028E" unicode="&#x28e;" horiz-adv-x="486" 
d="M216 532q46 99 111 154t169 66l4 -72q-54 -9 -88.5 -27t-58.5 -48t-49 -80l34 2l101 -527h-96l-74 457l-202 -457h-95z" />
    <glyph glyph-name="uni028F" unicode="&#x28f;" horiz-adv-x="472" 
d="M500 527l-227 -329l-28 -198h-92l29 197l-135 330h95l93 -261l165 261h100z" />
    <glyph glyph-name="uni0290" unicode="&#x290;" horiz-adv-x="431" 
d="M512 -177q-53 -36 -118 -36q-63 0 -99 33t-36 94q0 21 2 32l8 54h-282l9 69l317 380h-240l11 78h352l-9 -70l-318 -380h261l-10 -77l-9 -68q-1 -7 -1 -19q0 -52 51 -52q23 0 40 5.5t39 16.5z" />
    <glyph glyph-name="uni0291" unicode="&#x291;" horiz-adv-x="442" 
d="M402.5 31q-54.5 -30 -144.5 -31q-12 -47 -23 -125l-67 6q7 49 21 119h-202l9 69l323 380h-246l11 78h352l-9 -70l-323 -380h108q43 137 149 137q43 0 69.5 -22.5t26.5 -62.5q0 -68 -54.5 -98zM358 91q24 11 24 38q0 24 -29 24q-22 0 -39 -16.5t-31 -58.5q51 2 75 13z" />
    <glyph glyph-name="uni0292" unicode="&#x292;" horiz-adv-x="475" 
d="M450 457l-246 -251q103 -1 155 -46t52 -125q0 -73 -34 -129.5t-94.5 -87.5t-137.5 -31q-68 0 -116 23t-83 69l57 48q33 -36 65 -50.5t77 -14.5q79 0 124.5 49t45.5 124q0 57 -32 80t-106 23h-81l1 1l9 66l237 246h-287l11 76h392z" />
    <glyph glyph-name="uni0293" unicode="&#x293;" horiz-adv-x="478" 
d="M453 457l-246 -251q103 -1 155 -46t52 -125q0 -87 -52.5 -149t-145.5 -86l17 -54l-65 -25l-21 68q-26 -2 -42 -2q-92 0 -139 32.5t-47 90.5q0 51 36 85.5t89 34.5q60 0 93 -35.5t56 -122.5q63 17 94 60t31 103q0 57 -32 80t-106 23h-81l1 1l9 66l237 246h-287l11 76h392z
M24 -124.5q27 -13.5 85 -13.5h17q-18 60 -35 80.5t-46 20.5q-21 0 -34.5 -13t-13.5 -33q0 -28 27 -41.5z" />
    <glyph glyph-name="uni0294" unicode="&#x294;" horiz-adv-x="440" 
d="M144 348l62 19q80 25 116 73.5t36 121.5q0 114 -110 114q-41 0 -77 -15.5t-80 -46.5l-43 53q49 43 98.5 63t109.5 20q96 0 147 -50.5t51 -136.5q0 -102 -52.5 -163.5t-155.5 -92.5l-17 -5l-42 -302h-91z" />
    <glyph glyph-name="uni0295" unicode="&#x295;" horiz-adv-x="437" 
d="M177 0l44 302l-15 5q-66 23 -106 63.5t-40 118.5q0 74 32 133.5t90.5 93.5t133.5 34q59 0 103.5 -21.5t82.5 -65.5l-54 -48q-31 32 -61.5 46.5t-70.5 14.5q-51 0 -87.5 -25.5t-55 -68.5t-18.5 -94q0 -53 26 -80.5t77 -42.5l59 -17l-49 -348h-91z" />
    <glyph glyph-name="uni0296" unicode="&#x296;" horiz-adv-x="505" 
d="M315 748l-44 -311l26 -6q61 -14 103.5 -59t42.5 -127q0 -73 -33 -131.5t-91 -91.5t-131 -33q-59 0 -104 22t-83 65l53 48q32 -32 63.5 -46.5t71.5 -14.5q75 0 117 50.5t42 131.5q0 58 -25 87.5t-78 43.5l-70 15l49 347z" />
    <glyph glyph-name="uni0297" unicode="&#x297;" horiz-adv-x="490" 
d="M423 525q35 -14 68 -45l-47 -54q-24 20 -47.5 28.5t-53.5 8.5q-66 0 -110 -63.5t-65 -158.5t-21 -189q0 -98 25.5 -141.5t76.5 -43.5q30 0 56.5 10t60.5 32l38 -64q-77 -56 -160 -56q-93 0 -142.5 67.5t-49.5 195.5q0 122 33 233.5t99 182.5t160 71q44 0 79 -14z" />
    </font>
</defs>
</svg>
