<?xml version="1.0" standalone="no"?>
<!DOCTYPE svg PUBLIC "-//W3C//DTD SVG 1.1//EN" "http://www.w3.org/Graphics/SVG/1.1/DTD/svg11.dtd" >
<svg xmlns="http://www.w3.org/2000/svg" xmlns:xlink="http://www.w3.org/1999/xlink" version="1.1">
<metadata>
Created by FontForge 20170731 at Fri Dec  2 11:32:35 2016
 By Aleksey,,,
Digitized data copyright 2012-2016, The Mozilla Foundation and Telefonica S.A.
</metadata>
<defs>
<font id="FiraSans-LightItalic" horiz-adv-x="560" >
  <font-face 
    font-family="Fira Sans Light"
    font-weight="300"
    font-style="italic"
    font-stretch="normal"
    units-per-em="1000"
    panose-1="2 11 4 3 5 0 0 2 0 4"
    ascent="800"
    descent="-200"
    x-height="523"
    cap-height="685"
    bbox="-764 -350 1417 1050"
    underline-thickness="50"
    underline-position="-150"
    slope="-8"
    unicode-range="U+000D-FEFF"
  />
<missing-glyph horiz-adv-x="663" 
d="M652 1050l-198 -1400h-418l198 1400h418zM590 998h-309l-183 -1296h309zM421.5 425.5q23.5 -25.5 23.5 -66.5q0 -8 -2 -26q-7 -52 -32.5 -80t-76.5 -35l-8 -47q-1 -10 -9 -16t-16 -6q-11 0 -18 7.5t-6 18.5l10 82q53 3 75.5 21t28.5 59q1 7 1 20q0 22 -11 34t-39 12
q-17 0 -29 -2.5t-25 -9.5l-13 -2q-12 0 -18.5 7.5t-4.5 18.5q2 18 31.5 27t62.5 9q52 0 75.5 -25.5zM316 109q9 -11 7 -27q-1 -15 -11.5 -24.5t-24.5 -9.5q-15 0 -23.5 9.5t-8.5 24.5q0 17 10 27.5t26 10.5t25 -11z" />
    <glyph glyph-name="fi" unicode="fi" horiz-adv-x="565" 
d="M423 0h-58l67 476h-233l-64 -459q-10 -68 -30 -108t-51.5 -64t-87.5 -49l-18 45q41 19 65 38t40 51.5t24 88.5l64 457h-91l7 47h91l12 87q8 63 53 98.5t120 35.5q73 0 137 -43l-23 -40q-53 34 -114 34q-53 0 -81.5 -21.5t-34.5 -67.5l-12 -83h292z" />
    <glyph glyph-name="fl" unicode="fl" horiz-adv-x="583" 
d="M506 47l13 -44q-31 -14 -60 -14q-82 0 -82 82q0 8 2 26l81 575q-35 12 -64.5 17.5t-65.5 5.5q-101 0 -113 -89l-12 -83h137l-13 -47h-130l-64 -459q-10 -68 -30 -108t-51.5 -64t-87.5 -49l-18 45q41 19 65 38t40 51.5t24 88.5l64 457h-91l7 47h91l12 87q8 63 53 98.5
t118 35.5q72 0 139 -26l54 6l-89 -636q-1 -5 -1 -14q0 -18 8 -26.5t26 -8.5q16 0 38 8z" />
    <glyph glyph-name=".notdef" horiz-adv-x="663" 
d="M652 1050l-198 -1400h-418l198 1400h418zM590 998h-309l-183 -1296h309zM421.5 425.5q23.5 -25.5 23.5 -66.5q0 -8 -2 -26q-7 -52 -32.5 -80t-76.5 -35l-8 -47q-1 -10 -9 -16t-16 -6q-11 0 -18 7.5t-6 18.5l10 82q53 3 75.5 21t28.5 59q1 7 1 20q0 22 -11 34t-39 12
q-17 0 -29 -2.5t-25 -9.5l-13 -2q-12 0 -18.5 7.5t-4.5 18.5q2 18 31.5 27t62.5 9q52 0 75.5 -25.5zM316 109q9 -11 7 -27q-1 -15 -11.5 -24.5t-24.5 -9.5q-15 0 -23.5 9.5t-8.5 24.5q0 17 10 27.5t26 10.5t25 -11z" />
    <glyph glyph-name=".null" horiz-adv-x="0" 
 />
    <glyph glyph-name="nonmarkingreturn" unicode="&#xd;" horiz-adv-x="276" 
 />
    <glyph glyph-name="space" unicode=" " horiz-adv-x="276" 
 />
    <glyph glyph-name="exclam" unicode="!" horiz-adv-x="238" 
d="M86 218l61 467h62l-71 -467h-52zM55 1.5q-12 12.5 -12 31.5q0 22 14.5 37t36.5 15q20 0 32 -12.5t12 -31.5q0 -22 -15 -37t-37 -15q-19 0 -31 12.5z" />
    <glyph glyph-name="quotedbl" unicode="&#x22;" horiz-adv-x="360" 
d="M103 433l26 252h63l-45 -252h-44zM261 433l26 252h63l-45 -252h-44z" />
    <glyph glyph-name="numbersign" unicode="#" horiz-adv-x="501" 
d="M513 452h-79l-61 -225h72l-7 -47h-78l-49 -180h-54l49 180h-178l-49 -180h-53l49 180h-72l7 47h78l61 225h-70l6 47h77l45 166h54l-45 -166h178l45 166h53l-45 -166h72zM319 227l62 225h-178l-62 -225h178z" />
    <glyph glyph-name="dollar" unicode="$" horiz-adv-x="522" 
d="M417.5 310.5q43.5 -41.5 43.5 -108.5q0 -51 -22.5 -97t-70.5 -77.5t-121 -37.5l-20 -141h-51l20 140q-56 4 -102.5 26t-81.5 58l37 35q67 -69 169 -69q88 0 135.5 45t47.5 114q0 47 -31 77t-104 55q-88 29 -128 68.5t-40 100.5q0 77 52.5 124t142.5 52l19 144h51
l-21 -146q46 -5 83 -23t71 -50l-36 -36q-65 62 -153 62q-68 0 -109 -32t-41 -92q0 -45 30 -73t104 -51q83 -26 126.5 -67.5z" />
    <glyph glyph-name="percent" unicode="%" horiz-adv-x="791" 
d="M669 703l-559 -699l40 -28l559 699zM123 388q-36 37 -36 98q0 43 18 87t56.5 73.5t95.5 29.5q60 0 95.5 -36t35.5 -97q0 -44 -17.5 -88t-55.5 -74t-97 -30t-95 37zM288 418.5q26 25.5 36.5 60.5t10.5 65q0 41 -18.5 65.5t-58.5 24.5q-44 0 -70.5 -25t-37 -59.5
t-10.5 -65.5q0 -41 19 -66t59 -25q44 0 70 25.5zM458 26q-36 37 -36 98q0 44 18 88t56.5 73.5t96.5 29.5q59 0 95 -36.5t36 -97.5q0 -43 -17.5 -87.5t-56 -74.5t-97.5 -30t-95 37zM623.5 57.5q26.5 25.5 37 60t10.5 64.5q0 41 -18.5 65.5t-59.5 24.5q-44 0 -70.5 -25
t-37 -59.5t-10.5 -65.5q0 -41 19 -65.5t59 -24.5q44 0 70.5 25.5z" />
    <glyph glyph-name="ampersand" unicode="&#x26;" horiz-adv-x="720" 
d="M464.5 658q44.5 -38 44.5 -96q0 -62 -41.5 -104.5t-140.5 -93.5l177 -192q52 87 88 173l52 -19q-48 -108 -107 -190l104 -113l-47 -33l-94 105q-48 -52 -104 -79t-128 -27q-85 0 -135.5 46.5t-50.5 119.5q0 66 36.5 117t128.5 101q-39 44 -58 81.5t-19 78.5q0 43 21 80.5
t61.5 60t96.5 22.5q71 0 115.5 -38zM259 616q-31 -34 -31 -83q0 -32 15 -64.5t51 -71.5q88 45 122.5 81t34.5 84q0 40 -28.5 64t-73.5 24q-59 0 -90 -34zM170 253.5q-29 -43.5 -29 -98.5q0 -53 34.5 -85t96.5 -32q59 0 106 23.5t89 69.5l-189 208q-79 -42 -108 -85.5z" />
    <glyph glyph-name="quotesingle" unicode="'" horiz-adv-x="202" 
d="M103 433l26 252h63l-45 -252h-44z" />
    <glyph glyph-name="parenleft" unicode="(" horiz-adv-x="321" 
d="M346 811q-80 -99 -129.5 -185t-75 -181.5t-25.5 -212.5q0 -101 24.5 -177t75.5 -170l-40 -21q-40 70 -64 120.5t-39.5 113.5t-15.5 139q0 125 28.5 224t82.5 185.5t143 192.5z" />
    <glyph glyph-name="parenright" unicode=")" horiz-adv-x="321" 
d="M234 715.5q24 -50.5 39.5 -113t15.5 -138.5q0 -125 -28.5 -224.5t-82.5 -186t-143 -192.5l-35 28q81 100 130.5 186.5t75 182t25.5 212.5q0 100 -25 176t-75 169l39 21q40 -70 64 -120.5z" />
    <glyph glyph-name="asterisk" unicode="*" horiz-adv-x="433" 
d="M445 582l-158 -40l82 -122l-49 -34l-67 131l-103 -131l-43 33l117 122l-146 41l22 50l141 -55l13 159h59l-31 -159l152 58z" />
    <glyph glyph-name="plus" unicode="+" horiz-adv-x="490" 
d="M308 508l-22 -152h149l-7 -51h-149l-22 -151h-55l22 151h-149l7 51h149l21 152h56z" />
    <glyph glyph-name="comma" unicode="," horiz-adv-x="207" 
d="M107 72.5q12 -12.5 12 -31.5q0 -13 -5 -26.5t-16 -33.5l-75 -132h-43l62 148q-18 11 -18 36q0 21 15 36.5t36 15.5q20 0 32 -12.5z" />
    <glyph glyph-name="hyphen" unicode="-" horiz-adv-x="398" 
d="M70 288l8 50h263l-7 -50h-264z" />
    <glyph glyph-name="period" unicode="." horiz-adv-x="208" 
d="M37 1.5q-12 12.5 -12 31.5q0 22 14.5 37t36.5 15q20 0 32 -12.5t12 -31.5q0 -22 -15 -37t-37 -15q-19 0 -31 12.5z" />
    <glyph glyph-name="slash" unicode="/" horiz-adv-x="517" 
d="M424 804l50 -13l-356 -891l-50 14z" />
    <glyph glyph-name="zero" unicode="0" horiz-adv-x="547" 
d="M180.5 605.5q-59.5 -70.5 -86.5 -174.5t-27 -207q0 -115 43.5 -175t125.5 -60q91 0 150.5 70t86.5 174.5t27 208.5q0 115 -43 174.5t-126 59.5q-91 0 -150.5 -70.5zM441 451q0 -96 -21.5 -191.5t-67.5 -158.5t-114 -63q-112 0 -112 177q0 96 22 191t68 158.5t114 63.5
q111 0 111 -177z" />
    <glyph glyph-name="one" unicode="1" horiz-adv-x="410" 
d="M347 665l-94 -665h-58l84 596l-177 -102l-21 48l216 123h50z" />
    <glyph glyph-name="two" unicode="2" horiz-adv-x="476" 
d="M399 633q45 -43 45 -114q0 -57 -28 -111.5t-104 -135.5t-230 -222l313 2l-17 -52h-373l7 51q166 155 243 236.5t103 130t26 99.5q0 52 -30 80.5t-82 28.5q-46 0 -83 -19t-74 -58l-39 35q46 48 94.5 70t105.5 22q78 0 123 -43z" />
    <glyph glyph-name="three" unicode="3" horiz-adv-x="484" 
d="M396 634.5q43 -41.5 43 -108.5q0 -61 -40 -110.5t-116 -62.5q57 -2 93 -39t36 -103q0 -52 -25.5 -103t-79.5 -85t-133 -34q-116 0 -180 88l40 32q29 -38 63 -54t79 -16q60 0 99.5 26t58.5 67t19 85q0 110 -130 110h-46l14 47h32q50 0 85.5 21.5t53.5 56t18 73.5
q0 49 -29 76t-79 27q-43 0 -80 -15.5t-79 -49.5l-29 38q46 38 92 56.5t100 18.5q77 0 120 -41.5z" />
    <glyph glyph-name="four" unicode="4" horiz-adv-x="516" 
d="M475 223l-7 -48h-88l-25 -175h-58l25 175h-289l6 44l263 457l50 -20l-249 -433h226l34 195h51l-28 -195h89z" />
    <glyph glyph-name="five" unicode="5" horiz-adv-x="484" 
d="M454 617h-269l-33 -227q54 31 115 31q76 0 119.5 -47.5t43.5 -129.5q0 -57 -25.5 -116t-80.5 -99t-138 -40q-60 0 -103 21t-76 61l40 33q27 -33 60 -49t80 -16q64 0 105 33t59.5 80.5t18.5 92.5q0 64 -31.5 96.5t-84.5 32.5q-33 0 -59 -7.5t-58 -24.5h-47l45 323h334z
" />
    <glyph glyph-name="six" unicode="6" horiz-adv-x="521" 
d="M426 390q43 -44 43 -126q0 -61 -24.5 -124.5t-76 -107t-127.5 -43.5q-92 0 -134.5 59.5t-42.5 163.5q0 114 35 221t102.5 175t158.5 68q37 0 65.5 -10t54.5 -30l-29 -39q-42 31 -93 31q-82 0 -142.5 -81t-83.5 -213q77 100 183 100q68 0 111 -44zM339 75.5
q38 37.5 55 89.5t17 99q0 61 -28.5 91t-76.5 30q-52 0 -98 -30.5t-83 -84.5q-3 -34 -3 -65q0 -83 28.5 -125t91.5 -42q59 0 97 37.5z" />
    <glyph glyph-name="seven" unicode="7" horiz-adv-x="434" 
d="M456 665l-6 -45l-347 -628l-54 18l338 606h-307l6 49h370z" />
    <glyph glyph-name="eight" unicode="8" horiz-adv-x="535" 
d="M441.5 287q30.5 -37 30.5 -90q0 -61 -31 -108.5t-86 -73.5t-124 -26q-89 0 -140.5 46t-51.5 120q0 140 170 203q-94 46 -94 138q0 53 28 94t75 63.5t103 22.5q71 0 120.5 -38.5t49.5 -107.5q0 -61 -33.5 -102t-109.5 -76q63 -28 93.5 -65zM196.5 427.5
q24.5 -26.5 80.5 -47.5l30 -11q70 36 98.5 73.5t28.5 87.5q0 48 -30.5 74t-83.5 26q-67 0 -107.5 -38t-40.5 -95q0 -43 24.5 -69.5zM362 81.5q50 43.5 50 118.5q0 44 -29 71.5t-98 54.5l-32 12q-88 -34 -121.5 -80.5t-33.5 -102.5q0 -55 36.5 -86t98.5 -31q79 0 129 43.5z
" />
    <glyph glyph-name="nine" unicode="9" horiz-adv-x="515" 
d="M436 622.5q44 -53.5 44 -149.5q0 -176 -84.5 -305t-311.5 -188l-11 46q144 43 227.5 116.5t109.5 200.5q-35 -45 -80 -70t-96 -25q-70 0 -113.5 49t-43.5 129q0 60 24.5 117.5t76 95t126.5 37.5q88 0 132 -53.5zM335.5 323.5q42.5 26.5 81.5 77.5q5 48 5 72
q0 78 -29 116.5t-90 38.5q-60 0 -97.5 -32t-54 -79t-16.5 -93q0 -60 29 -93.5t80 -33.5q49 0 91.5 26.5z" />
    <glyph glyph-name="colon" unicode=":" horiz-adv-x="208" 
d="M37 1.5q-12 12.5 -12 31.5q0 22 14.5 37t36.5 15q20 0 32 -12.5t12 -31.5q0 -22 -15 -37t-37 -15q-19 0 -31 12.5zM92 391.5q-12 12.5 -12 31.5q0 22 14.5 37t36.5 15q20 0 32 -12.5t12 -31.5q0 -22 -15 -37t-37 -15q-19 0 -31 12.5z" />
    <glyph glyph-name="semicolon" unicode=";" horiz-adv-x="209" 
d="M107 72.5q12 -12.5 12 -31.5q0 -13 -5 -26.5t-16 -33.5l-75 -132h-43l62 148q-18 11 -18 36q0 21 15 36.5t36 15.5q20 0 32 -12.5zM94 391.5q-12 12.5 -12 31.5q0 22 14.5 37t36.5 15q20 0 32 -12.5t12 -31.5q0 -22 -15 -37t-37 -15q-19 0 -31 12.5z" />
    <glyph glyph-name="less" unicode="&#x3c;" horiz-adv-x="494" 
d="M446 529l17 -51l-338 -146l295 -149l-28 -48l-323 170l8 56z" />
    <glyph glyph-name="equal" unicode="=" horiz-adv-x="492" 
d="M88 393l7 51h354l-8 -51h-353zM63 218l7 51h354l-8 -51h-353z" />
    <glyph glyph-name="greater" unicode="&#x3e;" horiz-adv-x="494" 
d="M122 529l323 -168l-8 -56l-370 -170l-16 49l338 152l-295 144z" />
    <glyph glyph-name="question" unicode="?" horiz-adv-x="445" 
d="M405.5 660q40.5 -36 40.5 -92q0 -45 -18 -77t-44 -53t-68 -45q-36 -21 -56.5 -36.5t-34.5 -37.5t-14 -52q0 -20 5 -40l-52 -11q-10 28 -10 55q0 39 16.5 67t40 46t63.5 43q37 23 59 39.5t37 41t15 58.5q0 38 -26 59.5t-72 21.5q-45 0 -83.5 -18.5t-78.5 -58.5l-37 35
q47 47 96 69t107 22q74 0 114.5 -36zM148 0.5q-12 12.5 -12 31.5q0 22 14.5 37t36.5 15q20 0 32 -12.5t12 -31.5q0 -22 -15 -37t-37 -15q-19 0 -31 12.5z" />
    <glyph glyph-name="at" unicode="@" horiz-adv-x="1017" 
d="M773.5 651.5q83.5 -44.5 126 -121.5t42.5 -175q0 -79 -23 -158t-73.5 -132t-126.5 -53q-50 0 -78 30.5t-31 77.5q-60 -106 -158 -106q-64 0 -104.5 45.5t-40.5 125.5q0 70 25.5 138.5t80.5 114.5t139 46q73 0 141 -37l-36 -269q-3 -19 -3 -39q0 -80 64 -80
q57 0 94.5 46.5t54.5 115t17 136.5q0 87 -36 152.5t-106.5 101t-170.5 35.5q-150 0 -248.5 -72.5t-143 -180t-44.5 -214.5q0 -99 41.5 -174.5t117.5 -117.5t178 -42t194 34l12 -49q-55 -18 -101.5 -26.5t-106.5 -8.5q-115 0 -204.5 48t-139.5 135t-50 201q0 118 51.5 237
t163 199.5t281.5 80.5q118 0 201.5 -44.5zM544.5 93.5q37.5 33.5 57.5 77.5l35 248q-40 20 -84 20q-68 0 -110.5 -40.5t-60.5 -99.5t-18 -118t25 -90t70 -31q48 0 85.5 33.5z" />
    <glyph glyph-name="A" unicode="A" horiz-adv-x="562" 
d="M447 0l-33 187h-287l-86 -187h-62l324 685h75l131 -685h-62zM151 238h254l-71 397z" />
    <glyph glyph-name="B" unicode="B" horiz-adv-x="595" 
d="M495.5 319.5q38.5 -34.5 38.5 -101.5q0 -93 -64 -155.5t-209 -62.5h-188l97 685h170q96 0 151.5 -38t55.5 -113q0 -69 -42 -114.5t-111 -57.5q63 -8 101.5 -42.5zM223 635l-35 -250h131q78 0 122.5 40.5t44.5 107.5q0 102 -144 102h-119zM425 98.5q47 47.5 47 120.5
q0 60 -40 88.5t-108 28.5h-143l-40 -285h124q113 0 160 47.5z" />
    <glyph glyph-name="C" unicode="C" horiz-adv-x="547" 
d="M494 680q40 -16 75 -48l-35 -36q-32 26 -62.5 37.5t-70.5 11.5q-93 0 -153 -59.5t-87.5 -148t-27.5 -177.5q0 -108 48 -163t128 -55q49 0 85 14.5t75 43.5l29 -42q-87 -69 -193 -69t-170 71.5t-64 202.5q0 100 34.5 200t108.5 166.5t185 66.5q55 0 95 -16z" />
    <glyph glyph-name="D" unicode="D" horiz-adv-x="630" 
d="M505.5 629.5q76.5 -55.5 76.5 -200.5q0 -115 -36.5 -212t-117 -157t-206.5 -60h-149l97 685h134q125 0 201.5 -55.5zM223 635l-82 -585h89q104 0 169 55t93.5 141t28.5 184q0 121 -58.5 163t-154.5 42h-85z" />
    <glyph glyph-name="E" unicode="E" horiz-adv-x="510" 
d="M516 685l-14 -50h-279l-36 -255h242l-7 -50h-242l-40 -279h294l-7 -51h-354l97 685h346z" />
    <glyph glyph-name="F" unicode="F" horiz-adv-x="478" 
d="M510 685l-14 -50h-273l-38 -267h237l-7 -50h-237l-45 -318h-60l97 685h340z" />
    <glyph glyph-name="G" unicode="G" horiz-adv-x="615" 
d="M506 679q44 -17 83 -52l-38 -34q-34 28 -67 40t-78 12q-90 0 -151.5 -58t-91 -148t-29.5 -186q0 -107 47 -159.5t135 -52.5q78 0 147 36l35 242h-132l-1 51h199l-44 -323q-98 -58 -210 -58t-175.5 69.5t-63.5 201.5q0 106 37.5 206.5t113.5 165t184 64.5q56 0 100 -17z
" />
    <glyph glyph-name="H" unicode="H" horiz-adv-x="668" 
d="M133 0h-60l97 685h60l-42 -299h327l42 299h60l-97 -685h-60l47 335h-327z" />
    <glyph glyph-name="I" unicode="I" horiz-adv-x="281" 
d="M230 685l-97 -685h-60l97 685h60z" />
    <glyph glyph-name="J" unicode="J" horiz-adv-x="289" 
d="M160 90q-8 -61 -29 -99t-57 -63t-97 -48l-13 46q49 20 76 41.5t40.5 51.5t19.5 78l83 588h60z" />
    <glyph glyph-name="K" unicode="K" horiz-adv-x="545" 
d="M73 0l97 685h60l-96 -685h-61zM437 0l-248 367l327 318h72l-330 -320l250 -365h-71z" />
    <glyph glyph-name="L" unicode="L" horiz-adv-x="472" 
d="M230 685l-89 -631h285l-16 -54h-337l97 685h60z" />
    <glyph glyph-name="M" unicode="M" horiz-adv-x="768" 
d="M662 0h-58l15 330q6 165 16 297l-248 -546h-57l-101 545q-11 -69 -64 -298l-75 -328h-58l161 685h79l96 -533l237 533h87z" />
    <glyph glyph-name="N" unicode="N" horiz-adv-x="670" 
d="M523 0h-77l-236 631q-3 -94 -26 -251l-54 -380h-57l97 685h78l236 -629q3 101 20 215l58 414h57z" />
    <glyph glyph-name="O" unicode="O" horiz-adv-x="688" 
d="M577 625.5q63 -70.5 63 -201.5q0 -100 -33 -200t-107.5 -167.5t-190.5 -67.5q-110 0 -174 71t-64 202q0 97 34 197t109 168.5t190 68.5q110 0 173 -70.5zM245.5 583.5q-59.5 -61.5 -85.5 -149.5t-26 -174q0 -110 46.5 -164.5t129.5 -54.5q98 0 158 61.5t85 149.5t25 175
q0 109 -46 163.5t-131 54.5q-96 0 -155.5 -61.5z" />
    <glyph glyph-name="P" unicode="P" horiz-adv-x="567" 
d="M498 642q59 -43 59 -130q0 -105 -67.5 -175t-218.5 -70h-100l-38 -267h-60l97 685h158q111 0 170 -43zM443.5 371.5q49.5 54.5 49.5 140.5q0 66 -42.5 95t-126.5 29h-101l-45 -319h96q120 0 169.5 54.5z" />
    <glyph glyph-name="Q" unicode="Q" horiz-adv-x="678" 
d="M618.5 262q-21.5 -82 -69.5 -147.5t-123 -92.5q54 -2 99.5 -19t79.5 -48l-44 -48q-47 47 -102.5 64.5t-149.5 17.5q-110 0 -174 71t-64 202q0 97 34 197t109 168.5t190 68.5q110 0 173 -70.5t63 -201.5q0 -80 -21.5 -162zM180.5 95q46.5 -54 129.5 -54q98 0 158 61.5
t85 151t25 178.5q0 106 -46.5 159.5t-130.5 53.5q-96 0 -155.5 -61.5t-85.5 -150.5t-26 -177q0 -107 46.5 -161z" />
    <glyph glyph-name="R" unicode="R" horiz-adv-x="587" 
d="M510 395q-44 -58 -137 -79l144 -316h-67l-136 307h-138l-43 -307h-60l97 685h168q216 0 216 -161q0 -71 -44 -129zM302 356q100 0 144.5 50t44.5 118q0 58 -37.5 85t-119.5 27h-111l-40 -280h119z" />
    <glyph glyph-name="S" unicode="S" horiz-adv-x="536" 
d="M429 676.5q45 -19.5 82 -57.5l-38 -37q-32 34 -67.5 48.5t-81.5 14.5q-72 0 -117 -35.5t-45 -93.5q0 -47 30.5 -74t108.5 -53q87 -27 130.5 -68.5t43.5 -115.5q0 -54 -27 -103t-84.5 -81t-142.5 -32q-68 0 -118.5 23t-89.5 65l38 36q34 -36 75 -54t96 -18q63 0 106 23
t64 59.5t21 78.5q0 52 -31 82.5t-108 56.5q-92 31 -132 69t-40 104q0 46 26 88t76.5 68t119.5 26q60 0 105 -19.5z" />
    <glyph glyph-name="T" unicode="T" horiz-adv-x="493" 
d="M543 685l-15 -53h-200l-89 -632h-60l89 632h-202l8 53h469z" />
    <glyph glyph-name="U" unicode="U" horiz-adv-x="649" 
d="M542 212q-14 -102 -79 -162.5t-174 -60.5q-98 0 -148 49t-50 133q0 21 3 45l66 469h60l-66 -468q-3 -22 -3 -43q0 -133 140 -133q84 0 132 47.5t60 132.5l65 464h60z" />
    <glyph glyph-name="V" unicode="V" horiz-adv-x="544" 
d="M587 685l-319 -685h-67l-126 685h63l104 -622l282 622h63z" />
    <glyph glyph-name="W" unicode="W" horiz-adv-x="807" 
d="M836 685l-246 -685h-75l-62 617l-236 -617h-73l-54 685h59l41 -628l238 628h68l63 -629l220 629h57z" />
    <glyph glyph-name="X" unicode="X" horiz-adv-x="512" 
d="M533 685l-229 -315l160 -370h-65l-134 327l-225 -327h-67l260 369l-143 316h66l115 -276l196 276h66z" />
    <glyph glyph-name="Y" unicode="Y" horiz-adv-x="520" 
d="M567 685l-275 -417l-38 -268h-61l38 267l-158 418h63l131 -362l233 362h67z" />
    <glyph glyph-name="Z" unicode="Z" horiz-adv-x="513" 
d="M-2 0l7 50l445 583h-326l7 52h395l-7 -50l-443 -582h354l-15 -53h-417z" />
    <glyph glyph-name="bracketleft" unicode="[" horiz-adv-x="314" 
d="M326 807l-7 -48h-112l-116 -824h112l-6 -47h-166l129 919h166z" />
    <glyph glyph-name="backslash" unicode="\" horiz-adv-x="517" 
d="M243 802l106 -890l-51 -12l-105 891z" />
    <glyph glyph-name="bracketright" unicode="]" horiz-adv-x="314" 
d="M308 807l-129 -919h-166l6 47h112l117 824h-112l6 48h166z" />
    <glyph glyph-name="asciicircum" unicode="^" horiz-adv-x="528" 
d="M369 832l141 -305h-64l-108 248l-179 -248h-66l227 305h49z" />
    <glyph glyph-name="underscore" unicode="_" horiz-adv-x="517" 
d="M-26 -122l7 51h462l-7 -51h-462z" />
    <glyph glyph-name="grave" unicode="`" horiz-adv-x="270" 
d="M126 783l173 -105l-20 -33l-183 85z" />
    <glyph glyph-name="a" unicode="a" 
d="M415 523q39 -11 80 -32l-55 -377q-2 -11 -2 -30q0 -21 7.5 -33.5t25.5 -20.5l-17 -41q-35 8 -53 29.5t-17 65.5q-30 -44 -71.5 -69.5t-89.5 -25.5q-78 0 -121.5 54.5t-43.5 148.5q0 78 28 157t88.5 132t152.5 53q49 0 88 -11zM210.5 441q-47.5 -46 -69 -114t-21.5 -135
q0 -76 29 -115t83 -39q47 0 84.5 28t71.5 82l45 315q-48 24 -104 24q-71 0 -118.5 -46z" />
    <glyph glyph-name="b" unicode="b" horiz-adv-x="572" 
d="M472.5 482.5q41.5 -51.5 41.5 -146.5q0 -80 -27 -159.5t-87.5 -133.5t-155.5 -54q-43 0 -81.5 7.5t-90.5 26.5l101 713l58 8l-39 -286q76 76 164 76q75 0 116.5 -51.5zM260 462.5q-37 -22.5 -77 -64.5l-47 -339q27 -11 52 -16t59 -5q73 0 119.5 47.5t67 116.5t20.5 137
q0 74 -28.5 110t-81.5 36q-47 0 -84 -22.5z" />
    <glyph glyph-name="c" unicode="c" horiz-adv-x="467" 
d="M461 480l-33 -37q-23 21 -49 31.5t-60 10.5q-70 0 -114.5 -45t-64.5 -111.5t-20 -131.5q0 -79 34.5 -118t96.5 -39q36 0 66.5 11t62.5 33l25 -41q-71 -54 -157 -54q-88 0 -138 55.5t-50 155.5q0 76 27 153t85.5 129t147.5 52q87 0 141 -54z" />
    <glyph glyph-name="d" unicode="d" horiz-adv-x="578" 
d="M539 736l-104 -736h-50l8 106q-31 -53 -74 -85t-99 -32q-76 0 -118.5 55t-42.5 151q0 76 25 154t80 131.5t140 53.5q89 0 138 -72l40 281zM201.5 439.5q-43.5 -46.5 -62.5 -114t-19 -133.5q0 -75 28.5 -114.5t79.5 -39.5q54 0 94 36t81 107l33 228q-22 36 -51 56.5
t-73 20.5q-67 0 -110.5 -46.5z" />
    <glyph glyph-name="e" unicode="e" horiz-adv-x="513" 
d="M387 265.5q-94 -46.5 -267 -59.5v-6q0 -82 35.5 -121t97.5 -39q41 0 75.5 12.5t72.5 39.5l26 -41q-42 -31 -85.5 -46.5t-92.5 -15.5q-90 0 -140 55t-50 155q0 79 28.5 156t89 128t149.5 51q73 0 114 -35.5t41 -90.5q0 -96 -94 -142.5zM185.5 417q-50.5 -69 -62.5 -165
q150 12 224 48t74 106q0 34 -24 57t-71 23q-90 0 -140.5 -69z" />
    <glyph glyph-name="f" unicode="f" horiz-adv-x="319" 
d="M217 606l-12 -83h137l-13 -47h-130l-64 -459q-10 -68 -30 -108t-51.5 -64t-87.5 -49l-18 45q41 19 65 38t40 51.5t24 88.5l64 457h-91l7 47h91l12 87q8 62 51 98t110 36q33 0 61 -9t57 -27l-23 -40q-46 27 -93 27q-94 0 -106 -89z" />
    <glyph glyph-name="g" unicode="g" horiz-adv-x="568" 
d="M419 523q39 -11 80 -32l-71 -487q-31 -211 -219 -211q-90 0 -173 49l23 44q76 -42 148 -42q141 0 164 159l12 87q-30 -41 -71 -65.5t-87 -24.5q-77 0 -121 54t-45 146q0 78 28.5 155t89.5 128t154 51q49 0 88 -11zM211.5 443q-47.5 -44 -69.5 -110t-21 -133
q0 -73 30 -112t83 -39q46 0 85 28t74 81l44 305q-48 24 -106 24q-72 0 -119.5 -44z" />
    <glyph glyph-name="h" unicode="h" horiz-adv-x="582" 
d="M467 501q32 -33 32 -93q0 -17 -3 -37l-52 -371h-58l52 367q2 12 2 34q0 44 -18.5 64t-56.5 20q-102 0 -195 -172l-44 -313h-58l104 736l59 7l-49 -347q37 66 86.5 102t106.5 36q60 0 92 -33z" />
    <glyph glyph-name="i" unicode="i" horiz-adv-x="269" 
d="M200 523l-74 -523h-58l74 523h58zM165 679.5q-11 10.5 -11 27.5q0 20 13.5 33t33.5 13q18 0 29 -10.5t11 -27.5q0 -20 -13.5 -33t-33.5 -13q-18 0 -29 10.5z" />
    <glyph glyph-name="j" unicode="j" horiz-adv-x="269" 
d="M-56 -160q41 19 64.5 38t39.5 52t24 89l71 504h58l-72 -506q-9 -68 -29 -108t-52 -64t-88 -49zM166 679.5q-11 10.5 -11 27.5q0 20 13.5 33t33.5 13q18 0 29 -10.5t11 -27.5q0 -20 -13.5 -33t-33.5 -13q-18 0 -29 10.5z" />
    <glyph glyph-name="k" unicode="k" horiz-adv-x="523" 
d="M182 395q41 71 90.5 105t104.5 34q54 0 87 -30.5t33 -81.5q0 -64 -44 -111.5t-128 -74.5l119 -236h-65l-125 254q92 26 137 66t45 97q0 33 -18 51.5t-54 18.5q-54 0 -104.5 -47.5t-90.5 -134.5l-43 -305h-58l104 736l59 8z" />
    <glyph glyph-name="l" unicode="l" horiz-adv-x="282" 
d="M134 88q-1 -5 -1 -14q0 -18 8 -26.5t26 -8.5q16 0 38 8l13 -44q-31 -14 -60 -14q-39 0 -60.5 20.5t-21.5 60.5q0 7 2 27l90 639l58 8z" />
    <glyph glyph-name="m" unicode="m" horiz-adv-x="849" 
d="M737.5 500.5q29.5 -33.5 29.5 -92.5q0 -16 -3 -36l-53 -372h-58l52 367q3 20 3 36q0 82 -69 82q-46 0 -89 -45t-87 -124l-45 -316h-58l52 367q3 20 3 36q0 82 -69 82q-47 0 -89.5 -45.5t-86.5 -126.5l-44 -313h-58l74 523h50l-14 -129q84 140 185 140q51 0 81.5 -34
t29.5 -96q81 130 182 130q52 0 81.5 -33.5z" />
    <glyph glyph-name="n" unicode="n" horiz-adv-x="581" 
d="M467 501q32 -33 32 -94q0 -18 -3 -38l-52 -369h-58l52 367q2 12 2 33q0 85 -76 85q-101 0 -194 -172l-44 -313h-58l74 523h50l-14 -130q41 68 91 104.5t107 36.5q59 0 91 -33z" />
    <glyph glyph-name="o" unicode="o" horiz-adv-x="569" 
d="M109.5 45q-49.5 56 -49.5 156q0 75 26 151.5t84.5 129t150.5 52.5q91 0 140 -55t49 -155q0 -74 -25.5 -151t-84.5 -130.5t-151 -53.5q-90 0 -139.5 56zM366.5 84q44.5 46 63.5 112.5t19 131.5q0 78 -33 118t-96 40q-72 0 -117 -46.5t-64 -113.5t-19 -130q0 -78 34 -118
t97 -40q71 0 115.5 46z" />
    <glyph glyph-name="p" unicode="p" horiz-adv-x="571" 
d="M142 523h50l-5 -71q76 82 168 82q75 0 116.5 -51t41.5 -147q0 -80 -26.5 -159.5t-87 -133.5t-155.5 -54q-58 0 -117 21l-30 -209l-58 -8zM366 85.5q47 47.5 67.5 116.5t20.5 137q0 74 -29 110t-82 36q-47 0 -84 -22.5t-76 -64.5l-47 -339q27 -11 52 -16t58 -5
q73 0 120 47.5z" />
    <glyph glyph-name="q" unicode="q" horiz-adv-x="567" 
d="M381 78q-27 -40 -68.5 -64.5t-89.5 -24.5q-78 0 -121.5 54.5t-43.5 148.5q0 78 28 157t88.5 132t152.5 53q49 0 88.5 -10.5t82.5 -32.5l-98 -690l-58 -8zM317.5 66q38.5 28 72.5 82l46 315q-48 24 -107 24q-71 0 -118.5 -46t-69 -114t-21.5 -135q0 -76 29 -115t83 -39
q47 0 85.5 28z" />
    <glyph glyph-name="r" unicode="r" horiz-adv-x="371" 
d="M395 527l-16 -55q-18 6 -42 6q-55 0 -94.5 -45t-73.5 -135l-43 -298h-58l74 523h50l-13 -127q61 138 166 138q29 0 50 -7z" />
    <glyph glyph-name="s" unicode="s" horiz-adv-x="461" 
d="M421 475l-31 -35q-30 23 -61 34t-69 11q-56 0 -90 -23.5t-34 -64.5q0 -34 25.5 -55.5t89.5 -40.5q77 -24 111.5 -59t34.5 -92q0 -73 -55 -117t-148 -44q-61 0 -105.5 19t-79.5 52l33 34q34 -28 70 -42t82 -14q68 0 105.5 29.5t37.5 77.5q0 42 -25.5 65t-94.5 45
q-77 24 -108.5 56.5t-31.5 82.5q0 38 22 70t63.5 51t97.5 19q93 0 161 -59z" />
    <glyph glyph-name="t" unicode="t" horiz-adv-x="339" 
d="M144 129q-2 -18 -2 -25q0 -65 62 -65q38 0 85 25l20 -43q-54 -32 -112 -32q-53 0 -83 28.5t-30 81.5q0 10 2 30l49 347h-88l7 47h89l29 127l46 5l-19 -132h135l-14 -47h-127z" />
    <glyph glyph-name="u" unicode="u" horiz-adv-x="577" 
d="M114.5 22q-32.5 33 -32.5 93q0 17 3 36l52 372h58l-52 -370q-2 -12 -2 -32q0 -84 76 -84q55 0 102.5 45.5t85.5 120.5l45 320h58l-74 -523h-48l14 133q-36 -67 -84.5 -105.5t-109.5 -38.5q-59 0 -91.5 33z" />
    <glyph glyph-name="v" unicode="v" horiz-adv-x="468" 
d="M490 523l-255 -523h-71l-112 523h63l91 -471l219 471h65z" />
    <glyph glyph-name="w" unicode="w" horiz-adv-x="696" 
d="M707 523l-200 -523h-78l-49 469l-183 -469h-77l-57 523h57l46 -478l187 478h68l51 -478l178 478h57z" />
    <glyph glyph-name="x" unicode="x" horiz-adv-x="457" 
d="M461 523l-195 -247l143 -276h-65l-118 241l-184 -241h-69l223 281l-125 242h64l100 -209l158 209h68z" />
    <glyph glyph-name="y" unicode="y" horiz-adv-x="465" 
d="M238 -4q-43 -90 -96 -136.5t-147 -63.5l-3 46q53 12 86 31t54.5 47.5t48.5 79.5h-22l-107 523h62l89 -479l222 479h62z" />
    <glyph glyph-name="z" unicode="z" horiz-adv-x="420" 
d="M423 523l-6 -45l-347 -428h284l-13 -50h-351l7 45l346 427h-262l7 51h335z" />
    <glyph glyph-name="braceleft" unicode="{" horiz-adv-x="323" 
d="M335 783q-47 0 -70.5 -19t-29.5 -61l-35 -253q-7 -50 -27 -71t-62 -31q31 -8 46.5 -24.5t15.5 -50.5q0 -8 -2 -28l-36 -253q-2 -14 -2 -21q0 -29 18 -42t59 -13l-3 -46q-127 0 -127 102q0 8 2 26l36 255q1 6 1 18q0 29 -16.5 41t-52.5 12l7 50q39 0 61 18t28 58l35 255
q10 66 46 94.5t111 28.5z" />
    <glyph glyph-name="bar" unicode="|" horiz-adv-x="404" 
d="M305 804l-126 -904h-55l127 904h54z" />
    <glyph glyph-name="braceright" unicode="}" horiz-adv-x="323" 
d="M13 -84q47 0 70 19t29 61l36 253q7 50 27 71t62 31q-32 8 -47.5 24t-15.5 50q0 8 2 28l37 253q1 7 1 20q0 30 -17.5 43.5t-58.5 13.5l3 45q61 0 94 -25.5t33 -76.5q0 -7 -2 -25l-36 -255q-2 -14 -2 -20q0 -28 16.5 -39.5t52.5 -11.5l-6 -50q-39 0 -61 -18t-28 -58
l-36 -255q-9 -66 -46 -95t-110 -29z" />
    <glyph glyph-name="asciitilde" unicode="~" horiz-adv-x="469" 
d="M274 272q-18 8 -44 24q-18 13 -32 19.5t-28 6.5q-24 0 -42 -12.5t-38 -36.5l-35 23q27 35 54 55t65 20q22 0 40 -8t42 -24q18 -13 32 -19.5t29 -6.5q23 0 41 11.5t37 34.5l34 -23q-24 -34 -51 -53t-64 -19q-22 0 -40 8z" />
    <glyph glyph-name="uni00A0" unicode="&#xa0;" horiz-adv-x="277" 
 />
    <glyph glyph-name="exclamdown" unicode="&#xa1;" horiz-adv-x="238" 
d="M111 391.5q-12 12.5 -12 31.5q0 22 14.5 37t36.5 15q20 0 32 -12.5t12 -31.5q0 -22 -15 -37t-37 -15q-19 0 -31 12.5zM148 249l-59 -446h-62l68 446h53z" />
    <glyph glyph-name="cent" unicode="&#xa2;" horiz-adv-x="467" 
d="M204.5 440q-44.5 -45 -64.5 -111.5t-20 -131.5q0 -79 34.5 -118t96.5 -39q36 0 66.5 11t62.5 33l25 -41q-66 -51 -147 -54l-19 -139h-51l20 142q-70 12 -109 66t-39 142q0 70 23.5 142.5t74 125.5t127.5 64l21 148h50l-20 -146q76 -5 125 -54l-33 -37q-23 21 -49 31.5
t-60 10.5q-70 0 -114.5 -45z" />
    <glyph glyph-name="sterling" unicode="&#xa3;" horiz-adv-x="506" 
d="M448 657q37 -19 65 -58l-41 -29q-21 30 -47 43.5t-64 13.5q-57 0 -93 -35.5t-44 -94.5l-17 -123h212l-6 -43h-212l-23 -161q-7 -49 -24.5 -74.5t-56.5 -44.5h325l-15 -51h-394l6 49q52 22 73.5 47t28.5 77l22 158h-65l6 43h65l18 127q11 78 61 126.5t131 48.5
q52 0 89 -19z" />
    <glyph glyph-name="currency" unicode="&#xa4;" 
d="M432 216l79 -78l-36 -36l-80 78q-49 -34 -115 -34q-67 0 -114 36l-81 -80l-36 36l80 79q-40 52 -40 124q0 69 39 122l-79 80l36 36l80 -80q49 36 115 36t116 -34l79 78l36 -36l-78 -78q40 -52 40 -124q0 -73 -41 -125zM381.5 233.5q34.5 39.5 34.5 107.5t-34.5 108
t-100.5 40q-65 0 -100 -40t-35 -108t35 -107.5t100 -39.5q66 0 100.5 39.5z" />
    <glyph glyph-name="yen" unicode="&#xa5;" horiz-adv-x="509" 
d="M553 665l-238 -327h116l-7 -43h-134l-14 -103h134l-6 -43h-135l-21 -149h-59l21 149h-135l6 43h136l14 103h-136l7 43h117l-149 327h65l133 -313l222 313h63z" />
    <glyph glyph-name="brokenbar" unicode="&#xa6;" horiz-adv-x="404" 
d="M305 804l-50 -361h-55l51 361h54zM229 262l-50 -362h-55l51 362h54z" />
    <glyph glyph-name="section" unicode="&#xa7;" horiz-adv-x="530" 
d="M234 602.5q-29 -25.5 -29 -64.5q0 -35 23 -56t89 -45q72 -26 103.5 -57.5t31.5 -77.5q0 -43 -23 -75.5t-75 -63.5q44 -34 44 -89q0 -37 -20 -69.5t-63 -52.5t-107 -20q-89 0 -159 47l27 40q56 -39 135 -39q68 0 98 26t30 66q0 34 -23 54.5t-87 43.5q-76 27 -107.5 56.5
t-31.5 78.5q0 43 24.5 77t76.5 63q-23 18 -33.5 39.5t-10.5 50.5q0 62 49.5 101t129.5 39q49 0 86.5 -13t70.5 -37l-27 -37q-31 20 -61.5 30t-68.5 10q-63 0 -92 -25.5zM372.5 350.5q-21.5 22.5 -78.5 43.5q-38 13 -69 29q-42 -27 -59.5 -53t-17.5 -60q0 -33 21.5 -54.5
t78.5 -41.5q41 -14 70 -29q44 28 60 53.5t16 57.5t-21.5 54.5z" />
    <glyph glyph-name="dieresis" unicode="&#xa8;" horiz-adv-x="329" 
d="M102.5 673q-10.5 10 -10.5 25q0 19 12.5 31.5t31.5 12.5q16 0 26.5 -10t10.5 -26q0 -18 -12.5 -30.5t-31.5 -12.5q-16 0 -26.5 10zM290.5 673q-10.5 10 -10.5 25q0 19 13 31.5t32 12.5q16 0 26 -10t10 -26q0 -18 -12.5 -30.5t-31.5 -12.5q-16 0 -26.5 10z" />
    <glyph glyph-name="copyright" unicode="&#xa9;" horiz-adv-x="810" 
d="M580.5 697.5q67.5 -38.5 106.5 -107t39 -155.5q0 -86 -39 -155t-106.5 -108t-150.5 -39t-151 38.5t-107 107.5t-39 156q0 86 39 155t107 107.5t151 38.5t150.5 -38.5zM300.5 664q-57.5 -33 -90 -93t-32.5 -136q0 -77 32.5 -136.5t90 -92.5t130.5 -33q71 0 128.5 33t90 93
t32.5 136q0 77 -32.5 136.5t-89.5 92.5t-129 33q-73 0 -130.5 -33zM487 607q24 -9 46 -26l-24 -33q-18 13 -35.5 19t-40.5 6q-40 0 -69 -33t-29 -104q0 -68 27 -103t72 -35q25 0 44 7.5t39 22.5l23 -34q-47 -40 -108 -40q-66 0 -107.5 49t-41.5 133q0 58 21 98.5t55 61
t72 20.5q32 0 56 -9z" />
    <glyph glyph-name="ordfeminine" unicode="&#xaa;" horiz-adv-x="502" 
d="M126 304.5q-31 30.5 -31 78.5q0 60 47 99t145 39h77l5 33q2 16 2 23q0 33 -18.5 47t-59.5 14q-52 0 -118 -22l-12 43q73 26 139 26q125 0 125 -104q0 -16 -1 -24l-25 -184q-1 -5 -2 -11t-1 -12q0 -13 6 -22t20 -15l-16 -39q-28 6 -42.5 20t-18.5 43q-53 -63 -135 -63
q-55 0 -86 30.5zM291.5 337q31.5 18 54.5 51l13 93h-72q-69 0 -101 -26t-32 -70q0 -31 17.5 -48.5t50.5 -17.5q38 0 69.5 18zM38 0l7 51h354l-8 -51h-353z" />
    <glyph glyph-name="guillemotleft" unicode="&#xab;" horiz-adv-x="553" 
d="M267 520l35 -25l-166 -207l108 -208l-38 -24l-134 211l4 40zM480 520l35 -25l-166 -207l108 -208l-38 -24l-134 211l4 40z" />
    <glyph glyph-name="logicalnot" unicode="&#xac;" horiz-adv-x="497" 
d="M439 346l-24 -178h-57l18 127h-302l6 51h359z" />
    <glyph glyph-name="uni00AD" unicode="&#xad;" horiz-adv-x="398" 
d="M70 288l8 50h263l-7 -50h-264z" />
    <glyph glyph-name="registered" unicode="&#xae;" horiz-adv-x="639" 
d="M474.5 705.5q54.5 -31.5 86.5 -86.5t32 -122q0 -66 -32 -121t-87 -87.5t-121 -32.5t-121 31.5t-87 86.5t-32 121t32 121.5t87 88t121 32.5q67 0 121.5 -31.5zM454.5 320q45.5 27 72 73.5t26.5 103.5q0 58 -26 104.5t-71.5 72.5t-102.5 26q-55 0 -101 -27t-72.5 -74
t-26.5 -104t26.5 -103.5t72.5 -72.5t101 -26q56 0 101.5 27zM435.5 507.5q-16.5 -18.5 -46.5 -26.5l74 -117h-51l-64 111h-36v-111h-42v272h69q113 0 113 -81q0 -29 -16.5 -47.5zM312 510h39q58 0 58 45q0 25 -15.5 35.5t-48.5 10.5h-33v-91z" />
    <glyph glyph-name="macron" unicode="&#xaf;" horiz-adv-x="300" 
d="M328 676h-240l7 47h240z" />
    <glyph glyph-name="degree" unicode="&#xb0;" horiz-adv-x="518" 
d="M143.5 429q-36.5 34 -36.5 95q0 49 23 88.5t61 61.5t82 22q58 0 94.5 -34t36.5 -95q0 -49 -23 -88.5t-61 -61.5t-82 -22q-58 0 -94.5 34zM321 474.5q32 35.5 32 93.5q0 41 -21.5 62.5t-59.5 21.5q-50 0 -82 -35.5t-32 -93.5q0 -40 21.5 -62t59.5 -22q50 0 82 35.5z" />
    <glyph glyph-name="plusminus" unicode="&#xb1;" horiz-adv-x="491" 
d="M32 0l7 51h354l-8 -51h-353zM310 519l-22 -152h149l-7 -51h-149l-22 -151h-55l22 151h-149l7 51h149l21 152h56z" />
    <glyph glyph-name="uni00B2" unicode="&#xb2;" horiz-adv-x="397" 
d="M343.5 714.5q29.5 -28.5 29.5 -74.5q0 -42 -24.5 -81.5t-63 -75.5t-109.5 -94l-26 -22h197l-14 -44h-250l5 43l37 32q71 60 109 96.5t62 73t24 72.5q0 28 -17 44t-47 16q-28 0 -52.5 -12.5t-48.5 -35.5l-32 30q34 31 67 46t71 15q53 0 82.5 -28.5z" />
    <glyph glyph-name="uni00B3" unicode="&#xb3;" horiz-adv-x="397" 
d="M347 718q30 -26 30 -67q0 -42 -27.5 -71.5t-72.5 -37.5q36 -2 59.5 -24.5t23.5 -60.5q0 -62 -45 -102t-114 -40q-79 0 -124 58l34 25q20 -22 41.5 -31t48.5 -9q50 0 78.5 27.5t28.5 73.5q0 33 -20 47.5t-59 14.5h-32l12 39h19q41 0 69 25t28 63q0 27 -17.5 41t-48.5 14
q-28 0 -51 -9t-50 -28l-25 31q61 47 131 47q53 0 83 -26z" />
    <glyph glyph-name="acute" unicode="&#xb4;" horiz-adv-x="273" 
d="M289 783l20 -53l-206 -85l-15 33z" />
    <glyph glyph-name="uni00B5" unicode="&#xb5;" horiz-adv-x="582" 
d="M451 83q0 -44 8 -84l-53 -7q-11 41 -11 80q0 18 1 28q-79 -111 -176 -111q-69 0 -96 51q3 -42 -9 -122l-17 -115l-58 -6l102 726h58l-53 -375q-2 -20 -2 -27q0 -43 22.5 -62.5t60.5 -19.5q47 0 89.5 30.5t79.5 89.5l52 364h58l-49 -348q-7 -49 -7 -92z" />
    <glyph glyph-name="paragraph" unicode="&#xb6;" horiz-adv-x="706" 
d="M615 685l-124 -882l-54 -9l118 842h-131l-116 -833l-54 -9l71 500q-101 4 -148 48t-47 117q0 106 70.5 166t188.5 60h226z" />
    <glyph glyph-name="periodcentered" unicode="&#xb7;" horiz-adv-x="207" 
d="M76 283.5q-12 12.5 -12 31.5q0 22 14.5 37t36.5 15q20 0 32 -12.5t12 -31.5q0 -22 -15 -37t-37 -15q-19 0 -31 12.5z" />
    <glyph glyph-name="cedilla" unicode="&#xb8;" horiz-adv-x="245" 
d="M75 -64q42 -4 62.5 -22.5t20.5 -50.5q0 -40 -31.5 -65t-81.5 -25q-49 0 -80 22l21 35q28 -15 59 -15q27 0 44.5 12t17.5 35t-18 32.5t-64 9.5l25 112h39z" />
    <glyph glyph-name="uni00B9" unicode="&#xb9;" horiz-adv-x="397" 
d="M323 737l-59 -414h-50l50 359l-109 -60l-20 36l144 79h44z" />
    <glyph glyph-name="ordmasculine" unicode="&#xba;" horiz-adv-x="497" 
d="M422 642.5q41 -42.5 41 -120.5q0 -69 -25.5 -125.5t-73 -89.5t-111.5 -33q-75 0 -116 43t-41 121q0 69 25.5 125.5t73 89t111.5 32.5q75 0 116 -42.5zM193.5 579.5q-38.5 -58.5 -38.5 -144.5q0 -56 25.5 -85t73.5 -29q73 0 111 59t38 146q0 112 -98 112
q-73 0 -111.5 -58.5zM35 0l7 51h354l-8 -51h-353z" />
    <glyph glyph-name="guillemotright" unicode="&#xbb;" horiz-adv-x="553" 
d="M140 520l135 -213l-5 -40l-191 -211l-35 24l166 208l-107 207zM353 520l135 -213l-5 -40l-191 -211l-35 24l166 208l-107 207z" />
    <glyph glyph-name="onequarter" unicode="&#xbc;" horiz-adv-x="906" 
d="M316 685l-59 -414h-50l50 359l-109 -60l-20 36l144 79h44zM703 747l38 -20l-517 -798l-38 20zM838 145l-6 -42h-55l-15 -103h-50l14 103h-187l5 37l168 281l42 -17l-155 -259h133l22 115h45l-16 -115h55z" />
    <glyph glyph-name="onehalf" unicode="&#xbd;" horiz-adv-x="906" 
d="M316 685l-59 -414h-50l50 359l-109 -60l-20 36l144 79h44zM703 747l38 -20l-517 -798l-38 20zM807.5 391.5q29.5 -28.5 29.5 -74.5q0 -42 -24.5 -81.5t-63 -75.5t-109.5 -94l-26 -22h197l-14 -44h-250l5 43l37 32q71 60 109 96.5t62 73t24 72.5q0 28 -17 44t-47 16
q-28 0 -52.5 -12.5t-48.5 -35.5l-32 30q34 31 67 46t71 15q53 0 82.5 -28.5z" />
    <glyph glyph-name="threequarters" unicode="&#xbe;" horiz-adv-x="906" 
d="M340 666q30 -26 30 -67q0 -42 -27.5 -71.5t-72.5 -37.5q36 -2 59.5 -24.5t23.5 -60.5q0 -62 -45 -102t-114 -40q-79 0 -124 58l34 25q20 -22 41.5 -31t48.5 -9q50 0 78.5 27.5t28.5 73.5q0 33 -20 47.5t-59 14.5h-32l12 39h19q41 0 69 25t28 63q0 27 -17.5 41t-48.5 14
q-28 0 -51 -9t-50 -28l-25 31q61 47 131 47q53 0 83 -26zM703 747l38 -20l-517 -798l-38 20zM838 145l-6 -42h-55l-15 -103h-50l14 103h-187l5 37l168 281l42 -17l-155 -259h133l22 115h45l-16 -115h55z" />
    <glyph glyph-name="questiondown" unicode="&#xbf;" horiz-adv-x="445" 
d="M292 492.5q12 -12.5 12 -31.5q0 -22 -14.5 -37t-36.5 -15q-20 0 -32 12.5t-12 31.5q0 22 15 37t37 15q19 0 31 -12.5zM34.5 -170.5q-40.5 36.5 -40.5 92.5q0 45 18 77t44 52t68 45q36 21 56.5 36.5t34.5 37.5t14 52q0 19 -5 41l52 10q10 -28 10 -54q0 -39 -16.5 -67.5
t-40 -47t-63.5 -42.5q-37 -22 -59 -39t-37 -42t-15 -58q0 -37 26 -58.5t72 -21.5q45 0 83.5 18.5t78.5 57.5l37 -35q-48 -47 -97 -69t-106 -22q-74 0 -114.5 36.5z" />
    <glyph glyph-name="Agrave" unicode="&#xc0;" horiz-adv-x="562" 
d="M447 0l-33 187h-287l-86 -187h-62l324 685h75l131 -685h-62zM151 238h254l-71 397zM288 885l176 -94l-20 -33l-183 75z" />
    <glyph glyph-name="Aacute" unicode="&#xc1;" horiz-adv-x="562" 
d="M447 0l-33 187h-287l-86 -187h-62l324 685h75l131 -685h-62zM151 238h254l-71 397zM441 886l20 -53l-206 -75l-14 34z" />
    <glyph glyph-name="Acircumflex" unicode="&#xc2;" horiz-adv-x="562" 
d="M447 0l-33 187h-287l-86 -187h-62l324 685h75l131 -685h-62zM151 238h254l-71 397zM228 762l-24 31l142 101h37l114 -102l-27 -30l-110 80z" />
    <glyph glyph-name="Atilde" unicode="&#xc3;" horiz-adv-x="562" 
d="M447 0l-33 187h-287l-86 -187h-62l324 685h75l131 -685h-62zM151 238h254l-71 397zM385.5 798.5q-14.5 6.5 -33.5 19.5q-13 10 -23.5 15t-21.5 5q-18 0 -31 -9.5t-32 -32.5l-33 22q45 66 97 66q18 0 31.5 -6.5t32.5 -18.5q18 -11 27 -15.5t20 -4.5q16 0 30.5 10.5
t31.5 33.5l36 -21q-44 -70 -97 -70q-20 0 -34.5 6.5z" />
    <glyph glyph-name="Adieresis" unicode="&#xc4;" horiz-adv-x="562" 
d="M447 0l-33 187h-287l-86 -187h-62l324 685h75l131 -685h-62zM151 238h254l-71 397zM238.5 799q-10.5 10 -10.5 25q0 19 12.5 31.5t31.5 12.5q16 0 26.5 -10t10.5 -26q0 -18 -12.5 -30.5t-31.5 -12.5q-16 0 -26.5 10zM426.5 799q-10.5 10 -10.5 25q0 19 13 31.5t32 12.5
q16 0 26 -10t10 -26q0 -18 -12.5 -30.5t-31.5 -12.5q-16 0 -26.5 10z" />
    <glyph glyph-name="Aring" unicode="&#xc5;" horiz-adv-x="562" 
d="M447 0l-33 187h-287l-86 -187h-62l324 685h75l131 -685h-62zM151 238h254l-71 397zM440.5 923.5q24.5 -23.5 24.5 -59.5q0 -45 -31.5 -75t-77.5 -30q-40 0 -64.5 23.5t-24.5 59.5q0 45 32 75t77 30q40 0 64.5 -23.5zM328 891.5q-17 -19.5 -17 -48.5q0 -23 12 -35.5
t34 -12.5q30 0 47.5 20t17.5 48q0 23 -12 35.5t-35 12.5q-30 0 -47 -19.5z" />
    <glyph glyph-name="AE" unicode="&#xc6;" horiz-adv-x="780" 
d="M732 635h-323l30 -256h257l-7 -50h-244l32 -278h228l-8 -51h-272l-20 184h-284l-95 -184h-64l363 685h422zM147 234h253l-44 403z" />
    <glyph glyph-name="Ccedilla" unicode="&#xc7;" horiz-adv-x="547" 
d="M248 585.5q-60 -59.5 -87.5 -148t-27.5 -177.5q0 -108 48 -163t128 -55q49 0 85 14.5t75 43.5l29 -42q-82 -64 -176 -69l-9 -53q42 -4 62.5 -22.5t20.5 -50.5q0 -40 -31.5 -65t-81.5 -25q-49 0 -80 22l21 35q28 -15 59 -15q27 0 44.5 12t17.5 35t-18 32.5t-64 9.5l19 86
q-96 8 -153.5 78.5t-57.5 194.5q0 100 34.5 200t108.5 166.5t185 66.5q55 0 95 -16t75 -48l-35 -36q-32 26 -62.5 37.5t-70.5 11.5q-93 0 -153 -59.5z" />
    <glyph glyph-name="Egrave" unicode="&#xc8;" horiz-adv-x="510" 
d="M516 685l-14 -50h-279l-36 -255h242l-7 -50h-242l-40 -279h294l-7 -51h-354l97 685h346zM294 885l176 -94l-20 -33l-183 75z" />
    <glyph glyph-name="Eacute" unicode="&#xc9;" horiz-adv-x="510" 
d="M516 685l-14 -50h-279l-36 -255h242l-7 -50h-242l-40 -279h294l-7 -51h-354l97 685h346zM447 886l20 -53l-206 -75l-14 34z" />
    <glyph glyph-name="Ecircumflex" unicode="&#xca;" horiz-adv-x="510" 
d="M516 685l-14 -50h-279l-36 -255h242l-7 -50h-242l-40 -279h294l-7 -51h-354l97 685h346zM234 762l-24 31l142 101h37l114 -102l-27 -30l-110 80z" />
    <glyph glyph-name="Edieresis" unicode="&#xcb;" horiz-adv-x="510" 
d="M516 685l-14 -50h-279l-36 -255h242l-7 -50h-242l-40 -279h294l-7 -51h-354l97 685h346zM244.5 799q-10.5 10 -10.5 25q0 19 12.5 31.5t31.5 12.5q16 0 26.5 -10t10.5 -26q0 -18 -12.5 -30.5t-31.5 -12.5q-16 0 -26.5 10zM432.5 799q-10.5 10 -10.5 25q0 19 13 31.5
t32 12.5q16 0 26 -10t10 -26q0 -18 -12.5 -30.5t-31.5 -12.5q-16 0 -26.5 10z" />
    <glyph glyph-name="Igrave" unicode="&#xcc;" horiz-adv-x="281" 
d="M230 685l-97 -685h-60l97 685h60zM147 885l176 -94l-20 -33l-183 75z" />
    <glyph glyph-name="Iacute" unicode="&#xcd;" horiz-adv-x="281" 
d="M230 685l-97 -685h-60l97 685h60zM300 886l20 -53l-206 -75l-14 34z" />
    <glyph glyph-name="Icircumflex" unicode="&#xce;" horiz-adv-x="281" 
d="M230 685l-97 -685h-60l97 685h60zM87 762l-24 31l142 101h37l114 -102l-27 -30l-110 80z" />
    <glyph glyph-name="Idieresis" unicode="&#xcf;" horiz-adv-x="281" 
d="M230 685l-97 -685h-60l97 685h60zM97.5 799q-10.5 10 -10.5 25q0 19 12.5 31.5t31.5 12.5q16 0 26.5 -10t10.5 -26q0 -18 -12.5 -30.5t-31.5 -12.5q-16 0 -26.5 10zM285.5 799q-10.5 10 -10.5 25q0 19 13 31.5t32 12.5q16 0 26 -10t10 -26q0 -18 -12.5 -30.5t-31.5 -12.5
q-16 0 -26.5 10z" />
    <glyph glyph-name="Eth" unicode="&#xd0;" horiz-adv-x="635" 
d="M510.5 629.5q76.5 -55.5 76.5 -200.5q0 -115 -36.5 -212t-117 -157t-206.5 -60h-149l47 329h-87l6 48h87l44 308h134q125 0 201.5 -55.5zM404 105q65 55 93.5 141t28.5 184q0 121 -58.5 163t-154.5 42h-85l-36 -258h177l-6 -48h-178l-39 -279h89q104 0 169 55z" />
    <glyph glyph-name="Ntilde" unicode="&#xd1;" horiz-adv-x="670" 
d="M523 0h-77l-236 631q-3 -94 -26 -251l-54 -380h-57l97 685h78l236 -629q3 101 20 215l58 414h57zM448.5 798.5q-14.5 6.5 -33.5 19.5q-13 10 -23.5 15t-21.5 5q-18 0 -31 -9.5t-32 -32.5l-33 22q45 66 97 66q18 0 31.5 -6.5t32.5 -18.5q18 -11 27 -15.5t20 -4.5
q16 0 30.5 10.5t31.5 33.5l36 -21q-44 -70 -97 -70q-20 0 -34.5 6.5z" />
    <glyph glyph-name="Ograve" unicode="&#xd2;" horiz-adv-x="688" 
d="M577 625.5q63 -70.5 63 -201.5q0 -100 -33 -200t-107.5 -167.5t-190.5 -67.5q-110 0 -174 71t-64 202q0 97 34 197t109 168.5t190 68.5q110 0 173 -70.5zM245.5 583.5q-59.5 -61.5 -85.5 -149.5t-26 -174q0 -110 46.5 -164.5t129.5 -54.5q98 0 158 61.5t85 149.5t25 175
q0 109 -46 163.5t-131 54.5q-96 0 -155.5 -61.5zM352 885l176 -94l-20 -33l-183 75z" />
    <glyph glyph-name="Oacute" unicode="&#xd3;" horiz-adv-x="688" 
d="M577 625.5q63 -70.5 63 -201.5q0 -100 -33 -200t-107.5 -167.5t-190.5 -67.5q-110 0 -174 71t-64 202q0 97 34 197t109 168.5t190 68.5q110 0 173 -70.5zM245.5 583.5q-59.5 -61.5 -85.5 -149.5t-26 -174q0 -110 46.5 -164.5t129.5 -54.5q98 0 158 61.5t85 149.5t25 175
q0 109 -46 163.5t-131 54.5q-96 0 -155.5 -61.5zM505 886l20 -53l-206 -75l-14 34z" />
    <glyph glyph-name="Ocircumflex" unicode="&#xd4;" horiz-adv-x="688" 
d="M577 625.5q63 -70.5 63 -201.5q0 -100 -33 -200t-107.5 -167.5t-190.5 -67.5q-110 0 -174 71t-64 202q0 97 34 197t109 168.5t190 68.5q110 0 173 -70.5zM245.5 583.5q-59.5 -61.5 -85.5 -149.5t-26 -174q0 -110 46.5 -164.5t129.5 -54.5q98 0 158 61.5t85 149.5t25 175
q0 109 -46 163.5t-131 54.5q-96 0 -155.5 -61.5zM292 762l-24 31l142 101h37l114 -102l-27 -30l-110 80z" />
    <glyph glyph-name="Otilde" unicode="&#xd5;" horiz-adv-x="688" 
d="M577 625.5q63 -70.5 63 -201.5q0 -100 -33 -200t-107.5 -167.5t-190.5 -67.5q-110 0 -174 71t-64 202q0 97 34 197t109 168.5t190 68.5q110 0 173 -70.5zM245.5 583.5q-59.5 -61.5 -85.5 -149.5t-26 -174q0 -110 46.5 -164.5t129.5 -54.5q98 0 158 61.5t85 149.5t25 175
q0 109 -46 163.5t-131 54.5q-96 0 -155.5 -61.5zM449.5 798.5q-14.5 6.5 -33.5 19.5q-13 10 -23.5 15t-21.5 5q-18 0 -31 -9.5t-32 -32.5l-33 22q45 66 97 66q18 0 31.5 -6.5t32.5 -18.5q18 -11 27 -15.5t20 -4.5q16 0 30.5 10.5t31.5 33.5l36 -21q-44 -70 -97 -70
q-20 0 -34.5 6.5z" />
    <glyph glyph-name="Odieresis" unicode="&#xd6;" horiz-adv-x="688" 
d="M577 625.5q63 -70.5 63 -201.5q0 -100 -33 -200t-107.5 -167.5t-190.5 -67.5q-110 0 -174 71t-64 202q0 97 34 197t109 168.5t190 68.5q110 0 173 -70.5zM245.5 583.5q-59.5 -61.5 -85.5 -149.5t-26 -174q0 -110 46.5 -164.5t129.5 -54.5q98 0 158 61.5t85 149.5t25 175
q0 109 -46 163.5t-131 54.5q-96 0 -155.5 -61.5zM302.5 799q-10.5 10 -10.5 25q0 19 12.5 31.5t31.5 12.5q16 0 26.5 -10t10.5 -26q0 -18 -12.5 -30.5t-31.5 -12.5q-16 0 -26.5 10zM490.5 799q-10.5 10 -10.5 25q0 19 13 31.5t32 12.5q16 0 26 -10t10 -26q0 -18 -12.5 -30.5
t-31.5 -12.5q-16 0 -26.5 10z" />
    <glyph glyph-name="multiply" unicode="&#xd7;" horiz-adv-x="491" 
d="M398 471l33 -37l-142 -127l108 -127l-42 -36l-106 127l-142 -127l-34 37l142 126l-107 128l42 36l104 -128z" />
    <glyph glyph-name="Oslash" unicode="&#xd8;" horiz-adv-x="688" 
d="M610 575.5q30 -61.5 30 -151.5q0 -100 -33 -200t-107.5 -167.5t-190.5 -67.5q-40 0 -78 11l-52 -120l-50 15l56 124q-55 31 -84.5 93t-29.5 150q0 97 34 197t109 168.5t190 68.5q42 0 75 -10l53 124l50 -14l-58 -128q56 -31 86 -92.5zM212 66l250 571q-30 8 -61 8
q-96 0 -155.5 -61.5t-85.5 -150.5t-26 -177q0 -139 78 -190zM468 102.5q60 61.5 85 151t25 178.5q0 141 -80 190l-250 -572q29 -9 62 -9q98 0 158 61.5z" />
    <glyph glyph-name="Ugrave" unicode="&#xd9;" horiz-adv-x="649" 
d="M542 212q-14 -102 -79 -162.5t-174 -60.5q-98 0 -148 49t-50 133q0 21 3 45l66 469h60l-66 -468q-3 -22 -3 -43q0 -133 140 -133q84 0 132 47.5t60 132.5l65 464h60zM331 885l176 -94l-20 -33l-183 75z" />
    <glyph glyph-name="Uacute" unicode="&#xda;" horiz-adv-x="649" 
d="M542 212q-14 -102 -79 -162.5t-174 -60.5q-98 0 -148 49t-50 133q0 21 3 45l66 469h60l-66 -468q-3 -22 -3 -43q0 -133 140 -133q84 0 132 47.5t60 132.5l65 464h60zM484 886l20 -53l-206 -75l-14 34z" />
    <glyph glyph-name="Ucircumflex" unicode="&#xdb;" horiz-adv-x="649" 
d="M542 212q-14 -102 -79 -162.5t-174 -60.5q-98 0 -148 49t-50 133q0 21 3 45l66 469h60l-66 -468q-3 -22 -3 -43q0 -133 140 -133q84 0 132 47.5t60 132.5l65 464h60zM271 762l-24 31l142 101h37l114 -102l-27 -30l-110 80z" />
    <glyph glyph-name="Udieresis" unicode="&#xdc;" horiz-adv-x="649" 
d="M542 212q-14 -102 -79 -162.5t-174 -60.5q-98 0 -148 49t-50 133q0 21 3 45l66 469h60l-66 -468q-3 -22 -3 -43q0 -133 140 -133q84 0 132 47.5t60 132.5l65 464h60zM281.5 799q-10.5 10 -10.5 25q0 19 12.5 31.5t31.5 12.5q16 0 26.5 -10t10.5 -26q0 -18 -12.5 -30.5
t-31.5 -12.5q-16 0 -26.5 10zM469.5 799q-10.5 10 -10.5 25q0 19 13 31.5t32 12.5q16 0 26 -10t10 -26q0 -18 -12.5 -30.5t-31.5 -12.5q-16 0 -26.5 10z" />
    <glyph glyph-name="Yacute" unicode="&#xdd;" horiz-adv-x="520" 
d="M567 685l-275 -417l-38 -268h-61l38 267l-158 418h63l131 -362l233 362h67zM419 886l20 -53l-206 -75l-14 34z" />
    <glyph glyph-name="Thorn" unicode="&#xde;" horiz-adv-x="567" 
d="M539 385q0 -64 -27 -120.5t-91 -92.5t-169 -36h-100l-19 -136h-60l97 685h60l-17 -122h98q228 0 228 -178zM425 242.5q51 56.5 51 141.5q0 70 -42 99.5t-126 29.5h-102l-47 -327h97q118 0 169 56.5z" />
    <glyph glyph-name="germandbls" unicode="&#xdf;" horiz-adv-x="581" 
d="M-56 -159q41 19 65 38t39.5 51.5t23.5 88.5l74 523q13 97 70 149.5t142 52.5q68 0 108 -33.5t40 -86.5q0 -33 -12 -57t-29 -40t-44 -36q-31 -23 -44.5 -38t-13.5 -37q0 -21 14 -37.5t44 -39.5q31 -25 50.5 -45t33.5 -51.5t14 -73.5q0 -41 -21 -82.5t-63.5 -69.5
t-103.5 -28q-32 0 -61.5 8.5t-50.5 19.5l22 41q42 -20 86 -20q46 0 76 21t44 51t14 58q0 47 -22 77t-64 64q-35 29 -51.5 50t-16.5 51q0 35 17.5 56.5t53.5 47.5t54 48.5t18 59.5q0 35 -25 54.5t-67 19.5q-61 0 -102.5 -40.5t-52.5 -119.5l-73 -519q-10 -68 -30 -108
t-51.5 -64t-87.5 -49z" />
    <glyph glyph-name="agrave" unicode="&#xe0;" 
d="M415 523q39 -11 80 -32l-55 -377q-2 -11 -2 -30q0 -21 7.5 -33.5t25.5 -20.5l-17 -41q-35 8 -53 29.5t-17 65.5q-30 -44 -71.5 -69.5t-89.5 -25.5q-78 0 -121.5 54.5t-43.5 148.5q0 78 28 157t88.5 132t152.5 53q49 0 88 -11zM210.5 441q-47.5 -46 -69 -114t-21.5 -135
q0 -76 29 -115t83 -39q47 0 84.5 28t71.5 82l45 315q-48 24 -104 24q-71 0 -118.5 -46zM302 783l173 -105l-20 -33l-183 85z" />
    <glyph glyph-name="aacute" unicode="&#xe1;" 
d="M415 523q39 -11 80 -32l-55 -377q-2 -11 -2 -30q0 -21 7.5 -33.5t25.5 -20.5l-17 -41q-35 8 -53 29.5t-17 65.5q-30 -44 -71.5 -69.5t-89.5 -25.5q-78 0 -121.5 54.5t-43.5 148.5q0 78 28 157t88.5 132t152.5 53q49 0 88 -11zM210.5 441q-47.5 -46 -69 -114t-21.5 -135
q0 -76 29 -115t83 -39q47 0 84.5 28t71.5 82l45 315q-48 24 -104 24q-71 0 -118.5 -46zM455 783l20 -53l-206 -85l-15 33z" />
    <glyph glyph-name="acircumflex" unicode="&#xe2;" 
d="M415 523q39 -11 80 -32l-55 -377q-2 -11 -2 -30q0 -21 7.5 -33.5t25.5 -20.5l-17 -41q-35 8 -53 29.5t-17 65.5q-30 -44 -71.5 -69.5t-89.5 -25.5q-78 0 -121.5 54.5t-43.5 148.5q0 78 28 157t88.5 132t152.5 53q49 0 88 -11zM210.5 441q-47.5 -46 -69 -114t-21.5 -135
q0 -76 29 -115t83 -39q47 0 84.5 28t71.5 82l45 315q-48 24 -104 24q-71 0 -118.5 -46zM235 643l-26 31l144 106h36l114 -106l-28 -31l-110 85z" />
    <glyph glyph-name="atilde" unicode="&#xe3;" 
d="M415 523q39 -11 80 -32l-55 -377q-2 -11 -2 -30q0 -21 7.5 -33.5t25.5 -20.5l-17 -41q-35 8 -53 29.5t-17 65.5q-30 -44 -71.5 -69.5t-89.5 -25.5q-78 0 -121.5 54.5t-43.5 148.5q0 78 28 157t88.5 132t152.5 53q49 0 88 -11zM210.5 441q-47.5 -46 -69 -114t-21.5 -135
q0 -76 29 -115t83 -39q47 0 84.5 28t71.5 82l45 315q-48 24 -104 24q-71 0 -118.5 -46zM386.5 672.5q-14.5 6.5 -33.5 19.5q-13 10 -23.5 15t-21.5 5q-18 0 -31 -9.5t-32 -32.5l-33 22q45 66 97 66q18 0 31.5 -6.5t32.5 -18.5q18 -11 27 -15.5t20 -4.5q16 0 30.5 10.5
t31.5 33.5l36 -21q-44 -70 -97 -70q-20 0 -34.5 6.5z" />
    <glyph glyph-name="adieresis" unicode="&#xe4;" 
d="M415 523q39 -11 80 -32l-55 -377q-2 -11 -2 -30q0 -21 7.5 -33.5t25.5 -20.5l-17 -41q-35 8 -53 29.5t-17 65.5q-30 -44 -71.5 -69.5t-89.5 -25.5q-78 0 -121.5 54.5t-43.5 148.5q0 78 28 157t88.5 132t152.5 53q49 0 88 -11zM210.5 441q-47.5 -46 -69 -114t-21.5 -135
q0 -76 29 -115t83 -39q47 0 84.5 28t71.5 82l45 315q-48 24 -104 24q-71 0 -118.5 -46zM238.5 673q-10.5 10 -10.5 25q0 19 12.5 31.5t31.5 12.5q16 0 26.5 -10t10.5 -26q0 -18 -12.5 -30.5t-31.5 -12.5q-16 0 -26.5 10zM426.5 673q-10.5 10 -10.5 25q0 19 13 31.5t32 12.5
q16 0 26 -10t10 -26q0 -18 -12.5 -30.5t-31.5 -12.5q-16 0 -26.5 10z" />
    <glyph glyph-name="aring" unicode="&#xe5;" 
d="M415 523q39 -11 80 -32l-55 -377q-2 -11 -2 -30q0 -21 7.5 -33.5t25.5 -20.5l-17 -41q-35 8 -53 29.5t-17 65.5q-30 -44 -71.5 -69.5t-89.5 -25.5q-78 0 -121.5 54.5t-43.5 148.5q0 78 28 157t88.5 132t152.5 53q49 0 88 -11zM210.5 441q-47.5 -46 -69 -114t-21.5 -135
q0 -76 29 -115t83 -39q47 0 84.5 28t71.5 82l45 315q-48 24 -104 24q-71 0 -118.5 -46zM441.5 797.5q24.5 -23.5 24.5 -59.5q0 -45 -31.5 -75t-77.5 -30q-40 0 -64.5 23.5t-24.5 59.5q0 45 32 75t77 30q40 0 64.5 -23.5zM329 765.5q-17 -19.5 -17 -48.5q0 -23 12 -35.5
t34 -12.5q30 0 47.5 20t17.5 48q0 23 -12 35.5t-35 12.5q-30 0 -47 -19.5z" />
    <glyph glyph-name="ae" unicode="&#xe6;" horiz-adv-x="818" 
d="M388 507q38 -27 51 -74q24 40 75.5 70.5t114.5 30.5q73 0 115 -35.5t42 -91.5q0 -95 -95 -141t-269 -59q0 -167 136 -167q41 0 75 12.5t72 39.5l27 -41q-43 -31 -86.5 -46.5t-91.5 -15.5q-62 0 -106 27t-65 77q-45 -56 -94 -80t-105 -24q-69 0 -109.5 37t-40.5 99
q0 77 58 128t183 51h102q9 43 24 78q-2 47 -35 75t-88 28q-34 0 -66.5 -7t-76.5 -22l-13 45q86 33 162 33q66 0 104 -27zM488.5 417q-50.5 -69 -62.5 -164q151 12 225 47.5t74 104.5q0 34 -24.5 57.5t-72.5 23.5q-89 0 -139.5 -69zM280 261q-95 0 -139 -36t-44 -100
q0 -44 24.5 -66.5t69.5 -22.5q50 0 93.5 25.5t84.5 80.5q-4 19 -4 55q0 41 4 64h-89z" />
    <glyph glyph-name="ccedilla" unicode="&#xe7;" horiz-adv-x="467" 
d="M204.5 440q-44.5 -45 -64.5 -111.5t-20 -131.5q0 -79 34.5 -118t96.5 -39q36 0 66.5 11t62.5 33l25 -41q-66 -51 -147 -54l-9 -53q42 -4 62.5 -22.5t20.5 -50.5q0 -40 -31.5 -65t-81.5 -25q-49 0 -80 22l21 35q28 -15 59 -15q27 0 44.5 12t17.5 35t-18 32.5t-64 9.5
l19 87q-74 9 -116 63.5t-42 145.5q0 76 27 153t85.5 129t147.5 52q87 0 141 -54l-33 -37q-23 21 -49 31.5t-60 10.5q-70 0 -114.5 -45z" />
    <glyph glyph-name="egrave" unicode="&#xe8;" horiz-adv-x="513" 
d="M387 265.5q-94 -46.5 -267 -59.5v-6q0 -82 35.5 -121t97.5 -39q41 0 75.5 12.5t72.5 39.5l26 -41q-42 -31 -85.5 -46.5t-92.5 -15.5q-90 0 -140 55t-50 155q0 79 28.5 156t89 128t149.5 51q73 0 114 -35.5t41 -90.5q0 -96 -94 -142.5zM185.5 417q-50.5 -69 -62.5 -165
q150 12 224 48t74 106q0 34 -24 57t-71 23q-90 0 -140.5 -69zM276 783l173 -105l-20 -33l-183 85z" />
    <glyph glyph-name="eacute" unicode="&#xe9;" horiz-adv-x="513" 
d="M387 265.5q-94 -46.5 -267 -59.5v-6q0 -82 35.5 -121t97.5 -39q41 0 75.5 12.5t72.5 39.5l26 -41q-42 -31 -85.5 -46.5t-92.5 -15.5q-90 0 -140 55t-50 155q0 79 28.5 156t89 128t149.5 51q73 0 114 -35.5t41 -90.5q0 -96 -94 -142.5zM185.5 417q-50.5 -69 -62.5 -165
q150 12 224 48t74 106q0 34 -24 57t-71 23q-90 0 -140.5 -69zM429 783l20 -53l-206 -85l-15 33z" />
    <glyph glyph-name="ecircumflex" unicode="&#xea;" horiz-adv-x="513" 
d="M387 265.5q-94 -46.5 -267 -59.5v-6q0 -82 35.5 -121t97.5 -39q41 0 75.5 12.5t72.5 39.5l26 -41q-42 -31 -85.5 -46.5t-92.5 -15.5q-90 0 -140 55t-50 155q0 79 28.5 156t89 128t149.5 51q73 0 114 -35.5t41 -90.5q0 -96 -94 -142.5zM185.5 417q-50.5 -69 -62.5 -165
q150 12 224 48t74 106q0 34 -24 57t-71 23q-90 0 -140.5 -69zM209 643l-26 31l144 106h36l114 -106l-28 -31l-110 85z" />
    <glyph glyph-name="edieresis" unicode="&#xeb;" horiz-adv-x="513" 
d="M387 265.5q-94 -46.5 -267 -59.5v-6q0 -82 35.5 -121t97.5 -39q41 0 75.5 12.5t72.5 39.5l26 -41q-42 -31 -85.5 -46.5t-92.5 -15.5q-90 0 -140 55t-50 155q0 79 28.5 156t89 128t149.5 51q73 0 114 -35.5t41 -90.5q0 -96 -94 -142.5zM185.5 417q-50.5 -69 -62.5 -165
q150 12 224 48t74 106q0 34 -24 57t-71 23q-90 0 -140.5 -69zM212.5 673q-10.5 10 -10.5 25q0 19 12.5 31.5t31.5 12.5q16 0 26.5 -10t10.5 -26q0 -18 -12.5 -30.5t-31.5 -12.5q-16 0 -26.5 10zM400.5 673q-10.5 10 -10.5 25q0 19 13 31.5t32 12.5q16 0 26 -10t10 -26
q0 -18 -12.5 -30.5t-31.5 -12.5q-16 0 -26.5 10z" />
    <glyph glyph-name="igrave" unicode="&#xec;" horiz-adv-x="269" 
d="M200 523l-74 -523h-58l74 523h58zM135 783l173 -105l-20 -33l-183 85z" />
    <glyph glyph-name="iacute" unicode="&#xed;" horiz-adv-x="269" 
d="M200 523l-74 -523h-58l74 523h58zM288 783l20 -53l-206 -85l-15 33z" />
    <glyph glyph-name="icircumflex" unicode="&#xee;" horiz-adv-x="269" 
d="M200 523l-74 -523h-58l74 523h58zM68 643l-26 31l144 106h36l114 -106l-28 -31l-110 85z" />
    <glyph glyph-name="idieresis" unicode="&#xef;" horiz-adv-x="269" 
d="M200 523l-74 -523h-58l74 523h58zM71.5 673q-10.5 10 -10.5 25q0 19 12.5 31.5t31.5 12.5q16 0 26.5 -10t10.5 -26q0 -18 -12.5 -30.5t-31.5 -12.5q-16 0 -26.5 10zM259.5 673q-10.5 10 -10.5 25q0 19 13 31.5t32 12.5q16 0 26 -10t10 -26q0 -18 -12.5 -30.5t-31.5 -12.5
q-16 0 -26.5 10z" />
    <glyph glyph-name="eth" unicode="&#xf0;" horiz-adv-x="564" 
d="M466.5 544.5q29.5 -67.5 29.5 -159.5q0 -107 -28 -197t-86.5 -144.5t-144.5 -54.5q-84 0 -132 51.5t-48 142.5q0 68 24 134t75.5 109t128.5 43q97 0 153 -78q0 75 -23 133t-73 104l-89 -77l-40 20l92 84q-60 32 -115 43l16 46q76 -15 137 -56l80 74l32 -31l-77 -70
q59 -49 88.5 -116.5zM376 122.5q50 84.5 59 209.5q-52 88 -144 88q-62 0 -101.5 -35.5t-56.5 -89.5t-17 -113q0 -70 31.5 -107t90.5 -37q88 0 138 84.5z" />
    <glyph glyph-name="ntilde" unicode="&#xf1;" horiz-adv-x="581" 
d="M467 501q32 -33 32 -94q0 -18 -3 -38l-52 -369h-58l52 367q2 12 2 33q0 85 -76 85q-101 0 -194 -172l-44 -313h-58l74 523h50l-14 -130q41 68 91 104.5t107 36.5q59 0 91 -33zM376.5 672.5q-14.5 6.5 -33.5 19.5q-13 10 -23.5 15t-21.5 5q-18 0 -31 -9.5t-32 -32.5
l-33 22q45 66 97 66q18 0 31.5 -6.5t32.5 -18.5q18 -11 27 -15.5t20 -4.5q16 0 30.5 10.5t31.5 33.5l36 -21q-44 -70 -97 -70q-20 0 -34.5 6.5z" />
    <glyph glyph-name="ograve" unicode="&#xf2;" horiz-adv-x="569" 
d="M109.5 45q-49.5 56 -49.5 156q0 75 26 151.5t84.5 129t150.5 52.5q91 0 140 -55t49 -155q0 -74 -25.5 -151t-84.5 -130.5t-151 -53.5q-90 0 -139.5 56zM366.5 84q44.5 46 63.5 112.5t19 131.5q0 78 -33 118t-96 40q-72 0 -117 -46.5t-64 -113.5t-19 -130q0 -78 34 -118
t97 -40q71 0 115.5 46zM286 783l173 -105l-20 -33l-183 85z" />
    <glyph glyph-name="oacute" unicode="&#xf3;" horiz-adv-x="569" 
d="M109.5 45q-49.5 56 -49.5 156q0 75 26 151.5t84.5 129t150.5 52.5q91 0 140 -55t49 -155q0 -74 -25.5 -151t-84.5 -130.5t-151 -53.5q-90 0 -139.5 56zM366.5 84q44.5 46 63.5 112.5t19 131.5q0 78 -33 118t-96 40q-72 0 -117 -46.5t-64 -113.5t-19 -130q0 -78 34 -118
t97 -40q71 0 115.5 46zM439 783l20 -53l-206 -85l-15 33z" />
    <glyph glyph-name="ocircumflex" unicode="&#xf4;" horiz-adv-x="569" 
d="M109.5 45q-49.5 56 -49.5 156q0 75 26 151.5t84.5 129t150.5 52.5q91 0 140 -55t49 -155q0 -74 -25.5 -151t-84.5 -130.5t-151 -53.5q-90 0 -139.5 56zM366.5 84q44.5 46 63.5 112.5t19 131.5q0 78 -33 118t-96 40q-72 0 -117 -46.5t-64 -113.5t-19 -130q0 -78 34 -118
t97 -40q71 0 115.5 46zM219 643l-26 31l144 106h36l114 -106l-28 -31l-110 85z" />
    <glyph glyph-name="otilde" unicode="&#xf5;" horiz-adv-x="569" 
d="M109.5 45q-49.5 56 -49.5 156q0 75 26 151.5t84.5 129t150.5 52.5q91 0 140 -55t49 -155q0 -74 -25.5 -151t-84.5 -130.5t-151 -53.5q-90 0 -139.5 56zM366.5 84q44.5 46 63.5 112.5t19 131.5q0 78 -33 118t-96 40q-72 0 -117 -46.5t-64 -113.5t-19 -130q0 -78 34 -118
t97 -40q71 0 115.5 46zM370.5 672.5q-14.5 6.5 -33.5 19.5q-13 10 -23.5 15t-21.5 5q-18 0 -31 -9.5t-32 -32.5l-33 22q45 66 97 66q18 0 31.5 -6.5t32.5 -18.5q18 -11 27 -15.5t20 -4.5q16 0 30.5 10.5t31.5 33.5l36 -21q-44 -70 -97 -70q-20 0 -34.5 6.5z" />
    <glyph glyph-name="odieresis" unicode="&#xf6;" horiz-adv-x="569" 
d="M109.5 45q-49.5 56 -49.5 156q0 75 26 151.5t84.5 129t150.5 52.5q91 0 140 -55t49 -155q0 -74 -25.5 -151t-84.5 -130.5t-151 -53.5q-90 0 -139.5 56zM366.5 84q44.5 46 63.5 112.5t19 131.5q0 78 -33 118t-96 40q-72 0 -117 -46.5t-64 -113.5t-19 -130q0 -78 34 -118
t97 -40q71 0 115.5 46zM222.5 673q-10.5 10 -10.5 25q0 19 12.5 31.5t31.5 12.5q16 0 26.5 -10t10.5 -26q0 -18 -12.5 -30.5t-31.5 -12.5q-16 0 -26.5 10zM410.5 673q-10.5 10 -10.5 25q0 19 13 31.5t32 12.5q16 0 26 -10t10 -26q0 -18 -12.5 -30.5t-31.5 -12.5
q-16 0 -26.5 10z" />
    <glyph glyph-name="divide" unicode="&#xf7;" horiz-adv-x="491" 
d="M191 77.5q-12 12.5 -12 31.5q0 22 14.5 37t36.5 15q20 0 32 -12.5t12 -31.5q0 -22 -15 -37t-37 -15q-19 0 -31 12.5zM253 515.5q-12 12.5 -12 31.5q0 22 14.5 37t36.5 15q20 0 32 -12.5t12 -31.5q0 -22 -15 -37t-37 -15q-19 0 -31 12.5zM75 306l7 51h354l-8 -51h-353z
" />
    <glyph glyph-name="oslash" unicode="&#xf8;" horiz-adv-x="569" 
d="M489.5 434q20.5 -46 20.5 -110q0 -74 -25.5 -151t-84.5 -130.5t-151 -53.5q-33 0 -63 8l-57 -122l-47 14l60 128q-40 26 -61 73t-21 111q0 75 26 151.5t84.5 129t150.5 52.5q33 0 63 -8l57 122l48 -14l-59 -129q39 -25 59.5 -71zM203 439.5q-45 -46.5 -64 -113.5
t-19 -130q0 -97 50 -135l197 418q-20 7 -47 7q-72 0 -117 -46.5zM366.5 84q44.5 46 63.5 112.5t19 131.5q0 97 -48 134l-197 -418q21 -6 47 -6q71 0 115.5 46z" />
    <glyph glyph-name="ugrave" unicode="&#xf9;" horiz-adv-x="577" 
d="M114.5 22q-32.5 33 -32.5 93q0 17 3 36l52 372h58l-52 -370q-2 -12 -2 -32q0 -84 76 -84q55 0 102.5 45.5t85.5 120.5l45 320h58l-74 -523h-48l14 133q-36 -67 -84.5 -105.5t-109.5 -38.5q-59 0 -91.5 33zM287 783l173 -105l-20 -33l-183 85z" />
    <glyph glyph-name="uacute" unicode="&#xfa;" horiz-adv-x="577" 
d="M114.5 22q-32.5 33 -32.5 93q0 17 3 36l52 372h58l-52 -370q-2 -12 -2 -32q0 -84 76 -84q55 0 102.5 45.5t85.5 120.5l45 320h58l-74 -523h-48l14 133q-36 -67 -84.5 -105.5t-109.5 -38.5q-59 0 -91.5 33zM440 783l20 -53l-206 -85l-15 33z" />
    <glyph glyph-name="ucircumflex" unicode="&#xfb;" horiz-adv-x="577" 
d="M114.5 22q-32.5 33 -32.5 93q0 17 3 36l52 372h58l-52 -370q-2 -12 -2 -32q0 -84 76 -84q55 0 102.5 45.5t85.5 120.5l45 320h58l-74 -523h-48l14 133q-36 -67 -84.5 -105.5t-109.5 -38.5q-59 0 -91.5 33zM220 643l-26 31l144 106h36l114 -106l-28 -31l-110 85z" />
    <glyph glyph-name="udieresis" unicode="&#xfc;" horiz-adv-x="577" 
d="M114.5 22q-32.5 33 -32.5 93q0 17 3 36l52 372h58l-52 -370q-2 -12 -2 -32q0 -84 76 -84q55 0 102.5 45.5t85.5 120.5l45 320h58l-74 -523h-48l14 133q-36 -67 -84.5 -105.5t-109.5 -38.5q-59 0 -91.5 33zM223.5 673q-10.5 10 -10.5 25q0 19 12.5 31.5t31.5 12.5
q16 0 26.5 -10t10.5 -26q0 -18 -12.5 -30.5t-31.5 -12.5q-16 0 -26.5 10zM411.5 673q-10.5 10 -10.5 25q0 19 13 31.5t32 12.5q16 0 26 -10t10 -26q0 -18 -12.5 -30.5t-31.5 -12.5q-16 0 -26.5 10z" />
    <glyph glyph-name="yacute" unicode="&#xfd;" horiz-adv-x="465" 
d="M238 -4q-43 -90 -96 -136.5t-147 -63.5l-3 46q53 12 86 31t54.5 47.5t48.5 79.5h-22l-107 523h62l89 -479l222 479h62zM382 783l20 -53l-206 -85l-15 33z" />
    <glyph glyph-name="thorn" unicode="&#xfe;" horiz-adv-x="571" 
d="M472.5 483q40.5 -51 40.5 -147q0 -81 -26.5 -160t-87 -133t-155.5 -54q-61 0 -117 23l-29 -211l-59 -8l133 943l59 8l-41 -287q77 77 166 77q76 0 116.5 -51zM366.5 85.5q46.5 47.5 67 117t20.5 137.5q0 145 -112 145q-46 0 -83 -22.5t-77 -64.5l-46 -339
q30 -11 54.5 -16t56.5 -5q73 0 119.5 47.5z" />
    <glyph glyph-name="ydieresis" unicode="&#xff;" horiz-adv-x="465" 
d="M238 -4q-43 -90 -96 -136.5t-147 -63.5l-3 46q53 12 86 31t54.5 47.5t48.5 79.5h-22l-107 523h62l89 -479l222 479h62zM165.5 673q-10.5 10 -10.5 25q0 19 12.5 31.5t31.5 12.5q16 0 26.5 -10t10.5 -26q0 -18 -12.5 -30.5t-31.5 -12.5q-16 0 -26.5 10zM353.5 673
q-10.5 10 -10.5 25q0 19 13 31.5t32 12.5q16 0 26 -10t10 -26q0 -18 -12.5 -30.5t-31.5 -12.5q-16 0 -26.5 10z" />
    <glyph glyph-name="Amacron" unicode="&#x100;" horiz-adv-x="562" 
d="M447 0l-33 187h-287l-86 -187h-62l324 685h75l131 -685h-62zM151 238h254l-71 397zM478 802h-240l7 47h240z" />
    <glyph glyph-name="amacron" unicode="&#x101;" 
d="M415 523q39 -11 80 -32l-55 -377q-2 -11 -2 -30q0 -21 7.5 -33.5t25.5 -20.5l-17 -41q-35 8 -53 29.5t-17 65.5q-30 -44 -71.5 -69.5t-89.5 -25.5q-78 0 -121.5 54.5t-43.5 148.5q0 78 28 157t88.5 132t152.5 53q49 0 88 -11zM210.5 441q-47.5 -46 -69 -114t-21.5 -135
q0 -76 29 -115t83 -39q47 0 84.5 28t71.5 82l45 315q-48 24 -104 24q-71 0 -118.5 -46zM479 676h-240l7 47h240z" />
    <glyph glyph-name="Abreve" unicode="&#x102;" horiz-adv-x="562" 
d="M447 0l-33 187h-287l-86 -187h-62l324 685h75l131 -685h-62zM151 238h254l-71 397zM266.5 793.5q-32.5 29.5 -33.5 73.5l39 6q6 -29 26 -45t54 -16q35 0 61 17.5t40 45.5l39 -12q-12 -43 -51.5 -71t-89.5 -28q-52 0 -84.5 29.5z" />
    <glyph glyph-name="abreve" unicode="&#x103;" 
d="M415 523q39 -11 80 -32l-55 -377q-2 -11 -2 -30q0 -21 7.5 -33.5t25.5 -20.5l-17 -41q-35 8 -53 29.5t-17 65.5q-30 -44 -71.5 -69.5t-89.5 -25.5q-78 0 -121.5 54.5t-43.5 148.5q0 78 28 157t88.5 132t152.5 53q49 0 88 -11zM210.5 441q-47.5 -46 -69 -114t-21.5 -135
q0 -76 29 -115t83 -39q47 0 84.5 28t71.5 82l45 315q-48 24 -104 24q-71 0 -118.5 -46zM270 684q-32 31 -32 81l41 6q5 -36 24 -53t53 -17q36 0 63 19t40 54l39 -12q-13 -50 -52.5 -79.5t-90.5 -29.5q-53 0 -85 31z" />
    <glyph glyph-name="Aogonek" unicode="&#x104;" horiz-adv-x="562" 
d="M383 -61q-32 -29 -32 -63q0 -45 55 -45q27 0 59 7l-10 -49q-30 -6 -57 -6q-49 0 -75 22.5t-26 58.5q0 48 34 84t114 66l-31 173h-287l-86 -187h-62l324 685h75l131 -685h-18q-76 -32 -108 -61zM151 238h254l-71 397z" />
    <glyph glyph-name="aogonek" unicode="&#x105;" 
d="M438 84q0 -21 7.5 -33.5t25.5 -20.5l-17 -41q-76 -32 -108 -61t-32 -63q0 -45 55 -45q27 0 59 7l-10 -49q-30 -6 -57 -6q-49 0 -75 22.5t-26 58.5q0 49 36 85.5t119 66.5q-32 24 -31 79q-30 -44 -71.5 -69.5t-89.5 -25.5q-78 0 -121.5 54.5t-43.5 148.5q0 78 28 157
t88.5 132t152.5 53q49 0 88 -11t80 -32l-55 -377q-2 -11 -2 -30zM433 463q-48 24 -104 24q-71 0 -118.5 -46t-69 -114t-21.5 -135q0 -76 29 -115t83 -39q47 0 84.5 28t71.5 82z" />
    <glyph glyph-name="Cacute" unicode="&#x106;" horiz-adv-x="547" 
d="M494 680q40 -16 75 -48l-35 -36q-32 26 -62.5 37.5t-70.5 11.5q-93 0 -153 -59.5t-87.5 -148t-27.5 -177.5q0 -108 48 -163t128 -55q49 0 85 14.5t75 43.5l29 -42q-87 -69 -193 -69t-170 71.5t-64 202.5q0 100 34.5 200t108.5 166.5t185 66.5q55 0 95 -16zM502 886
l20 -53l-206 -75l-14 34z" />
    <glyph glyph-name="cacute" unicode="&#x107;" horiz-adv-x="467" 
d="M461 480l-33 -37q-23 21 -49 31.5t-60 10.5q-70 0 -114.5 -45t-64.5 -111.5t-20 -131.5q0 -79 34.5 -118t96.5 -39q36 0 66.5 11t62.5 33l25 -41q-71 -54 -157 -54q-88 0 -138 55.5t-50 155.5q0 76 27 153t85.5 129t147.5 52q87 0 141 -54zM441 783l20 -53l-206 -85
l-15 33z" />
    <glyph glyph-name="Ccircumflex" unicode="&#x108;" horiz-adv-x="547" 
d="M494 680q40 -16 75 -48l-35 -36q-32 26 -62.5 37.5t-70.5 11.5q-93 0 -153 -59.5t-87.5 -148t-27.5 -177.5q0 -108 48 -163t128 -55q49 0 85 14.5t75 43.5l29 -42q-87 -69 -193 -69t-170 71.5t-64 202.5q0 100 34.5 200t108.5 166.5t185 66.5q55 0 95 -16zM289 762
l-24 31l142 101h37l114 -102l-27 -30l-110 80z" />
    <glyph glyph-name="ccircumflex" unicode="&#x109;" horiz-adv-x="467" 
d="M461 480l-33 -37q-23 21 -49 31.5t-60 10.5q-70 0 -114.5 -45t-64.5 -111.5t-20 -131.5q0 -79 34.5 -118t96.5 -39q36 0 66.5 11t62.5 33l25 -41q-71 -54 -157 -54q-88 0 -138 55.5t-50 155.5q0 76 27 153t85.5 129t147.5 52q87 0 141 -54zM221 643l-26 31l144 106h36
l114 -106l-28 -31l-110 85z" />
    <glyph glyph-name="Cdotaccent" unicode="&#x10a;" horiz-adv-x="547" 
d="M494 680q40 -16 75 -48l-35 -36q-32 26 -62.5 37.5t-70.5 11.5q-93 0 -153 -59.5t-87.5 -148t-27.5 -177.5q0 -108 48 -163t128 -55q49 0 85 14.5t75 43.5l29 -42q-87 -69 -193 -69t-170 71.5t-64 202.5q0 100 34.5 200t108.5 166.5t185 66.5q55 0 95 -16zM392 805.5
q-11 10.5 -11 27.5q0 20 13.5 33t33.5 13q18 0 29 -10.5t11 -27.5q0 -20 -13.5 -33t-33.5 -13q-18 0 -29 10.5z" />
    <glyph glyph-name="cdotaccent" unicode="&#x10b;" horiz-adv-x="467" 
d="M461 480l-33 -37q-23 21 -49 31.5t-60 10.5q-70 0 -114.5 -45t-64.5 -111.5t-20 -131.5q0 -79 34.5 -118t96.5 -39q36 0 66.5 11t62.5 33l25 -41q-71 -54 -157 -54q-88 0 -138 55.5t-50 155.5q0 76 27 153t85.5 129t147.5 52q87 0 141 -54zM318 679.5q-11 10.5 -11 27.5
q0 20 13.5 33t33.5 13q18 0 29 -10.5t11 -27.5q0 -20 -13.5 -33t-33.5 -13q-18 0 -29 10.5z" />
    <glyph glyph-name="Ccaron" unicode="&#x10c;" horiz-adv-x="547" 
d="M494 680q40 -16 75 -48l-35 -36q-32 26 -62.5 37.5t-70.5 11.5q-93 0 -153 -59.5t-87.5 -148t-27.5 -177.5q0 -108 48 -163t128 -55q49 0 85 14.5t75 43.5l29 -42q-87 -69 -193 -69t-170 71.5t-64 202.5q0 100 34.5 200t108.5 166.5t185 66.5q55 0 95 -16zM549 888
l23 -30l-142 -102h-36l-116 102l29 29l110 -79z" />
    <glyph glyph-name="ccaron" unicode="&#x10d;" horiz-adv-x="467" 
d="M461 480l-33 -37q-23 21 -49 31.5t-60 10.5q-70 0 -114.5 -45t-64.5 -111.5t-20 -131.5q0 -79 34.5 -118t96.5 -39q36 0 66.5 11t62.5 33l25 -41q-71 -54 -157 -54q-88 0 -138 55.5t-50 155.5q0 76 27 153t85.5 129t147.5 52q87 0 141 -54zM476 769l23 -30l-143 -106h-36
l-115 106l27 30l110 -84z" />
    <glyph glyph-name="Dcaron" unicode="&#x10e;" horiz-adv-x="630" 
d="M505.5 629.5q76.5 -55.5 76.5 -200.5q0 -115 -36.5 -212t-117 -157t-206.5 -60h-149l97 685h134q125 0 201.5 -55.5zM223 635l-82 -585h89q104 0 169 55t93.5 141t28.5 184q0 121 -58.5 163t-154.5 42h-85zM505 888l23 -30l-142 -102h-36l-116 102l29 29l110 -79z" />
    <glyph glyph-name="dcaron" unicode="&#x10f;" horiz-adv-x="578" 
d="M539 736l-104 -736h-50l8 106q-31 -53 -74 -85t-99 -32q-76 0 -118.5 55t-42.5 151q0 76 25 154t80 131.5t140 53.5q89 0 138 -72l40 281zM201.5 439.5q-43.5 -46.5 -62.5 -114t-19 -133.5q0 -75 28.5 -114.5t79.5 -39.5q54 0 94 36t81 107l33 228q-22 36 -51 56.5
t-73 20.5q-67 0 -110.5 -46.5zM614 742l55 -6l-60 -164l-35 5z" />
    <glyph glyph-name="Dcroat" unicode="&#x110;" horiz-adv-x="635" 
d="M510.5 629.5q76.5 -55.5 76.5 -200.5q0 -115 -36.5 -212t-117 -157t-206.5 -60h-149l47 329h-87l6 48h87l44 308h134q125 0 201.5 -55.5zM404 105q65 55 93.5 141t28.5 184q0 121 -58.5 163t-154.5 42h-85l-36 -258h177l-6 -48h-178l-39 -279h89q104 0 169 55z" />
    <glyph glyph-name="dcroat" unicode="&#x111;" horiz-adv-x="585" 
d="M598 616h-76l-87 -616h-50l8 106q-31 -53 -74 -85t-99 -32q-76 0 -118.5 55t-42.5 151q0 76 25 154t80 131.5t140 53.5q89 0 138 -72l22 154h-160v47h167l11 80l57 -7l-10 -73h76zM436 409q-22 36 -51 56.5t-73 20.5q-67 0 -110.5 -46.5t-62.5 -114t-19 -133.5
q0 -75 28.5 -114.5t79.5 -39.5q54 0 94 36t81 107z" />
    <glyph glyph-name="Emacron" unicode="&#x112;" horiz-adv-x="510" 
d="M516 685l-14 -50h-279l-36 -255h242l-7 -50h-242l-40 -279h294l-7 -51h-354l97 685h346zM484 802h-240l7 47h240z" />
    <glyph glyph-name="emacron" unicode="&#x113;" horiz-adv-x="513" 
d="M387 265.5q-94 -46.5 -267 -59.5v-6q0 -82 35.5 -121t97.5 -39q41 0 75.5 12.5t72.5 39.5l26 -41q-42 -31 -85.5 -46.5t-92.5 -15.5q-90 0 -140 55t-50 155q0 79 28.5 156t89 128t149.5 51q73 0 114 -35.5t41 -90.5q0 -96 -94 -142.5zM185.5 417q-50.5 -69 -62.5 -165
q150 12 224 48t74 106q0 34 -24 57t-71 23q-90 0 -140.5 -69zM453 676h-240l7 47h240z" />
    <glyph glyph-name="Ebreve" unicode="&#x114;" horiz-adv-x="510" 
d="M516 685l-14 -50h-279l-36 -255h242l-7 -50h-242l-40 -279h294l-7 -51h-354l97 685h346zM272.5 793.5q-32.5 29.5 -33.5 73.5l39 6q6 -29 26 -45t54 -16q35 0 61 17.5t40 45.5l39 -12q-12 -43 -51.5 -71t-89.5 -28q-52 0 -84.5 29.5z" />
    <glyph glyph-name="ebreve" unicode="&#x115;" horiz-adv-x="513" 
d="M387 265.5q-94 -46.5 -267 -59.5v-6q0 -82 35.5 -121t97.5 -39q41 0 75.5 12.5t72.5 39.5l26 -41q-42 -31 -85.5 -46.5t-92.5 -15.5q-90 0 -140 55t-50 155q0 79 28.5 156t89 128t149.5 51q73 0 114 -35.5t41 -90.5q0 -96 -94 -142.5zM185.5 417q-50.5 -69 -62.5 -165
q150 12 224 48t74 106q0 34 -24 57t-71 23q-90 0 -140.5 -69zM244 684q-32 31 -32 81l41 6q5 -36 24 -53t53 -17q36 0 63 19t40 54l39 -12q-13 -50 -52.5 -79.5t-90.5 -29.5q-53 0 -85 31z" />
    <glyph glyph-name="Edotaccent" unicode="&#x116;" horiz-adv-x="510" 
d="M516 685l-14 -50h-279l-36 -255h242l-7 -50h-242l-40 -279h294l-7 -51h-354l97 685h346zM337 805.5q-11 10.5 -11 27.5q0 20 13.5 33t33.5 13q18 0 29 -10.5t11 -27.5q0 -20 -13.5 -33t-33.5 -13q-18 0 -29 10.5z" />
    <glyph glyph-name="edotaccent" unicode="&#x117;" horiz-adv-x="513" 
d="M387 265.5q-94 -46.5 -267 -59.5v-6q0 -82 35.5 -121t97.5 -39q41 0 75.5 12.5t72.5 39.5l26 -41q-42 -31 -85.5 -46.5t-92.5 -15.5q-90 0 -140 55t-50 155q0 79 28.5 156t89 128t149.5 51q73 0 114 -35.5t41 -90.5q0 -96 -94 -142.5zM185.5 417q-50.5 -69 -62.5 -165
q150 12 224 48t74 106q0 34 -24 57t-71 23q-90 0 -140.5 -69zM306 679.5q-11 10.5 -11 27.5q0 20 13.5 33t33.5 13q18 0 29 -10.5t11 -27.5q0 -20 -13.5 -33t-33.5 -13q-18 0 -29 10.5z" />
    <glyph glyph-name="Eogonek" unicode="&#x118;" horiz-adv-x="510" 
d="M223 635l-36 -255h242l-7 -50h-242l-40 -279h294l-7 -51h-31q-76 -32 -108 -61t-32 -63q0 -45 55 -45q27 0 59 7l-10 -49q-30 -6 -57 -6q-49 0 -75 22.5t-26 58.5q0 42 27 75t88 61h-244l97 685h346l-14 -50h-279z" />
    <glyph glyph-name="eogonek" unicode="&#x119;" horiz-adv-x="513" 
d="M387 265.5q-94 -46.5 -267 -59.5v-6q0 -82 35.5 -121t97.5 -39q41 0 75.5 12.5t72.5 39.5l26 -41q-45 -33 -93 -49q-64 -30 -90 -55.5t-26 -59.5q0 -24 16 -38t48 -14q26 0 57 7l-6 -48q-35 -7 -58 -7q-53 0 -82 25.5t-29 66.5q0 68 83 110q-89 1 -138.5 55.5
t-49.5 154.5q0 79 28.5 156t89 128t149.5 51q73 0 114 -35.5t41 -90.5q0 -96 -94 -142.5zM185.5 417q-50.5 -69 -62.5 -165q150 12 224 48t74 106q0 34 -24 57t-71 23q-90 0 -140.5 -69z" />
    <glyph glyph-name="Ecaron" unicode="&#x11a;" horiz-adv-x="510" 
d="M516 685l-14 -50h-279l-36 -255h242l-7 -50h-242l-40 -279h294l-7 -51h-354l97 685h346zM494 888l23 -30l-142 -102h-36l-116 102l29 29l110 -79z" />
    <glyph glyph-name="ecaron" unicode="&#x11b;" horiz-adv-x="513" 
d="M387 265.5q-94 -46.5 -267 -59.5v-6q0 -82 35.5 -121t97.5 -39q41 0 75.5 12.5t72.5 39.5l26 -41q-42 -31 -85.5 -46.5t-92.5 -15.5q-90 0 -140 55t-50 155q0 79 28.5 156t89 128t149.5 51q73 0 114 -35.5t41 -90.5q0 -96 -94 -142.5zM185.5 417q-50.5 -69 -62.5 -165
q150 12 224 48t74 106q0 34 -24 57t-71 23q-90 0 -140.5 -69zM464 769l23 -30l-143 -106h-36l-115 106l27 30l110 -84z" />
    <glyph glyph-name="Gcircumflex" unicode="&#x11c;" horiz-adv-x="615" 
d="M506 679q44 -17 83 -52l-38 -34q-34 28 -67 40t-78 12q-90 0 -151.5 -58t-91 -148t-29.5 -186q0 -107 47 -159.5t135 -52.5q78 0 147 36l35 242h-132l-1 51h199l-44 -323q-98 -58 -210 -58t-175.5 69.5t-63.5 201.5q0 106 37.5 206.5t113.5 165t184 64.5q56 0 100 -17z
M296 762l-24 31l142 101h37l114 -102l-27 -30l-110 80z" />
    <glyph glyph-name="gcircumflex" unicode="&#x11d;" horiz-adv-x="568" 
d="M419 523q39 -11 80 -32l-71 -487q-31 -211 -219 -211q-90 0 -173 49l23 44q76 -42 148 -42q141 0 164 159l12 87q-30 -41 -71 -65.5t-87 -24.5q-77 0 -121 54t-45 146q0 78 28.5 155t89.5 128t154 51q49 0 88 -11zM211.5 443q-47.5 -44 -69.5 -110t-21 -133
q0 -73 30 -112t83 -39q46 0 85 28t74 81l44 305q-48 24 -106 24q-72 0 -119.5 -44zM219 643l-26 31l144 106h36l114 -106l-28 -31l-110 85z" />
    <glyph glyph-name="Gbreve" unicode="&#x11e;" horiz-adv-x="615" 
d="M506 679q44 -17 83 -52l-38 -34q-34 28 -67 40t-78 12q-90 0 -151.5 -58t-91 -148t-29.5 -186q0 -107 47 -159.5t135 -52.5q78 0 147 36l35 242h-132l-1 51h199l-44 -323q-98 -58 -210 -58t-175.5 69.5t-63.5 201.5q0 106 37.5 206.5t113.5 165t184 64.5q56 0 100 -17z
M334.5 793.5q-32.5 29.5 -33.5 73.5l39 6q6 -29 26 -45t54 -16q35 0 61 17.5t40 45.5l39 -12q-12 -43 -51.5 -71t-89.5 -28q-52 0 -84.5 29.5z" />
    <glyph glyph-name="gbreve" unicode="&#x11f;" horiz-adv-x="568" 
d="M419 523q39 -11 80 -32l-71 -487q-31 -211 -219 -211q-90 0 -173 49l23 44q76 -42 148 -42q141 0 164 159l12 87q-30 -41 -71 -65.5t-87 -24.5q-77 0 -121 54t-45 146q0 78 28.5 155t89.5 128t154 51q49 0 88 -11zM211.5 443q-47.5 -44 -69.5 -110t-21 -133
q0 -73 30 -112t83 -39q46 0 85 28t74 81l44 305q-48 24 -106 24q-72 0 -119.5 -44zM254 684q-32 31 -32 81l41 6q5 -36 24 -53t53 -17q36 0 63 19t40 54l39 -12q-13 -50 -52.5 -79.5t-90.5 -29.5q-53 0 -85 31z" />
    <glyph glyph-name="Gdotaccent" unicode="&#x120;" horiz-adv-x="615" 
d="M506 679q44 -17 83 -52l-38 -34q-34 28 -67 40t-78 12q-90 0 -151.5 -58t-91 -148t-29.5 -186q0 -107 47 -159.5t135 -52.5q78 0 147 36l35 242h-132l-1 51h199l-44 -323q-98 -58 -210 -58t-175.5 69.5t-63.5 201.5q0 106 37.5 206.5t113.5 165t184 64.5q56 0 100 -17z
M399 805.5q-11 10.5 -11 27.5q0 20 13.5 33t33.5 13q18 0 29 -10.5t11 -27.5q0 -20 -13.5 -33t-33.5 -13q-18 0 -29 10.5z" />
    <glyph glyph-name="gdotaccent" unicode="&#x121;" horiz-adv-x="568" 
d="M419 523q39 -11 80 -32l-71 -487q-31 -211 -219 -211q-90 0 -173 49l23 44q76 -42 148 -42q141 0 164 159l12 87q-30 -41 -71 -65.5t-87 -24.5q-77 0 -121 54t-45 146q0 78 28.5 155t89.5 128t154 51q49 0 88 -11zM211.5 443q-47.5 -44 -69.5 -110t-21 -133
q0 -73 30 -112t83 -39q46 0 85 28t74 81l44 305q-48 24 -106 24q-72 0 -119.5 -44zM316 679.5q-11 10.5 -11 27.5q0 20 13.5 33t33.5 13q18 0 29 -10.5t11 -27.5q0 -20 -13.5 -33t-33.5 -13q-18 0 -29 10.5z" />
    <glyph glyph-name="Gcommaaccent" unicode="&#x122;" horiz-adv-x="615" 
d="M506 679q44 -17 83 -52l-38 -34q-34 28 -67 40t-78 12q-90 0 -151.5 -58t-91 -148t-29.5 -186q0 -107 47 -159.5t135 -52.5q78 0 147 36l35 242h-132l-1 51h199l-44 -323q-98 -58 -210 -58t-175.5 69.5t-63.5 201.5q0 106 37.5 206.5t113.5 165t184 64.5q56 0 100 -17z
M321.5 -96q10.5 -11 10.5 -28q0 -14 -5.5 -27.5t-24.5 -44.5l-52 -83h-36l49 115q-8 6 -13 15t-5 19q0 19 13.5 32t33.5 13q19 0 29.5 -11z" />
    <glyph glyph-name="gcommaaccent" unicode="&#x123;" horiz-adv-x="568" 
d="M419 523q39 -11 80 -32l-71 -487q-31 -211 -219 -211q-90 0 -173 49l23 44q76 -42 148 -42q141 0 164 159l12 87q-30 -41 -71 -65.5t-87 -24.5q-77 0 -121 54t-45 146q0 78 28.5 155t89.5 128t154 51q49 0 88 -11zM211.5 443q-47.5 -44 -69.5 -110t-21 -133
q0 -73 30 -112t83 -39q46 0 85 28t74 81l44 305q-48 24 -106 24q-72 0 -119.5 -44zM302.5 600q-10.5 11 -10.5 28q0 14 5.5 27.5t24.5 44.5l52 83h36l-49 -115q8 -6 13 -15t5 -19q0 -19 -13.5 -32t-33.5 -13q-19 0 -29.5 11z" />
    <glyph glyph-name="Hcircumflex" unicode="&#x124;" horiz-adv-x="668" 
d="M133 0h-60l97 685h60l-42 -299h327l42 299h60l-97 -685h-60l47 335h-327zM279 762l-24 31l142 101h37l114 -102l-27 -30l-110 80z" />
    <glyph glyph-name="hcircumflex" unicode="&#x125;" horiz-adv-x="582" 
d="M467 501q32 -33 32 -93q0 -17 -3 -37l-52 -371h-58l52 367q2 12 2 34q0 44 -18.5 64t-56.5 20q-102 0 -195 -172l-44 -313h-58l104 736l59 7l-49 -347q37 66 86.5 102t106.5 36q60 0 92 -33zM247 813l-24 31l142 101h37l114 -102l-27 -30l-110 80z" />
    <glyph glyph-name="Hbar" unicode="&#x126;" horiz-adv-x="666" 
d="M663 558l-6 -45h-63l-73 -513h-60l47 335h-327l-47 -335h-60l73 513h-64l6 45h64l18 127h60l-18 -127h327l18 127h60l-18 -127h63zM516 386l18 127h-327l-18 -127h327z" />
    <glyph glyph-name="hbar" unicode="&#x127;" horiz-adv-x="588" 
d="M473 501q32 -33 32 -93q0 -17 -3 -37l-52 -371h-58l52 367q2 12 2 34q0 44 -18.5 64t-56.5 20q-102 0 -195 -172l-44 -313h-58l87 616h-75l6 47h76l10 73l59 7l-11 -80h169l-14 -47h-162l-31 -220q37 66 86.5 102t106.5 36q60 0 92 -33z" />
    <glyph glyph-name="Itilde" unicode="&#x128;" horiz-adv-x="281" 
d="M230 685l-97 -685h-60l97 685h60zM244.5 798.5q-14.5 6.5 -33.5 19.5q-13 10 -23.5 15t-21.5 5q-18 0 -31 -9.5t-32 -32.5l-33 22q45 66 97 66q18 0 31.5 -6.5t32.5 -18.5q18 -11 27 -15.5t20 -4.5q16 0 30.5 10.5t31.5 33.5l36 -21q-44 -70 -97 -70q-20 0 -34.5 6.5z
" />
    <glyph glyph-name="itilde" unicode="&#x129;" horiz-adv-x="269" 
d="M200 523l-74 -523h-58l74 523h58zM219.5 672.5q-14.5 6.5 -33.5 19.5q-13 10 -23.5 15t-21.5 5q-18 0 -31 -9.5t-32 -32.5l-33 22q45 66 97 66q18 0 31.5 -6.5t32.5 -18.5q18 -11 27 -15.5t20 -4.5q16 0 30.5 10.5t31.5 33.5l36 -21q-44 -70 -97 -70q-20 0 -34.5 6.5z
" />
    <glyph glyph-name="Imacron" unicode="&#x12a;" horiz-adv-x="281" 
d="M230 685l-97 -685h-60l97 685h60zM337 802h-240l7 47h240z" />
    <glyph glyph-name="imacron" unicode="&#x12b;" horiz-adv-x="269" 
d="M200 523l-74 -523h-58l74 523h58zM312 676h-240l7 47h240z" />
    <glyph glyph-name="Ibreve" unicode="&#x12c;" horiz-adv-x="281" 
d="M230 685l-97 -685h-60l97 685h60zM125.5 793.5q-32.5 29.5 -33.5 73.5l39 6q6 -29 26 -45t54 -16q35 0 61 17.5t40 45.5l39 -12q-12 -43 -51.5 -71t-89.5 -28q-52 0 -84.5 29.5z" />
    <glyph glyph-name="ibreve" unicode="&#x12d;" horiz-adv-x="269" 
d="M200 523l-74 -523h-58l74 523h58zM103 684q-32 31 -32 81l41 6q5 -36 24 -53t53 -17q36 0 63 19t40 54l39 -12q-13 -50 -52.5 -79.5t-90.5 -29.5q-53 0 -85 31z" />
    <glyph glyph-name="Iogonek" unicode="&#x12e;" horiz-adv-x="281" 
d="M230 685l-97 -685h-9q-76 -32 -108 -61t-32 -63q0 -45 55 -45q27 0 59 7l-10 -49q-30 -6 -57 -6q-49 0 -75 22.5t-26 58.5q0 47 34 83t111 65l95 673h60z" />
    <glyph glyph-name="iogonek" unicode="&#x12f;" horiz-adv-x="269" 
d="M230 742.5q11 -10.5 11 -27.5q0 -20 -13.5 -33t-33.5 -13q-18 0 -29 10.5t-11 27.5q0 20 13.5 33t33.5 13q18 0 29 -10.5zM142 523h58l-74 -523h-13q-76 -32 -108 -61t-32 -63q0 -45 55 -45q27 0 59 7l-10 -49q-30 -6 -57 -6q-49 0 -75 22.5t-26 58.5q0 48 35 84.5
t116 66.5z" />
    <glyph glyph-name="Idotaccent" unicode="&#x130;" horiz-adv-x="281" 
d="M230 685l-97 -685h-60l97 685h60zM190 805.5q-11 10.5 -11 27.5q0 20 13.5 33t33.5 13q18 0 29 -10.5t11 -27.5q0 -20 -13.5 -33t-33.5 -13q-18 0 -29 10.5z" />
    <glyph glyph-name="dotlessi" unicode="&#x131;" horiz-adv-x="269" 
d="M200 523l-74 -523h-58l74 523h58z" />
    <glyph glyph-name="IJ" unicode="&#x132;" horiz-adv-x="570" 
d="M230 685l-97 -685h-60l97 685h60zM441 90q-8 -61 -29 -99t-57 -63t-97 -48l-13 46q49 20 76 41.5t40.5 51.5t19.5 78l83 588h60z" />
    <glyph glyph-name="ij" unicode="&#x133;" horiz-adv-x="538" 
d="M200 523l-74 -523h-58l74 523h58zM165 679.5q-11 10.5 -11 27.5q0 20 13.5 33t33.5 13q18 0 29 -10.5t11 -27.5q0 -20 -13.5 -33t-33.5 -13q-18 0 -29 10.5zM213 -160q41 19 64.5 38t39.5 52t24 89l71 504h58l-72 -506q-9 -68 -29 -108t-52 -64t-88 -49zM435 679.5
q-11 10.5 -11 27.5q0 20 13.5 33t33.5 13q18 0 29 -10.5t11 -27.5q0 -20 -13.5 -33t-33.5 -13q-18 0 -29 10.5z" />
    <glyph glyph-name="Jcircumflex" unicode="&#x134;" horiz-adv-x="289" 
d="M160 90q-8 -61 -29 -99t-57 -63t-97 -48l-13 46q49 20 76 41.5t40.5 51.5t19.5 78l83 588h60zM99 762l-24 31l142 101h37l114 -102l-27 -30l-110 80z" />
    <glyph glyph-name="jcircumflex" unicode="&#x135;" horiz-adv-x="269" 
d="M-56 -160q41 19 64.5 38t39.5 52t24 89l71 504h58l-72 -506q-9 -68 -29 -108t-52 -64t-88 -49zM69 643l-26 31l144 106h36l114 -106l-28 -31l-110 85z" />
    <glyph glyph-name="Kcommaaccent" unicode="&#x136;" horiz-adv-x="545" 
d="M73 0l97 685h60l-96 -685h-61zM437 0l-248 367l327 318h72l-330 -320l250 -365h-71zM289.5 -96q10.5 -11 10.5 -28q0 -14 -5.5 -27.5t-24.5 -44.5l-52 -83h-36l49 115q-8 6 -13 15t-5 19q0 19 13.5 32t33.5 13q19 0 29.5 -11z" />
    <glyph glyph-name="kcommaaccent" unicode="&#x137;" horiz-adv-x="523" 
d="M182 395q41 71 90.5 105t104.5 34q54 0 87 -30.5t33 -81.5q0 -64 -44 -111.5t-128 -74.5l119 -236h-65l-125 254q92 26 137 66t45 97q0 33 -18 51.5t-54 18.5q-54 0 -104.5 -47.5t-90.5 -134.5l-43 -305h-58l104 736l59 8zM261.5 -96q10.5 -11 10.5 -28q0 -14 -5.5 -27.5
t-24.5 -44.5l-52 -83h-36l49 115q-8 6 -13 15t-5 19q0 19 13.5 32t33.5 13q19 0 29.5 -11z" />
    <glyph glyph-name="kgreenlandic" unicode="&#x138;" horiz-adv-x="487" 
d="M200 523l-74 -523h-58l74 523h58zM491 523l-253 -248l201 -275h-67l-202 276l250 247h71z" />
    <glyph glyph-name="Lacute" unicode="&#x139;" horiz-adv-x="472" 
d="M230 685l-89 -631h285l-16 -54h-337l97 685h60zM300 886l20 -53l-206 -75l-14 34z" />
    <glyph glyph-name="lacute" unicode="&#x13a;" horiz-adv-x="282" 
d="M134 88q-1 -5 -1 -14q0 -18 8 -26.5t26 -8.5q16 0 38 8l13 -44q-31 -14 -60 -14q-39 0 -60.5 20.5t-21.5 60.5q0 7 2 27l90 639l58 8zM297 937l20 -53l-206 -75l-14 34z" />
    <glyph glyph-name="Lcommaaccent" unicode="&#x13b;" horiz-adv-x="472" 
d="M230 685l-89 -631h285l-16 -54h-337l97 685h60zM262.5 -96q10.5 -11 10.5 -28q0 -14 -5.5 -27.5t-24.5 -44.5l-52 -83h-36l49 115q-8 6 -13 15t-5 19q0 19 13.5 32t33.5 13q19 0 29.5 -11z" />
    <glyph glyph-name="lcommaaccent" unicode="&#x13c;" horiz-adv-x="282" 
d="M134 88q-1 -5 -1 -14q0 -18 8 -26.5t26 -8.5q16 0 38 8l13 -44q-31 -14 -60 -14q-39 0 -60.5 20.5t-21.5 60.5q0 7 2 27l90 639l58 8zM166.5 -96q10.5 -11 10.5 -28q0 -14 -5.5 -27.5t-24.5 -44.5l-52 -83h-36l49 115q-8 6 -13 15t-5 19q0 19 13.5 32t33.5 13
q19 0 29.5 -11z" />
    <glyph glyph-name="Lcaron" unicode="&#x13d;" horiz-adv-x="472" 
d="M230 685l-89 -631h285l-16 -54h-337l97 685h60zM317 691l55 -6l-60 -164l-35 5z" />
    <glyph glyph-name="lcaron" unicode="&#x13e;" horiz-adv-x="282" 
d="M134 88q-1 -5 -1 -14q0 -18 8 -26.5t26 -8.5q16 0 38 8l13 -44q-31 -14 -60 -14q-39 0 -60.5 20.5t-21.5 60.5q0 7 2 27l90 639l58 8zM300 742l55 -6l-60 -164l-35 5z" />
    <glyph glyph-name="Ldot" unicode="&#x13f;" horiz-adv-x="472" 
d="M230 685l-89 -631h285l-16 -54h-337l97 685h60zM349 338.5q-11 10.5 -11 27.5q0 20 13.5 33t33.5 13q18 0 29 -10.5t11 -27.5q0 -20 -13.5 -33t-33.5 -13q-18 0 -29 10.5z" />
    <glyph glyph-name="ldot" unicode="&#x140;" horiz-adv-x="300" 
d="M134 88q-1 -5 -1 -14q0 -18 8 -26.5t26 -8.5q16 0 38 8l13 -44q-31 -14 -60 -14q-39 0 -60.5 20.5t-21.5 60.5q0 7 2 27l90 639l58 8zM259 344.5q-11 10.5 -11 27.5q0 20 13.5 33t33.5 13q18 0 29 -10.5t11 -27.5q0 -20 -13.5 -33t-33.5 -13q-18 0 -29 10.5z" />
    <glyph glyph-name="Lslash" unicode="&#x141;" horiz-adv-x="483" 
d="M152 54h285l-16 -54h-337l39 279l-66 -38l-21 40l96 56l49 348h60l-44 -310l194 112l21 -41l-223 -129z" />
    <glyph glyph-name="lslash" unicode="&#x142;" horiz-adv-x="289" 
d="M205 47l13 -44q-31 -14 -60 -14q-39 0 -60.5 20.5t-21.5 60.5q0 7 2 27l32 229l-56 -32l-16 43l80 46l50 353l58 8l-46 -326l101 58l16 -43l-125 -71l-38 -274q-1 -5 -1 -14q0 -18 8 -26.5t26 -8.5q16 0 38 8z" />
    <glyph glyph-name="Nacute" unicode="&#x143;" horiz-adv-x="670" 
d="M523 0h-77l-236 631q-3 -94 -26 -251l-54 -380h-57l97 685h78l236 -629q3 101 20 215l58 414h57zM504 886l20 -53l-206 -75l-14 34z" />
    <glyph glyph-name="nacute" unicode="&#x144;" horiz-adv-x="581" 
d="M467 501q32 -33 32 -94q0 -18 -3 -38l-52 -369h-58l52 367q2 12 2 33q0 85 -76 85q-101 0 -194 -172l-44 -313h-58l74 523h50l-14 -130q41 68 91 104.5t107 36.5q59 0 91 -33zM445 783l20 -53l-206 -85l-15 33z" />
    <glyph glyph-name="Ncommaaccent" unicode="&#x145;" horiz-adv-x="670" 
d="M523 0h-77l-236 631q-3 -94 -26 -251l-54 -380h-57l97 685h78l236 -629q3 101 20 215l58 414h57zM319.5 -96q10.5 -11 10.5 -28q0 -14 -5.5 -27.5t-24.5 -44.5l-52 -83h-36l49 115q-8 6 -13 15t-5 19q0 19 13.5 32t33.5 13q19 0 29.5 -11z" />
    <glyph glyph-name="ncommaaccent" unicode="&#x146;" horiz-adv-x="581" 
d="M467 501q32 -33 32 -94q0 -18 -3 -38l-52 -369h-58l52 367q2 12 2 33q0 85 -76 85q-101 0 -194 -172l-44 -313h-58l74 523h50l-14 -130q41 68 91 104.5t107 36.5q59 0 91 -33zM272.5 -96q10.5 -11 10.5 -28q0 -14 -5.5 -27.5t-24.5 -44.5l-52 -83h-36l49 115q-8 6 -13 15
t-5 19q0 19 13.5 32t33.5 13q19 0 29.5 -11z" />
    <glyph glyph-name="Ncaron" unicode="&#x147;" horiz-adv-x="670" 
d="M523 0h-77l-236 631q-3 -94 -26 -251l-54 -380h-57l97 685h78l236 -629q3 101 20 215l58 414h57zM551 888l23 -30l-142 -102h-36l-116 102l29 29l110 -79z" />
    <glyph glyph-name="ncaron" unicode="&#x148;" horiz-adv-x="581" 
d="M467 501q32 -33 32 -94q0 -18 -3 -38l-52 -369h-58l52 367q2 12 2 33q0 85 -76 85q-101 0 -194 -172l-44 -313h-58l74 523h50l-14 -130q41 68 91 104.5t107 36.5q59 0 91 -33zM480 769l23 -30l-143 -106h-36l-115 106l27 30l110 -84z" />
    <glyph glyph-name="napostrophe" unicode="&#x149;" horiz-adv-x="666" 
d="M192 733.5q11 -11.5 11 -27.5q0 -14 -5.5 -27.5t-23.5 -43.5l-50 -88h-36l47 119q-19 14 -19 35q0 18 13.5 31t32.5 13t30 -11.5zM552 501q32 -33 32 -94q0 -18 -3 -38l-52 -369h-58l52 367q2 12 2 33q0 85 -76 85q-101 0 -194 -172l-44 -313h-58l74 523h50l-14 -130
q41 68 91 104.5t107 36.5q59 0 91 -33z" />
    <glyph glyph-name="Eng" unicode="&#x14a;" horiz-adv-x="670" 
d="M619 685l-96 -685l-11 -72q-9 -67 -46.5 -100t-94.5 -33q-56 0 -99 35l28 38q16 -12 31.5 -17.5t38.5 -5.5q32 0 54 20.5t28 64.5l11 70h-17l-236 631q-3 -94 -26 -251l-54 -380h-57l97 685h78l236 -629q3 101 20 215l58 414h57z" />
    <glyph glyph-name="eng" unicode="&#x14b;" horiz-adv-x="581" 
d="M467 501q32 -33 32 -94q0 -18 -3 -38l-52 -369l-11 -72q-9 -66 -47 -99.5t-94 -33.5t-99 35l28 36q17 -12 32 -17.5t37 -5.5q34 0 56.5 20.5t28.5 64.5l11 72l52 367q2 12 2 33q0 85 -76 85q-101 0 -194 -172l-44 -313h-58l74 523h50l-14 -130q41 68 91 104.5t107 36.5
q59 0 91 -33z" />
    <glyph glyph-name="Omacron" unicode="&#x14c;" horiz-adv-x="688" 
d="M577 625.5q63 -70.5 63 -201.5q0 -100 -33 -200t-107.5 -167.5t-190.5 -67.5q-110 0 -174 71t-64 202q0 97 34 197t109 168.5t190 68.5q110 0 173 -70.5zM245.5 583.5q-59.5 -61.5 -85.5 -149.5t-26 -174q0 -110 46.5 -164.5t129.5 -54.5q98 0 158 61.5t85 149.5t25 175
q0 109 -46 163.5t-131 54.5q-96 0 -155.5 -61.5zM542 802h-240l7 47h240z" />
    <glyph glyph-name="omacron" unicode="&#x14d;" horiz-adv-x="569" 
d="M109.5 45q-49.5 56 -49.5 156q0 75 26 151.5t84.5 129t150.5 52.5q91 0 140 -55t49 -155q0 -74 -25.5 -151t-84.5 -130.5t-151 -53.5q-90 0 -139.5 56zM366.5 84q44.5 46 63.5 112.5t19 131.5q0 78 -33 118t-96 40q-72 0 -117 -46.5t-64 -113.5t-19 -130q0 -78 34 -118
t97 -40q71 0 115.5 46zM463 676h-240l7 47h240z" />
    <glyph glyph-name="Obreve" unicode="&#x14e;" horiz-adv-x="688" 
d="M577 625.5q63 -70.5 63 -201.5q0 -100 -33 -200t-107.5 -167.5t-190.5 -67.5q-110 0 -174 71t-64 202q0 97 34 197t109 168.5t190 68.5q110 0 173 -70.5zM245.5 583.5q-59.5 -61.5 -85.5 -149.5t-26 -174q0 -110 46.5 -164.5t129.5 -54.5q98 0 158 61.5t85 149.5t25 175
q0 109 -46 163.5t-131 54.5q-96 0 -155.5 -61.5zM330.5 793.5q-32.5 29.5 -33.5 73.5l39 6q6 -29 26 -45t54 -16q35 0 61 17.5t40 45.5l39 -12q-12 -43 -51.5 -71t-89.5 -28q-52 0 -84.5 29.5z" />
    <glyph glyph-name="obreve" unicode="&#x14f;" horiz-adv-x="569" 
d="M109.5 45q-49.5 56 -49.5 156q0 75 26 151.5t84.5 129t150.5 52.5q91 0 140 -55t49 -155q0 -74 -25.5 -151t-84.5 -130.5t-151 -53.5q-90 0 -139.5 56zM366.5 84q44.5 46 63.5 112.5t19 131.5q0 78 -33 118t-96 40q-72 0 -117 -46.5t-64 -113.5t-19 -130q0 -78 34 -118
t97 -40q71 0 115.5 46zM254 684q-32 31 -32 81l41 6q5 -36 24 -53t53 -17q36 0 63 19t40 54l39 -12q-13 -50 -52.5 -79.5t-90.5 -29.5q-53 0 -85 31z" />
    <glyph glyph-name="Ohungarumlaut" unicode="&#x150;" horiz-adv-x="688" 
d="M577 625.5q63 -70.5 63 -201.5q0 -100 -33 -200t-107.5 -167.5t-190.5 -67.5q-110 0 -174 71t-64 202q0 97 34 197t109 168.5t190 68.5q110 0 173 -70.5zM245.5 583.5q-59.5 -61.5 -85.5 -149.5t-26 -174q0 -110 46.5 -164.5t129.5 -54.5q98 0 158 61.5t85 149.5t25 175
q0 109 -46 163.5t-131 54.5q-96 0 -155.5 -61.5zM422 937l49 -28l-103 -136l-36 17zM551 937l50 -27l-112 -142l-37 18z" />
    <glyph glyph-name="ohungarumlaut" unicode="&#x151;" horiz-adv-x="569" 
d="M109.5 45q-49.5 56 -49.5 156q0 75 26 151.5t84.5 129t150.5 52.5q91 0 140 -55t49 -155q0 -74 -25.5 -151t-84.5 -130.5t-151 -53.5q-90 0 -139.5 56zM366.5 84q44.5 46 63.5 112.5t19 131.5q0 78 -33 118t-96 40q-72 0 -117 -46.5t-64 -113.5t-19 -130q0 -78 34 -118
t97 -40q71 0 115.5 46zM347 811l49 -28l-103 -136l-36 17zM476 811l50 -27l-112 -142l-37 18z" />
    <glyph glyph-name="OE" unicode="&#x152;" horiz-adv-x="866" 
d="M858 635h-319q39 -32 59.5 -86t20.5 -126q0 -13 -2 -43h168l-7 -50h-166q-13 -85 -50 -159t-100 -120h329l-8 -51h-415q-32 -11 -71 -11q-103 0 -164.5 71t-61.5 201q0 95 34 196t105.5 170t179.5 69q37 0 70 -11h412zM513.5 592q-44.5 53 -122.5 53q-90 0 -148 -62.5
t-84 -152.5t-26 -175q0 -106 45 -160t121 -54q92 0 150.5 63t83.5 153.5t25 177.5q0 104 -44.5 157z" />
    <glyph glyph-name="oe" unicode="&#x153;" horiz-adv-x="894" 
d="M768 265.5q-94 -46.5 -267 -59.5v-6q0 -82 35.5 -121t97.5 -39q41 0 75.5 12.5t72.5 39.5l26 -41q-42 -31 -85.5 -46.5t-92.5 -15.5q-68 0 -112 34t-64 97q-31 -60 -81.5 -95.5t-123.5 -35.5q-90 0 -139.5 56t-49.5 156q0 75 26 151.5t84.5 129t150.5 52.5
q68 0 111.5 -34.5t61.5 -97.5q32 61 84 96.5t125 35.5q74 0 116.5 -35.5t42.5 -90.5q0 -96 -94 -142.5zM366.5 84q44.5 46 63.5 112.5t19 131.5q0 78 -33 118t-96 40q-72 0 -117 -46.5t-64 -113.5t-19 -130q0 -78 34 -118t97 -40q71 0 115.5 46zM564 418q-49 -68 -60 -166
q150 12 223.5 48t73.5 106q0 34 -25 57t-74 23q-89 0 -138 -68z" />
    <glyph glyph-name="Racute" unicode="&#x154;" horiz-adv-x="587" 
d="M510 395q-44 -58 -137 -79l144 -316h-67l-136 307h-138l-43 -307h-60l97 685h168q216 0 216 -161q0 -71 -44 -129zM302 356q100 0 144.5 50t44.5 118q0 58 -37.5 85t-119.5 27h-111l-40 -280h119zM452 886l20 -53l-206 -75l-14 34z" />
    <glyph glyph-name="racute" unicode="&#x155;" horiz-adv-x="371" 
d="M395 527l-16 -55q-18 6 -42 6q-55 0 -94.5 -45t-73.5 -135l-43 -298h-58l74 523h50l-13 -127q61 138 166 138q29 0 50 -7zM386 783l20 -53l-206 -85l-15 33z" />
    <glyph glyph-name="Rcommaaccent" unicode="&#x156;" horiz-adv-x="587" 
d="M510 395q-44 -58 -137 -79l144 -316h-67l-136 307h-138l-43 -307h-60l97 685h168q216 0 216 -161q0 -71 -44 -129zM302 356q100 0 144.5 50t44.5 118q0 58 -37.5 85t-119.5 27h-111l-40 -280h119zM288.5 -96q10.5 -11 10.5 -28q0 -14 -5.5 -27.5t-24.5 -44.5l-52 -83h-36
l49 115q-8 6 -13 15t-5 19q0 19 13.5 32t33.5 13q19 0 29.5 -11z" />
    <glyph glyph-name="rcommaaccent" unicode="&#x157;" horiz-adv-x="371" 
d="M395 527l-16 -55q-18 6 -42 6q-55 0 -94.5 -45t-73.5 -135l-43 -298h-58l74 523h50l-13 -127q61 138 166 138q29 0 50 -7zM112.5 -96q10.5 -11 10.5 -28q0 -14 -5.5 -27.5t-24.5 -44.5l-52 -83h-36l49 115q-8 6 -13 15t-5 19q0 19 13.5 32t33.5 13q19 0 29.5 -11z" />
    <glyph glyph-name="Rcaron" unicode="&#x158;" horiz-adv-x="587" 
d="M510 395q-44 -58 -137 -79l144 -316h-67l-136 307h-138l-43 -307h-60l97 685h168q216 0 216 -161q0 -71 -44 -129zM302 356q100 0 144.5 50t44.5 118q0 58 -37.5 85t-119.5 27h-111l-40 -280h119zM499 888l23 -30l-142 -102h-36l-116 102l29 29l110 -79z" />
    <glyph glyph-name="rcaron" unicode="&#x159;" horiz-adv-x="371" 
d="M395 527l-16 -55q-18 6 -42 6q-55 0 -94.5 -45t-73.5 -135l-43 -298h-58l74 523h50l-13 -127q61 138 166 138q29 0 50 -7zM421 769l23 -30l-143 -106h-36l-115 106l27 30l110 -84z" />
    <glyph glyph-name="Sacute" unicode="&#x15a;" horiz-adv-x="536" 
d="M429 676.5q45 -19.5 82 -57.5l-38 -37q-32 34 -67.5 48.5t-81.5 14.5q-72 0 -117 -35.5t-45 -93.5q0 -47 30.5 -74t108.5 -53q87 -27 130.5 -68.5t43.5 -115.5q0 -54 -27 -103t-84.5 -81t-142.5 -32q-68 0 -118.5 23t-89.5 65l38 36q34 -36 75 -54t96 -18q63 0 106 23
t64 59.5t21 78.5q0 52 -31 82.5t-108 56.5q-92 31 -132 69t-40 104q0 46 26 88t76.5 68t119.5 26q60 0 105 -19.5zM430 886l20 -53l-206 -75l-14 34z" />
    <glyph glyph-name="sacute" unicode="&#x15b;" horiz-adv-x="461" 
d="M421 475l-31 -35q-30 23 -61 34t-69 11q-56 0 -90 -23.5t-34 -64.5q0 -34 25.5 -55.5t89.5 -40.5q77 -24 111.5 -59t34.5 -92q0 -73 -55 -117t-148 -44q-61 0 -105.5 19t-79.5 52l33 34q34 -28 70 -42t82 -14q68 0 105.5 29.5t37.5 77.5q0 42 -25.5 65t-94.5 45
q-77 24 -108.5 56.5t-31.5 82.5q0 38 22 70t63.5 51t97.5 19q93 0 161 -59zM387 783l20 -53l-206 -85l-15 33z" />
    <glyph glyph-name="Scircumflex" unicode="&#x15c;" horiz-adv-x="536" 
d="M429 676.5q45 -19.5 82 -57.5l-38 -37q-32 34 -67.5 48.5t-81.5 14.5q-72 0 -117 -35.5t-45 -93.5q0 -47 30.5 -74t108.5 -53q87 -27 130.5 -68.5t43.5 -115.5q0 -54 -27 -103t-84.5 -81t-142.5 -32q-68 0 -118.5 23t-89.5 65l38 36q34 -36 75 -54t96 -18q63 0 106 23
t64 59.5t21 78.5q0 52 -31 82.5t-108 56.5q-92 31 -132 69t-40 104q0 46 26 88t76.5 68t119.5 26q60 0 105 -19.5zM217 762l-24 31l142 101h37l114 -102l-27 -30l-110 80z" />
    <glyph glyph-name="scircumflex" unicode="&#x15d;" horiz-adv-x="461" 
d="M421 475l-31 -35q-30 23 -61 34t-69 11q-56 0 -90 -23.5t-34 -64.5q0 -34 25.5 -55.5t89.5 -40.5q77 -24 111.5 -59t34.5 -92q0 -73 -55 -117t-148 -44q-61 0 -105.5 19t-79.5 52l33 34q34 -28 70 -42t82 -14q68 0 105.5 29.5t37.5 77.5q0 42 -25.5 65t-94.5 45
q-77 24 -108.5 56.5t-31.5 82.5q0 38 22 70t63.5 51t97.5 19q93 0 161 -59zM167 643l-26 31l144 106h36l114 -106l-28 -31l-110 85z" />
    <glyph glyph-name="Scedilla" unicode="&#x15e;" horiz-adv-x="536" 
d="M431.5 320.5q43.5 -41.5 43.5 -115.5q0 -51 -25 -99t-77.5 -80t-130.5 -36l-9 -54q42 -4 62.5 -22.5t20.5 -50.5q0 -40 -31.5 -65t-81.5 -25q-49 0 -80 22l21 35q28 -15 59 -15q27 0 44.5 12t17.5 35t-18 32.5t-64 9.5l19 85q-61 4 -106.5 26.5t-82.5 61.5l38 36
q34 -36 75 -54t96 -18q63 0 106 23t64 59.5t21 78.5q0 52 -31 82.5t-108 56.5q-92 31 -132 69t-40 104q0 46 26 88t76.5 68t119.5 26q60 0 105 -19.5t82 -57.5l-38 -37q-32 34 -67.5 48.5t-81.5 14.5q-72 0 -117 -35.5t-45 -93.5q0 -47 30.5 -74t108.5 -53
q87 -27 130.5 -68.5z" />
    <glyph glyph-name="scedilla" unicode="&#x15f;" horiz-adv-x="461" 
d="M362.5 242q34.5 -35 34.5 -92q0 -70 -51 -113.5t-139 -47.5l-9 -53q42 -4 62.5 -22.5t20.5 -50.5q0 -40 -31.5 -65t-81.5 -25q-49 0 -80 22l21 35q28 -15 59 -15q27 0 44.5 12t17.5 35t-18 32.5t-64 9.5l19 86q-92 8 -158 70l33 34q34 -28 70 -42t82 -14q68 0 105.5 29.5
t37.5 77.5q0 42 -25.5 65t-94.5 45q-77 24 -108.5 56.5t-31.5 82.5q0 38 22 70t63.5 51t97.5 19q93 0 161 -59l-31 -35q-30 23 -61 34t-69 11q-56 0 -90 -23.5t-34 -64.5q0 -34 25.5 -55.5t89.5 -40.5q77 -24 111.5 -59z" />
    <glyph glyph-name="Scaron" unicode="&#x160;" horiz-adv-x="536" 
d="M429 676.5q45 -19.5 82 -57.5l-38 -37q-32 34 -67.5 48.5t-81.5 14.5q-72 0 -117 -35.5t-45 -93.5q0 -47 30.5 -74t108.5 -53q87 -27 130.5 -68.5t43.5 -115.5q0 -54 -27 -103t-84.5 -81t-142.5 -32q-68 0 -118.5 23t-89.5 65l38 36q34 -36 75 -54t96 -18q63 0 106 23
t64 59.5t21 78.5q0 52 -31 82.5t-108 56.5q-92 31 -132 69t-40 104q0 46 26 88t76.5 68t119.5 26q60 0 105 -19.5zM477 888l23 -30l-142 -102h-36l-116 102l29 29l110 -79z" />
    <glyph glyph-name="scaron" unicode="&#x161;" horiz-adv-x="461" 
d="M421 475l-31 -35q-30 23 -61 34t-69 11q-56 0 -90 -23.5t-34 -64.5q0 -34 25.5 -55.5t89.5 -40.5q77 -24 111.5 -59t34.5 -92q0 -73 -55 -117t-148 -44q-61 0 -105.5 19t-79.5 52l33 34q34 -28 70 -42t82 -14q68 0 105.5 29.5t37.5 77.5q0 42 -25.5 65t-94.5 45
q-77 24 -108.5 56.5t-31.5 82.5q0 38 22 70t63.5 51t97.5 19q93 0 161 -59zM422 769l23 -30l-143 -106h-36l-115 106l27 30l110 -84z" />
    <glyph glyph-name="uni0162" unicode="&#x162;" horiz-adv-x="493" 
d="M543 685l-15 -53h-200l-89 -632h1l-11 -64q83 -7 83 -69q0 -39 -32 -66.5t-83 -27.5q-46 0 -79 22l23 35q22 -15 55 -15q26 0 45 13t19 36q0 22 -18 31t-64 9l21 96h-20l89 632h-202l8 53h469z" />
    <glyph glyph-name="uni0163" unicode="&#x163;" horiz-adv-x="339" 
d="M144 129q-2 -18 -2 -25q0 -65 62 -65q38 0 85 25l20 -43q-50 -28 -97 -31l-9 -54q42 -4 62.5 -22.5t20.5 -50.5q0 -40 -31.5 -65t-81.5 -25q-49 0 -80 22l21 35q28 -15 59 -15q27 0 44.5 12t17.5 35t-18 32.5t-64 9.5l19 87q-42 6 -65 33.5t-23 74.5q0 19 2 30l49 347
h-88l7 47h89l29 127l46 5l-19 -132h135l-14 -47h-127z" />
    <glyph glyph-name="Tcaron" unicode="&#x164;" horiz-adv-x="493" 
d="M543 685l-15 -53h-200l-89 -632h-60l89 632h-202l8 53h469zM452 888l23 -30l-142 -102h-36l-116 102l29 29l110 -79z" />
    <glyph glyph-name="tcaron" unicode="&#x165;" horiz-adv-x="339" 
d="M144 129q-2 -18 -2 -25q0 -65 62 -65q38 0 85 25l20 -43q-54 -32 -112 -32q-53 0 -83 28.5t-30 81.5q0 10 2 30l49 347h-88l7 47h89l29 127l46 5l-19 -132h135l-14 -47h-127zM314 746l55 -6l-60 -164l-35 5z" />
    <glyph glyph-name="Tbar" unicode="&#x166;" horiz-adv-x="493" 
d="M528 632h-200l-35 -247h122l-7 -47h-121l-48 -338h-60l48 338h-122l7 47h121l35 247h-202l8 53h469z" />
    <glyph glyph-name="tbar" unicode="&#x167;" horiz-adv-x="339" 
d="M193 476l-18 -126h127l-14 -47h-120l-24 -174q-2 -18 -2 -25q0 -65 62 -65q38 0 85 25l20 -43q-54 -32 -112 -32q-53 0 -83 28.5t-30 81.5q0 10 2 30l25 174h-80l7 47h79l18 126h-88l7 47h89l29 127l46 5l-19 -132h135l-14 -47h-127z" />
    <glyph glyph-name="Utilde" unicode="&#x168;" horiz-adv-x="649" 
d="M542 212q-14 -102 -79 -162.5t-174 -60.5q-98 0 -148 49t-50 133q0 21 3 45l66 469h60l-66 -468q-3 -22 -3 -43q0 -133 140 -133q84 0 132 47.5t60 132.5l65 464h60zM428.5 798.5q-14.5 6.5 -33.5 19.5q-13 10 -23.5 15t-21.5 5q-18 0 -31 -9.5t-32 -32.5l-33 22
q45 66 97 66q18 0 31.5 -6.5t32.5 -18.5q18 -11 27 -15.5t20 -4.5q16 0 30.5 10.5t31.5 33.5l36 -21q-44 -70 -97 -70q-20 0 -34.5 6.5z" />
    <glyph glyph-name="utilde" unicode="&#x169;" horiz-adv-x="577" 
d="M114.5 22q-32.5 33 -32.5 93q0 17 3 36l52 372h58l-52 -370q-2 -12 -2 -32q0 -84 76 -84q55 0 102.5 45.5t85.5 120.5l45 320h58l-74 -523h-48l14 133q-36 -67 -84.5 -105.5t-109.5 -38.5q-59 0 -91.5 33zM371.5 672.5q-14.5 6.5 -33.5 19.5q-13 10 -23.5 15t-21.5 5
q-18 0 -31 -9.5t-32 -32.5l-33 22q45 66 97 66q18 0 31.5 -6.5t32.5 -18.5q18 -11 27 -15.5t20 -4.5q16 0 30.5 10.5t31.5 33.5l36 -21q-44 -70 -97 -70q-20 0 -34.5 6.5z" />
    <glyph glyph-name="Umacron" unicode="&#x16a;" horiz-adv-x="649" 
d="M542 212q-14 -102 -79 -162.5t-174 -60.5q-98 0 -148 49t-50 133q0 21 3 45l66 469h60l-66 -468q-3 -22 -3 -43q0 -133 140 -133q84 0 132 47.5t60 132.5l65 464h60zM521 802h-240l7 47h240z" />
    <glyph glyph-name="umacron" unicode="&#x16b;" horiz-adv-x="577" 
d="M114.5 22q-32.5 33 -32.5 93q0 17 3 36l52 372h58l-52 -370q-2 -12 -2 -32q0 -84 76 -84q55 0 102.5 45.5t85.5 120.5l45 320h58l-74 -523h-48l14 133q-36 -67 -84.5 -105.5t-109.5 -38.5q-59 0 -91.5 33zM464 676h-240l7 47h240z" />
    <glyph glyph-name="Ubreve" unicode="&#x16c;" horiz-adv-x="649" 
d="M542 212q-14 -102 -79 -162.5t-174 -60.5q-98 0 -148 49t-50 133q0 21 3 45l66 469h60l-66 -468q-3 -22 -3 -43q0 -133 140 -133q84 0 132 47.5t60 132.5l65 464h60zM309.5 793.5q-32.5 29.5 -33.5 73.5l39 6q6 -29 26 -45t54 -16q35 0 61 17.5t40 45.5l39 -12
q-12 -43 -51.5 -71t-89.5 -28q-52 0 -84.5 29.5z" />
    <glyph glyph-name="ubreve" unicode="&#x16d;" horiz-adv-x="577" 
d="M114.5 22q-32.5 33 -32.5 93q0 17 3 36l52 372h58l-52 -370q-2 -12 -2 -32q0 -84 76 -84q55 0 102.5 45.5t85.5 120.5l45 320h58l-74 -523h-48l14 133q-36 -67 -84.5 -105.5t-109.5 -38.5q-59 0 -91.5 33zM255 684q-32 31 -32 81l41 6q5 -36 24 -53t53 -17q36 0 63 19
t40 54l39 -12q-13 -50 -52.5 -79.5t-90.5 -29.5q-53 0 -85 31z" />
    <glyph glyph-name="Uring" unicode="&#x16e;" horiz-adv-x="649" 
d="M542 212q-14 -102 -79 -162.5t-174 -60.5q-98 0 -148 49t-50 133q0 21 3 45l66 469h60l-66 -468q-3 -22 -3 -43q0 -133 140 -133q84 0 132 47.5t60 132.5l65 464h60zM483.5 923.5q24.5 -23.5 24.5 -59.5q0 -45 -31.5 -75t-77.5 -30q-40 0 -64.5 23.5t-24.5 59.5
q0 45 32 75t77 30q40 0 64.5 -23.5zM371 891.5q-17 -19.5 -17 -48.5q0 -23 12 -35.5t34 -12.5q30 0 47.5 20t17.5 48q0 23 -12 35.5t-35 12.5q-30 0 -47 -19.5z" />
    <glyph glyph-name="uring" unicode="&#x16f;" horiz-adv-x="577" 
d="M114.5 22q-32.5 33 -32.5 93q0 17 3 36l52 372h58l-52 -370q-2 -12 -2 -32q0 -84 76 -84q55 0 102.5 45.5t85.5 120.5l45 320h58l-74 -523h-48l14 133q-36 -67 -84.5 -105.5t-109.5 -38.5q-59 0 -91.5 33zM426.5 797.5q24.5 -23.5 24.5 -59.5q0 -45 -31.5 -75t-77.5 -30
q-40 0 -64.5 23.5t-24.5 59.5q0 45 32 75t77 30q40 0 64.5 -23.5zM314 765.5q-17 -19.5 -17 -48.5q0 -23 12 -35.5t34 -12.5q30 0 47.5 20t17.5 48q0 23 -12 35.5t-35 12.5q-30 0 -47 -19.5z" />
    <glyph glyph-name="Uhungarumlaut" unicode="&#x170;" horiz-adv-x="649" 
d="M542 212q-14 -102 -79 -162.5t-174 -60.5q-98 0 -148 49t-50 133q0 21 3 45l66 469h60l-66 -468q-3 -22 -3 -43q0 -133 140 -133q84 0 132 47.5t60 132.5l65 464h60zM401 937l49 -28l-103 -136l-36 17zM530 937l50 -27l-112 -142l-37 18z" />
    <glyph glyph-name="uhungarumlaut" unicode="&#x171;" horiz-adv-x="577" 
d="M114.5 22q-32.5 33 -32.5 93q0 17 3 36l52 372h58l-52 -370q-2 -12 -2 -32q0 -84 76 -84q55 0 102.5 45.5t85.5 120.5l45 320h58l-74 -523h-48l14 133q-36 -67 -84.5 -105.5t-109.5 -38.5q-59 0 -91.5 33zM348 811l49 -28l-103 -136l-36 17zM477 811l50 -27l-112 -142
l-37 18z" />
    <glyph glyph-name="Uogonek" unicode="&#x172;" horiz-adv-x="649" 
d="M608 685l-66 -473q-12 -84 -58 -140.5t-122 -74.5q-63 -29 -89.5 -55t-26.5 -60q0 -24 16 -38t48 -14q26 0 57 7l-6 -48q-35 -7 -58 -7q-53 0 -82 25.5t-29 66.5q0 72 93 115q-96 1 -145 50t-49 132q0 21 3 45l66 469h60l-66 -468q-3 -22 -3 -43q0 -133 140 -133
q84 0 132 47.5t60 132.5l65 464h60z" />
    <glyph glyph-name="uogonek" unicode="&#x173;" horiz-adv-x="577" 
d="M326 -61q-32 -29 -32 -63q0 -45 55 -45q27 0 59 7l-10 -49q-30 -6 -57 -6q-49 0 -75 22.5t-26 58.5q0 48 34 84t113 66l13 119q-36 -67 -84.5 -105.5t-109.5 -38.5q-59 0 -91.5 33t-32.5 93q0 17 3 36l52 372h58l-52 -370q-2 -12 -2 -32q0 -84 76 -84q55 0 102.5 45.5
t85.5 120.5l45 320h58l-74 -523q-76 -32 -108 -61z" />
    <glyph glyph-name="Wcircumflex" unicode="&#x174;" horiz-adv-x="807" 
d="M836 685l-246 -685h-75l-62 617l-236 -617h-73l-54 685h59l41 -628l238 628h68l63 -629l220 629h57zM350 762l-24 31l142 101h37l114 -102l-27 -30l-110 80z" />
    <glyph glyph-name="wcircumflex" unicode="&#x175;" horiz-adv-x="696" 
d="M707 523l-200 -523h-78l-49 469l-183 -469h-77l-57 523h57l46 -478l187 478h68l51 -478l178 478h57zM283 643l-26 31l144 106h36l114 -106l-28 -31l-110 85z" />
    <glyph glyph-name="Ycircumflex" unicode="&#x176;" horiz-adv-x="520" 
d="M567 685l-275 -417l-38 -268h-61l38 267l-158 418h63l131 -362l233 362h67zM206 762l-24 31l142 101h37l114 -102l-27 -30l-110 80z" />
    <glyph glyph-name="ycircumflex" unicode="&#x177;" horiz-adv-x="465" 
d="M238 -4q-43 -90 -96 -136.5t-147 -63.5l-3 46q53 12 86 31t54.5 47.5t48.5 79.5h-22l-107 523h62l89 -479l222 479h62zM162 643l-26 31l144 106h36l114 -106l-28 -31l-110 85z" />
    <glyph glyph-name="Ydieresis" unicode="&#x178;" horiz-adv-x="520" 
d="M567 685l-275 -417l-38 -268h-61l38 267l-158 418h63l131 -362l233 362h67zM216.5 799q-10.5 10 -10.5 25q0 19 12.5 31.5t31.5 12.5q16 0 26.5 -10t10.5 -26q0 -18 -12.5 -30.5t-31.5 -12.5q-16 0 -26.5 10zM404.5 799q-10.5 10 -10.5 25q0 19 13 31.5t32 12.5
q16 0 26 -10t10 -26q0 -18 -12.5 -30.5t-31.5 -12.5q-16 0 -26.5 10z" />
    <glyph glyph-name="Zacute" unicode="&#x179;" horiz-adv-x="513" 
d="M-2 0l7 50l445 583h-326l7 52h395l-7 -50l-443 -582h354l-15 -53h-417zM421 886l20 -53l-206 -75l-14 34z" />
    <glyph glyph-name="zacute" unicode="&#x17a;" horiz-adv-x="420" 
d="M423 523l-6 -45l-347 -428h284l-13 -50h-351l7 45l346 427h-262l7 51h335zM373 783l20 -53l-206 -85l-15 33z" />
    <glyph glyph-name="Zdotaccent" unicode="&#x17b;" horiz-adv-x="513" 
d="M-2 0l7 50l445 583h-326l7 52h395l-7 -50l-443 -582h354l-15 -53h-417zM311 805.5q-11 10.5 -11 27.5q0 20 13.5 33t33.5 13q18 0 29 -10.5t11 -27.5q0 -20 -13.5 -33t-33.5 -13q-18 0 -29 10.5z" />
    <glyph glyph-name="zdotaccent" unicode="&#x17c;" horiz-adv-x="420" 
d="M423 523l-6 -45l-347 -428h284l-13 -50h-351l7 45l346 427h-262l7 51h335zM250 679.5q-11 10.5 -11 27.5q0 20 13.5 33t33.5 13q18 0 29 -10.5t11 -27.5q0 -20 -13.5 -33t-33.5 -13q-18 0 -29 10.5z" />
    <glyph glyph-name="Zcaron" unicode="&#x17d;" horiz-adv-x="513" 
d="M-2 0l7 50l445 583h-326l7 52h395l-7 -50l-443 -582h354l-15 -53h-417zM468 888l23 -30l-142 -102h-36l-116 102l29 29l110 -79z" />
    <glyph glyph-name="zcaron" unicode="&#x17e;" horiz-adv-x="420" 
d="M423 523l-6 -45l-347 -428h284l-13 -50h-351l7 45l346 427h-262l7 51h335zM408 769l23 -30l-143 -106h-36l-115 106l27 30l110 -84z" />
    <glyph glyph-name="longs" unicode="&#x17f;" horiz-adv-x="319" 
d="M382 735q28 -9 57 -27l-23 -40q-25 15 -47 21t-47 6q-93 0 -105 -89l-85 -606h-58l67 476h-91l7 47h91l12 87q8 62 51 98t110 36q33 0 61 -9z" />
    <glyph glyph-name="uni0180" unicode="&#x180;" horiz-adv-x="578" 
d="M478.5 482.5q41.5 -51.5 41.5 -146.5q0 -80 -27 -159.5t-87.5 -133.5t-155.5 -54q-43 0 -81.5 7.5t-90.5 26.5l84 593h-76l6 47h77l10 73l58 8l-11 -81h169l-14 -47h-161l-22 -158q76 76 164 76q75 0 116.5 -51.5zM372.5 85.5q46.5 47.5 67 116.5t20.5 137
q0 74 -28.5 110t-81.5 36q-47 0 -84 -22.5t-77 -64.5l-47 -339q27 -11 52 -16t59 -5q73 0 119.5 47.5z" />
    <glyph glyph-name="uni0181" unicode="&#x181;" horiz-adv-x="655" 
d="M555.5 319.5q38.5 -34.5 38.5 -101.5q0 -93 -64 -155.5t-209 -62.5h-188l90 636h-26q-42 0 -62 -22t-20 -60q0 -22 12 -56l-46 -21q-11 21 -17 39.5t-6 41.5q0 57 38.5 92t107.5 35h196q96 0 151.5 -38t55.5 -113q0 -69 -42 -114.5t-111 -57.5q63 -8 101.5 -42.5z
M283 635l-35 -250h131q78 0 122.5 40.5t44.5 107.5q0 102 -144 102h-119zM485 98.5q47 47.5 47 120.5q0 60 -40 88.5t-108 28.5h-143l-40 -285h124q113 0 160 47.5z" />
    <glyph glyph-name="uni0182" unicode="&#x182;" horiz-adv-x="567" 
d="M461.5 373q57.5 -45 57.5 -131q0 -63 -26 -117.5t-88 -89.5t-162 -35h-170l97 685h345l-16 -51h-277l-30 -216h108q104 0 161.5 -45zM410 107.5q46 56.5 46 134.5q0 126 -158 126h-113l-44 -317h114q109 0 155 56.5z" />
    <glyph glyph-name="uni0183" unicode="&#x183;" horiz-adv-x="572" 
d="M473 483q41 -51 41 -147q0 -80 -27 -159.5t-87.5 -133.5t-155.5 -54q-43 0 -81.5 7.5t-90.5 26.5l101 713h293l-16 -47h-226l-32 -231q76 76 164 76q76 0 117 -51zM366.5 85.5q46.5 47.5 67 117t20.5 137.5q0 145 -111 145q-46 0 -83 -22.5t-77 -64.5l-47 -339
q27 -11 52 -16t59 -5q73 0 119.5 47.5z" />
    <glyph glyph-name="uni0184" unicode="&#x184;" horiz-adv-x="559" 
d="M462.5 377q57.5 -46 57.5 -137q0 -62 -27.5 -116.5t-89.5 -89t-161 -34.5h-169l78 549l-48 35q44 38 75 101h52l-37 -262h107q105 0 162.5 -46zM410 107.5q47 56.5 47 132.5q0 70 -40.5 101.5t-118.5 31.5h-112l-45 -322h114q108 0 155 56.5z" />
    <glyph glyph-name="uni0185" unicode="&#x185;" horiz-adv-x="500" 
d="M407.5 307q45.5 -40 45.5 -109q0 -53 -23.5 -100.5t-74.5 -78t-128 -30.5q-75 0 -156 27l54 381l-48 35q42 36 73 91h51l-25 -176h90q96 0 141.5 -40zM353 84.5q40 47.5 40 114.5q0 47 -31.5 73.5t-99.5 26.5h-93l-35 -248q50 -14 91 -14q88 0 128 47.5z" />
    <glyph glyph-name="uni0186" unicode="&#x186;" horiz-adv-x="546" 
d="M438 626.5q60 -69.5 60 -200.5q0 -114 -38.5 -214.5t-112.5 -161.5t-174 -61q-59 0 -101 19t-79 53l34 38q36 -29 67.5 -43t77.5 -14q85 0 144.5 56t89.5 144t30 184q0 112 -44.5 165.5t-118.5 53.5q-47 0 -84.5 -12.5t-79.5 -39.5l-29 41q44 31 90 46.5t108 15.5
q100 0 160 -69.5z" />
    <glyph glyph-name="uni0187" unicode="&#x187;" horiz-adv-x="550" 
d="M758 789l-28 -36q-17 12 -32 17.5t-38 5.5q-33 0 -55 -20.5t-28 -64.5l-8 -59l-31 -32q-32 23 -64.5 34t-71.5 11q-93 0 -153.5 -59.5t-88 -148t-27.5 -177.5q0 -108 48 -163t128 -55q49 0 84.5 15t75.5 44l29 -43q-87 -69 -193 -69q-107 0 -170.5 71.5t-63.5 202.5
q0 100 34.5 200t108 166.5t183.5 66.5q68 0 118 -30l3 25q10 66 46.5 99.5t93.5 33.5q59 0 100 -35z" />
    <glyph glyph-name="uni0188" unicode="&#x188;" horiz-adv-x="467" 
d="M617.5 734q23.5 -10 43.5 -26l-28 -36q-17 11 -32.5 17t-38.5 6q-32 0 -54.5 -21t-28.5 -64l-18 -130l-26 -30q-58 35 -116 35q-70 0 -114.5 -45t-64.5 -111.5t-20 -131.5q0 -79 34.5 -118t96.5 -39q36 0 66.5 11t62.5 33l25 -41q-71 -54 -157 -54q-88 0 -138 55.5
t-50 155.5q0 76 27 153t85 129t146 52q53 0 89 -21l14 98q10 66 47 99.5t93 33.5q33 0 56.5 -10z" />
    <glyph glyph-name="uni0189" unicode="&#x189;" horiz-adv-x="635" 
d="M510.5 629.5q76.5 -55.5 76.5 -200.5q0 -115 -36.5 -212t-117 -157t-206.5 -60h-149l47 329h-87l6 48h87l44 308h134q125 0 201.5 -55.5zM404 105q65 55 93.5 141t28.5 184q0 121 -58.5 163t-154.5 42h-85l-36 -258h177l-6 -48h-178l-39 -279h89q104 0 169 55z" />
    <glyph glyph-name="uni018A" unicode="&#x18a;" horiz-adv-x="690" 
d="M565.5 629.5q76.5 -55.5 76.5 -200.5q0 -115 -36.5 -212t-117 -157t-206.5 -60h-149l90 636h-26q-42 0 -62 -22t-20 -60q0 -22 12 -56l-46 -21q-11 21 -17 39.5t-6 41.5q0 57 38.5 92t107.5 35h160q125 0 201.5 -55.5zM459 105q65 55 93.5 141t28.5 184q0 121 -58.5 163
t-154.5 42h-85l-82 -585h89q104 0 169 55z" />
    <glyph glyph-name="uni018B" unicode="&#x18b;" horiz-adv-x="568" 
d="M420 0h-175q-96 0 -153.5 46t-57.5 144q0 108 74.5 168t202.5 60h109l30 216h-282l7 51h342zM368 51l45 317h-107q-101 0 -155.5 -46.5t-54.5 -132.5q0 -73 39 -105.5t117 -32.5h116z" />
    <glyph glyph-name="uni018C" unicode="&#x18c;" horiz-adv-x="578" 
d="M435 0h-50l8 106q-31 -53 -74 -85t-99 -32q-76 0 -118.5 55t-42.5 151q0 76 25 154t80 131.5t140 53.5q89 0 138 -72l32 227h-231l7 47h289zM435 409q-21 36 -50 56.5t-73 20.5q-67 0 -110.5 -46.5t-62.5 -114t-19 -133.5q0 -75 28.5 -114.5t79.5 -39.5q54 0 94 36
t81 107z" />
    <glyph glyph-name="uni018D" unicode="&#x18d;" horiz-adv-x="566" 
d="M56 -149l34 35q29 -24 58.5 -34.5t68.5 -10.5q61 0 91.5 24.5t30.5 61.5q0 31 -23.5 52.5t-87.5 47.5q-85 36 -125 84t-40 124q0 63 25 132t82 118t147 49q89 0 140 -56t51 -150q0 -99 -45.5 -170.5t-152.5 -114.5q47 -26 67.5 -52.5t20.5 -62.5q0 -34 -20.5 -65
t-61.5 -50.5t-99 -19.5q-95 0 -161 58zM407.5 172.5q39.5 66.5 39.5 159.5q0 71 -34.5 112t-97.5 41q-70 0 -113 -42t-60.5 -100t-17.5 -109q0 -62 32.5 -100.5t110.5 -71.5q101 44 140.5 110.5z" />
    <glyph glyph-name="uni018E" unicode="&#x18e;" horiz-adv-x="510" 
d="M112 685h347l-96 -685h-354l8 51h293l39 279h-242l7 50h242l36 255h-287z" />
    <glyph glyph-name="uni018F" unicode="&#x18f;" horiz-adv-x="645" 
d="M539.5 633q58.5 -63 58.5 -192q0 -121 -35.5 -224t-107.5 -165.5t-176 -62.5t-162 66t-58 190q0 29 4.5 69.5t9.5 60.5h458q5 31 5 69q0 105 -42 153t-123 48q-53 0 -100.5 -17.5t-97.5 -53.5l-28 41q54 42 109.5 61.5t119.5 19.5q107 0 165.5 -63zM436 109q65 69 89 213
h-401q-6 -45 -6 -81q0 -102 42.5 -151.5t120.5 -49.5q90 0 155 69z" />
    <glyph glyph-name="uni0190" unicode="&#x190;" horiz-adv-x="519" 
d="M438 674.5q47 -21.5 88 -63.5l-37 -34q-68 68 -159 68q-72 0 -115.5 -40t-43.5 -102q0 -53 36 -82t98 -29h61l-14 -51h-53q-90 1 -142 -44t-52 -124q0 -64 39 -98t108 -34q101 0 186 77l34 -38q-98 -91 -224 -91q-93 0 -149.5 49.5t-56.5 133.5q0 83 50.5 136t128.5 62
q-50 12 -80.5 46.5t-30.5 87.5q0 56 28.5 99.5t78.5 68t112 24.5t109 -21.5z" />
    <glyph glyph-name="uni0191" unicode="&#x191;" horiz-adv-x="478" 
d="M223 635l-38 -267h237l-7 -50h-237l-45 -318h1l-11 -72q-9 -67 -46.5 -100t-94.5 -33q-56 0 -99 35l28 38q16 -12 31.5 -17.5t38.5 -5.5q32 0 54 20.5t28 64.5l11 70h-1l97 685h340l-14 -50h-273z" />
    <glyph glyph-name="florin" unicode="&#x192;" horiz-adv-x="319" 
d="M217 606l-12 -83h137l-13 -47h-130l-64 -459q-10 -68 -30 -108t-51.5 -64t-87.5 -49l-18 45q41 19 65 38t40 51.5t24 88.5l64 457h-91l7 47h91l12 87q8 62 51 98t110 36q33 0 61 -9t57 -27l-23 -40q-25 15 -47 21t-47 6q-93 0 -105 -89z" />
    <glyph glyph-name="uni0193" unicode="&#x193;" horiz-adv-x="571" 
d="M779 789l-28 -36q-17 12 -32 17.5t-38 5.5q-33 0 -55 -20.5t-28 -64.5l-9 -64l-32 -30q-35 24 -71 36t-80 12q-90 0 -151.5 -58t-91 -148t-29.5 -186q0 -107 47 -159.5t135 -52.5q78 0 147 36l35 242h-132l-1 51h199l-44 -323q-98 -58 -210 -58t-175.5 69.5t-63.5 201.5
q0 106 37.5 206.5t113.5 165t184 64.5q77 0 130 -33l3 28q10 65 47 99t94 34q58 0 99 -35z" />
    <glyph glyph-name="uni0194" unicode="&#x194;" horiz-adv-x="544" 
d="M278 59q20 -57 28.5 -89.5t8.5 -63.5q0 -51 -29 -81t-78 -30q-40 0 -62.5 21.5t-22.5 57.5t19.5 76.5t65.5 112.5l-133 622h63l110 -579l276 579h63zM254 -45.5q-5 25.5 -17 65.5q-29 -49 -43.5 -82.5t-14.5 -60.5q0 -34 31 -34q24 0 36.5 17t12.5 45q0 24 -5 49.5z" />
    <glyph glyph-name="uni0195" unicode="&#x195;" horiz-adv-x="883" 
d="M446 28q-39 39 -39 104q0 9 2 31l29 204q2 12 2 34q0 44 -18.5 64t-56.5 20q-102 0 -195 -172l-44 -313h-58l104 736l59 7l-49 -347q37 66 86.5 102t106.5 36q60 0 92 -33t32 -94q0 -16 -3 -36l-29 -209q-2 -11 -2 -29q0 -47 24.5 -71t68.5 -24q112 0 154.5 112t42.5 270
q0 60 -4 103h57q5 -58 5 -110q0 -181 -58 -302.5t-200 -121.5q-70 0 -109 39z" />
    <glyph glyph-name="uni0196" unicode="&#x196;" horiz-adv-x="333" 
d="M294 22q-45 -32 -105 -32q-51 0 -80.5 27t-29.5 80q0 9 2 29l10 69l69 490h60l-69 -490l-10 -74q-2 -16 -2 -22q0 -59 54 -59q24 0 42 6t37 17z" />
    <glyph glyph-name="uni0197" unicode="&#x197;" horiz-adv-x="316" 
d="M308 384l-7 -49h-100l-47 -335h-60l47 335h-104l8 49h103l43 301h60l-43 -301h100z" />
    <glyph glyph-name="uni0198" unicode="&#x198;" horiz-adv-x="582" 
d="M189 367l222 250q40 45 68.5 62t66.5 17q29 0 50 -10.5t41 -30.5l-33 -33q-18 13 -29 18.5t-28 5.5q-23 0 -42 -12t-54 -51l-193 -216l250 -367h-73zM73 0l97 685h60l-96 -685h-61z" />
    <glyph glyph-name="uni0199" unicode="&#x199;" horiz-adv-x="523" 
d="M453 310.5q-44 -47.5 -128 -74.5l119 -236h-65l-125 254q92 26 137 66t45 97q0 33 -18 51.5t-54 18.5q-54 0 -104.5 -47.5t-90.5 -134.5l-43 -305h-58l74 522l12 89q9 62 52 97.5t109 35.5q61 0 119 -29l-23 -43q-44 22 -94 22q-93 0 -105 -89l-12 -83l-18 -126
q40 71 90 104.5t105 33.5q54 0 87 -30.5t33 -81.5q0 -64 -44 -111.5z" />
    <glyph glyph-name="uni019A" unicode="&#x19a;" horiz-adv-x="300" 
d="M153 88q-1 -5 -1 -14q0 -18 8 -26.5t26 -8.5q16 0 38 8l13 -44q-31 -14 -60 -14q-39 0 -60.5 20.5t-21.5 60.5q0 7 2 27l35 252h-102l8 47h101l48 340l58 8l-49 -348h105l-7 -47h-104z" />
    <glyph glyph-name="uni019B" unicode="&#x19b;" horiz-adv-x="470" 
d="M352.5 250q16.5 -86 37 -136t52.5 -103l-54 -19q-33 54 -53.5 105.5t-36.5 137.5t-24 221l-225 -465l-54 14l253 510l23 -4q-5 75 -20 110l-81 -70l-39 19l97 89q-29 29 -88 44l11 41q76 -17 112 -54l78 72l32 -31l-83 -76l-1 -1q30 -57 38 -180q9 -138 25.5 -224z" />
    <glyph glyph-name="uni019C" unicode="&#x19c;" horiz-adv-x="924" 
d="M873 685l-96 -685h-52l7 91q-38 -49 -84 -75.5t-97 -26.5q-56 0 -90 29t-44 81q-90 -110 -193 -110q-66 0 -101.5 40.5t-35.5 111.5q0 21 3 45l70 499h60l-71 -505q-3 -21 -3 -39q0 -49 22 -74.5t65 -25.5q51 0 94.5 29.5t85.5 85.5l3 30l70 499h61l-71 -505
q-3 -21 -3 -39q0 -49 22 -74.5t65 -25.5q51 0 94.5 29t84.5 84l74 531h60z" />
    <glyph glyph-name="uni019D" unicode="&#x19d;" horiz-adv-x="670" 
d="M619 685l-96 -685h-77l-236 631q-3 -94 -26 -251l-54 -380l-10 -72q-9 -67 -46 -100t-92 -33q-56 0 -99 35l28 36q16 -11 31.5 -16.5t38.5 -5.5q32 0 54 20.5t28 65.5l10 70l97 685h78l236 -629q3 101 20 215l58 414h57z" />
    <glyph glyph-name="uni019E" unicode="&#x19e;" horiz-adv-x="581" 
d="M467 500.5q32 -33.5 32 -95.5q0 -16 -3 -36l-81 -569l-59 -7l82 574q3 18 3 34q0 84 -77 84q-101 0 -194 -172l-44 -313h-58l74 523h50l-14 -130q41 68 91 104.5t107 36.5q59 0 91 -33.5z" />
    <glyph glyph-name="uni019F" unicode="&#x19f;" horiz-adv-x="688" 
d="M577 625.5q63 -70.5 63 -201.5q0 -100 -33 -200t-107.5 -167.5t-190.5 -67.5q-110 0 -174 71t-64 202q0 97 34 197t109 168.5t190 68.5q110 0 173 -70.5zM229 567q-63 -78 -86 -193h434q2 36 2 53q0 110 -46 164t-132 54q-109 0 -172 -78zM488.5 123.5
q63.5 82.5 82.5 202.5h-435q-4 -31 -4 -66q0 -110 47 -164.5t131 -54.5q115 0 178.5 82.5z" />
    <glyph glyph-name="Ohorn" unicode="&#x1a0;" horiz-adv-x="688" 
d="M598 597q42 -68 42 -173q0 -100 -33 -200t-107.5 -167.5t-190.5 -67.5q-110 0 -174 71t-64 202q0 97 34 197t109 168.5t190 68.5q106 0 168 -65q38 6 54 26t16 55q0 24 -7 47l46 9q10 -26 10 -57q0 -93 -93 -114zM468 102.5q60 61.5 85 149.5t25 175q0 109 -46 163.5
t-131 54.5q-96 0 -155.5 -61.5t-85.5 -149.5t-26 -174q0 -110 46.5 -164.5t129.5 -54.5q98 0 158 61.5z" />
    <glyph glyph-name="ohorn" unicode="&#x1a1;" horiz-adv-x="579" 
d="M491 430q19 -44 19 -106q0 -74 -25.5 -151t-84.5 -130.5t-151 -53.5q-90 0 -139.5 56t-49.5 156q0 75 26 151.5t84.5 129t150.5 52.5q102 0 151 -69q38 6 55 26t17 56q0 27 -7 50l46 9q10 -26 10 -60q0 -98 -102 -116zM366.5 84q44.5 46 63.5 112.5t19 131.5
q0 78 -33 118t-96 40q-72 0 -117 -46.5t-64 -113.5t-19 -130q0 -78 34 -118t97 -40q71 0 115.5 46z" />
    <glyph glyph-name="uni01A2" unicode="&#x1a2;" horiz-adv-x="900" 
d="M800.5 666.5q31.5 -30.5 31.5 -85.5q0 -8 -2 -30l-105 -748h-60l105 749q3 17 3 30q0 33 -17.5 49.5t-53.5 16.5q-58 0 -117 -32q55 -71 55 -192q0 -100 -33 -200t-107.5 -167.5t-190.5 -67.5q-110 0 -174 71t-64 202q0 97 34 197t109 168.5t190 68.5q91 0 149 -48
q79 49 153 49q63 0 94.5 -30.5zM468 102.5q60 61.5 85 149.5t25 175q0 109 -46 163.5t-131 54.5q-96 0 -155.5 -61.5t-85.5 -149.5t-26 -174q0 -110 46.5 -164.5t129.5 -54.5q98 0 158 61.5z" />
    <glyph glyph-name="uni01A3" unicode="&#x1a3;" horiz-adv-x="759" 
d="M647 503q31 -31 31 -86q0 -8 -2 -30l-82 -587l-60 -7l84 598q2 20 2 27q0 34 -16.5 51t-53.5 17q-41 0 -83 -16q43 -54 43 -146q0 -74 -25.5 -151t-84.5 -130.5t-151 -53.5q-90 0 -139.5 56t-49.5 156q0 75 26 151.5t84.5 129t150.5 52.5q65 0 112 -31q62 31 122 31
q61 0 92 -31zM366.5 84q44.5 46 63.5 112.5t19 131.5q0 78 -33 118t-96 40q-72 0 -117 -46.5t-64 -113.5t-19 -130q0 -78 34 -118t97 -40q71 0 115.5 46z" />
    <glyph glyph-name="uni01A4" unicode="&#x1a4;" horiz-adv-x="627" 
d="M558 642q59 -43 59 -130q0 -105 -67.5 -175t-218.5 -70h-100l-38 -267h-60l90 636h-26q-42 0 -62 -22t-20 -60q0 -22 12 -56l-46 -21q-11 21 -17 39.5t-6 41.5q0 57 38.5 92t107.5 35h184q111 0 170 -43zM503.5 371.5q49.5 54.5 49.5 140.5q0 66 -42.5 95t-126.5 29h-101
l-45 -319h96q120 0 169.5 54.5z" />
    <glyph glyph-name="uni01A5" unicode="&#x1a5;" horiz-adv-x="572" 
d="M473 483q41 -51 41 -147q0 -80 -27 -159.5t-87.5 -133.5t-154.5 -54q-58 0 -117 21l-29 -209l-59 -8l102 729l12 89q9 62 52 97.5t109 35.5q61 0 119 -29l-23 -43q-44 22 -94 22q-93 0 -105 -89l-12 -83h1l-8 -66q70 78 163 78q76 0 117 -51zM366 85.5q47 47.5 67.5 117
t20.5 137.5q0 145 -111 145q-46 0 -83.5 -22.5t-75.5 -65.5l-48 -338q27 -11 52 -16t58 -5q73 0 120 47.5z" />
    <glyph glyph-name="uni01A6" unicode="&#x1a6;" horiz-adv-x="587" 
d="M493.5 270.5q-42.5 -57.5 -137.5 -80.5l143 -316h-66l-136 307h-138l-26 -181h-60l97 685h60l-18 -126h104q112 0 166 -40t54 -119q0 -72 -42.5 -129.5zM284 230q100 0 144.5 50.5t44.5 119.5q0 57 -37 83t-120 26h-111l-39 -279h118z" />
    <glyph glyph-name="uni01A7" unicode="&#x1a7;" horiz-adv-x="528" 
d="M462.5 656q46.5 -40 46.5 -107q0 -83 -53 -128.5t-167 -79.5q-70 -21 -110.5 -44.5t-59 -56.5t-18.5 -83q0 -56 37 -86t98 -30q56 0 103.5 18.5t92.5 53.5l31 -40q-102 -84 -230 -84q-88 0 -141 46t-53 122q0 90 55 144.5t171 87.5q66 20 104.5 39t58.5 48t20 73
q0 47 -30 71.5t-85 24.5q-50 0 -91.5 -15t-88.5 -48l-30 40q50 38 100 56t113 18q80 0 126.5 -40z" />
    <glyph glyph-name="uni01A8" unicode="&#x1a8;" horiz-adv-x="461" 
d="M374.5 500q42.5 -34 42.5 -88q0 -52 -35.5 -92.5t-134.5 -67.5q-67 -17 -101 -37.5t-44.5 -41.5t-10.5 -48q0 -40 30.5 -63t79.5 -23q92 0 168 57l30 -40q-88 -67 -201 -67q-73 0 -121 36.5t-48 99.5q0 58 42.5 100.5t149.5 71.5q82 22 108.5 50t26.5 65q0 34 -26.5 54
t-69.5 20q-38 0 -72 -12t-71 -38l-27 39q83 59 174 59q68 0 110.5 -34z" />
    <glyph glyph-name="uni01A9" unicode="&#x1a9;" horiz-adv-x="492" 
d="M506 685l-7 -51h-328l173 -281l-3 -35l-249 -267h325l-7 -51h-401l6 44l272 295l-187 302l5 44h401z" />
    <glyph glyph-name="uni01AA" unicode="&#x1aa;" horiz-adv-x="285" 
d="M287 -173q-45 -32 -105 -32q-51 0 -81 27.5t-30 79.5q0 9 2 29l10 69l71 513q-28 -14 -60 -14q-43 0 -71 27.5t-28 73.5q0 41 18 74t48.5 51.5t66.5 18.5q48 0 74.5 -26.5t26.5 -75.5q0 -8 -2 -28l-86 -614l-10 -76q-2 -16 -2 -22q0 -59 56 -59q24 0 42 6t38 17zM161 559
l9 65q1 7 1 20q0 52 -44 52q-34 0 -54 -27.5t-20 -68.5q0 -53 51 -53q28 0 57 12z" />
    <glyph glyph-name="uni01AB" unicode="&#x1ab;" horiz-adv-x="339" 
d="M144 129q-2 -18 -2 -26q0 -33 15 -48.5t48 -15.5q36 0 87 20l17 -38l-13 -93q-10 -66 -47.5 -99.5t-94.5 -33.5q-55 0 -98 35l28 36q17 -11 33 -17t39 -6q33 0 56 20.5t29 64.5l10 70q-25 -9 -56 -9q-52 0 -81.5 28.5t-29.5 81.5q0 19 2 30l49 347h-88l7 47h89l29 127
l46 5l-19 -132h135l-14 -47h-127z" />
    <glyph glyph-name="uni01AC" unicode="&#x1ac;" horiz-adv-x="521" 
d="M556 632h-199l-89 -632h-60l89 632h-100q-42 0 -62 -21t-20 -57q0 -22 12 -56l-46 -21q-11 21 -17 39.5t-6 41.5q0 56 37.5 91.5t104.5 35.5h371z" />
    <glyph glyph-name="uni01AD" unicode="&#x1ad;" horiz-adv-x="339" 
d="M200 528l-1 -5h135l-14 -47h-127l-49 -347q-2 -18 -2 -26q0 -33 15 -48.5t48 -15.5q39 0 84 26l20 -44q-54 -32 -113 -32q-53 0 -82.5 28t-29.5 82q0 19 2 30l49 347h-88l7 47h87l1 5l11 77q9 69 48 104t99 35q55 0 104 -35l-27 -38q-35 24 -75 24q-78 0 -91 -91z" />
    <glyph glyph-name="uni01AE" unicode="&#x1ae;" horiz-adv-x="493" 
d="M229 -74q-2 -16 -2 -22q0 -59 54 -59q24 0 42 6t37 17l22 -41q-45 -32 -105 -32q-51 0 -80.5 27t-29.5 80q0 9 2 29l10 69l89 632h-202l8 53h469l-15 -53h-200l-89 -632z" />
    <glyph glyph-name="Uhorn" unicode="&#x1af;" horiz-adv-x="649" 
d="M595 593l-53 -381q-14 -102 -79 -162.5t-174 -60.5q-98 0 -148 49t-50 133q0 21 3 45l66 469h60l-66 -468q-3 -22 -3 -43q0 -133 140 -133q84 0 132 47.5t60 132.5l65 464h60l-7 -52q32 7 46 26.5t14 52.5q0 24 -7 47l46 9q10 -26 10 -57q0 -105 -115 -118z" />
    <glyph glyph-name="uhorn" unicode="&#x1b0;" horiz-adv-x="595" 
d="M495 428l-61 -428h-48l14 133q-36 -67 -84.5 -105.5t-109.5 -38.5q-59 0 -91.5 33t-32.5 93q0 17 3 36l52 372h58l-52 -370q-2 -12 -2 -32q0 -84 76 -84q55 0 102.5 45.5t85.5 120.5l45 320h58l-8 -56q32 7 46 27t14 53q0 27 -7 50l46 9q10 -26 10 -60q0 -104 -114 -118z
" />
    <glyph glyph-name="uni01B1" unicode="&#x1b1;" horiz-adv-x="688" 
d="M134 59.5q-64 70.5 -64 192.5t48.5 220.5t140.5 162.5h-118l7 50h184l-6 -52q-96 -62 -145 -162.5t-49 -221.5q0 -101 47 -154.5t132 -53.5q84 0 143.5 49.5t89.5 131t30 178.5q0 82 -27 138t-75 97l6 50h183l-7 -52h-116q45 -39 72 -94t27 -138q0 -113 -40 -207
t-114 -149.5t-173 -55.5q-112 0 -176 70.5z" />
    <glyph glyph-name="uni01B2" unicode="&#x1b2;" horiz-adv-x="637" 
d="M573 674q23 -22 23 -64q0 -7 -2 -25l-41 -293q-14 -96 -54 -164.5t-100 -103.5t-133 -35q-82 0 -130 46.5t-48 123.5q0 18 3 36l69 490h60l-69 -490q-3 -18 -3 -34q0 -58 31.5 -89t88.5 -31q88 0 148 66.5t78 193.5l40 289q1 6 1 17q0 39 -35 39q-22 0 -43 -9l-15 43
q30 16 68 16q40 0 63 -22z" />
    <glyph glyph-name="uni01B3" unicode="&#x1b3;" horiz-adv-x="552" 
d="M231 267l-158 418h64l131 -362l173 287q28 48 56.5 67t69.5 19q54 0 96 -42l-29 -34q-33 28 -65 28q-24 0 -41 -13t-37 -46l-199 -321l-38 -268h-61z" />
    <glyph glyph-name="uni01B4" unicode="&#x1b4;" horiz-adv-x="467" 
d="M-8 -158q53 12 86.5 31.5t56 48.5t46.5 78h-22l-107 523h62l89 -479l184 435q21 51 46 71.5t65 20.5q27 0 57 -15l-19 -41q-15 7 -35 7q-21 0 -34.5 -12t-26.5 -42l-203 -468q-40 -93 -93.5 -139.5t-148.5 -64.5z" />
    <glyph glyph-name="uni01B5" unicode="&#x1b5;" horiz-adv-x="513" 
d="M526 685l-7 -50l-202 -265h101l-9 -50h-130l-204 -267h355l-15 -53h-417l7 50l206 270h-105l9 50h134l201 263h-326l7 52h395z" />
    <glyph glyph-name="uni01B6" unicode="&#x1b6;" horiz-adv-x="420" 
d="M423 523l-6 -45l-152 -187h89l-7 -48h-122l-157 -193h286l-13 -50h-351l7 45l162 198h-89l8 48h120l148 181h-265l7 51h335z" />
    <glyph glyph-name="uni01B7" unicode="&#x1b7;" horiz-adv-x="493" 
d="M474 636l-258 -250h20q100 0 151.5 -42.5t51.5 -121.5q0 -69 -32.5 -122t-90.5 -82t-131 -29q-67 0 -113.5 22t-80.5 66l38 32q31 -36 67 -52t89 -16q87 0 139 49.5t52 131.5q0 62 -38.5 89.5t-113.5 27.5h-86l1 1l6 46l253 248h-306l7 51h381z" />
    <glyph glyph-name="uni01B8" unicode="&#x1b8;" horiz-adv-x="494" 
d="M506 634h-311l187 -248l-6 -47h-82q-93 0 -145 -46.5t-52 -126.5q0 -59 35.5 -92t101.5 -33q58 0 100.5 16t83.5 53l34 -36q-46 -43 -98.5 -64t-122.5 -21q-89 0 -142 48t-53 128q0 67 31.5 117t89 77t133.5 27h30l-194 250l6 49h381z" />
    <glyph glyph-name="uni01B9" unicode="&#x1b9;" horiz-adv-x="462" 
d="M456 473h-303l176 -273l-6 -46l-3 2l2 -2h-61q-98 0 -151.5 -48t-53.5 -133q0 -61 34 -95t99 -34q52 0 93 16.5t82 53.5l33 -35q-45 -42 -95.5 -63t-114.5 -21q-89 0 -141 49t-52 130q0 69 32.5 120t92 78.5t138.5 27.5h14l-182 278l5 45h368z" />
    <glyph glyph-name="uni01BA" unicode="&#x1ba;" horiz-adv-x="455" 
d="M-17 -92q0 53 45.5 81t142.5 43q62 10 98.5 22t56.5 35t20 63q0 38 -22 55t-65 17h-151l6 46l233 203h-286l6 50h364l-6 -45l-241 -208h83q66 0 103.5 -30.5t37.5 -86.5q0 -76 -54.5 -114.5t-161.5 -54.5q-85 -13 -117.5 -30t-32.5 -47q0 -22 15.5 -38.5t49.5 -35.5
l-24 -39q-100 47 -100 114z" />
    <glyph glyph-name="uni01BB" unicode="&#x1bb;" horiz-adv-x="476" 
d="M82 50l313 2l-17 -52h-373l7 51q146 135 219 211h-127l7 49h166q64 70 85.5 114t21.5 92q0 52 -30 80.5t-82 28.5q-46 0 -83 -19t-74 -58l-39 35q46 48 94.5 70t105.5 22q78 0 123 -43t45 -114q0 -50 -20.5 -96.5t-76.5 -111.5h107l-7 -49h-144q-67 -71 -221 -212z" />
    <glyph glyph-name="uni01BC" unicode="&#x1bc;" horiz-adv-x="493" 
d="M84.5 10.5q-44.5 21.5 -77.5 62.5l40 33q27 -35 61.5 -51t82.5 -16q67 0 109.5 34.5t61 85t18.5 99.5q0 63 -32 94.5t-87 31.5q-35 0 -62 -7.5t-60 -24.5h-49l47 333h343l-15 -48h-278l-34 -238q58 32 121 32q78 0 122 -46t44 -128q0 -60 -25.5 -122t-81.5 -104t-143 -42
q-61 0 -105.5 21.5z" />
    <glyph glyph-name="uni01BD" unicode="&#x1bd;" horiz-adv-x="433" 
d="M382 473h-218l-24 -160q22 11 44 17t52 6q64 0 100.5 -37t37.5 -102q0 -59 -27 -106.5t-74.5 -74.5t-107.5 -27q-52 0 -89 17t-66 50l35 33q28 -26 54.5 -37.5t66.5 -11.5q63 0 104.5 43.5t41.5 112.5q0 45 -24 68t-66 23q-29 0 -52 -6t-50 -20l-44 1l37 261h286z" />
    <glyph glyph-name="uni01BE" unicode="&#x1be;" horiz-adv-x="498" 
d="M428 240q0 -69 -31 -125.5t-85.5 -89t-122.5 -32.5q-60 0 -102.5 20.5t-81.5 61.5l35 31q33 -32 67.5 -48t80.5 -16q54 0 95 26t63 71.5t22 100.5q0 63 -31.5 94.5t-88.5 46.5l-67 15l23 161h-72l7 47h71l19 132l58 7l-19 -139h117l-7 -47h-117l-18 -128l31 -8
q154 -37 154 -181z" />
    <glyph glyph-name="uni01BF" unicode="&#x1bf;" horiz-adv-x="575" 
d="M484 494q41 -40 41 -112q0 -84 -42.5 -148.5t-112.5 -112.5t-172 -98l-73 -34l-26 -186l-60 -8l103 728h50l-6 -76q42 42 87.5 64.5t100.5 22.5q69 0 110 -40zM393 208.5q70 71.5 70 173.5q0 103 -100 103q-51 0 -95 -24t-87 -68l-49 -353l59 30q132 67 202 138.5z" />
    <glyph glyph-name="uni01C0" unicode="&#x1c0;" horiz-adv-x="275" 
d="M233 743l-105 -743h-55l104 736z" />
    <glyph glyph-name="uni01C1" unicode="&#x1c1;" horiz-adv-x="431" 
d="M233 743l-105 -743h-55l104 736zM389 743l-105 -743h-55l104 736z" />
    <glyph glyph-name="uni01C2" unicode="&#x1c2;" horiz-adv-x="317" 
d="M313 419h-106l-15 -107h105l-5 -42h-106l-38 -270h-55l38 270h-103l6 42h103l15 107h-102l5 42h103l39 275l56 7l-40 -282h106z" />
    <glyph glyph-name="uni01C3" unicode="&#x1c3;" horiz-adv-x="316" 
d="M253 743l-76 -542h-55l76 535zM91 1.5q-12 12.5 -12 31.5q0 22 14.5 37t36.5 15q20 0 32 -12.5t12 -31.5q0 -22 -15 -37t-37 -15q-19 0 -31 12.5z" />
    <glyph glyph-name="uni01C4" unicode="&#x1c4;" horiz-adv-x="1118" 
d="M505.5 629.5q76.5 -55.5 76.5 -200.5q0 -115 -36.5 -212t-117 -157t-206.5 -60h-149l97 685h134q125 0 201.5 -55.5zM223 635l-82 -585h89q104 0 169 55t93.5 141t28.5 184q0 121 -58.5 163t-154.5 42h-85zM603 0l7 50l445 583h-326l7 52h395l-7 -50l-443 -582h354
l-15 -53h-417zM1073 888l23 -30l-142 -102h-36l-116 102l29 29l110 -79z" />
    <glyph glyph-name="uni01C5" unicode="&#x1c5;" horiz-adv-x="1040" 
d="M505.5 629.5q76.5 -55.5 76.5 -200.5q0 -115 -36.5 -212t-117 -157t-206.5 -60h-149l97 685h134q125 0 201.5 -55.5zM223 635l-82 -585h89q104 0 169 55t93.5 141t28.5 184q0 121 -58.5 163t-154.5 42h-85zM1043 523l-6 -45l-347 -428h284l-13 -50h-351l7 45l346 427
h-262l7 51h335zM1028 769l23 -30l-143 -106h-36l-115 106l27 30l110 -84z" />
    <glyph glyph-name="uni01C6" unicode="&#x1c6;" horiz-adv-x="998" 
d="M539 736l-104 -736h-50l8 106q-31 -53 -74 -85t-99 -32q-76 0 -118.5 55t-42.5 151q0 76 25 154t80 131.5t140 53.5q89 0 138 -72l40 281zM201.5 439.5q-43.5 -46.5 -62.5 -114t-19 -133.5q0 -75 28.5 -114.5t79.5 -39.5q54 0 94 36t81 107l33 228q-22 36 -51 56.5
t-73 20.5q-67 0 -110.5 -46.5zM1001 523l-6 -45l-347 -428h284l-13 -50h-351l7 45l346 427h-262l7 51h335zM986 769l23 -30l-143 -106h-36l-115 106l27 30l110 -84z" />
    <glyph glyph-name="uni01C7" unicode="&#x1c7;" horiz-adv-x="744" 
d="M230 685l-89 -631h285l-16 -54h-337l97 685h60zM615 90q-8 -61 -29 -99t-57 -63t-97 -48l-13 46q49 20 76 41.5t40.5 51.5t19.5 78l83 588h60z" />
    <glyph glyph-name="uni01C8" unicode="&#x1c8;" horiz-adv-x="726" 
d="M230 685l-89 -631h285l-16 -54h-337l97 685h60zM401 -160q41 19 64.5 38t39.5 52t24 89l71 504h58l-72 -506q-9 -68 -29 -108t-52 -64t-88 -49zM623 679.5q-11 10.5 -11 27.5q0 20 13.5 33t33.5 13q18 0 29 -10.5t11 -27.5q0 -20 -13.5 -33t-33.5 -13q-18 0 -29 10.5z
" />
    <glyph glyph-name="uni01C9" unicode="&#x1c9;" horiz-adv-x="551" 
d="M134 88q-1 -5 -1 -14q0 -18 8 -26.5t26 -8.5q16 0 38 8l13 -44q-31 -14 -60 -14q-39 0 -60.5 20.5t-21.5 60.5q0 7 2 27l90 639l58 8zM226 -160q41 19 64.5 38t39.5 52t24 89l71 504h58l-72 -506q-9 -68 -29 -108t-52 -64t-88 -49zM448 679.5q-11 10.5 -11 27.5
q0 20 13.5 33t33.5 13q18 0 29 -10.5t11 -27.5q0 -20 -13.5 -33t-33.5 -13q-18 0 -29 10.5z" />
    <glyph glyph-name="uni01CA" unicode="&#x1ca;" horiz-adv-x="959" 
d="M523 0h-77l-236 631q-3 -94 -26 -251l-54 -380h-57l97 685h78l236 -629q3 101 20 215l58 414h57zM830 90q-8 -61 -29 -99t-57 -63t-97 -48l-13 46q49 20 76 41.5t40.5 51.5t19.5 78l83 588h60z" />
    <glyph glyph-name="uni01CB" unicode="&#x1cb;" horiz-adv-x="939" 
d="M523 0h-77l-236 631q-3 -94 -26 -251l-54 -380h-57l97 685h78l236 -629q3 101 20 215l58 414h57zM614 -160q41 19 64.5 38t39.5 52t24 89l71 504h58l-72 -506q-9 -68 -29 -108t-52 -64t-88 -49zM836 679.5q-11 10.5 -11 27.5q0 20 13.5 33t33.5 13q18 0 29 -10.5
t11 -27.5q0 -20 -13.5 -33t-33.5 -13q-18 0 -29 10.5z" />
    <glyph glyph-name="uni01CC" unicode="&#x1cc;" horiz-adv-x="850" 
d="M467 501q32 -33 32 -94q0 -18 -3 -38l-52 -369h-58l52 367q2 12 2 33q0 85 -76 85q-101 0 -194 -172l-44 -313h-58l74 523h50l-14 -130q41 68 91 104.5t107 36.5q59 0 91 -33zM525 -160q41 19 64.5 38t39.5 52t24 89l71 504h58l-72 -506q-9 -68 -29 -108t-52 -64t-88 -49
zM747 679.5q-11 10.5 -11 27.5q0 20 13.5 33t33.5 13q18 0 29 -10.5t11 -27.5q0 -20 -13.5 -33t-33.5 -13q-18 0 -29 10.5z" />
    <glyph glyph-name="uni01CD" unicode="&#x1cd;" horiz-adv-x="562" 
d="M447 0l-33 187h-287l-86 -187h-62l324 685h75l131 -685h-62zM151 238h254l-71 397zM488 888l23 -30l-142 -102h-36l-116 102l29 29l110 -79z" />
    <glyph glyph-name="uni01CE" unicode="&#x1ce;" 
d="M415 523q39 -11 80 -32l-55 -377q-2 -11 -2 -30q0 -21 7.5 -33.5t25.5 -20.5l-17 -41q-35 8 -53 29.5t-17 65.5q-30 -44 -71.5 -69.5t-89.5 -25.5q-78 0 -121.5 54.5t-43.5 148.5q0 78 28 157t88.5 132t152.5 53q49 0 88 -11zM210.5 441q-47.5 -46 -69 -114t-21.5 -135
q0 -76 29 -115t83 -39q47 0 84.5 28t71.5 82l45 315q-48 24 -104 24q-71 0 -118.5 -46zM490 769l23 -30l-143 -106h-36l-115 106l27 30l110 -84z" />
    <glyph glyph-name="uni01CF" unicode="&#x1cf;" horiz-adv-x="281" 
d="M230 685l-97 -685h-60l97 685h60zM347 888l23 -30l-142 -102h-36l-116 102l29 29l110 -79z" />
    <glyph glyph-name="uni01D0" unicode="&#x1d0;" horiz-adv-x="269" 
d="M200 523l-74 -523h-58l74 523h58zM323 769l23 -30l-143 -106h-36l-115 106l27 30l110 -84z" />
    <glyph glyph-name="uni01D1" unicode="&#x1d1;" horiz-adv-x="688" 
d="M577 625.5q63 -70.5 63 -201.5q0 -100 -33 -200t-107.5 -167.5t-190.5 -67.5q-110 0 -174 71t-64 202q0 97 34 197t109 168.5t190 68.5q110 0 173 -70.5zM245.5 583.5q-59.5 -61.5 -85.5 -149.5t-26 -174q0 -110 46.5 -164.5t129.5 -54.5q98 0 158 61.5t85 149.5t25 175
q0 109 -46 163.5t-131 54.5q-96 0 -155.5 -61.5zM552 888l23 -30l-142 -102h-36l-116 102l29 29l110 -79z" />
    <glyph glyph-name="uni01D2" unicode="&#x1d2;" horiz-adv-x="569" 
d="M109.5 45q-49.5 56 -49.5 156q0 75 26 151.5t84.5 129t150.5 52.5q91 0 140 -55t49 -155q0 -74 -25.5 -151t-84.5 -130.5t-151 -53.5q-90 0 -139.5 56zM366.5 84q44.5 46 63.5 112.5t19 131.5q0 78 -33 118t-96 40q-72 0 -117 -46.5t-64 -113.5t-19 -130q0 -78 34 -118
t97 -40q71 0 115.5 46zM474 769l23 -30l-143 -106h-36l-115 106l27 30l110 -84z" />
    <glyph glyph-name="uni01D3" unicode="&#x1d3;" horiz-adv-x="649" 
d="M542 212q-14 -102 -79 -162.5t-174 -60.5q-98 0 -148 49t-50 133q0 21 3 45l66 469h60l-66 -468q-3 -22 -3 -43q0 -133 140 -133q84 0 132 47.5t60 132.5l65 464h60zM531 888l23 -30l-142 -102h-36l-116 102l29 29l110 -79z" />
    <glyph glyph-name="uni01D4" unicode="&#x1d4;" horiz-adv-x="577" 
d="M114.5 22q-32.5 33 -32.5 93q0 17 3 36l52 372h58l-52 -370q-2 -12 -2 -32q0 -84 76 -84q55 0 102.5 45.5t85.5 120.5l45 320h58l-74 -523h-48l14 133q-36 -67 -84.5 -105.5t-109.5 -38.5q-59 0 -91.5 33zM475 769l23 -30l-143 -106h-36l-115 106l27 30l110 -84z" />
    <glyph glyph-name="uni01D5" unicode="&#x1d5;" horiz-adv-x="649" 
d="M542 212q-14 -102 -79 -162.5t-174 -60.5q-98 0 -148 49t-50 133q0 21 3 45l66 469h60l-66 -468q-3 -22 -3 -43q0 -133 140 -133q84 0 132 47.5t60 132.5l65 464h60zM268.5 754q-10.5 10 -10.5 25q0 19 12.5 31.5t31.5 12.5q16 0 26.5 -10t10.5 -26q0 -18 -12.5 -30.5
t-31.5 -12.5q-16 0 -26.5 10zM456.5 754q-10.5 10 -10.5 25q0 19 13 31.5t32 12.5q16 0 26 -10t10 -26q0 -18 -12.5 -30.5t-31.5 -12.5q-16 0 -26.5 10zM523 878h-240l7 47h240z" />
    <glyph glyph-name="uni01D6" unicode="&#x1d6;" horiz-adv-x="577" 
d="M114.5 22q-32.5 33 -32.5 93q0 17 3 36l52 372h58l-52 -370q-2 -12 -2 -32q0 -84 76 -84q55 0 102.5 45.5t85.5 120.5l45 320h58l-74 -523h-48l14 133q-36 -67 -84.5 -105.5t-109.5 -38.5q-59 0 -91.5 33zM218.5 643q-10.5 10 -10.5 25q0 19 12.5 31.5t31.5 12.5
q16 0 26.5 -10t10.5 -26q0 -18 -12.5 -30.5t-31.5 -12.5q-16 0 -26.5 10zM406.5 643q-10.5 10 -10.5 25q0 19 13 31.5t32 12.5q16 0 26 -10t10 -26q0 -18 -12.5 -30.5t-31.5 -12.5q-16 0 -26.5 10zM472 773h-240l7 47h240z" />
    <glyph glyph-name="uni01D7" unicode="&#x1d7;" horiz-adv-x="649" 
d="M542 212q-14 -102 -79 -162.5t-174 -60.5q-98 0 -148 49t-50 133q0 21 3 45l66 469h60l-66 -468q-3 -22 -3 -43q0 -133 140 -133q84 0 132 47.5t60 132.5l65 464h60zM497 972l35 -38l-135 -119l-25 25zM269.5 754q-10.5 10 -10.5 26q0 18 12.5 30.5t31.5 12.5
q16 0 26.5 -10t10.5 -25q0 -19 -12.5 -31.5t-31.5 -12.5q-16 0 -26.5 10zM458.5 754q-10.5 10 -10.5 26q0 18 12.5 30.5t31.5 12.5q16 0 26.5 -10t10.5 -25q0 -19 -12.5 -31.5t-31.5 -12.5q-16 0 -26.5 10z" />
    <glyph glyph-name="uni01D8" unicode="&#x1d8;" horiz-adv-x="577" 
d="M114.5 22q-32.5 33 -32.5 93q0 17 3 36l52 372h58l-52 -370q-2 -12 -2 -32q0 -84 76 -84q55 0 102.5 45.5t85.5 120.5l45 320h58l-74 -523h-48l14 133q-36 -67 -84.5 -105.5t-109.5 -38.5q-59 0 -91.5 33zM443 860l35 -38l-135 -119l-25 25zM215.5 643q-10.5 10 -10.5 25
q0 19 12.5 31.5t31.5 12.5q16 0 26.5 -10t10.5 -25q0 -19 -12.5 -31.5t-31.5 -12.5q-16 0 -26.5 10zM403.5 643q-10.5 10 -10.5 25q0 19 13 31.5t32 12.5q16 0 26 -10t10 -25q0 -19 -12.5 -31.5t-31.5 -12.5q-16 0 -26.5 10z" />
    <glyph glyph-name="uni01D9" unicode="&#x1d9;" horiz-adv-x="649" 
d="M542 212q-14 -102 -79 -162.5t-174 -60.5q-98 0 -148 49t-50 133q0 21 3 45l66 469h60l-66 -468q-3 -22 -3 -43q0 -133 140 -133q84 0 132 47.5t60 132.5l65 464h60zM534 962l23 -30l-142 -102h-36l-116 102l29 29l110 -79zM269.5 754q-10.5 10 -10.5 26q0 18 13 30.5
t32 12.5q16 0 26 -10t10 -25q0 -19 -12.5 -31.5t-31.5 -12.5q-16 0 -26.5 10zM458.5 754q-10.5 10 -10.5 26q0 18 12.5 30.5t31.5 12.5q16 0 26.5 -10t10.5 -25q0 -19 -12.5 -31.5t-31.5 -12.5q-16 0 -26.5 10z" />
    <glyph glyph-name="uni01DA" unicode="&#x1da;" horiz-adv-x="577" 
d="M114.5 22q-32.5 33 -32.5 93q0 17 3 36l52 372h58l-52 -370q-2 -12 -2 -32q0 -84 76 -84q55 0 102.5 45.5t85.5 120.5l45 320h58l-74 -523h-48l14 133q-36 -67 -84.5 -105.5t-109.5 -38.5q-59 0 -91.5 33zM479 851l23 -30l-142 -102h-36l-116 102l29 29l110 -79z
M214.5 643q-10.5 10 -10.5 25q0 19 12.5 31.5t31.5 12.5q16 0 26.5 -10t10.5 -25q0 -19 -12.5 -31.5t-31.5 -12.5q-16 0 -26.5 10zM403.5 643q-10.5 10 -10.5 25q0 19 12.5 31.5t31.5 12.5q16 0 26.5 -10t10.5 -25q0 -19 -12.5 -31.5t-31.5 -12.5q-16 0 -26.5 10z" />
    <glyph glyph-name="uni01DB" unicode="&#x1db;" horiz-adv-x="649" 
d="M542 212q-14 -102 -79 -162.5t-174 -60.5q-98 0 -148 49t-50 133q0 21 3 45l66 469h60l-66 -468q-3 -22 -3 -43q0 -133 140 -133q84 0 132 47.5t60 132.5l65 464h60zM332 971l90 -134l-27 -22l-104 121zM269.5 754q-10.5 10 -10.5 26q0 18 13 30.5t32 12.5q16 0 26 -10
t10 -25q0 -19 -12.5 -31.5t-31.5 -12.5q-16 0 -26.5 10zM458.5 754q-10.5 10 -10.5 26q0 18 12.5 30.5t31.5 12.5q16 0 26.5 -10t10.5 -25q0 -19 -12.5 -31.5t-31.5 -12.5q-16 0 -26.5 10z" />
    <glyph glyph-name="uni01DC" unicode="&#x1dc;" horiz-adv-x="577" 
d="M114.5 22q-32.5 33 -32.5 93q0 17 3 36l52 372h58l-52 -370q-2 -12 -2 -32q0 -84 76 -84q55 0 102.5 45.5t85.5 120.5l45 320h58l-74 -523h-48l14 133q-36 -67 -84.5 -105.5t-109.5 -38.5q-59 0 -91.5 33zM280 859l90 -134l-27 -22l-104 121zM220.5 643
q-10.5 10 -10.5 25q0 19 12.5 31.5t31.5 12.5q16 0 26.5 -10t10.5 -25q0 -19 -12.5 -31.5t-31.5 -12.5q-16 0 -26.5 10zM409 643q-10 10 -10 25q0 19 12.5 31.5t31.5 12.5q16 0 26 -10t10 -25q0 -19 -12.5 -31.5t-31.5 -12.5q-16 0 -26 10z" />
    <glyph glyph-name="uni01DD" unicode="&#x1dd;" horiz-adv-x="513" 
d="M404 479q50 -55 50 -155q0 -79 -28.5 -156t-89 -128t-149.5 -51q-73 0 -114 35.5t-41 90.5q0 96 94 142.5t267 59.5v6q0 82 -35.5 121t-97.5 39q-41 0 -75.5 -12.5t-72.5 -39.5l-26 41q42 31 85.5 46.5t92.5 15.5q90 0 140 -55zM327.5 106q50.5 69 62.5 165
q-150 -12 -224 -48t-74 -106q0 -34 24 -57t71 -23q90 0 140.5 69z" />
    <glyph glyph-name="uni01DE" unicode="&#x1de;" horiz-adv-x="562" 
d="M447 0l-33 187h-287l-86 -187h-62l324 685h75l131 -685h-62zM151 238h254l-71 397zM225.5 754q-10.5 10 -10.5 25q0 19 12.5 31.5t31.5 12.5q16 0 26.5 -10t10.5 -26q0 -18 -12.5 -30.5t-31.5 -12.5q-16 0 -26.5 10zM413.5 754q-10.5 10 -10.5 25q0 19 13 31.5t32 12.5
q16 0 26 -10t10 -26q0 -18 -12.5 -30.5t-31.5 -12.5q-16 0 -26.5 10zM480 878h-240l7 47h240z" />
    <glyph glyph-name="uni01DF" unicode="&#x1df;" 
d="M415 523q39 -11 80 -32l-55 -377q-2 -11 -2 -30q0 -21 7.5 -33.5t25.5 -20.5l-17 -41q-35 8 -53 29.5t-17 65.5q-30 -44 -71.5 -69.5t-89.5 -25.5q-78 0 -121.5 54.5t-43.5 148.5q0 78 28 157t88.5 132t152.5 53q49 0 88 -11zM210.5 441q-47.5 -46 -69 -114t-21.5 -135
q0 -76 29 -115t83 -39q47 0 84.5 28t71.5 82l45 315q-48 24 -104 24q-71 0 -118.5 -46zM233.5 643q-10.5 10 -10.5 25q0 19 12.5 31.5t31.5 12.5q16 0 26.5 -10t10.5 -26q0 -18 -12.5 -30.5t-31.5 -12.5q-16 0 -26.5 10zM421.5 643q-10.5 10 -10.5 25q0 19 13 31.5t32 12.5
q16 0 26 -10t10 -26q0 -18 -12.5 -30.5t-31.5 -12.5q-16 0 -26.5 10zM487 773h-240l7 47h240z" />
    <glyph glyph-name="uni01E0" unicode="&#x1e0;" horiz-adv-x="562" 
d="M447 0l-33 187h-287l-86 -187h-62l324 685h75l131 -685h-62zM151 238h254l-71 397zM319 753.5q-11 10.5 -11 27.5q0 20 13.5 33t33.5 13q18 0 29 -10.5t11 -27.5q0 -20 -13.5 -33t-33.5 -13q-18 0 -29 10.5zM482 878h-240l7 47h240z" />
    <glyph glyph-name="uni01E1" unicode="&#x1e1;" 
d="M415 523q39 -11 80 -32l-55 -377q-2 -11 -2 -30q0 -21 7.5 -33.5t25.5 -20.5l-17 -41q-35 8 -53 29.5t-17 65.5q-30 -44 -71.5 -69.5t-89.5 -25.5q-78 0 -121.5 54.5t-43.5 148.5q0 78 28 157t88.5 132t152.5 53q49 0 88 -11zM210.5 441q-47.5 -46 -69 -114t-21.5 -135
q0 -76 29 -115t83 -39q47 0 84.5 28t71.5 82l45 315q-48 24 -104 24q-71 0 -118.5 -46zM323 629.5q-11 10.5 -11 27.5q0 20 13.5 33t33.5 13q18 0 29 -10.5t11 -27.5q0 -20 -13.5 -33t-33.5 -13q-18 0 -29 10.5zM488 758h-240l7 47h240z" />
    <glyph glyph-name="uni01E2" unicode="&#x1e2;" horiz-adv-x="780" 
d="M732 635h-323l30 -256h257l-7 -50h-244l32 -278h228l-8 -51h-272l-20 184h-284l-95 -184h-64l363 685h422zM147 234h253l-44 403zM651 802h-240l7 47h240z" />
    <glyph glyph-name="uni01E3" unicode="&#x1e3;" horiz-adv-x="818" 
d="M388 507q38 -27 51 -74q24 40 75.5 70.5t114.5 30.5q73 0 115 -35.5t42 -91.5q0 -95 -95 -141t-269 -59q0 -167 136 -167q41 0 75 12.5t72 39.5l27 -41q-43 -31 -86.5 -46.5t-91.5 -15.5q-62 0 -106 27t-65 77q-45 -56 -94 -80t-105 -24q-69 0 -109.5 37t-40.5 99
q0 77 58 128t183 51h102q9 43 24 78q-2 47 -35 75t-88 28q-34 0 -66.5 -7t-76.5 -22l-13 45q86 33 162 33q66 0 104 -27zM488.5 417q-50.5 -69 -62.5 -164q151 12 225 47.5t74 104.5q0 34 -24.5 57.5t-72.5 23.5q-89 0 -139.5 -69zM280 261q-95 0 -139 -36t-44 -100
q0 -44 24.5 -66.5t69.5 -22.5q50 0 93.5 25.5t84.5 80.5q-4 19 -4 55q0 41 4 64h-89zM590 676h-240l7 47h240z" />
    <glyph glyph-name="uni01E4" unicode="&#x1e4;" horiz-adv-x="631" 
d="M617 191h-77l-20 -144q-98 -58 -210 -58t-175.5 69.5t-63.5 201.5q0 106 37.5 206.5t113.5 165t184 64.5q56 0 100 -17t83 -52l-38 -35q-34 28 -67 40.5t-78 12.5q-90 0 -151.5 -58t-91 -148t-29.5 -186q0 -107 47 -159.5t135 -52.5q78 0 147 36l16 114h-126l8 51h126
l11 77h-132l-1 51h199l-17 -128h77z" />
    <glyph glyph-name="uni01E5" unicode="&#x1e5;" horiz-adv-x="506" 
d="M419 -40h72l-6 -44h-80q-52 -123 -196 -123q-46 0 -91 13.5t-82 35.5l23 43q36 -19 72.5 -30.5t80.5 -11.5q46 0 79.5 17t54.5 56h-135l6 44h146q6 25 8 43l13 92q-29 -42 -70 -66t-88 -24q-79 0 -122.5 54.5t-43.5 148.5q0 76 28.5 151t89 125t152.5 50q49 0 87.5 -10.5
t82.5 -32.5l-72 -487q-3 -22 -9 -44zM394 163l44 300q-50 24 -106 24q-72 0 -119.5 -44t-69.5 -109t-22 -129q1 -74 30.5 -113t83.5 -39q87 0 159 110z" />
    <glyph glyph-name="Gcaron" unicode="&#x1e6;" horiz-adv-x="615" 
d="M506 679q44 -17 83 -52l-38 -34q-34 28 -67 40t-78 12q-90 0 -151.5 -58t-91 -148t-29.5 -186q0 -107 47 -159.5t135 -52.5q78 0 147 36l35 242h-132l-1 51h199l-44 -323q-98 -58 -210 -58t-175.5 69.5t-63.5 201.5q0 106 37.5 206.5t113.5 165t184 64.5q56 0 100 -17z
M556 888l23 -30l-142 -102h-36l-116 102l29 29l110 -79z" />
    <glyph glyph-name="gcaron" unicode="&#x1e7;" horiz-adv-x="568" 
d="M419 523q39 -11 80 -32l-71 -487q-31 -211 -219 -211q-90 0 -173 49l23 44q76 -42 148 -42q141 0 164 159l12 87q-30 -41 -71 -65.5t-87 -24.5q-77 0 -121 54t-45 146q0 78 28.5 155t89.5 128t154 51q49 0 88 -11zM211.5 443q-47.5 -44 -69.5 -110t-21 -133
q0 -73 30 -112t83 -39q46 0 85 28t74 81l44 305q-48 24 -106 24q-72 0 -119.5 -44zM474 769l23 -30l-143 -106h-36l-115 106l27 30l110 -84z" />
    <glyph glyph-name="uni01E8" unicode="&#x1e8;" horiz-adv-x="545" 
d="M73 0l97 685h60l-96 -685h-61zM437 0l-248 367l327 318h72l-330 -320l250 -365h-71zM513 888l23 -30l-142 -102h-36l-116 102l29 29l110 -79z" />
    <glyph glyph-name="uni01E9" unicode="&#x1e9;" horiz-adv-x="523" 
d="M182 395q41 71 90.5 105t104.5 34q54 0 87 -30.5t33 -81.5q0 -64 -44 -111.5t-128 -74.5l119 -236h-65l-125 254q92 26 137 66t45 97q0 33 -18 51.5t-54 18.5q-54 0 -104.5 -47.5t-90.5 -134.5l-43 -305h-58l104 736l59 8zM498 939l23 -30l-142 -102h-36l-116 102l29 29
l110 -79z" />
    <glyph glyph-name="uni01EA" unicode="&#x1ea;" horiz-adv-x="688" 
d="M282.5 -61.5q-31.5 -28.5 -31.5 -62.5q0 -45 55 -45q27 0 59 7l-10 -49q-30 -6 -57 -6q-49 0 -75 22.5t-26 58.5q0 38 22 69t71 57q-102 6 -160.5 76.5t-58.5 195.5q0 97 34 197t109 168.5t190 68.5q110 0 173 -70.5t63 -201.5q0 -88 -25.5 -177t-82.5 -157.5t-145 -91.5
q-73 -31 -104.5 -59.5zM180.5 95.5q46.5 -54.5 129.5 -54.5q98 0 158 61.5t85 149.5t25 175q0 109 -46 163.5t-131 54.5q-96 0 -155.5 -61.5t-85.5 -149.5t-26 -174q0 -110 46.5 -164.5z" />
    <glyph glyph-name="uni01EB" unicode="&#x1eb;" horiz-adv-x="569" 
d="M213.5 -61.5q-31.5 -28.5 -31.5 -62.5q0 -45 55 -45q27 0 59 7l-10 -49q-30 -6 -57 -6q-49 0 -75 22.5t-26 58.5q0 39 22.5 69.5t72.5 56.5q-78 8 -120.5 63.5t-42.5 147.5q0 75 26 151.5t84.5 129t150.5 52.5q91 0 140 -55t49 -155q0 -63 -19 -130.5t-62 -121.5
t-111 -74q-73 -31 -104.5 -59.5zM154 78q34 -40 97 -40q71 0 115.5 46t63.5 112.5t19 131.5q0 78 -33 118t-96 40q-72 0 -117 -46.5t-64 -113.5t-19 -130q0 -78 34 -118z" />
    <glyph glyph-name="uni01EC" unicode="&#x1ec;" horiz-adv-x="688" 
d="M549 849l-7 -47h-240l7 47h240zM282.5 -61.5q-31.5 -28.5 -31.5 -62.5q0 -45 55 -45q27 0 59 7l-10 -49q-30 -6 -57 -6q-49 0 -75 22.5t-26 58.5q0 38 22 69t71 57q-102 6 -160.5 76.5t-58.5 195.5q0 97 34 197t109 168.5t190 68.5q110 0 173 -70.5t63 -201.5
q0 -88 -25.5 -177t-82.5 -157.5t-145 -91.5q-73 -31 -104.5 -59.5zM180.5 95.5q46.5 -54.5 129.5 -54.5q98 0 158 61.5t85 149.5t25 175q0 109 -46 163.5t-131 54.5q-96 0 -155.5 -61.5t-85.5 -149.5t-26 -174q0 -110 46.5 -164.5z" />
    <glyph glyph-name="uni01ED" unicode="&#x1ed;" horiz-adv-x="569" 
d="M470 723l-7 -47h-240l7 47h240zM213.5 -61.5q-31.5 -28.5 -31.5 -62.5q0 -45 55 -45q27 0 59 7l-10 -49q-30 -6 -57 -6q-49 0 -75 22.5t-26 58.5q0 39 22.5 69.5t72.5 56.5q-78 8 -120.5 63.5t-42.5 147.5q0 75 26 151.5t84.5 129t150.5 52.5q91 0 140 -55t49 -155
q0 -63 -19 -130.5t-62 -121.5t-111 -74q-73 -31 -104.5 -59.5zM154 78q34 -40 97 -40q71 0 115.5 46t63.5 112.5t19 131.5q0 78 -33 118t-96 40q-72 0 -117 -46.5t-64 -113.5t-19 -130q0 -78 34 -118z" />
    <glyph glyph-name="uni01EE" unicode="&#x1ee;" horiz-adv-x="493" 
d="M474 636l-258 -250h20q100 0 151.5 -42.5t51.5 -121.5q0 -69 -32.5 -122t-90.5 -82t-131 -29q-67 0 -113.5 22t-80.5 66l38 32q31 -36 67 -52t89 -16q87 0 139 49.5t52 131.5q0 62 -38.5 89.5t-113.5 27.5h-86l1 1l6 46l253 248h-306l7 51h381zM437 888l23 -30l-142 -102
h-36l-116 102l29 29l110 -79z" />
    <glyph glyph-name="uni01EF" unicode="&#x1ef;" horiz-adv-x="459" 
d="M433 478l-256 -278h8q105 0 156 -42.5t51 -121.5q0 -71 -31.5 -125.5t-88 -85t-128.5 -30.5q-62 0 -107 22t-80 65l38 31q33 -37 67.5 -53t80.5 -16q88 0 138 54t50 138q0 63 -38 90.5t-120 27.5h-67l1 1l6 45l249 273h-298l7 50h368zM407 769l23 -30l-143 -106h-36
l-115 106l27 30l110 -84z" />
    <glyph glyph-name="uni01F0" unicode="&#x1f0;" horiz-adv-x="269" 
d="M-56 -160q41 19 64.5 38t39.5 52t24 89l71 504h58l-72 -506q-9 -68 -29 -108t-52 -64t-88 -49zM324 769l23 -30l-143 -106h-36l-115 106l27 30l110 -84z" />
    <glyph glyph-name="uni01F1" unicode="&#x1f1;" horiz-adv-x="1118" 
d="M505.5 629.5q76.5 -55.5 76.5 -200.5q0 -115 -36.5 -212t-117 -157t-206.5 -60h-149l97 685h134q125 0 201.5 -55.5zM223 635l-82 -585h89q104 0 169 55t93.5 141t28.5 184q0 121 -58.5 163t-154.5 42h-85zM603 0l7 50l445 583h-326l7 52h395l-7 -50l-443 -582h354
l-15 -53h-417z" />
    <glyph glyph-name="uni01F2" unicode="&#x1f2;" horiz-adv-x="1040" 
d="M505.5 629.5q76.5 -55.5 76.5 -200.5q0 -115 -36.5 -212t-117 -157t-206.5 -60h-149l97 685h134q125 0 201.5 -55.5zM223 635l-82 -585h89q104 0 169 55t93.5 141t28.5 184q0 121 -58.5 163t-154.5 42h-85zM1043 523l-6 -45l-347 -428h284l-13 -50h-351l7 45l346 427
h-262l7 51h335z" />
    <glyph glyph-name="uni01F3" unicode="&#x1f3;" horiz-adv-x="998" 
d="M539 736l-104 -736h-50l8 106q-31 -53 -74 -85t-99 -32q-76 0 -118.5 55t-42.5 151q0 76 25 154t80 131.5t140 53.5q89 0 138 -72l40 281zM201.5 439.5q-43.5 -46.5 -62.5 -114t-19 -133.5q0 -75 28.5 -114.5t79.5 -39.5q54 0 94 36t81 107l33 228q-22 36 -51 56.5
t-73 20.5q-67 0 -110.5 -46.5zM1001 523l-6 -45l-347 -428h284l-13 -50h-351l7 45l346 427h-262l7 51h335z" />
    <glyph glyph-name="uni01F4" unicode="&#x1f4;" horiz-adv-x="615" 
d="M506 679q44 -17 83 -52l-38 -34q-34 28 -67 40t-78 12q-90 0 -151.5 -58t-91 -148t-29.5 -186q0 -107 47 -159.5t135 -52.5q78 0 147 36l35 242h-132l-1 51h199l-44 -323q-98 -58 -210 -58t-175.5 69.5t-63.5 201.5q0 106 37.5 206.5t113.5 165t184 64.5q56 0 100 -17z
M509 886l20 -53l-206 -75l-14 34z" />
    <glyph glyph-name="uni01F5" unicode="&#x1f5;" horiz-adv-x="568" 
d="M419 523q39 -11 80 -32l-71 -487q-31 -211 -219 -211q-90 0 -173 49l23 44q76 -42 148 -42q141 0 164 159l12 87q-30 -41 -71 -65.5t-87 -24.5q-77 0 -121 54t-45 146q0 78 28.5 155t89.5 128t154 51q49 0 88 -11zM211.5 443q-47.5 -44 -69.5 -110t-21 -133
q0 -73 30 -112t83 -39q46 0 85 28t74 81l44 305q-48 24 -106 24q-72 0 -119.5 -44zM439 783l20 -53l-206 -85l-15 33z" />
    <glyph glyph-name="uni01F6" unicode="&#x1f6;" horiz-adv-x="959" 
d="M519.5 29q-37.5 40 -37.5 103q0 10 2 30l23 173h-327l-47 -335h-60l97 685h60l-42 -299h327l42 299h60l-74 -523q-2 -20 -2 -29q0 -45 23.5 -70t69.5 -25q112 0 154.5 112t42.5 270q0 55 -3 103h56q5 -58 5 -110q0 -181 -58 -302.5t-200 -121.5q-74 0 -111.5 40z" />
    <glyph glyph-name="uni01F7" unicode="&#x1f7;" horiz-adv-x="567" 
d="M516 654q45 -42 45 -115q0 -111 -77 -177t-216 -115l-105 -36l-30 -211h-60l97 685h60l-8 -55q78 66 177 66q72 0 117 -42zM438 394q60 56 60 143q0 53 -28.5 80.5t-79.5 27.5q-96 0 -175 -69l-45 -313l100 36q108 39 168 95z" />
    <glyph glyph-name="uni01F8" unicode="&#x1f8;" horiz-adv-x="670" 
d="M523 0h-77l-236 631q-3 -94 -26 -251l-54 -380h-57l97 685h78l236 -629q3 101 20 215l58 414h57zM351 885l176 -94l-20 -33l-183 75z" />
    <glyph glyph-name="uni01F9" unicode="&#x1f9;" horiz-adv-x="581" 
d="M467 501q32 -33 32 -94q0 -18 -3 -38l-52 -369h-58l52 367q2 12 2 33q0 85 -76 85q-101 0 -194 -172l-44 -313h-58l74 523h50l-14 -130q41 68 91 104.5t107 36.5q59 0 91 -33zM292 783l173 -105l-20 -33l-183 85z" />
    <glyph glyph-name="Aringacute" unicode="&#x1fa;" horiz-adv-x="562" 
d="M447 0l-33 187h-287l-86 -187h-62l324 685h75l131 -685h-62zM151 238h254l-71 397zM428.5 892.5q24.5 -23.5 24.5 -59.5q0 -45 -31.5 -75t-77.5 -30q-40 0 -64.5 23.5t-24.5 59.5q0 45 32 75t77 30q40 0 64.5 -23.5zM316 860.5q-17 -19.5 -17 -48.5q0 -23 12 -35.5
t34 -12.5q30 0 47.5 20t17.5 48q0 23 -12 35.5t-35 12.5q-30 0 -47 -19.5zM460 1050l20 -53l-206 -75l-14 34z" />
    <glyph glyph-name="aringacute" unicode="&#x1fb;" 
d="M415 523q39 -11 80 -32l-55 -377q-2 -11 -2 -30q0 -21 7.5 -33.5t25.5 -20.5l-17 -41q-35 8 -53 29.5t-17 65.5q-30 -44 -71.5 -69.5t-89.5 -25.5q-78 0 -121.5 54.5t-43.5 148.5q0 78 28 157t88.5 132t152.5 53q49 0 88 -11zM210.5 441q-47.5 -46 -69 -114t-21.5 -135
q0 -76 29 -115t83 -39q47 0 84.5 28t71.5 82l45 315q-48 24 -104 24q-71 0 -118.5 -46zM432.5 752.5q24.5 -23.5 24.5 -59.5q0 -45 -31.5 -75t-77.5 -30q-40 0 -64.5 23.5t-24.5 59.5q0 45 32 75t77 30q40 0 64.5 -23.5zM320 720.5q-17 -19.5 -17 -48.5q0 -23 12 -35.5
t34 -12.5q30 0 47.5 20t17.5 48q0 23 -12 35.5t-35 12.5q-30 0 -47 -19.5zM459 912l20 -53l-206 -75l-14 34z" />
    <glyph glyph-name="AEacute" unicode="&#x1fc;" horiz-adv-x="780" 
d="M732 635h-323l30 -256h257l-7 -50h-244l32 -278h228l-8 -51h-272l-20 184h-284l-95 -184h-64l363 685h422zM147 234h253l-44 403zM614 886l20 -53l-206 -75l-14 34z" />
    <glyph glyph-name="aeacute" unicode="&#x1fd;" horiz-adv-x="818" 
d="M388 507q38 -27 51 -74q24 40 75.5 70.5t114.5 30.5q73 0 115 -35.5t42 -91.5q0 -95 -95 -141t-269 -59q0 -167 136 -167q41 0 75 12.5t72 39.5l27 -41q-43 -31 -86.5 -46.5t-91.5 -15.5q-62 0 -106 27t-65 77q-45 -56 -94 -80t-105 -24q-69 0 -109.5 37t-40.5 99
q0 77 58 128t183 51h102q9 43 24 78q-2 47 -35 75t-88 28q-34 0 -66.5 -7t-76.5 -22l-13 45q86 33 162 33q66 0 104 -27zM488.5 417q-50.5 -69 -62.5 -164q151 12 225 47.5t74 104.5q0 34 -24.5 57.5t-72.5 23.5q-89 0 -139.5 -69zM280 261q-95 0 -139 -36t-44 -100
q0 -44 24.5 -66.5t69.5 -22.5q50 0 93.5 25.5t84.5 80.5q-4 19 -4 55q0 41 4 64h-89zM566 783l20 -53l-206 -85l-15 33z" />
    <glyph glyph-name="Oslashacute" unicode="&#x1fe;" horiz-adv-x="688" 
d="M610 575.5q30 -61.5 30 -151.5q0 -100 -33 -200t-107.5 -167.5t-190.5 -67.5q-40 0 -78 11l-52 -120l-50 15l56 124q-55 31 -84.5 93t-29.5 150q0 97 34 197t109 168.5t190 68.5q42 0 75 -10l53 124l50 -14l-58 -128q56 -31 86 -92.5zM212 66l250 571q-30 8 -61 8
q-96 0 -155.5 -61.5t-85.5 -150.5t-26 -177q0 -139 78 -190zM468 102.5q60 61.5 85 151t25 178.5q0 141 -80 190l-250 -572q29 -9 62 -9q98 0 158 61.5zM504 893l20 -53l-206 -75l-14 34z" />
    <glyph glyph-name="oslashacute" unicode="&#x1ff;" horiz-adv-x="569" 
d="M489.5 434q20.5 -46 20.5 -110q0 -74 -25.5 -151t-84.5 -130.5t-151 -53.5q-33 0 -63 8l-57 -122l-47 14l60 128q-40 26 -61 73t-21 111q0 75 26 151.5t84.5 129t150.5 52.5q33 0 63 -8l57 122l48 -14l-59 -129q39 -25 59.5 -71zM203 439.5q-45 -46.5 -64 -113.5
t-19 -130q0 -97 50 -135l197 418q-20 7 -47 7q-72 0 -117 -46.5zM366.5 84q44.5 46 63.5 112.5t19 131.5q0 97 -48 134l-197 -418q21 -6 47 -6q71 0 115.5 46zM438 783l20 -53l-206 -85l-15 33z" />
    <glyph glyph-name="uni0200" unicode="&#x200;" horiz-adv-x="562" 
d="M447 0l-33 187h-287l-86 -187h-62l324 685h75l131 -685h-62zM151 238h254l-71 397zM259 937l57 -151l-40 -18l-73 142zM388 937l50 -147l-40 -17l-66 136z" />
    <glyph glyph-name="uni0201" unicode="&#x201;" 
d="M415 523q39 -11 80 -32l-55 -377q-2 -11 -2 -30q0 -21 7.5 -33.5t25.5 -20.5l-17 -41q-35 8 -53 29.5t-17 65.5q-30 -44 -71.5 -69.5t-89.5 -25.5q-78 0 -121.5 54.5t-43.5 148.5q0 78 28 157t88.5 132t152.5 53q49 0 88 -11zM210.5 441q-47.5 -46 -69 -114t-21.5 -135
q0 -76 29 -115t83 -39q47 0 84.5 28t71.5 82l45 315q-48 24 -104 24q-71 0 -118.5 -46zM263 811l57 -151l-40 -18l-73 142zM392 811l50 -147l-40 -17l-66 136z" />
    <glyph glyph-name="uni0202" unicode="&#x202;" horiz-adv-x="562" 
d="M447 0l-33 187h-287l-86 -187h-62l324 685h75l131 -685h-62zM151 238h254l-71 397zM223 796q13 50 52.5 79.5t91.5 29.5t84.5 -31t31.5 -82l-40 -5q-9 70 -79 70q-35 0 -61.5 -19t-41.5 -54z" />
    <glyph glyph-name="uni0203" unicode="&#x203;" 
d="M415 523q39 -11 80 -32l-55 -377q-2 -11 -2 -30q0 -21 7.5 -33.5t25.5 -20.5l-17 -41q-35 8 -53 29.5t-17 65.5q-30 -44 -71.5 -69.5t-89.5 -25.5q-78 0 -121.5 54.5t-43.5 148.5q0 78 28 157t88.5 132t152.5 53q49 0 88 -11zM210.5 441q-47.5 -46 -69 -114t-21.5 -135
q0 -76 29 -115t83 -39q47 0 84.5 28t71.5 82l45 315q-48 24 -104 24q-71 0 -118.5 -46zM220 634q13 50 52.5 79.5t91.5 29.5t84.5 -31t31.5 -82l-40 -5q-9 70 -79 70q-35 0 -61.5 -19t-41.5 -54z" />
    <glyph glyph-name="uni0204" unicode="&#x204;" horiz-adv-x="510" 
d="M516 685l-14 -50h-279l-36 -255h242l-7 -50h-242l-40 -279h294l-7 -51h-354l97 685h346zM265 937l57 -151l-40 -18l-73 142zM394 937l50 -147l-40 -17l-66 136z" />
    <glyph glyph-name="uni0205" unicode="&#x205;" horiz-adv-x="513" 
d="M387 265.5q-94 -46.5 -267 -59.5v-6q0 -82 35.5 -121t97.5 -39q41 0 75.5 12.5t72.5 39.5l26 -41q-42 -31 -85.5 -46.5t-92.5 -15.5q-90 0 -140 55t-50 155q0 79 28.5 156t89 128t149.5 51q73 0 114 -35.5t41 -90.5q0 -96 -94 -142.5zM185.5 417q-50.5 -69 -62.5 -165
q150 12 224 48t74 106q0 34 -24 57t-71 23q-90 0 -140.5 -69zM237 811l57 -151l-40 -18l-73 142zM366 811l50 -147l-40 -17l-66 136z" />
    <glyph glyph-name="uni0206" unicode="&#x206;" horiz-adv-x="510" 
d="M516 685l-14 -50h-279l-36 -255h242l-7 -50h-242l-40 -279h294l-7 -51h-354l97 685h346zM229 796q13 50 52.5 79.5t91.5 29.5t84.5 -31t31.5 -82l-40 -5q-9 70 -79 70q-35 0 -61.5 -19t-41.5 -54z" />
    <glyph glyph-name="uni0207" unicode="&#x207;" horiz-adv-x="513" 
d="M387 265.5q-94 -46.5 -267 -59.5v-6q0 -82 35.5 -121t97.5 -39q41 0 75.5 12.5t72.5 39.5l26 -41q-42 -31 -85.5 -46.5t-92.5 -15.5q-90 0 -140 55t-50 155q0 79 28.5 156t89 128t149.5 51q73 0 114 -35.5t41 -90.5q0 -96 -94 -142.5zM185.5 417q-50.5 -69 -62.5 -165
q150 12 224 48t74 106q0 34 -24 57t-71 23q-90 0 -140.5 -69zM194 634q13 50 52.5 79.5t91.5 29.5t84.5 -31t31.5 -82l-40 -5q-9 70 -79 70q-35 0 -61.5 -19t-41.5 -54z" />
    <glyph glyph-name="uni0208" unicode="&#x208;" horiz-adv-x="281" 
d="M230 685l-97 -685h-60l97 685h60zM118 937l57 -151l-40 -18l-73 142zM247 937l50 -147l-40 -17l-66 136z" />
    <glyph glyph-name="uni0209" unicode="&#x209;" horiz-adv-x="269" 
d="M200 523l-74 -523h-58l74 523h58zM96 811l57 -151l-40 -18l-73 142zM225 811l50 -147l-40 -17l-66 136z" />
    <glyph glyph-name="uni020A" unicode="&#x20a;" horiz-adv-x="281" 
d="M230 685l-97 -685h-60l97 685h60zM82 796q13 50 52.5 79.5t91.5 29.5t84.5 -31t31.5 -82l-40 -5q-9 70 -79 70q-35 0 -61.5 -19t-41.5 -54z" />
    <glyph glyph-name="uni020B" unicode="&#x20b;" horiz-adv-x="269" 
d="M200 523l-74 -523h-58l74 523h58zM53 634q13 50 52.5 79.5t91.5 29.5t84.5 -31t31.5 -82l-40 -5q-9 70 -79 70q-35 0 -61.5 -19t-41.5 -54z" />
    <glyph glyph-name="uni020C" unicode="&#x20c;" horiz-adv-x="688" 
d="M577 625.5q63 -70.5 63 -201.5q0 -100 -33 -200t-107.5 -167.5t-190.5 -67.5q-110 0 -174 71t-64 202q0 97 34 197t109 168.5t190 68.5q110 0 173 -70.5zM245.5 583.5q-59.5 -61.5 -85.5 -149.5t-26 -174q0 -110 46.5 -164.5t129.5 -54.5q98 0 158 61.5t85 149.5t25 175
q0 109 -46 163.5t-131 54.5q-96 0 -155.5 -61.5zM323 937l57 -151l-40 -18l-73 142zM452 937l50 -147l-40 -17l-66 136z" />
    <glyph glyph-name="uni020D" unicode="&#x20d;" horiz-adv-x="569" 
d="M109.5 45q-49.5 56 -49.5 156q0 75 26 151.5t84.5 129t150.5 52.5q91 0 140 -55t49 -155q0 -74 -25.5 -151t-84.5 -130.5t-151 -53.5q-90 0 -139.5 56zM366.5 84q44.5 46 63.5 112.5t19 131.5q0 78 -33 118t-96 40q-72 0 -117 -46.5t-64 -113.5t-19 -130q0 -78 34 -118
t97 -40q71 0 115.5 46zM247 811l57 -151l-40 -18l-73 142zM376 811l50 -147l-40 -17l-66 136z" />
    <glyph glyph-name="uni020E" unicode="&#x20e;" horiz-adv-x="688" 
d="M577 625.5q63 -70.5 63 -201.5q0 -100 -33 -200t-107.5 -167.5t-190.5 -67.5q-110 0 -174 71t-64 202q0 97 34 197t109 168.5t190 68.5q110 0 173 -70.5zM245.5 583.5q-59.5 -61.5 -85.5 -149.5t-26 -174q0 -110 46.5 -164.5t129.5 -54.5q98 0 158 61.5t85 149.5t25 175
q0 109 -46 163.5t-131 54.5q-96 0 -155.5 -61.5zM287 796q13 50 52.5 79.5t91.5 29.5t84.5 -31t31.5 -82l-40 -5q-9 70 -79 70q-35 0 -61.5 -19t-41.5 -54z" />
    <glyph glyph-name="uni020F" unicode="&#x20f;" horiz-adv-x="569" 
d="M109.5 45q-49.5 56 -49.5 156q0 75 26 151.5t84.5 129t150.5 52.5q91 0 140 -55t49 -155q0 -74 -25.5 -151t-84.5 -130.5t-151 -53.5q-90 0 -139.5 56zM366.5 84q44.5 46 63.5 112.5t19 131.5q0 78 -33 118t-96 40q-72 0 -117 -46.5t-64 -113.5t-19 -130q0 -78 34 -118
t97 -40q71 0 115.5 46zM204 634q13 50 52.5 79.5t91.5 29.5t84.5 -31t31.5 -82l-40 -5q-9 70 -79 70q-35 0 -61.5 -19t-41.5 -54z" />
    <glyph glyph-name="uni0210" unicode="&#x210;" horiz-adv-x="587" 
d="M510 395q-44 -58 -137 -79l144 -316h-67l-136 307h-138l-43 -307h-60l97 685h168q216 0 216 -161q0 -71 -44 -129zM302 356q100 0 144.5 50t44.5 118q0 58 -37.5 85t-119.5 27h-111l-40 -280h119zM270 937l57 -151l-40 -18l-73 142zM399 937l50 -147l-40 -17l-66 136z
" />
    <glyph glyph-name="uni0211" unicode="&#x211;" horiz-adv-x="371" 
d="M395 527l-16 -55q-18 6 -42 6q-55 0 -94.5 -45t-73.5 -135l-43 -298h-58l74 523h50l-13 -127q61 138 166 138q29 0 50 -7zM194 811l57 -151l-40 -18l-73 142zM323 811l50 -147l-40 -17l-66 136z" />
    <glyph glyph-name="uni0212" unicode="&#x212;" horiz-adv-x="587" 
d="M510 395q-44 -58 -137 -79l144 -316h-67l-136 307h-138l-43 -307h-60l97 685h168q216 0 216 -161q0 -71 -44 -129zM302 356q100 0 144.5 50t44.5 118q0 58 -37.5 85t-119.5 27h-111l-40 -280h119zM234 796q13 50 52.5 79.5t91.5 29.5t84.5 -31t31.5 -82l-40 -5
q-9 70 -79 70q-35 0 -61.5 -19t-41.5 -54z" />
    <glyph glyph-name="uni0213" unicode="&#x213;" horiz-adv-x="371" 
d="M395 527l-16 -55q-18 6 -42 6q-55 0 -94.5 -45t-73.5 -135l-43 -298h-58l74 523h50l-13 -127q61 138 166 138q29 0 50 -7zM151 634q13 50 52.5 79.5t91.5 29.5t84.5 -31t31.5 -82l-40 -5q-9 70 -79 70q-35 0 -61.5 -19t-41.5 -54z" />
    <glyph glyph-name="uni0214" unicode="&#x214;" horiz-adv-x="649" 
d="M542 212q-14 -102 -79 -162.5t-174 -60.5q-98 0 -148 49t-50 133q0 21 3 45l66 469h60l-66 -468q-3 -22 -3 -43q0 -133 140 -133q84 0 132 47.5t60 132.5l65 464h60zM302 937l57 -151l-40 -18l-73 142zM431 937l50 -147l-40 -17l-66 136z" />
    <glyph glyph-name="uni0215" unicode="&#x215;" horiz-adv-x="577" 
d="M114.5 22q-32.5 33 -32.5 93q0 17 3 36l52 372h58l-52 -370q-2 -12 -2 -32q0 -84 76 -84q55 0 102.5 45.5t85.5 120.5l45 320h58l-74 -523h-48l14 133q-36 -67 -84.5 -105.5t-109.5 -38.5q-59 0 -91.5 33zM248 811l57 -151l-40 -18l-73 142zM377 811l50 -147l-40 -17
l-66 136z" />
    <glyph glyph-name="uni0216" unicode="&#x216;" horiz-adv-x="649" 
d="M542 212q-14 -102 -79 -162.5t-174 -60.5q-98 0 -148 49t-50 133q0 21 3 45l66 469h60l-66 -468q-3 -22 -3 -43q0 -133 140 -133q84 0 132 47.5t60 132.5l65 464h60zM266 796q13 50 52.5 79.5t91.5 29.5t84.5 -31t31.5 -82l-40 -5q-9 70 -79 70q-35 0 -61.5 -19
t-41.5 -54z" />
    <glyph glyph-name="uni0217" unicode="&#x217;" horiz-adv-x="577" 
d="M114.5 22q-32.5 33 -32.5 93q0 17 3 36l52 372h58l-52 -370q-2 -12 -2 -32q0 -84 76 -84q55 0 102.5 45.5t85.5 120.5l45 320h58l-74 -523h-48l14 133q-36 -67 -84.5 -105.5t-109.5 -38.5q-59 0 -91.5 33zM205 634q13 50 52.5 79.5t91.5 29.5t84.5 -31t31.5 -82l-40 -5
q-9 70 -79 70q-35 0 -61.5 -19t-41.5 -54z" />
    <glyph glyph-name="Scommaaccent" unicode="&#x218;" horiz-adv-x="536" 
d="M429 676.5q45 -19.5 82 -57.5l-38 -37q-32 34 -67.5 48.5t-81.5 14.5q-72 0 -117 -35.5t-45 -93.5q0 -47 30.5 -74t108.5 -53q87 -27 130.5 -68.5t43.5 -115.5q0 -54 -27 -103t-84.5 -81t-142.5 -32q-68 0 -118.5 23t-89.5 65l38 36q34 -36 75 -54t96 -18q63 0 106 23
t64 59.5t21 78.5q0 52 -31 82.5t-108 56.5q-92 31 -132 69t-40 104q0 46 26 88t76.5 68t119.5 26q60 0 105 -19.5zM245.5 -96q10.5 -11 10.5 -28q0 -14 -5.5 -27.5t-24.5 -44.5l-52 -83h-36l49 115q-8 6 -13 15t-5 19q0 19 13.5 32t33.5 13q19 0 29.5 -11z" />
    <glyph glyph-name="scommaaccent" unicode="&#x219;" horiz-adv-x="461" 
d="M421 475l-31 -35q-30 23 -61 34t-69 11q-56 0 -90 -23.5t-34 -64.5q0 -34 25.5 -55.5t89.5 -40.5q77 -24 111.5 -59t34.5 -92q0 -73 -55 -117t-148 -44q-61 0 -105.5 19t-79.5 52l33 34q34 -28 70 -42t82 -14q68 0 105.5 29.5t37.5 77.5q0 42 -25.5 65t-94.5 45
q-77 24 -108.5 56.5t-31.5 82.5q0 38 22 70t63.5 51t97.5 19q93 0 161 -59zM209.5 -96q10.5 -11 10.5 -28q0 -14 -5.5 -27.5t-24.5 -44.5l-52 -83h-36l49 115q-8 6 -13 15t-5 19q0 19 13.5 32t33.5 13q19 0 29.5 -11z" />
    <glyph glyph-name="uni021A" unicode="&#x21a;" horiz-adv-x="493" 
d="M543 685l-15 -53h-200l-89 -632h-60l89 632h-202l8 53h469zM230.5 -96q10.5 -11 10.5 -28q0 -14 -5.5 -27.5t-24.5 -44.5l-52 -83h-36l49 115q-8 6 -13 15t-5 19q0 19 13.5 32t33.5 13q19 0 29.5 -11z" />
    <glyph glyph-name="uni021B" unicode="&#x21b;" horiz-adv-x="339" 
d="M144 129q-2 -18 -2 -25q0 -65 62 -65q38 0 85 25l20 -43q-54 -32 -112 -32q-53 0 -83 28.5t-30 81.5q0 10 2 30l49 347h-88l7 47h89l29 127l46 5l-19 -132h135l-14 -47h-127zM214.5 -96q10.5 -11 10.5 -28q0 -14 -5.5 -27.5t-24.5 -44.5l-52 -83h-36l49 115q-8 6 -13 15
t-5 19q0 19 13.5 32t33.5 13q19 0 29.5 -11z" />
    <glyph glyph-name="uni021C" unicode="&#x21c;" horiz-adv-x="498" 
d="M415.5 653.5q46.5 -42.5 46.5 -114.5t-41.5 -117t-113.5 -63q59 -6 95.5 -40t36.5 -96q0 -232 -419 -313l-2 50q167 37 262.5 97.5t95.5 164.5q0 110 -151 109h-64l15 51h51q76 0 124.5 42.5t48.5 111.5q0 52 -29.5 80.5t-86.5 28.5q-49 0 -93.5 -18t-90.5 -51l-30 38
q53 42 105 62t113 20q81 0 127.5 -42.5z" />
    <glyph glyph-name="uni021D" unicode="&#x21d;" horiz-adv-x="465" 
d="M357 499q44 -35 44 -96q0 -54 -34 -88t-94 -46q58 -1 89 -26.5t31 -72.5q0 -99 -102.5 -164.5t-260.5 -101.5l-6 45q149 41 228.5 92.5t79.5 127.5q0 39 -27.5 55.5t-82.5 16.5h-86l11 47h45q67 0 108 30t41 84q0 41 -27 62.5t-75 21.5q-44 0 -78 -11t-76 -34l-24 38
q86 55 180 55q72 0 116 -35z" />
    <glyph glyph-name="uni021E" unicode="&#x21e;" horiz-adv-x="668" 
d="M133 0h-60l97 685h60l-42 -299h327l42 299h60l-97 -685h-60l47 335h-327zM539 888l23 -30l-142 -102h-36l-116 102l29 29l110 -79z" />
    <glyph glyph-name="uni021F" unicode="&#x21f;" horiz-adv-x="582" 
d="M467 501q32 -33 32 -93q0 -17 -3 -37l-52 -371h-58l52 367q2 12 2 34q0 44 -18.5 64t-56.5 20q-102 0 -195 -172l-44 -313h-58l104 736l59 7l-49 -347q37 66 86.5 102t106.5 36q60 0 92 -33zM507 939l23 -30l-142 -102h-36l-116 102l29 29l110 -79z" />
    <glyph glyph-name="uni0220" unicode="&#x220;" horiz-adv-x="658" 
d="M552 655q40 -41 40 -115q0 -20 -3 -43l-97 -694h-60l96 686q3 24 3 44q0 57 -26 84.5t-79 27.5q-62 0 -114 -30t-104 -84l-75 -531h-60l97 685h52l-8 -93q49 49 103.5 76.5t118.5 27.5q76 0 116 -41z" />
    <glyph glyph-name="uni0221" unicode="&#x221;" horiz-adv-x="688" 
d="M666.5 179q25.5 -23 25.5 -62q0 -57 -48 -92.5t-119 -35.5q-47 0 -81 18l-48 -73l-38 18l56 83q-20 29 -20 70q-70 -116 -174 -116q-76 0 -118.5 55t-42.5 151q0 76 25 154t80 131.5t140 53.5q89 0 138 -72l40 281l57 -7l-86 -610q-2 -23 -1 -31q32 54 66.5 80.5
t80.5 26.5q42 0 67.5 -23zM321 73.5q40 35.5 81 105.5l33 230q-21 36 -50 56.5t-73 20.5q-67 0 -110.5 -46.5t-62.5 -114t-19 -133.5q0 -75 28.5 -114.5t79.5 -39.5q53 0 93 35.5zM608.5 60q30.5 20 30.5 56q0 19 -12 30t-33 11q-29 0 -54.5 -22t-66.5 -83q17 -12 59 -12
q46 0 76.5 20z" />
    <glyph glyph-name="uni0222" unicode="&#x222;" horiz-adv-x="637" 
d="M528.5 443.5q-30.5 -41.5 -87.5 -62.5q60 -18 91.5 -58t31.5 -98q0 -68 -35 -121.5t-99 -84t-147 -30.5q-110 0 -169 50t-59 132q0 78 47 133.5t129 78.5q-81 35 -81 130q0 18 3 39l19 133h60l-19 -134q-3 -21 -3 -38q0 -55 31.5 -81.5t95.5 -26.5q150 0 172 150l18 130
h60l-19 -137q-9 -63 -39.5 -104.5zM460.5 320q-41.5 34 -126.5 34q-99 0 -158 -49.5t-59 -132.5q0 -64 41.5 -97.5t126.5 -33.5q101 0 159 48.5t58 133.5q0 63 -41.5 97z" />
    <glyph glyph-name="uni0223" unicode="&#x223;" horiz-adv-x="565" 
d="M470.5 468q-30.5 -40 -82.5 -60q53 -17 80.5 -58t27.5 -102q0 -73 -31.5 -132t-88 -93t-129.5 -34q-91 0 -142 50.5t-51 133.5q0 87 44 150t120 85q-76 33 -76 125q0 17 3 35l24 168h58l-24 -172q-3 -18 -3 -35q0 -100 104 -100q66 0 102.5 39t44.5 100l24 168h58
l-24 -172q-8 -56 -38.5 -96zM301 382q-59 0 -101 -28.5t-63.5 -76t-21.5 -104.5q0 -65 34.5 -100t99.5 -35q90 0 138.5 59.5t48.5 150.5q0 134 -135 134z" />
    <glyph glyph-name="uni0224" unicode="&#x224;" horiz-adv-x="513" 
d="M519 635l-443 -582h351l-8 -53l-10 -72q-10 -67 -47 -100t-93 -33t-99 35l28 37q17 -12 32 -17.5t38 -5.5q32 0 54 21t28 65l10 70h-362l7 50l445 583h-326l7 52h395z" />
    <glyph glyph-name="uni0225" unicode="&#x225;" horiz-adv-x="419" 
d="M417 478l-347 -428h281l-7 -50l-10 -72q-9 -66 -47 -99.5t-93 -33.5q-56 0 -99 35l28 36q18 -12 33 -17.5t36 -5.5q34 0 56.5 20.5t28.5 64.5l11 72h-298l7 45l346 427h-262l7 51h335z" />
    <glyph glyph-name="uni0226" unicode="&#x226;" horiz-adv-x="562" 
d="M447 0l-33 187h-287l-86 -187h-62l324 685h75l131 -685h-62zM151 238h254l-71 397zM331 805.5q-11 10.5 -11 27.5q0 20 13.5 33t33.5 13q18 0 29 -10.5t11 -27.5q0 -20 -13.5 -33t-33.5 -13q-18 0 -29 10.5z" />
    <glyph glyph-name="uni0227" unicode="&#x227;" 
d="M415 523q39 -11 80 -32l-55 -377q-2 -11 -2 -30q0 -21 7.5 -33.5t25.5 -20.5l-17 -41q-35 8 -53 29.5t-17 65.5q-30 -44 -71.5 -69.5t-89.5 -25.5q-78 0 -121.5 54.5t-43.5 148.5q0 78 28 157t88.5 132t152.5 53q49 0 88 -11zM210.5 441q-47.5 -46 -69 -114t-21.5 -135
q0 -76 29 -115t83 -39q47 0 84.5 28t71.5 82l45 315q-48 24 -104 24q-71 0 -118.5 -46zM332 679.5q-11 10.5 -11 27.5q0 20 13.5 33t33.5 13q18 0 29 -10.5t11 -27.5q0 -20 -13.5 -33t-33.5 -13q-18 0 -29 10.5z" />
    <glyph glyph-name="uni0228" unicode="&#x228;" horiz-adv-x="510" 
d="M223 635l-36 -255h242l-7 -50h-242l-40 -279h294l-7 -51h-160l-11 -64q83 -7 83 -72q0 -40 -31.5 -65.5t-83.5 -25.5q-47 0 -78 22l21 34q25 -14 59 -14q28 0 45 12t17 35t-18 32.5t-64 9.5l21 96h-154l97 685h346l-14 -50h-279z" />
    <glyph glyph-name="uni0229" unicode="&#x229;" horiz-adv-x="513" 
d="M387 265.5q-94 -46.5 -267 -59.5v-6q0 -82 35.5 -121t97.5 -39q41 0 75.5 12.5t72.5 39.5l26 -41q-80 -58 -167 -62l-9 -53q42 -4 62.5 -22.5t20.5 -50.5q0 -40 -31.5 -65t-81.5 -25q-49 0 -80 22l21 35q28 -15 59 -15q27 0 44.5 12t17.5 35t-18 32.5t-64 9.5l19 87
q-77 8 -119 62t-42 146q0 79 28.5 156t89 128t149.5 51q73 0 114 -35.5t41 -90.5q0 -96 -94 -142.5zM185.5 417q-50.5 -69 -62.5 -165q150 12 224 48t74 106q0 34 -24 57t-71 23q-90 0 -140.5 -69z" />
    <glyph glyph-name="uni022A" unicode="&#x22a;" horiz-adv-x="688" 
d="M577 625.5q63 -70.5 63 -201.5q0 -100 -33 -200t-107.5 -167.5t-190.5 -67.5q-110 0 -174 71t-64 202q0 97 34 197t109 168.5t190 68.5q110 0 173 -70.5zM245.5 583.5q-59.5 -61.5 -85.5 -149.5t-26 -174q0 -110 46.5 -164.5t129.5 -54.5q98 0 158 61.5t85 149.5t25 175
q0 109 -46 163.5t-131 54.5q-96 0 -155.5 -61.5zM289.5 754q-10.5 10 -10.5 25q0 19 12.5 31.5t31.5 12.5q16 0 26.5 -10t10.5 -26q0 -18 -12.5 -30.5t-31.5 -12.5q-16 0 -26.5 10zM477.5 754q-10.5 10 -10.5 25q0 19 13 31.5t32 12.5q16 0 26 -10t10 -26q0 -18 -12.5 -30.5
t-31.5 -12.5q-16 0 -26.5 10zM544 878h-240l7 47h240z" />
    <glyph glyph-name="uni022B" unicode="&#x22b;" horiz-adv-x="569" 
d="M109.5 45q-49.5 56 -49.5 156q0 75 26 151.5t84.5 129t150.5 52.5q91 0 140 -55t49 -155q0 -74 -25.5 -151t-84.5 -130.5t-151 -53.5q-90 0 -139.5 56zM366.5 84q44.5 46 63.5 112.5t19 131.5q0 78 -33 118t-96 40q-72 0 -117 -46.5t-64 -113.5t-19 -130q0 -78 34 -118
t97 -40q71 0 115.5 46zM217.5 643q-10.5 10 -10.5 25q0 19 12.5 31.5t31.5 12.5q16 0 26.5 -10t10.5 -26q0 -18 -12.5 -30.5t-31.5 -12.5q-16 0 -26.5 10zM405.5 643q-10.5 10 -10.5 25q0 19 13 31.5t32 12.5q16 0 26 -10t10 -26q0 -18 -12.5 -30.5t-31.5 -12.5
q-16 0 -26.5 10zM471 773h-240l7 47h240z" />
    <glyph glyph-name="uni022C" unicode="&#x22c;" horiz-adv-x="688" 
d="M550 894h-240l7 47h240zM442.5 763.5q-14.5 6.5 -33.5 19.5q-13 10 -23.5 15t-21.5 5q-18 0 -31 -9.5t-32 -32.5l-33 22q45 66 97 66q18 0 31.5 -6.5t32.5 -18.5q18 -11 27 -15.5t20 -4.5q16 0 30.5 10.5t31.5 33.5l36 -21q-44 -70 -97 -70q-20 0 -34.5 6.5zM577 625.5
q63 -70.5 63 -201.5q0 -100 -33 -200t-107.5 -167.5t-190.5 -67.5q-110 0 -174 71t-64 202q0 97 34 197t109 168.5t190 68.5q110 0 173 -70.5zM245.5 583.5q-59.5 -61.5 -85.5 -149.5t-26 -174q0 -110 46.5 -164.5t129.5 -54.5q98 0 158 61.5t85 149.5t25 175
q0 109 -46 163.5t-131 54.5q-96 0 -155.5 -61.5z" />
    <glyph glyph-name="uni022D" unicode="&#x22d;" horiz-adv-x="569" 
d="M109.5 45q-49.5 56 -49.5 156q0 75 26 151.5t84.5 129t150.5 52.5q91 0 140 -55t49 -155q0 -74 -25.5 -151t-84.5 -130.5t-151 -53.5q-90 0 -139.5 56zM366.5 84q44.5 46 63.5 112.5t19 131.5q0 78 -33 118t-96 40q-72 0 -117 -46.5t-64 -113.5t-19 -130q0 -78 34 -118
t97 -40q71 0 115.5 46zM352.5 607.5q-14.5 6.5 -33.5 19.5q-13 10 -23.5 15t-21.5 5q-18 0 -31 -9.5t-32 -32.5l-33 22q45 66 97 66q18 0 31.5 -6.5t32.5 -18.5q18 -11 27 -15.5t20 -4.5q16 0 30.5 10.5t31.5 33.5l36 -21q-44 -70 -97 -70q-20 0 -34.5 6.5zM459 738h-240
l7 47h240z" />
    <glyph glyph-name="uni022E" unicode="&#x22e;" horiz-adv-x="688" 
d="M577 625.5q63 -70.5 63 -201.5q0 -100 -33 -200t-107.5 -167.5t-190.5 -67.5q-110 0 -174 71t-64 202q0 97 34 197t109 168.5t190 68.5q110 0 173 -70.5zM245.5 583.5q-59.5 -61.5 -85.5 -149.5t-26 -174q0 -110 46.5 -164.5t129.5 -54.5q98 0 158 61.5t85 149.5t25 175
q0 109 -46 163.5t-131 54.5q-96 0 -155.5 -61.5zM395 805.5q-11 10.5 -11 27.5q0 20 13.5 33t33.5 13q18 0 29 -10.5t11 -27.5q0 -20 -13.5 -33t-33.5 -13q-18 0 -29 10.5z" />
    <glyph glyph-name="uni022F" unicode="&#x22f;" horiz-adv-x="569" 
d="M109.5 45q-49.5 56 -49.5 156q0 75 26 151.5t84.5 129t150.5 52.5q91 0 140 -55t49 -155q0 -74 -25.5 -151t-84.5 -130.5t-151 -53.5q-90 0 -139.5 56zM366.5 84q44.5 46 63.5 112.5t19 131.5q0 78 -33 118t-96 40q-72 0 -117 -46.5t-64 -113.5t-19 -130q0 -78 34 -118
t97 -40q71 0 115.5 46zM316 679.5q-11 10.5 -11 27.5q0 20 13.5 33t33.5 13q18 0 29 -10.5t11 -27.5q0 -20 -13.5 -33t-33.5 -13q-18 0 -29 10.5z" />
    <glyph glyph-name="uni0230" unicode="&#x230;" horiz-adv-x="688" 
d="M577 625.5q63 -70.5 63 -201.5q0 -100 -33 -200t-107.5 -167.5t-190.5 -67.5q-110 0 -174 71t-64 202q0 97 34 197t109 168.5t190 68.5q110 0 173 -70.5zM245.5 583.5q-59.5 -61.5 -85.5 -149.5t-26 -174q0 -110 46.5 -164.5t129.5 -54.5q98 0 158 61.5t85 149.5t25 175
q0 109 -46 163.5t-131 54.5q-96 0 -155.5 -61.5zM383 753.5q-11 10.5 -11 27.5q0 20 13.5 33t33.5 13q18 0 29 -10.5t11 -27.5q0 -20 -13.5 -33t-33.5 -13q-18 0 -29 10.5zM546 878h-240l7 47h240z" />
    <glyph glyph-name="uni0231" unicode="&#x231;" horiz-adv-x="569" 
d="M109.5 45q-49.5 56 -49.5 156q0 75 26 151.5t84.5 129t150.5 52.5q91 0 140 -55t49 -155q0 -74 -25.5 -151t-84.5 -130.5t-151 -53.5q-90 0 -139.5 56zM366.5 84q44.5 46 63.5 112.5t19 131.5q0 78 -33 118t-96 40q-72 0 -117 -46.5t-64 -113.5t-19 -130q0 -78 34 -118
t97 -40q71 0 115.5 46zM307 629.5q-11 10.5 -11 27.5q0 20 13.5 33t33.5 13q18 0 29 -10.5t11 -27.5q0 -20 -13.5 -33t-33.5 -13q-18 0 -29 10.5zM472 758h-240l7 47h240z" />
    <glyph glyph-name="uni0232" unicode="&#x232;" horiz-adv-x="520" 
d="M567 685l-275 -417l-38 -268h-61l38 267l-158 418h63l131 -362l233 362h67zM456 802h-240l7 47h240z" />
    <glyph glyph-name="uni0233" unicode="&#x233;" horiz-adv-x="465" 
d="M238 -4q-43 -90 -96 -136.5t-147 -63.5l-3 46q53 12 86 31t54.5 47.5t48.5 79.5h-22l-107 523h62l89 -479l222 479h62zM406 676h-240l7 47h240z" />
    <glyph glyph-name="uni0234" unicode="&#x234;" horiz-adv-x="374" 
d="M352 179q26 -23 26 -62q0 -57 -48 -92.5t-119 -35.5q-47 0 -81 18l-48 -73l-38 18l56 83q-19 28 -19 69q0 19 2 29l85 603l58 8l-87 -619q-2 -12 -2 -31q34 55 68.5 81.5t79.5 26.5q41 0 67 -23zM294.5 60.5q30.5 20.5 30.5 55.5q0 19 -12 30t-33 11q-29 0 -55 -22
t-66 -84q18 -11 59 -11q46 0 76.5 20.5z" />
    <glyph glyph-name="uni0235" unicode="&#x235;" horiz-adv-x="696" 
d="M674.5 179q25.5 -23 25.5 -62q0 -57 -48 -92.5t-118 -35.5q-49 0 -81 19l-49 -74l-38 18l57 83q-20 29 -20 70q0 8 2 28l33 234q2 12 2 33q0 85 -76 85q-101 0 -194 -172l-44 -313h-58l74 523h50l-14 -130q41 68 91 104.5t107 36.5q59 0 91 -33.5t32 -95.5q0 -16 -3 -36
l-35 -244q-2 -12 -2 -32q34 56 68.5 82.5t79.5 26.5q42 0 67.5 -23zM616.5 60q30.5 20 30.5 56q0 19 -12 30t-33 11q-29 0 -55 -22t-66 -84q18 -11 59 -11q46 0 76.5 20z" />
    <glyph glyph-name="uni0236" unicode="&#x236;" horiz-adv-x="378" 
d="M356.5 179q25.5 -23 25.5 -62q0 -57 -48 -92.5t-118 -35.5q-49 0 -81 19l-48 -74l-39 18l57 83q-20 29 -20 70q0 8 2 28l48 343h-88l7 47h89l29 127l46 5l-19 -132h135l-14 -47h-127l-50 -352q-2 -12 -2 -31q34 55 68.5 82t79.5 27q42 0 67.5 -23zM299 60.5
q31 20.5 31 55.5q0 19 -12 30t-34 11q-29 0 -54.5 -22t-65.5 -84q18 -11 58 -11q46 0 77 20.5z" />
    <glyph glyph-name="uni0237" unicode="&#x237;" horiz-adv-x="269" 
d="M-56 -160q41 19 64.5 38t39.5 52t24 89l71 504h58l-72 -506q-9 -68 -29 -108t-52 -64t-88 -49z" />
    <glyph glyph-name="uni0238" unicode="&#x238;" horiz-adv-x="842" 
d="M745 483q39 -51 39 -146q0 -88 -27 -168t-78.5 -130t-123.5 -50q-85 0 -128 95l-19 -84h-43l6 86q-66 -97 -158 -97q-71 0 -112.5 55t-41.5 150q0 86 28.5 164.5t82 127t123.5 48.5q85 0 128 -83l40 285l59 8l-41 -294q68 84 156 84q71 0 110 -51zM414 402
q-24 42 -50 62.5t-63 20.5q-57 0 -98 -43.5t-62 -111t-21 -136.5q0 -77 27.5 -116.5t76.5 -39.5q45 0 82 27t73 85zM645 83.5q40 45.5 59.5 115t19.5 139.5q0 147 -101 147q-44 0 -80 -23.5t-72 -67.5l-36 -252q22 -55 48 -79.5t66 -24.5q56 0 96 45.5z" />
    <glyph glyph-name="uni0239" unicode="&#x239;" horiz-adv-x="842" 
d="M745 483.5q39 -50.5 39 -142.5q0 -91 -26.5 -171.5t-78 -130.5t-124.5 -50q-41 0 -75 23t-53 66l-39 -275l-60 -8l40 281q-66 -87 -156 -87q-69 0 -111 55t-42 150q0 87 28.5 165t83 126.5t126.5 48.5q44 0 75.5 -23t50.5 -61l16 73h42l-5 -73q73 84 160 84
q70 0 109 -50.5zM413 397q-39 88 -111 88q-57 0 -98 -43t-62.5 -110.5t-21.5 -137.5q0 -77 27.5 -116.5t76.5 -39.5q45 0 81.5 26t71.5 78zM645.5 83.5q39.5 44.5 59 114t19.5 143.5q0 72 -25.5 108t-72.5 36q-44 0 -81 -24t-74 -67l-35 -254q35 -101 112 -101
q58 0 97.5 44.5z" />
    <glyph glyph-name="uni023A" unicode="&#x23a;" horiz-adv-x="562" 
d="M449 0l-34 187h-158l-104 -257l-33 8l101 249h-95l-87 -187h-60l324 685h75l14 -74l54 134l33 -9l-75 -186l105 -550h-60zM149 237h92l114 283l-21 117zM277 237h129l-40 221z" />
    <glyph glyph-name="uni023B" unicode="&#x23b;" horiz-adv-x="547" 
d="M464 636l-233 -578q33 -16 78 -16q49 0 85 14.5t75 43.5l29 -42q-87 -69 -193 -69q-53 0 -95 18l-31 -77l-34 8l34 85q-51 32 -79.5 93t-28.5 147q0 100 34.5 200t108.5 166.5t185 66.5q31 0 51 -4l22 53l32 -9l-21 -52q44 -15 86 -52l-35 -36q-36 29 -70 40zM431 643
q-20 2 -30 2q-93 0 -153 -59.5t-87.5 -148t-27.5 -177.5q0 -128 68 -183z" />
    <glyph glyph-name="uni023C" unicode="&#x23c;" horiz-adv-x="467" 
d="M377 476l-177 -428q24 -8 51 -8q36 0 66.5 11t62.5 33l25 -41q-71 -54 -157 -54q-35 0 -68 10l-29 -69l-30 8l30 74q-44 23 -67.5 71.5t-23.5 116.5q0 76 27 153t85.5 129t147.5 52q26 0 45 -4l26 62l30 -9l-25 -61q37 -14 65 -42l-33 -37q-22 21 -51 33zM346 483
q-16 2 -27 2q-70 0 -114.5 -45t-64.5 -111.5t-20 -131.5q0 -96 52 -134z" />
    <glyph glyph-name="uni023D" unicode="&#x23d;" horiz-adv-x="488" 
d="M157 54h285l-16 -54h-337l48 338h-99l8 50h98l42 297h60l-42 -297h105l-7 -50h-105z" />
    <glyph glyph-name="uni023E" unicode="&#x23e;" horiz-adv-x="493" 
d="M528 632h-115l-125 -280l-49 -352h-59l22 161l-103 -231l-30 11l149 333l50 358h-202l8 53h328l27 60l30 -11l-22 -49h106zM304 465l74 167h-51z" />
    <glyph glyph-name="uni023F" unicode="&#x23f;" horiz-adv-x="466" 
d="M368 241q35 -36 35 -93q0 -46 -25 -82.5t-70 -56.5t-102 -20q-39 0 -79 14q25 -20 40 -41t34 -55q18 -33 32 -48t40 -15q31 0 61 16l20 -39q-36 -26 -86 -26q-30 0 -50 12t-33.5 30.5t-32.5 54.5q-29 53 -58 92.5t-80 75.5l28 33q42 -28 77.5 -41.5t83.5 -13.5
q65 0 102 29t37 77q0 42 -25.5 65.5t-94.5 45.5q-77 24 -108.5 56.5t-31.5 82.5q0 38 22 70t63.5 51t97.5 19q93 0 161 -59l-30 -35q-31 23 -62 34t-69 11q-56 0 -89.5 -23.5t-33.5 -64.5q0 -34 25 -55.5t89 -40.5q77 -24 112 -60z" />
    <glyph glyph-name="uni0240" unicode="&#x240;" horiz-adv-x="420" 
d="M-3 45l347 427h-263l7 51h335l-6 -45l-363 -444q58 -13 90 -42.5t62 -77.5q24 -37 41.5 -53.5t46.5 -16.5q32 0 61 17l20 -40q-34 -26 -86 -26q-44 0 -69 21t-53 64q-23 34 -42 56t-52.5 40t-82.5 24z" />
    <glyph glyph-name="uni0241" unicode="&#x241;" horiz-adv-x="461" 
d="M164 305l70 18q84 21 125.5 68t41.5 126q0 61 -32.5 94.5t-94.5 33.5q-47 0 -90 -18t-88 -52l-31 39q99 82 213 82q87 0 137 -48t50 -128q0 -189 -209 -239l-37 -9l-39 -272h-60z" />
    <glyph glyph-name="uni0242" unicode="&#x242;" horiz-adv-x="428" 
d="M117 186l73 19q145 37 145 163q0 54 -30.5 84.5t-85.5 30.5q-46 0 -79.5 -14.5t-73.5 -43.5l-30 39q44 35 87 52.5t100 17.5q80 0 126.5 -45.5t46.5 -119.5q0 -82 -48.5 -134t-136.5 -73l-40 -9l-22 -153h-58z" />
    <glyph glyph-name="uni0243" unicode="&#x243;" horiz-adv-x="603" 
d="M503.5 319.5q38.5 -34.5 38.5 -101.5q0 -93 -64 -155.5t-209 -62.5h-188l25 174h-89l7 48h88l66 463h170q96 0 151.5 -38t55.5 -113q0 -69 -42 -114.5t-111 -57.5q63 -8 101.5 -42.5zM231 635l-35 -250h131q78 0 122.5 40.5t44.5 107.5q0 102 -144 102h-119zM433 98.5
q47 47.5 47 120.5q0 60 -40 88.5t-108 28.5h-143l-16 -114h176l-7 -48h-176l-17 -123h124q113 0 160 47.5z" />
    <glyph glyph-name="uni0244" unicode="&#x244;" horiz-adv-x="670" 
d="M661 513h-65l-42 -301q-14 -102 -79 -162.5t-174 -60.5q-98 0 -148 49t-50 133q0 21 3 45l42 297h-65l6 45h65l18 127h60l-18 -127h328l18 127h60l-18 -127h66zM536 513h-328l-42 -296q-3 -22 -3 -43q0 -133 140 -133q84 0 132 47.5t60 132.5z" />
    <glyph glyph-name="uni0245" unicode="&#x245;" horiz-adv-x="562" 
d="M378 685l131 -685h-62l-113 635l-293 -635h-62l324 685h75z" />
    <glyph glyph-name="uni0246" unicode="&#x246;" horiz-adv-x="510" 
d="M502 635h-59l-103 -255h89l-7 -50h-102l-112 -279h226l-7 -51h-240l-28 -70l-34 8l25 62h-77l97 685h258l24 60l32 -9l-21 -51h53zM304 380l103 255h-184l-36 -255h117zM171 51l113 279h-104l-40 -279h31z" />
    <glyph glyph-name="uni0247" unicode="&#x247;" horiz-adv-x="513" 
d="M269 226l-73 -176q24 -10 57 -10q41 0 75.5 12.5t72.5 39.5l26 -41q-42 -31 -85.5 -46.5t-92.5 -15.5q-41 0 -74 12l-29 -71l-30 8l31 75q-43 25 -65.5 72t-22.5 114q0 79 28.5 156t89 128t149.5 51q13 0 35 -2l25 60l31 -9l-24 -59q42 -14 65 -45t23 -71
q0 -138 -212 -182zM185.5 417q-50.5 -69 -62.5 -165q80 7 130 17l89 216q-5 1 -16 1q-90 0 -140.5 -69zM409 449q-12 19 -36 29l-82 -200q65 19 97.5 50.5t32.5 77.5q0 24 -12 43zM232 219q-48 -8 -112 -13v-6q0 -94 49 -134z" />
    <glyph glyph-name="uni0248" unicode="&#x248;" horiz-adv-x="302" 
d="M295 318h-101l-32 -228q-8 -61 -29 -99t-57 -63t-97 -48l-13 46q49 20 76 41.5t40.5 51.5t19.5 78l31 221h-102l8 50h101l45 317h60l-44 -317h101z" />
    <glyph glyph-name="uni0249" unicode="&#x249;" horiz-adv-x="302" 
d="M279 223h-103l-29 -206q-9 -68 -29 -108t-52 -64t-88 -49l-16 44q41 19 64.5 38t39.5 52t24 89l29 204h-103l6 48h104l35 252h58l-36 -252h103zM184 679.5q-11 10.5 -11 27.5q0 20 13.5 33t33.5 13q18 0 29 -10.5t11 -27.5q0 -20 -13.5 -33t-33.5 -13q-18 0 -29 10.5z
" />
    <glyph glyph-name="uni024A" unicode="&#x24a;" horiz-adv-x="660" 
d="M653 -173q-45 -32 -105 -32q-51 0 -80.5 27t-29.5 80q0 9 2 29l10 69l8 60q-69 -71 -170 -71q-99 0 -158.5 68.5t-59.5 195.5q0 109 38 211.5t109 167t165 64.5q95 0 157 -73l14 62h53l-96 -685l-10 -74q-2 -16 -2 -22q0 -59 54 -59q24 0 42 6t37 17zM466 116l64 457
q-57 72 -147 72q-79 0 -136 -59.5t-86 -151.5t-29 -185q0 -105 44 -156.5t118 -51.5q99 0 172 75z" />
    <glyph glyph-name="uni024B" unicode="&#x24b;" horiz-adv-x="566" 
d="M484 -149l13 -43q-28 -13 -60 -13q-38 0 -60.5 20.5t-22.5 59.5q0 6 2 22l15 104l11 77q-28 -40 -69.5 -64.5t-89.5 -24.5q-78 0 -121.5 54t-43.5 149q0 78 28 157t88.5 132t152.5 53q49 0 88 -10.5t82 -32.5l-83 -598q-1 -6 -1 -17q0 -17 7.5 -24.5t25.5 -7.5q19 0 38 7
zM317.5 66q38.5 28 73.5 82l45 315q-50 24 -107 24q-71 0 -118.5 -46t-69 -114t-21.5 -135q0 -76 29.5 -115t84.5 -39q45 0 83.5 28z" />
    <glyph glyph-name="uni024C" unicode="&#x24c;" horiz-adv-x="596" 
d="M519 395q-44 -58 -137 -79l144 -316h-67l-136 307h-138l-43 -307h-60l43 307h-90l7 49h90l47 329h168q216 0 216 -161q0 -71 -44 -129zM455.5 406q44.5 50 44.5 118q0 58 -37.5 85t-119.5 27h-111l-40 -280h119q100 0 144.5 50z" />
    <glyph glyph-name="uni024D" unicode="&#x24d;" horiz-adv-x="384" 
d="M408 527l-16 -55q-18 6 -42 6q-54 0 -92.5 -43.5t-73.5 -130.5h104l-7 -45h-105l-37 -259h-58l37 259h-101l8 45h99l31 219h50l-13 -127q61 138 166 138q29 0 50 -7z" />
    <glyph glyph-name="uni024E" unicode="&#x24e;" horiz-adv-x="523" 
d="M569 685l-59 -90h47l-7 -45h-70l-186 -282l-38 -268h-61l38 267l-108 283h-69l6 45h46l-34 90h64l33 -90h273l58 90h67zM269 323l146 227h-228z" />
    <glyph glyph-name="uni024F" unicode="&#x24f;" horiz-adv-x="473" 
d="M472 384l-6 -45h-63l-162 -343q-43 -90 -96 -136.5t-147 -63.5l-3 46q53 12 86 31t54.5 47.5t48.5 79.5h-22l-69 339h-64l7 45h47l-28 139h62l26 -139h221l64 139h62l-66 -139h48zM206 44l137 295h-192z" />
    <glyph glyph-name="uni0250" unicode="&#x250;" horiz-adv-x="525" 
d="M142 156q-2 -22 -2 -31q0 -46 23.5 -66t77.5 -20q65 0 146 30l14 -45q-90 -35 -169 -35q-74 0 -112.5 33t-38.5 97q0 18 3 37l35 254q3 18 3 32q0 19 -7.5 31.5t-25.5 19.5l16 42q34 -8 52 -28t19 -58q69 85 169 85q68 0 107 -36.5t39 -98.5q0 -91 -67 -141t-174 -50
h-101zM175 389l-20 -138h91q86 0 135 38t49 109q0 44 -24.5 66.5t-69.5 22.5q-96 0 -161 -98z" />
    <glyph glyph-name="uni0251" unicode="&#x251;" 
d="M438 84q0 -21 7.5 -33.5t25.5 -20.5l-17 -41q-35 8 -53 29.5t-17 65.5q-30 -44 -71.5 -69.5t-89.5 -25.5q-78 0 -121.5 54t-43.5 149q0 80 29.5 159t86.5 131t135 52q91 0 127 -81l19 70h46l-61 -409q-2 -11 -2 -30zM424 386q-16 55 -45 77.5t-71 22.5q-59 0 -101.5 -44
t-64.5 -112.5t-22 -137.5q0 -76 29.5 -115t84.5 -39q45 0 82.5 28t72.5 82z" />
    <glyph glyph-name="uni0252" unicode="&#x252;" 
d="M458.5 480q43.5 -54 43.5 -149q0 -80 -29.5 -159t-86.5 -131t-135 -52q-91 0 -127 81l-19 -70h-46l61 409q2 11 2 30q0 21 -7.5 33.5t-25.5 20.5l17 41q35 -8 53 -29.5t17 -65.5q30 44 71.5 69.5t89.5 25.5q78 0 121.5 -54zM353.5 81q42.5 44 64.5 112.5t22 137.5
q0 76 -29.5 115t-84.5 39q-45 0 -82.5 -28t-72.5 -82l-35 -238q16 -55 45 -77.5t71 -22.5q59 0 101.5 44z" />
    <glyph glyph-name="uni0253" unicode="&#x253;" horiz-adv-x="572" 
d="M473 483q41 -51 41 -147q0 -80 -27 -159.5t-87.5 -133.5t-155.5 -54q-43 0 -81.5 7.5t-90.5 26.5l70 499h1l12 89q9 62 52 97.5t109 35.5q61 0 119 -29l-23 -43q-44 22 -94 22q-93 0 -105 -89l-12 -83l-9 -64q76 76 164 76q76 0 117 -51zM366.5 85.5q46.5 47.5 67 117
t20.5 137.5q0 145 -111 145q-46 0 -83 -22.5t-77 -64.5l-47 -339q27 -11 52 -16t59 -5q73 0 119.5 47.5z" />
    <glyph glyph-name="uni0254" unicode="&#x254;" horiz-adv-x="465" 
d="M66 4.5q-36 15.5 -65 44.5l32 34q25 -22 52.5 -33t64.5 -12q63 0 107 41t66 107t22 141q0 79 -32 118.5t-93 39.5q-36 0 -66 -10.5t-65 -33.5l-25 40q71 53 160 53q86 0 134 -55t48 -154q0 -89 -30.5 -166t-89 -123.5t-137.5 -46.5q-47 0 -83 15.5z" />
    <glyph glyph-name="uni0255" unicode="&#x255;" horiz-adv-x="478" 
d="M403 193q27 -25 27 -68q0 -63 -49.5 -99.5t-128.5 -36.5q-47 0 -88 17l-44 -72l-38 18l45 76q-67 56 -67 172q0 76 27 153t85.5 129t147.5 52q87 0 141 -54l-33 -37q-22 21 -48 31.5t-59 10.5q-71 0 -116 -45.5t-65 -112t-20 -132.5q0 -78 36 -117l1 1q42 75 82.5 107
t89.5 32q47 0 74 -25zM344 61.5q33 21.5 33 63.5q0 22 -12.5 34.5t-38.5 12.5q-36 0 -65 -25t-69 -94q30 -13 66 -13q53 0 86 21.5z" />
    <glyph glyph-name="uni0256" unicode="&#x256;" horiz-adv-x="578" 
d="M582 -173q-45 -32 -105 -32q-51 0 -81 27.5t-30 79.5q0 9 2 29l10 69h-1l15 103q-69 -114 -172 -114q-76 0 -118.5 55t-42.5 151q0 76 25 154t80 131.5t140 53.5q89 0 138 -72l40 281l57 -7l-104 -736h1l-10 -76q-2 -16 -2 -22q0 -59 56 -59q24 0 42 6t38 17zM322 74
q40 36 81 107l32 228q-21 36 -50 56.5t-73 20.5q-67 0 -110.5 -46.5t-62.5 -114t-19 -133.5q0 -75 28.5 -114.5t79.5 -39.5q54 0 94 36z" />
    <glyph glyph-name="uni0257" unicode="&#x257;" horiz-adv-x="578" 
d="M659.5 734q23.5 -10 44.5 -26l-28 -36q-18 11 -33.5 17t-37.5 6q-33 0 -55.5 -20.5t-28.5 -64.5l-12 -87l-74 -523h-50l8 106q-31 -53 -74 -85t-99 -32q-76 0 -118.5 55t-42.5 151q0 76 25 154t80 131.5t140 53.5q89 0 138 -72l9 61l12 88q10 66 47 99.5t93 33.5
q33 0 56.5 -10zM435 409q-21 36 -50 56.5t-73 20.5q-67 0 -110.5 -46.5t-62.5 -114t-19 -133.5q0 -75 28.5 -114.5t79.5 -39.5q54 0 94 36t81 107z" />
    <glyph glyph-name="uni0258" unicode="&#x258;" horiz-adv-x="515" 
d="M404 471.5q50 -62.5 50 -160.5q0 -88 -31 -161.5t-90 -117t-138 -43.5q-54 0 -93.5 16t-73.5 48l35 35q30 -25 60 -36.5t73 -11.5q70 0 116.5 45t66.5 120q-157 7 -234 45.5t-77 121.5q0 47 24 84t66 57.5t94 20.5q102 0 152 -62.5zM190 284q61 -28 199 -33q4 28 4 64
q0 76 -34.5 123.5t-106.5 47.5q-57 0 -90 -31t-33 -81q0 -62 61 -90z" />
    <glyph glyph-name="uni0259" unicode="&#x259;" horiz-adv-x="513" 
d="M404 479q50 -55 50 -155q0 -79 -28.5 -156t-89 -128t-149.5 -51q-73 0 -114 35.5t-41 90.5q0 96 94 142.5t267 59.5v6q0 82 -35.5 121t-97.5 39q-41 0 -75.5 -12.5t-72.5 -39.5l-26 41q42 31 85.5 46.5t92.5 15.5q90 0 140 -55zM327.5 106q50.5 69 62.5 165
q-150 -12 -224 -48t-74 -106q0 -34 24 -57t71 -23q90 0 140.5 69z" />
    <glyph glyph-name="uni025A" unicode="&#x25a;" horiz-adv-x="699" 
d="M738 355q-50 -32 -107 -32q-50 0 -79 27t-29 74q0 7 2 23l4 27l-94 -45q19 -42 19 -105q0 -79 -28.5 -156t-89 -128t-149.5 -51q-73 0 -114 35.5t-41 90.5q0 96 94 142.5t267 59.5v6q0 82 -35.5 121t-97.5 39q-41 0 -75.5 -12.5t-72.5 -39.5l-26 41q42 31 85.5 46.5
t92.5 15.5q101 0 150 -67l122 56h56l-11 -72q-1 -8 -1 -21q0 -59 56 -59q24 0 41.5 6t38.5 18zM327.5 106q50.5 69 62.5 165q-150 -12 -224 -48t-74 -106q0 -34 24 -57t71 -23q90 0 140.5 69z" />
    <glyph glyph-name="uni025B" unicode="&#x25b;" horiz-adv-x="471" 
d="M95.5 28q-48.5 39 -48.5 105q0 57 38 97.5t113 47.5q-44 12 -68.5 37t-24.5 69q0 37 20 71t63 56.5t108 22.5q90 0 155 -51l-33 -35q-26 19 -54.5 28.5t-67.5 9.5q-67 0 -99.5 -30.5t-32.5 -72.5q0 -40 28 -63t81 -23h60l-14 -47h-54q-86 0 -121.5 -33t-35.5 -84
q0 -45 31.5 -70t88.5 -25q46 0 80 12.5t76 40.5l27 -39q-85 -63 -187 -63q-80 0 -128.5 39z" />
    <glyph glyph-name="uni025C" unicode="&#x25c;" horiz-adv-x="476" 
d="M366 499.5q44 -34.5 44 -92.5q0 -52 -33.5 -85t-94.5 -44q56 -7 88 -37.5t32 -82.5q0 -43 -22.5 -81.5t-71.5 -63t-122 -24.5q-112 0 -184 67l33 36q64 -54 151 -54q80 0 117.5 35t37.5 86q0 92 -139 92h-63l11 47h51q72 0 110 29t38 77q0 39 -26.5 60.5t-75.5 21.5
q-44 0 -77 -11t-75 -34l-26 37q43 28 87 42t96 14q70 0 114 -34.5z" />
    <glyph glyph-name="uni025D" unicode="&#x25d;" horiz-adv-x="669" 
d="M709 355q-50 -32 -107 -32q-50 0 -79 27t-29 74q0 7 2 23l4 27l-92 -44q2 -14 2 -23q0 -52 -33.5 -85t-94.5 -44q56 -7 88 -37.5t32 -82.5q0 -43 -22.5 -81.5t-71.5 -63t-122 -24.5q-112 0 -184 67l33 36q64 -54 151 -54q80 0 117.5 35t37.5 86q0 92 -139 92h-63l11 47
h51q72 0 110 29t38 77q0 39 -26.5 60.5t-75.5 21.5q-44 0 -77 -11t-75 -34l-26 37q43 28 87 42t96 14q48 0 84.5 -16.5t55.5 -47.5l115 53h56l-11 -72q-1 -8 -1 -21q0 -59 56 -59q24 0 41.5 6t38.5 18z" />
    <glyph glyph-name="uni025E" unicode="&#x25e;" horiz-adv-x="550" 
d="M110.5 44.5q-50.5 55.5 -50.5 154.5q0 92 31.5 168.5t92 121.5t143.5 45q69 0 112.5 -35t43.5 -94q0 -51 -33 -83.5t-94 -43.5q56 -7 88 -37.5t32 -82.5q0 -43 -23 -81.5t-72 -63t-122 -24.5q-98 0 -148.5 55.5zM378.5 73q37.5 35 37.5 86q0 48 -37 70t-103 22h-33l11 47
h20q73 0 111.5 29t38.5 77q0 38 -25.5 60t-73.5 22q-68 0 -114.5 -41t-69 -107t-22.5 -141q0 -159 142 -159q80 0 117.5 35z" />
    <glyph glyph-name="uni025F" unicode="&#x25f;" horiz-adv-x="302" 
d="M279 223h-103l-29 -206q-9 -68 -29 -108t-52 -64t-88 -49l-16 44q41 19 64.5 38t39.5 52t24 89l29 204h-103l6 48h104l35 252h58l-36 -252h103z" />
    <glyph glyph-name="uni0260" unicode="&#x260;" horiz-adv-x="573" 
d="M654.5 734q23.5 -10 44.5 -26l-28 -36q-18 11 -33.5 17t-37.5 6q-33 0 -55.5 -20.5t-28.5 -64.5l-12 -87l-76 -519q-32 -211 -219 -211q-90 0 -173 49l23 44q76 -42 148 -42q141 0 164 159l12 87q-30 -41 -70.5 -65.5t-86.5 -24.5q-78 0 -122 54t-45 146q0 78 28.5 155
t89.5 128t153 51q61 0 114 -24l2 13l12 88q10 66 47 99.5t93 33.5q33 0 56.5 -10zM437 463q-50 24 -106 24q-72 0 -119.5 -44t-69.5 -110t-21 -133q0 -73 30 -112t83 -39q46 0 85 28t74 81z" />
    <glyph glyph-name="uni0261" unicode="&#x261;" horiz-adv-x="568" 
d="M419 523q39 -11 80 -32l-71 -487q-31 -211 -219 -211q-90 0 -173 49l23 44q76 -42 148 -42q141 0 164 159l12 87q-30 -41 -71 -65.5t-87 -24.5q-77 0 -121 54t-45 146q0 78 28.5 155t89.5 128t154 51q49 0 88 -11zM211.5 443q-47.5 -44 -69.5 -110t-21 -133
q0 -73 30 -112t83 -39q46 0 85 28t74 81l44 305q-48 24 -106 24q-72 0 -119.5 -44z" />
    <glyph glyph-name="uni0262" unicode="&#x262;" horiz-adv-x="553" 
d="M419.5 520.5q36.5 -14.5 71.5 -43.5l-36 -36q-28 23 -57 33.5t-66 10.5q-67 0 -115 -40t-72.5 -105.5t-24.5 -140.5q0 -160 143 -160q62 0 122 27l22 172h-109v48h174l-33 -249q-89 -46 -180 -46q-95 0 -147 53.5t-52 158.5q0 90 34 166t96.5 121t142.5 45
q50 0 86.5 -14.5z" />
    <glyph glyph-name="uni0263" unicode="&#x263;" horiz-adv-x="468" 
d="M235 52q20 -48 29 -81t9 -64q0 -53 -27.5 -82.5t-75.5 -29.5q-38 0 -60 21t-22 56t21.5 79.5t64.5 103.5l-122 468h63l95 -427l215 427h65zM216 -44.5q-5 24.5 -16 57.5q-60 -90 -60 -139q0 -33 32 -33q24 0 36.5 18t12.5 47q0 25 -5 49.5z" />
    <glyph glyph-name="uni0264" unicode="&#x264;" horiz-adv-x="519" 
d="M518 526.5q16 -7.5 32 -20.5l-25 -33q-11 8 -19.5 11.5t-19.5 3.5q-18 0 -31 -11t-29 -38l-140 -223q21 -42 31 -71.5t10 -56.5q0 -43 -27.5 -71t-73.5 -28q-38 0 -59.5 21.5t-21.5 55.5q0 32 19.5 67.5t58.5 84.5l-78 228q-7 23 -17 32.5t-25 9.5q-20 0 -46 -16l-18 37
q33 25 71 25q36 0 56.5 -20.5t32.5 -65.5l60 -191l113 193q26 45 50.5 64.5t58.5 19.5q21 0 37 -7.5zM269.5 128.5q-5.5 19.5 -19.5 52.5q-28 -39 -41 -63.5t-13 -48.5q0 -34 32 -34q22 0 34.5 15t12.5 39q0 20 -5.5 39.5z" />
    <glyph glyph-name="uni0265" unicode="&#x265;" horiz-adv-x="577" 
d="M400 128q-38 -66 -87.5 -102.5t-106.5 -36.5q-60 0 -92 34t-32 94q0 17 3 35l53 371h58l-52 -367q-3 -19 -3 -35q0 -83 76 -83q102 0 195 172l43 313h58l-102 -723l-58 -7z" />
    <glyph glyph-name="uni0266" unicode="&#x266;" horiz-adv-x="582" 
d="M467 501q32 -33 32 -93q0 -17 -3 -37l-52 -371h-58l52 367q2 12 2 34q0 44 -18.5 64t-56.5 20q-102 0 -195 -172l-44 -313h-58l74 522l12 89q9 62 52 97.5t109 35.5q61 0 119 -29l-23 -43q-44 22 -94 22q-93 0 -105 -89l-12 -83l-18 -126q37 66 86.5 102t106.5 36
q60 0 92 -33z" />
    <glyph glyph-name="uni0267" unicode="&#x267;" horiz-adv-x="582" 
d="M467 501q32 -33 32 -93q0 -17 -3 -37l-52 -371l-11 -72q-9 -66 -47 -99.5t-94 -33.5t-99 35l28 36q17 -12 32 -17.5t37 -5.5q34 0 56.5 20.5t28.5 64.5l11 72l52 367q2 12 2 34q0 44 -18.5 64t-56.5 20q-102 0 -195 -172l-44 -313h-58l74 522l12 89q9 62 52 97.5
t109 35.5q61 0 119 -29l-23 -43q-44 22 -94 22q-93 0 -105 -89l-12 -83l-18 -126q37 66 86.5 102t106.5 36q60 0 92 -33z" />
    <glyph glyph-name="uni0268" unicode="&#x268;" horiz-adv-x="300" 
d="M179 679.5q-11 10.5 -11 27.5q0 20 13.5 33t33.5 13q18 0 29 -10.5t11 -27.5q0 -20 -13.5 -33t-33.5 -13q-18 0 -29 10.5zM288 304l-7 -45h-104l-37 -259h-58l37 259h-102l8 45h100l31 219h58l-31 -219h105z" />
    <glyph glyph-name="uni0269" unicode="&#x269;" horiz-adv-x="282" 
d="M137 523h58l-61 -435q-1 -6 -1 -17q0 -17 7.5 -25t25.5 -8q14 0 38 8l14 -43q-31 -14 -61 -14q-82 0 -82 82q0 7 2 25z" />
    <glyph glyph-name="uni026A" unicode="&#x26a;" horiz-adv-x="310" 
d="M317 478h-103l-61 -432h103l-6 -46h-264l6 46h103l61 432h-103l7 45h263z" />
    <glyph glyph-name="uni026B" unicode="&#x26b;" horiz-adv-x="334" 
d="M160 88q-1 -5 -1 -14q0 -18 8 -26.5t26 -8.5q16 0 38 8l13 -44q-31 -14 -60 -14q-39 0 -60.5 20.5t-21.5 60.5q0 7 2 27l36 256q-24 14 -42 14q-24 0 -42 -12.5t-38 -36.5l-35 23q27 35 54 55t65 20q23 0 45 -10l47 330l58 8l-52 -370q27 -16 45 -16q23 0 41 11.5
t37 34.5l34 -23q-24 -34 -51 -53t-64 -19q-25 0 -49 12z" />
    <glyph glyph-name="uni026C" unicode="&#x26c;" horiz-adv-x="336" 
d="M249 47l13 -44q-31 -14 -60 -14q-39 0 -60.5 20.5t-21.5 60.5q0 7 2 27l24 169h-1q-56 2 -86.5 25.5t-30.5 66.5q0 44 31.5 70.5t80.5 26.5q8 0 32 -3l40 284l58 8l-61 -435q34 1 84 10l1 -40q-44 -9 -91 -12l-25 -179q-1 -5 -1 -14q0 -18 8 -26.5t26 -8.5q16 0 38 8z
M152 309l14 103q-10 3 -26 3q-28 0 -45.5 -15t-17.5 -42q0 -49 74 -49h1z" />
    <glyph glyph-name="uni026D" unicode="&#x26d;" horiz-adv-x="270" 
d="M273 -173q-45 -32 -105 -32q-51 0 -81 27.5t-30 79.5q0 9 2 29l10 69l104 736l58 8l-104 -744l-10 -76q-2 -16 -2 -22q0 -59 56 -59q24 0 42 6t38 17z" />
    <glyph glyph-name="uni026E" unicode="&#x26e;" horiz-adv-x="626" 
d="M600 478l-255 -278h5q107 0 158.5 -42.5t51.5 -120.5q0 -71 -31.5 -126t-88.5 -85.5t-129 -30.5q-61 0 -105.5 21.5t-78.5 62.5l37 32q32 -36 66.5 -51.5t80.5 -15.5q87 0 137.5 54t50.5 139q0 63 -38 90t-121 27h-66l7 46l248 273h-341l-54 -385q-1 -5 -1 -14
q0 -18 8 -26.5t26 -8.5q16 0 38 8l13 -44q-31 -14 -60 -14q-39 0 -60.5 20.5t-21.5 60.5q0 7 2 27l90 639l58 8l-31 -221h411z" />
    <glyph glyph-name="uni026F" unicode="&#x26f;" horiz-adv-x="849" 
d="M781 523l-74 -523h-50l14 129q-84 -140 -185 -140q-51 0 -81.5 34t-29.5 96q-81 -130 -182 -130q-52 0 -81.5 33.5t-29.5 92.5q0 17 3 36l53 372h58l-52 -367q-3 -19 -3 -36q0 -82 69 -82q46 0 89 45t87 124l45 316h58l-52 -367q-3 -19 -3 -36q0 -82 69 -82
q47 0 89.5 45.5t86.5 126.5l44 313h58z" />
    <glyph glyph-name="uni0270" unicode="&#x270;" horiz-adv-x="844" 
d="M780 523l-102 -723l-60 -7l48 328q-80 -132 -181 -132q-51 0 -80.5 35t-29.5 94q-82 -129 -183 -129q-51 0 -80.5 33t-29.5 92q0 18 3 37l52 372h58l-52 -367q-3 -19 -3 -35q0 -83 69 -83q47 0 90 44t86 122l45 319h58l-52 -367q-3 -19 -3 -35q0 -83 69 -83q47 0 90 44.5
t86 123.5l44 317h58z" />
    <glyph glyph-name="uni0271" unicode="&#x271;" horiz-adv-x="849" 
d="M737.5 500.5q29.5 -33.5 29.5 -92.5q0 -16 -3 -36l-53 -372h1l-11 -72q-9 -66 -47 -99.5t-94 -33.5t-99 35l28 36q17 -12 32 -17.5t37 -5.5q34 0 56.5 20.5t28.5 64.5l11 72h-1l52 367q3 20 3 36q0 82 -69 82q-46 0 -89 -45t-87 -124l-45 -316h-58l52 367q3 20 3 36
q0 82 -69 82q-47 0 -89.5 -45.5t-86.5 -126.5l-44 -313h-58l74 523h50l-14 -129q84 140 185 140q51 0 81.5 -34t29.5 -96q81 130 182 130q52 0 81.5 -33.5z" />
    <glyph glyph-name="uni0272" unicode="&#x272;" horiz-adv-x="581" 
d="M467 501q32 -33 32 -94q0 -18 -3 -38l-52 -369h-58l52 367q2 12 2 33q0 85 -76 85q-101 0 -194 -172l-44 -313h1l-11 -72q-9 -66 -47 -99.5t-94 -33.5t-99 35l28 36q17 -12 32 -17.5t37 -5.5q34 0 56.5 20.5t28.5 64.5l11 72h-1l74 523h50l-14 -130q41 68 91 104.5
t107 36.5q59 0 91 -33z" />
    <glyph glyph-name="uni0273" unicode="&#x273;" horiz-adv-x="581" 
d="M590 -173q-45 -32 -105 -32q-51 0 -81 27.5t-30 79.5q0 9 2 29l10 69l52 367q2 12 2 33q0 85 -76 85q-101 0 -194 -172l-44 -313h-58l74 523h50l-14 -130q41 68 91 104.5t107 36.5q59 0 91 -33t32 -94q0 -18 -3 -38l-52 -369l-10 -76q-2 -16 -2 -22q0 -59 56 -59
q24 0 42 6t38 17z" />
    <glyph glyph-name="uni0274" unicode="&#x274;" horiz-adv-x="587" 
d="M444 0h-73l-190 464q-3 -74 -22 -209l-36 -255h-55l74 523h74l190 -465q2 64 16 165l42 300h54z" />
    <glyph glyph-name="uni0275" unicode="&#x275;" horiz-adv-x="569" 
d="M461 479q49 -55 49 -155q0 -74 -25.5 -151t-84.5 -130.5t-151 -53.5q-90 0 -139.5 56t-49.5 156q0 75 26 151.5t84.5 129t150.5 52.5q91 0 140 -55zM193 429q-47 -57 -64 -140h320q2 28 2 39q0 78 -33.5 118t-97.5 40q-80 0 -127 -57zM379 97q47 59 64 145h-322
q-2 -32 -2 -46q0 -78 34 -118t98 -40q81 0 128 59z" />
    <glyph glyph-name="uni0276" unicode="&#x276;" horiz-adv-x="726" 
d="M706 475h-251q27 -24 41.5 -68.5t13.5 -98.5v-13h139l-7 -47h-137q-10 -62 -39 -114.5t-74 -85.5h266l-7 -48h-334q-38 -11 -69 -11q-89 0 -138.5 56t-49.5 156q0 75 26 151.5t84.5 129t150.5 52.5q36 0 72 -11h327zM366.5 84q44.5 46 63.5 112.5t19 131.5q0 78 -33 118
t-96 40q-72 0 -117 -46.5t-64 -113.5t-19 -130q0 -78 34 -118t97 -40q71 0 115.5 46z" />
    <glyph glyph-name="uni0277" unicode="&#x277;" horiz-adv-x="748" 
d="M616 470q68 -64 68 -176q0 -78 -23 -148t-70.5 -113.5t-116.5 -43.5q-57 0 -88.5 29.5t-32.5 90.5q-38 -120 -151 -120q-66 0 -106 44.5t-40 135.5q0 113 42 195t122 126t192 44q136 0 204 -64zM588 113q38 75 38 180q0 94 -52.5 143t-165.5 49q-145 0 -219 -84.5
t-74 -233.5q0 -129 94 -129q47 0 81 33.5t44 109.5l17 127l59 8l-19 -139q-3 -21 -3 -39q0 -100 84 -100q78 0 116 75z" />
    <glyph glyph-name="uni0278" unicode="&#x278;" horiz-adv-x="621" 
d="M542 156.5q-32 -68.5 -93.5 -108.5t-146.5 -43l-28 -202l-59 -8l30 210q-94 5 -145.5 59t-51.5 147q0 87 32.5 155.5t93.5 109t144 42.5l31 218l58 7l-31 -225q95 -5 146 -59.5t51 -146.5q1 -87 -31 -155.5zM313 470q-99 -7 -151.5 -78t-52.5 -182q0 -151 145 -157z
M460 131q53 71 53 182q-2 151 -147 157l-58 -417q99 7 152 78z" />
    <glyph glyph-name="uni0279" unicode="&#x279;" horiz-adv-x="371" 
d="M-24 -4l16 55q18 -6 42 -6q55 0 94.5 45t73.5 135l43 298h58l-74 -523h-50l13 127q-61 -138 -166 -138q-29 0 -50 7z" />
    <glyph glyph-name="uni027A" unicode="&#x27a;" horiz-adv-x="371" 
d="M333 736l-30 -213l-74 -523h-50l13 127q-61 -138 -166 -138q-29 0 -50 7l16 55q18 -6 42 -6q55 0 94.5 45t73.5 135l43 298l30 220z" />
    <glyph glyph-name="uni027B" unicode="&#x27b;" horiz-adv-x="371" 
d="M375 -173q-45 -32 -105 -32q-51 0 -81 27.5t-30 79.5q0 9 2 29l10 69l18 117q-28 -61 -69 -94.5t-94 -33.5q-20 0 -50 7l17 55q20 -6 41 -6q55 0 94.5 45t73.5 135l43 298h58l-74 -523l-10 -76q-2 -16 -2 -22q0 -59 56 -59q24 0 42 6t38 17z" />
    <glyph glyph-name="uni027C" unicode="&#x27c;" horiz-adv-x="372" 
d="M396 527l-16 -55q-18 6 -42 6q-55 0 -94.5 -45t-73.5 -135l-72 -497l-59 -8l104 730h50l-13 -127q61 138 166 138q29 0 50 -7z" />
    <glyph glyph-name="uni027D" unicode="&#x27d;" horiz-adv-x="371" 
d="M395 527l-16 -55q-18 6 -42 6q-55 0 -94.5 -45t-73.5 -135l-43 -298l-10 -76q-2 -16 -2 -22q0 -59 56 -59q24 0 42 6t38 17l22 -39q-45 -32 -105 -32q-51 0 -81 27.5t-30 79.5q0 9 2 29l10 69l74 523h50l-13 -127q61 138 166 138q29 0 50 -7z" />
    <glyph glyph-name="uni027E" unicode="&#x27e;" horiz-adv-x="344" 
d="M360 498l-28 -36q-17 12 -32 17.5t-37 5.5q-34 0 -56.5 -20.5t-28.5 -64.5l-11 -72h1l-46 -328h-58l46 328h-1l11 72q9 66 47 99.5t94 33.5t99 -35z" />
    <glyph glyph-name="uni027F" unicode="&#x27f;" horiz-adv-x="347" 
d="M237 505.5q30 -27.5 30 -79.5q0 -9 -2 -29l-10 -69l-46 -328h-58l46 328l10 76q2 16 2 22q0 59 -56 59q-24 0 -42 -6t-38 -17l-22 39q45 32 105 32q51 0 81 -27.5z" />
    <glyph glyph-name="uni0280" unicode="&#x280;" horiz-adv-x="513" 
d="M422 282q-39 -40 -107 -57l118 -225h-63l-109 216h-104l-31 -216h-58l74 523h130q94 0 141.5 -34.5t47.5 -101.5q0 -65 -39 -105zM243 263q75 0 116.5 32.5t41.5 90.5q0 47 -32 68.5t-103 21.5h-72l-30 -213h79z" />
    <glyph glyph-name="uni0281" unicode="&#x281;" horiz-adv-x="513" 
d="M403.5 253q26.5 -31 26.5 -79q0 -86 -62 -130t-167 -44h-133l74 523h58l-30 -216h105l169 216h64l-181 -225q50 -14 76.5 -45zM326 78q44 31 44 96q0 86 -120 86h-87l-30 -213h69q80 0 124 31z" />
    <glyph glyph-name="uni0282" unicode="&#x282;" horiz-adv-x="461" 
d="M362.5 241.5q34.5 -35.5 34.5 -94.5q0 -71 -55 -114.5t-148 -43.5q-74 0 -133 35l-15 -104q-2 -18 -2 -23q0 -58 58 -58q24 0 42 6t38 18l22 -40q-49 -33 -105 -33q-51 0 -80.5 27.5t-29.5 79.5q0 10 2 30l18 133l29 32q36 -26 73 -40t83 -14q68 0 105.5 29t37.5 77
q0 41 -25.5 65t-94.5 46q-77 25 -108.5 57.5t-31.5 82.5q0 37 22 69t64 51t99 19q91 0 159 -59l-32 -38q-54 48 -127 48q-57 0 -91.5 -23.5t-34.5 -64.5q0 -34 25.5 -55.5t89.5 -40.5q77 -24 111.5 -59.5z" />
    <glyph glyph-name="uni0283" unicode="&#x283;" horiz-adv-x="269" 
d="M351.5 734q23.5 -10 44.5 -26l-28 -36q-18 11 -33.5 17t-37.5 6q-33 0 -55.5 -20.5t-28.5 -64.5l-12 -87h-1l-74 -523h1l-11 -72q-9 -66 -47 -99.5t-94 -33.5t-99 35l28 36q17 -12 32 -17.5t37 -5.5q34 0 56.5 20.5t28.5 64.5l11 72h-1l74 523h1l12 88q10 66 47 99.5
t93 33.5q33 0 56.5 -10z" />
    <glyph glyph-name="uni0284" unicode="&#x284;" horiz-adv-x="300" 
d="M367.5 734q23.5 -10 44.5 -26l-28 -36q-18 11 -33.5 17t-37.5 6q-33 0 -55.5 -20.5t-28.5 -64.5l-12 -87l-68 -476h102l-7 -47h-102q-10 -61 -30 -98t-51 -59.5t-85 -46.5l-17 44q39 19 62.5 36.5t39.5 46.5t24 77h-104l6 47h105l67 476l12 88q10 66 47 99.5t93 33.5
q33 0 56.5 -10z" />
    <glyph glyph-name="uni0285" unicode="&#x285;" horiz-adv-x="406" 
d="M368 22q-45 -32 -105 -32q-51 0 -81 27.5t-30 79.5q0 9 2 29l10 69l19 134l10 76q2 16 2 22q0 59 -56 59q-24 0 -42 -6t-38 -17l-22 39q45 32 105 32q51 0 81 -27.5t30 -79.5q0 -9 -2 -29l-10 -69l-19 -134l-10 -76q-2 -16 -2 -22q0 -59 56 -59q24 0 42 6t38 17z" />
    <glyph glyph-name="uni0286" unicode="&#x286;" horiz-adv-x="286" 
d="M368.5 734q23.5 -10 44.5 -26l-28 -36q-18 11 -33.5 17t-37.5 6q-33 0 -55.5 -20.5t-28.5 -64.5l-12 -87l-76 -541q57 -15 99 -37l-19 -34q-40 18 -87 31q-16 -71 -57 -109t-108 -38q-50 0 -78.5 25.5t-28.5 67.5q0 52 40.5 82t101.5 30q46 0 79 -7l76 530l12 88
q10 66 47 99.5t93 33.5q33 0 56.5 -10zM41.5 -133q24.5 28 36.5 86q-30 6 -73 6q-44 0 -68 -18.5t-24 -50.5q0 -24 15 -37.5t44 -13.5q45 0 69.5 28z" />
    <glyph glyph-name="uni0287" unicode="&#x287;" horiz-adv-x="339" 
d="M285 0h-89l-29 -127l-46 -5l19 132h-135l14 47h127l49 347q2 18 2 25q0 65 -62 65q-38 0 -85 -25l-20 43q54 32 112 32q53 0 83 -28.5t30 -81.5q0 -10 -2 -30l-49 -347h88z" />
    <glyph glyph-name="uni0288" unicode="&#x288;" horiz-adv-x="339" 
d="M193 476l-67 -476h1l-10 -76q-2 -16 -2 -22q0 -59 56 -59q24 0 42 6t38 17l22 -39q-45 -32 -105 -32q-51 0 -81 27.5t-30 79.5q0 9 2 29l10 69h-1l67 476h-88l7 47h89l29 127l46 5l-19 -132h135l-14 -47h-127z" />
    <glyph glyph-name="uni0289" unicode="&#x289;" horiz-adv-x="599" 
d="M577 339h-86l-48 -339h-48l14 133q-36 -67 -84.5 -105.5t-109.5 -38.5q-59 0 -91.5 33t-32.5 93q0 17 3 36l26 188h-86l7 45h86l19 139h58l-20 -139h255l20 139h58l-20 -139h87zM433 339h-255l-26 -186q-2 -12 -2 -32q0 -84 76 -84q55 0 102.5 45.5t85.5 120.5z" />
    <glyph glyph-name="uni028A" unicode="&#x28a;" horiz-adv-x="569" 
d="M109 44q-51 55 -51 147q0 88 36 159.5t99 125.5h-88l7 47h143l-6 -49q-65 -62 -98.5 -131t-33.5 -152q0 -76 34.5 -114.5t99.5 -38.5q63 0 106.5 35t65.5 92t22 123q0 63 -17 108t-46 81l5 46h143l-6 -47h-88q69 -82 69 -190q0 -80 -31.5 -148t-90 -108.5t-134.5 -40.5
q-89 0 -140 55z" />
    <glyph glyph-name="uni028B" unicode="&#x28b;" horiz-adv-x="572" 
d="M125 26q-41 37 -41 103q0 20 2 31l51 363h58l-51 -362q-2 -20 -2 -29q0 -48 25 -71t68 -23q70 0 120.5 53t67.5 174l24 170q1 5 1 14q0 36 -35 36q-18 0 -36 -8l-13 43q26 14 59 14q38 0 60.5 -21.5t22.5 -62.5q0 -13 -1 -20l-24 -167q-19 -139 -86.5 -206.5
t-162.5 -67.5q-66 0 -107 37z" />
    <glyph glyph-name="uni028C" unicode="&#x28c;" horiz-adv-x="468" 
d="M-22 0l255 523h71l112 -523h-63l-91 471l-219 -471h-65z" />
    <glyph glyph-name="uni028D" unicode="&#x28d;" horiz-adv-x="696" 
d="M-11 0l200 523h78l49 -469l183 469h77l57 -523h-57l-46 478l-187 -478h-68l-51 478l-178 -478h-57z" />
    <glyph glyph-name="uni028E" unicode="&#x28e;" horiz-adv-x="465" 
d="M227 527q48 101 105 150t152 67l3 -46q-54 -12 -89 -32.5t-61 -53.5t-54 -90l24 1l106 -523h-61l-90 479l-222 -479h-62z" />
    <glyph glyph-name="uni028F" unicode="&#x28f;" horiz-adv-x="444" 
d="M466 523l-222 -317l-29 -206h-58l29 205l-134 318h61l107 -272l181 272h65z" />
    <glyph glyph-name="uni0290" unicode="&#x290;" horiz-adv-x="420" 
d="M492 -173q-45 -32 -105 -32q-51 0 -81 27.5t-30 79.5q0 9 2 29l10 69h-298l7 45l346 427h-262l7 51h335l-6 -45l-347 -428h283l-7 -50l-10 -76q-2 -16 -2 -22q0 -59 56 -59q24 0 42 6t38 17z" />
    <glyph glyph-name="uni0291" unicode="&#x291;" horiz-adv-x="430" 
d="M388 27.5q-54 -27.5 -146 -27.5q-12 -46 -19 -113l-46 4q6 56 18 109h-205l7 45l349 427h-265l7 51h335l-6 -45l-350 -428h141q19 75 56.5 114.5t88.5 39.5q41 0 65 -22t24 -59q0 -68 -54 -95.5zM357 66q35 16 35 56t-43 40q-32 0 -55.5 -26.5t-38.5 -85.5q67 0 102 16z
" />
    <glyph glyph-name="uni0292" unicode="&#x292;" horiz-adv-x="459" 
d="M433 478l-256 -278h8q105 0 156 -42.5t51 -121.5q0 -71 -31.5 -125.5t-88 -85t-128.5 -30.5q-62 0 -107 22t-80 65l38 31q33 -37 67.5 -53t80.5 -16q88 0 138 54t50 138q0 63 -38 90.5t-120 27.5h-67l1 1l6 45l249 273h-298l7 50h368z" />
    <glyph glyph-name="uni0293" unicode="&#x293;" horiz-adv-x="460" 
d="M434 478l-256 -278h8q207 0 207 -162q0 -81 -45.5 -141t-127.5 -85l18 -56l-44 -17l-19 62q-36 -6 -75 -6q-81 0 -123.5 30.5t-42.5 83.5q0 47 33 80t83 33q59 0 94.5 -36t60.5 -127q63 21 95.5 68t32.5 110t-38.5 90t-120.5 27h-66l6 46l249 273h-298l7 50h368z
M103 -156q34 0 57 4q-22 75 -46 102t-63 27q-29 0 -47 -18t-18 -46q0 -69 117 -69z" />
    <glyph glyph-name="uni0294" unicode="&#x294;" horiz-adv-x="433" 
d="M143 340l65 18q86 24 128.5 74t42.5 132q0 61 -33.5 95.5t-96.5 34.5q-47 0 -86 -16.5t-82 -48.5l-29 35q48 41 95.5 60.5t105.5 19.5q88 0 137 -49t49 -130q0 -103 -53.5 -162t-156.5 -87l-31 -9l-43 -307h-59z" />
    <glyph glyph-name="uni0295" unicode="&#x295;" horiz-adv-x="432" 
d="M205 0l44 307l-26 8q-71 21 -112.5 59.5t-41.5 116.5q0 71 31 129t86.5 91t126.5 33q57 0 99.5 -21t79.5 -62l-36 -32q-32 33 -65 49t-77 16q-56 0 -98 -27t-64 -73.5t-22 -102.5q0 -61 30.5 -89.5t88.5 -44.5l62 -17l-48 -340h-58z" />
    <glyph glyph-name="uni0296" unicode="&#x296;" horiz-adv-x="498" 
d="M287 743l-44 -314l31 -8q154 -37 154 -181q0 -69 -31 -125.5t-85.5 -89t-122.5 -32.5q-60 0 -102.5 20.5t-81.5 61.5l35 31q33 -32 67.5 -48t80.5 -16q54 0 95 26t63 71.5t22 100.5q0 63 -31.5 94.5t-88.5 46.5l-67 15l48 340z" />
    <glyph glyph-name="uni0297" unicode="&#x297;" horiz-adv-x="487" 
d="M419.5 521q31.5 -13 62.5 -42l-32 -35q-23 21 -47.5 30.5t-56.5 9.5q-71 0 -121.5 -66t-76 -165t-25.5 -196q0 -106 32.5 -160t92.5 -54t124 45l26 -42q-73 -54 -152 -54q-88 0 -136 69.5t-48 195.5q0 115 33.5 225.5t98 181t153.5 70.5q41 0 72.5 -13z" />
    </font>
</defs>
</svg>
