<?xml version="1.0" standalone="no"?>
<!DOCTYPE svg PUBLIC "-//W3C//DTD SVG 1.1//EN" "http://www.w3.org/Graphics/SVG/1.1/DTD/svg11.dtd" >
<svg xmlns="http://www.w3.org/2000/svg" xmlns:xlink="http://www.w3.org/1999/xlink" version="1.1">
<metadata>
Created by FontForge 20170731 at Fri Dec  2 11:32:35 2016
 By Aleksey,,,
Digitized data copyright 2012-2016, The Mozilla Foundation and Telefonica S.A.
</metadata>
<defs>
<font id="FiraSans-Medium" horiz-adv-x="560" >
  <font-face 
    font-family="Fira Sans Medium"
    font-weight="500"
    font-stretch="normal"
    units-per-em="1000"
    panose-1="2 11 6 3 5 0 0 2 0 4"
    ascent="800"
    descent="-200"
    x-height="529"
    cap-height="691"
    bbox="-771 -354 1360 1152"
    underline-thickness="50"
    underline-position="-150"
    unicode-range="U+000D-FEFF"
  />
<missing-glyph horiz-adv-x="666" 
d="M543 1050v-1400h-420v1400h420zM489 998h-311v-1296h311v1296zM409.5 419q25.5 -32 25.5 -83q0 -53 -22.5 -82t-72.5 -36v-45q0 -11 -7.5 -17.5t-17.5 -6.5t-17.5 6.5t-7.5 17.5v84q53 3 72 19.5t19 57.5q0 33 -13 51t-48 18q-29 0 -52 -11q-8 -3 -13 -3q-11 0 -17.5 6.5
t-6.5 16.5q0 19 29.5 29t63.5 10q60 0 85.5 -32zM340 110q10 -10 10 -25q0 -16 -10 -26.5t-25 -10.5t-25 10.5t-10 26.5q0 15 10 25t25 10t25 -10z" />
    <glyph glyph-name="fi" unicode="fi" horiz-adv-x="588" 
d="M454 717l-39 -85q-53 25 -112 25q-49 0 -67.5 -17.5t-18.5 -56.5v-54h294v-529h-128v437h-166v-437h-128v437h-83v92h83v56q0 77 50 123.5t153 46.5q84 0 162 -38z" />
    <glyph glyph-name="fl" unicode="fl" horiz-adv-x="613" 
d="M605 3q-43 -18 -91 -18q-60 0 -92 34.5t-32 100.5v525q-46 14 -95 14q-44 0 -61 -17t-17 -56v-57h113l-14 -92h-99v-437h-128v437h-83v92h83v58q0 75 49 121.5t142 46.5q55 0 119 -19l119 13v-620q0 -22 7 -31.5t23 -9.5q15 0 30 5z" />
    <glyph glyph-name=".notdef" horiz-adv-x="666" 
d="M543 1050v-1400h-420v1400h420zM489 998h-311v-1296h311v1296zM409.5 419q25.5 -32 25.5 -83q0 -53 -22.5 -82t-72.5 -36v-45q0 -11 -7.5 -17.5t-17.5 -6.5t-17.5 6.5t-7.5 17.5v84q53 3 72 19.5t19 57.5q0 33 -13 51t-48 18q-29 0 -52 -11q-8 -3 -13 -3q-11 0 -17.5 6.5
t-6.5 16.5q0 19 29.5 29t63.5 10q60 0 85.5 -32zM340 110q10 -10 10 -25q0 -16 -10 -26.5t-25 -10.5t-25 10.5t-10 26.5q0 15 10 25t25 10t25 -10z" />
    <glyph glyph-name=".null" horiz-adv-x="0" 
 />
    <glyph glyph-name="nonmarkingreturn" unicode="&#xd;" horiz-adv-x="250" 
 />
    <glyph glyph-name="space" unicode=" " horiz-adv-x="250" 
 />
    <glyph glyph-name="exclam" unicode="!" horiz-adv-x="241" 
d="M188 691l-15 -447h-107l-16 447h138zM177.5 123.5q23.5 -23.5 23.5 -57.5q0 -33 -23.5 -57t-57.5 -24t-57.5 24t-23.5 57q0 34 23.5 57.5t57.5 23.5t57.5 -23.5z" />
    <glyph glyph-name="quotedbl" unicode="&#x22;" horiz-adv-x="421" 
d="M71 420l-18 271h123l-17 -271h-88zM263 420l-18 271h123l-17 -271h-88z" />
    <glyph glyph-name="numbersign" unicode="#" horiz-adv-x="539" 
d="M524 443h-72l-27 -203h62v-88h-74l-20 -152h-107l20 152h-125l-20 -152h-106l20 152h-60v88h71l27 203h-61v89h73l18 141h107l-19 -141h125l19 141h107l-19 -141h61v-89zM318 240l27 203h-125l-27 -203h125z" />
    <glyph glyph-name="dollar" unicode="$" horiz-adv-x="541" 
d="M461 63.5q-48 -52.5 -135 -68.5v-153h-98v148q-128 8 -211 90l68 75q73 -68 169 -68q55 0 89 26t34 73q0 29 -11.5 48t-39.5 34t-81 31q-107 32 -154 79t-47 121q0 73 50.5 121.5t133.5 59.5v147h98v-147q50 -7 89.5 -26.5t74.5 -52.5l-65 -73q-33 30 -69 44t-78 14
q-46 0 -74.5 -20.5t-28.5 -58.5q0 -25 11.5 -41.5t40.5 -31t85 -31.5q99 -31 148 -77t49 -133q0 -77 -48 -129.5z" />
    <glyph glyph-name="percent" unicode="%" horiz-adv-x="844" 
d="M613 716l83 -53l-464 -699l-82 53zM294 663.5q39 -21.5 61.5 -61.5t22.5 -92t-22.5 -92t-61.5 -61.5t-87 -21.5t-86.5 21.5t-61 61.5t-22.5 92t22.5 92t61 61.5t86.5 21.5t87 -21.5zM151.5 578.5q-16.5 -26.5 -16.5 -68.5q0 -41 16.5 -68t55.5 -27q72 0 72 95t-72 95
q-39 0 -55.5 -26.5zM724 313.5q39 -21.5 61 -61.5t22 -92t-22 -92t-61 -61.5t-87 -21.5t-87 21.5t-61.5 61.5t-22.5 92t22.5 92t61.5 61.5t87 21.5t87 -21.5zM581.5 228.5q-16.5 -26.5 -16.5 -68.5q0 -41 16.5 -68t55.5 -27q72 0 72 95t-72 95q-39 0 -55.5 -26.5z" />
    <glyph glyph-name="ampersand" unicode="&#x26;" horiz-adv-x="746" 
d="M413.5 686q45.5 -20 70 -55.5t24.5 -80.5q0 -59 -35.5 -102.5t-100.5 -84.5l154 -145q33 72 53 156l111 -33q-37 -112 -91 -191l117 -106l-103 -59l-87 84q-90 -84 -220 -84q-70 0 -123.5 23.5t-83.5 67t-30 100.5q0 61 34 106.5t104 90.5q-52 51 -74.5 88t-22.5 84
q0 44 22.5 80.5t67 58.5t108.5 22q60 0 105.5 -20zM254 599q-20 -20 -20 -54q0 -30 15.5 -54.5t51.5 -59.5q42 27 63 53.5t21 60.5t-20.5 54t-55.5 20t-55 -20zM221.5 248q-18.5 -29 -18.5 -66q0 -47 33.5 -74.5t89.5 -27.5q39 0 70.5 13.5t61.5 39.5l-178 171
q-40 -27 -58.5 -56z" />
    <glyph glyph-name="quotesingle" unicode="'" horiz-adv-x="230" 
d="M71 420l-18 271h123l-17 -271h-88z" />
    <glyph glyph-name="parenleft" unicode="(" horiz-adv-x="324" 
d="M300 797q-74 -106 -107.5 -205.5t-33.5 -241.5q0 -141 33.5 -241t107.5 -206l-82 -55q-65 91 -102.5 154.5t-62.5 150t-25 197.5t25 197.5t62.5 150t102.5 154.5z" />
    <glyph glyph-name="parenright" unicode=")" horiz-adv-x="324" 
d="M208.5 698q37.5 -64 62.5 -150t25 -198t-25 -198t-62.5 -150t-102.5 -154l-81 55q73 106 107 206t34 241t-34 240.5t-107 206.5l81 55q65 -90 102.5 -154z" />
    <glyph glyph-name="asterisk" unicode="*" horiz-adv-x="444" 
d="M431 547l-147 -28l103 -108l-93 -68l-72 130l-71 -130l-93 67l101 110l-146 27l35 106l134 -63l-18 151h116l-18 -151l133 64z" />
    <glyph glyph-name="plus" unicode="+" horiz-adv-x="516" 
d="M313 535v-153h149v-101h-149v-153h-110v153h-148v101h148v153h110z" />
    <glyph glyph-name="comma" unicode="," horiz-adv-x="240" 
d="M177.5 124q23.5 -23 23.5 -58q0 -19 -6 -39t-20 -51l-65 -148h-78l41 172q-34 23 -34 67q0 34 23 57t57 23q35 0 58.5 -23z" />
    <glyph glyph-name="hyphen" unicode="-" horiz-adv-x="405" 
d="M52 262v102h302v-102h-302z" />
    <glyph glyph-name="period" unicode="." horiz-adv-x="240" 
d="M177 123.5q24 -23.5 24 -57.5q0 -33 -24 -57t-58 -24q-33 0 -56.5 24t-23.5 57q0 34 23 57.5t57 23.5t58 -23.5z" />
    <glyph glyph-name="slash" unicode="/" horiz-adv-x="520" 
d="M322 812l110 -25l-233 -895l-111 26z" />
    <glyph glyph-name="zero" unicode="0" horiz-adv-x="573" 
d="M465.5 595q61.5 -90 61.5 -259q0 -170 -61.5 -260.5t-179.5 -90.5t-179.5 90.5t-61.5 260.5q0 169 61.5 259t179.5 90t179.5 -90zM203 530.5q-26 -57.5 -26 -194.5q0 -138 26 -196t83 -58t83 57.5t26 196.5q0 138 -26 195t-83 57t-83 -57.5z" />
    <glyph glyph-name="one" unicode="1" horiz-adv-x="450" 
d="M355 673v-673h-126v544l-150 -91l-56 86l219 134h113z" />
    <glyph glyph-name="two" unicode="2" horiz-adv-x="507" 
d="M350.5 660q49.5 -25 75.5 -68t26 -96q0 -57 -24.5 -109.5t-81.5 -116.5t-167 -169h288l-14 -101h-419v94q128 130 183.5 192.5t79 107t23.5 92.5q0 46 -26.5 72t-70.5 26q-39 0 -68.5 -16.5t-61.5 -54.5l-78 62q85 110 218 110q68 0 117.5 -25z" />
    <glyph glyph-name="three" unicode="3" horiz-adv-x="510" 
d="M347.5 662q48.5 -23 73 -62t24.5 -86q0 -61 -35 -101.5t-96 -56.5q67 -6 110 -48t43 -116q0 -58 -29.5 -105t-84.5 -74.5t-130 -27.5q-138 0 -218 97l71 68q34 -34 67 -49.5t73 -15.5q54 0 86.5 30.5t32.5 82.5q0 58 -30.5 83t-90.5 25h-53l15 91h36q49 0 78.5 27
t29.5 75q0 41 -27 64.5t-72 23.5q-39 0 -71 -14.5t-64 -44.5l-65 71q91 86 211 86q67 0 115.5 -23z" />
    <glyph glyph-name="four" unicode="4" horiz-adv-x="550" 
d="M525 252v-98h-81v-154h-125v154h-286v88l196 444l109 -41l-172 -393h154l13 169h111v-169h81z" />
    <glyph glyph-name="five" unicode="5" horiz-adv-x="520" 
d="M439 578h-252v-167q50 25 102 25q56 0 100 -26t68.5 -75t24.5 -116q0 -69 -31 -122t-88 -82.5t-132 -29.5q-67 0 -118.5 24.5t-93.5 70.5l73 68q58 -64 136 -64q57 0 89.5 35t32.5 100q0 125 -108 125q-23 0 -43 -5.5t-44 -17.5h-91v352h390z" />
    <glyph glyph-name="six" unicode="6" horiz-adv-x="550" 
d="M424.5 422.5q43.5 -25.5 68.5 -75t25 -118.5q0 -70 -29 -125.5t-81.5 -87t-119.5 -31.5q-124 0 -183.5 87t-59.5 239q0 112 33.5 196.5t96 131t146.5 46.5q83 0 147 -43l-48 -79q-46 27 -97 27q-64 0 -102.5 -57.5t-43.5 -158.5q61 74 151 74q53 0 96.5 -25.5z
M363.5 119.5q25.5 39.5 25.5 107.5q0 69 -23.5 98.5t-68.5 29.5q-34 0 -64.5 -18.5t-54.5 -50.5q2 -109 27.5 -157.5t82.5 -48.5q50 0 75.5 39.5z" />
    <glyph glyph-name="seven" unicode="7" horiz-adv-x="457" 
d="M434 673v-90l-249 -596l-117 38l234 549h-284v99h416z" />
    <glyph glyph-name="eight" unicode="8" horiz-adv-x="567" 
d="M531 181q0 -55 -31 -99.5t-87.5 -70.5t-131.5 -26q-74 0 -129 25.5t-85 69.5t-30 99q0 116 128 170q-101 55 -101 159q0 53 29.5 93.5t80 62t110.5 21.5q61 0 111 -20t79.5 -59t29.5 -93q0 -95 -111 -152q138 -62 138 -180zM213.5 572q-25.5 -23 -25.5 -66
q0 -40 24 -63.5t77 -42.5l19 -7q39 24 55.5 50.5t16.5 63.5q0 41 -25 64.5t-71 23.5q-45 0 -70.5 -23zM370 108q31 28 31 73q0 46 -27 72.5t-96 51.5l-31 11q-81 -43 -81 -133q0 -48 32 -75.5t86 -27.5q55 0 86 28z" />
    <glyph glyph-name="nine" unicode="9" horiz-adv-x="544" 
d="M444 614.5q61 -70.5 61 -190.5q0 -137 -41 -224.5t-126 -139.5t-225 -85l-27 91q132 35 200.5 90.5t81.5 151.5q-55 -70 -144 -70q-52 0 -95.5 26.5t-68.5 76.5t-25 116q0 69 31 120.5t84.5 79.5t118.5 28q114 0 175 -70.5zM374 400q1 103 -23.5 146.5t-81.5 43.5
q-50 0 -78 -34t-28 -97q0 -66 26.5 -97t69.5 -31q68 0 115 69z" />
    <glyph glyph-name="colon" unicode=":" horiz-adv-x="240" 
d="M177 123.5q24 -23.5 24 -57.5q0 -33 -24 -57t-58 -24q-33 0 -56.5 24t-23.5 57q0 34 23 57.5t57 23.5t58 -23.5zM177 479.5q24 -23.5 24 -57.5q0 -33 -24 -57t-58 -24q-33 0 -56.5 24t-23.5 57q0 34 23 57.5t57 23.5t58 -23.5z" />
    <glyph glyph-name="semicolon" unicode=";" horiz-adv-x="240" 
d="M177.5 124q23.5 -23 23.5 -58q0 -19 -6 -39t-20 -51l-65 -148h-78l41 172q-34 23 -34 67q0 34 23 57t57 23q35 0 58.5 -23zM177 479.5q24 -23.5 24 -57.5q0 -33 -24 -57t-58 -24q-33 0 -56.5 24t-23.5 57q0 34 23 57.5t57 23.5t58 -23.5z" />
    <glyph glyph-name="less" unicode="&#x3c;" horiz-adv-x="510" 
d="M427 565l42 -95l-321 -137l321 -135l-42 -97l-385 172v119z" />
    <glyph glyph-name="equal" unicode="=" horiz-adv-x="510" 
d="M55 381v102h401v-102h-401zM55 179v102h401v-102h-401z" />
    <glyph glyph-name="greater" unicode="&#x3e;" horiz-adv-x="510" 
d="M84 565l385 -173v-119l-385 -172l-42 97l320 135l-320 137z" />
    <glyph glyph-name="question" unicode="?" horiz-adv-x="471" 
d="M355.5 684q46.5 -22 70.5 -59t24 -81q0 -40 -14 -68.5t-34 -46.5t-52 -40q-41 -27 -61 -50t-20 -61v-34h-119v39q0 45 14.5 76.5t34.5 50t52 40.5q34 23 49.5 40t15.5 44q0 33 -22.5 51.5t-61.5 18.5q-71 0 -127 -66l-83 65q87 103 221 103q66 0 112.5 -22zM269 123.5
q24 -23.5 24 -57.5q0 -33 -24 -57t-58 -24q-33 0 -56.5 24t-23.5 57q0 34 23 57.5t57 23.5t58 -23.5z" />
    <glyph glyph-name="at" unicode="@" horiz-adv-x="1020" 
d="M760.5 652q98.5 -54 150 -144t51.5 -196q0 -87 -24.5 -156.5t-72 -109.5t-112.5 -40q-56 0 -88.5 30.5t-42.5 72.5q-19 -44 -55 -72t-88 -28q-86 0 -132 61t-46 162q0 125 60.5 195.5t165.5 70.5q86 0 166 -43v-252q0 -62 13.5 -86.5t42.5 -24.5q45 0 69 51.5t24 166.5
q0 141 -80 220t-236 79q-108 0 -186.5 -47t-120 -130.5t-41.5 -190.5q0 -109 40.5 -190.5t119 -126t189.5 -44.5q96 0 194 35l32 -92q-109 -41 -227 -41q-140 0 -246 56.5t-164 160.5t-58 242q0 132 59.5 238t166.5 166.5t242 60.5q136 0 234.5 -54zM550 114q21 20 32 47
v240q-27 12 -57 12q-52 0 -79 -43.5t-27 -137.5q0 -71 18.5 -104.5t57.5 -33.5q34 0 55 20z" />
    <glyph glyph-name="A" unicode="A" horiz-adv-x="583" 
d="M447 0l-43 160h-229l-43 -160h-137l215 691h163l214 -691h-140zM201 260h176l-88 330z" />
    <glyph glyph-name="B" unicode="B" horiz-adv-x="613" 
d="M534.5 315q43.5 -38 43.5 -116q0 -108 -76 -153.5t-213 -45.5h-208v691h181q286 0 286 -176q0 -61 -37 -99.5t-91 -49.5q71 -13 114.5 -51zM213 594v-187h81q55 0 87 24.5t32 72.5q0 50 -33.5 70t-104.5 20h-62zM401.5 121q38.5 22 38.5 83q0 59 -36.5 85t-99.5 26h-91
v-216h77q73 0 111.5 22z" />
    <glyph glyph-name="C" unicode="C" horiz-adv-x="568" 
d="M455 688q47 -18 92 -55l-67 -78q-61 49 -128 49q-77 0 -123.5 -62t-46.5 -195q0 -130 46 -193t124 -63q41 0 73 14.5t68 41.5l62 -78q-35 -36 -88.5 -60t-119.5 -24q-90 0 -159 42t-107 123.5t-38 196.5q0 113 39.5 194t108 123t154.5 42q63 0 110 -18z" />
    <glyph glyph-name="D" unicode="D" horiz-adv-x="648" 
d="M508.5 618q96.5 -73 96.5 -269q0 -192 -95 -270.5t-241 -78.5h-188v691h170q161 0 257.5 -73zM213 592v-493h65q88 0 138 54.5t50 195.5q0 98 -25.5 151.5t-67 72.5t-99.5 19h-61z" />
    <glyph glyph-name="E" unicode="E" horiz-adv-x="530" 
d="M482 691l-14 -98h-255v-193h222v-98h-222v-203h273v-99h-405v691h401z" />
    <glyph glyph-name="F" unicode="F" horiz-adv-x="489" 
d="M81 0v691h391l-14 -98h-245v-207h213v-98h-213v-288h-132z" />
    <glyph glyph-name="G" unicode="G" horiz-adv-x="638" 
d="M480.5 685.5q52.5 -20.5 99.5 -60.5l-71 -74q-37 29 -69.5 42t-75.5 13q-80 0 -131 -64t-51 -196q0 -138 40.5 -199t123.5 -61q63 0 110 27v180h-104l-14 98h248v-338q-112 -68 -238 -68q-148 0 -226.5 92t-78.5 269q0 113 42.5 194.5t114.5 123.5t160 42
q68 0 120.5 -20.5z" />
    <glyph glyph-name="H" unicode="H" horiz-adv-x="672" 
d="M459 0v309h-246v-309h-132v691h132v-277h246v277h133v-691h-133z" />
    <glyph glyph-name="I" unicode="I" horiz-adv-x="294" 
d="M213 691v-691h-132v691h132z" />
    <glyph glyph-name="J" unicode="J" horiz-adv-x="312" 
d="M235 101q0 -111 -52.5 -167.5t-150.5 -88.5l-35 95q44 17 66.5 38.5t30.5 51t8 76.5v585h133v-590z" />
    <glyph glyph-name="K" unicode="K" horiz-adv-x="613" 
d="M213 691v-691h-132v691h132zM601 691l-239 -313l258 -378h-157l-244 369l239 322h143z" />
    <glyph glyph-name="L" unicode="L" horiz-adv-x="506" 
d="M213 691v-583h277l-15 -108h-394v691h132z" />
    <glyph glyph-name="M" unicode="M" horiz-adv-x="782" 
d="M736 0h-129l-18 289q-9 155 -9 246v36l-126 -496h-125l-134 497q2 -66 2 -100q0 -91 -6 -187l-17 -285h-128l55 691h170l123 -484l116 484h172z" />
    <glyph glyph-name="N" unicode="N" horiz-adv-x="672" 
d="M591 0h-171l-237 559q9 -74 13.5 -134t4.5 -143v-282h-120v691h167l241 -560q-6 40 -12 105.5t-6 130.5v324h120v-691z" />
    <glyph glyph-name="O" unicode="O" horiz-adv-x="691" 
d="M507 664q68 -42 104.5 -123t36.5 -195q0 -113 -37 -194t-105 -124t-160 -43q-93 0 -161 42t-105 123t-37 195q0 112 37 193.5t105.5 124.5t160.5 43q93 0 161 -42zM224 542.5q-42 -62.5 -42 -197.5q0 -259 164 -259q80 0 121.5 62t41.5 198q0 135 -41.5 197t-121.5 62
t-122 -62.5z" />
    <glyph glyph-name="P" unicode="P" horiz-adv-x="591" 
d="M491.5 636q73.5 -55 73.5 -165q0 -115 -74 -172.5t-197 -57.5h-81v-241h-132v691h204q133 0 206.5 -55zM391 369.5q36 29.5 36 101.5q0 123 -143 123h-71v-254h71q71 0 107 29.5z" />
    <glyph glyph-name="Q" unicode="Q" horiz-adv-x="691" 
d="M595 26q47 -16 89 -46l-82 -107q-58 59 -115.5 87t-147.5 28q-89 0 -156 41.5t-103.5 121.5t-36.5 194q0 112 37 193.5t105.5 124.5t160.5 43q93 0 161 -42t104.5 -123t36.5 -195q0 -119 -42.5 -191.5t-118.5 -112.5q61 0 108 -16zM346 86q80 0 121.5 62t41.5 198
q0 135 -41.5 197t-121.5 62t-122 -62.5t-42 -197.5q0 -259 164 -259z" />
    <glyph glyph-name="R" unicode="R" horiz-adv-x="611" 
d="M297 277h-84v-277h-132v691h206q274 0 274 -203q0 -69 -34 -114t-106 -73l181 -301h-152zM213 372h82q63 0 95.5 27.5t32.5 88.5q0 56 -33.5 81.5t-105.5 25.5h-71v-223z" />
    <glyph glyph-name="S" unicode="S" 
d="M407 685q54 -21 101 -64l-65 -75q-37 31 -74.5 45t-80.5 14q-48 0 -77.5 -21.5t-29.5 -60.5q0 -26 11.5 -43t41.5 -32t89 -33q102 -32 153.5 -79.5t51.5 -138.5q0 -62 -31.5 -110t-90.5 -75t-140 -27q-79 0 -141.5 25.5t-107.5 69.5l68 76q40 -34 83 -51.5t95 -17.5
q57 0 92 27t35 76q0 30 -12 49.5t-41 35t-84 32.5q-110 34 -159 82t-49 126q0 57 30 100t83.5 67t121.5 24q73 0 127 -21z" />
    <glyph glyph-name="T" unicode="T" horiz-adv-x="530" 
d="M525 691l-14 -105h-180v-586h-133v586h-186v105h513z" />
    <glyph glyph-name="U" unicode="U" horiz-adv-x="656" 
d="M585 226q0 -70 -29.5 -124.5t-88 -85.5t-140.5 -31q-124 0 -190 65.5t-66 175.5v465h132v-458q0 -73 30.5 -109t93.5 -36q64 0 94.5 36t30.5 109v458h133v-465z" />
    <glyph glyph-name="V" unicode="V" horiz-adv-x="564" 
d="M568 691l-205 -691h-157l-211 691h142l150 -574l146 574h135z" />
    <glyph glyph-name="W" unicode="W" horiz-adv-x="837" 
d="M821 691l-127 -691h-172l-105 551l-108 -551h-167l-125 691h131l88 -586l113 586h140l111 -586l96 586h125z" />
    <glyph glyph-name="X" unicode="X" horiz-adv-x="562" 
d="M358 373l205 -373h-147l-138 283l-137 -283h-141l200 368l-184 323h147l117 -239l122 239h141z" />
    <glyph glyph-name="Y" unicode="Y" horiz-adv-x="574" 
d="M576 691l-222 -429v-262h-134v261l-222 430h146l146 -321l146 321h140z" />
    <glyph glyph-name="Z" unicode="Z" horiz-adv-x="534" 
d="M496 691v-102l-319 -481h322l-14 -108h-462v101l325 485h-292v105h440z" />
    <glyph glyph-name="bracketleft" unicode="[" horiz-adv-x="323" 
d="M287 820v-100h-118v-741h118v-99h-239v940h239z" />
    <glyph glyph-name="backslash" unicode="\" horiz-adv-x="520" 
d="M198 812l234 -894l-111 -26l-233 895z" />
    <glyph glyph-name="bracketright" unicode="]" horiz-adv-x="323" 
d="M275 820v-940h-239v99h118v742h-118v99h239z" />
    <glyph glyph-name="asciicircum" unicode="^" horiz-adv-x="550" 
d="M333 842l189 -315h-129l-119 214l-116 -214h-130l189 315h116z" />
    <glyph glyph-name="underscore" unicode="_" horiz-adv-x="520" 
d="M13 -158v103h494v-103h-494z" />
    <glyph glyph-name="grave" unicode="`" horiz-adv-x="322" 
d="M82 820l210 -125l-37 -65l-225 90z" />
    <glyph glyph-name="a" unicode="a" horiz-adv-x="546" 
d="M477.5 94.5q9.5 -14.5 30.5 -22.5l-27 -85q-45 4 -73.5 22t-43.5 55q-27 -40 -67.5 -59.5t-90.5 -19.5q-79 0 -125 45t-46 118q0 86 62.5 131.5t178.5 45.5h66v30q0 51 -23.5 71.5t-75.5 20.5q-58 0 -140 -28l-30 87q99 38 192 38q203 0 203 -182v-222q0 -31 9.5 -45.5z
M342 143v107h-53q-124 0 -124 -92q0 -38 19 -59t56 -21q65 0 102 65z" />
    <glyph glyph-name="b" unicode="b" horiz-adv-x="596" 
d="M495 470.5q52 -73.5 52 -205.5q0 -82 -25.5 -145.5t-72.5 -99t-111 -35.5q-43 0 -78.5 18t-61.5 51l-8 -54h-113v741l128 14v-286q26 36 63.5 55.5t82.5 19.5q92 0 144 -73.5zM384 125.5q29 44.5 29 139.5q0 100 -27 141.5t-76 41.5q-61 0 -105 -72v-234q17 -29 42.5 -45
t55.5 -16q52 0 81 44.5z" />
    <glyph glyph-name="c" unicode="c" horiz-adv-x="478" 
d="M383.5 529q41.5 -15 78.5 -47l-57 -77q-27 20 -52 29t-55 9q-119 0 -119 -181q0 -92 31 -132.5t88 -40.5q28 0 51.5 9t55.5 29l57 -81q-75 -61 -171 -61q-76 0 -132 33.5t-86 95.5t-30 146t30 148.5t86 100t131 35.5q52 0 93.5 -15z" />
    <glyph glyph-name="d" unicode="d" horiz-adv-x="599" 
d="M522 741v-741h-113l-9 67q-25 -38 -63.5 -60t-87.5 -22q-97 0 -149 75t-52 204q0 81 26 144.5t74.5 99.5t112.5 36q76 0 133 -57v268zM345 98.5q26 16.5 49 51.5v242q-23 28 -46.5 42t-54.5 14q-51 0 -80.5 -45.5t-29.5 -137.5q0 -98 26 -140.5t76 -42.5q34 0 60 16.5z
" />
    <glyph glyph-name="e" unicode="e" horiz-adv-x="549" 
d="M508 225h-332q6 -77 40 -110t90 -33q35 0 66 11.5t66 35.5l53 -73q-88 -71 -196 -71q-121 0 -186.5 74t-65.5 202q0 81 28 145.5t81 101t126 36.5q111 0 172 -70.5t61 -196.5q0 -10 -3 -52zM384 314q0 139 -103 139q-47 0 -73.5 -34.5t-31.5 -110.5h208v6z" />
    <glyph glyph-name="f" unicode="f" horiz-adv-x="347" 
d="M236.5 640.5q-16.5 -17.5 -16.5 -55.5v-56h127l-14 -92h-113v-437h-128v437h-86v92h86v58q0 75 48.5 121.5t137.5 46.5q70 0 137 -31l-37 -86q-43 20 -87 20q-38 0 -54.5 -17.5z" />
    <glyph glyph-name="g" unicode="g" horiz-adv-x="537" 
d="M537 501q-51 -18 -153 -18q49 -22 72.5 -54.5t23.5 -81.5q0 -52 -25.5 -92t-74 -63t-113.5 -23q-36 0 -63 8q-22 -15 -22 -39q0 -37 64 -37h81q58 0 101.5 -19t67.5 -53.5t24 -77.5q0 -80 -68 -124.5t-196 -44.5q-92 0 -144.5 19t-74.5 55t-22 92h115q0 -28 10.5 -44
t38 -24t79.5 -8q73 0 103 18t30 52q0 30 -23 46.5t-67 16.5h-80q-75 0 -113 29t-38 73q0 28 16.5 54t45.5 44q-48 25 -70.5 61.5t-22.5 87.5q0 57 28 100t77.5 66.5t113.5 23.5q84 -2 135.5 12.5t111.5 46.5zM192.5 429.5q-24.5 -27.5 -24.5 -73.5q0 -48 25 -76t69 -28
q46 0 70 27.5t24 77.5q0 100 -96 100q-43 0 -67.5 -27.5z" />
    <glyph glyph-name="h" unicode="h" horiz-adv-x="581" 
d="M469 501q40 -43 40 -118v-383h-128v363q0 47 -16.5 66t-48.5 19t-59 -20.5t-52 -58.5v-369h-128v740l128 13v-287q64 78 154 78q70 0 110 -43z" />
    <glyph glyph-name="i" unicode="i" horiz-adv-x="282" 
d="M205 529v-529h-128v529h128zM198.5 774.5q22.5 -22.5 22.5 -55.5t-22.5 -55t-58.5 -22q-35 0 -57.5 22t-22.5 55t22.5 55.5t57.5 22.5q36 0 58.5 -22.5z" />
    <glyph glyph-name="j" unicode="j" horiz-adv-x="281" 
d="M204 47q0 -78 -22.5 -127.5t-63.5 -79.5t-107 -57l-41 93q39 18 61 35.5t33.5 47.5t11.5 80v490h128v-482zM197.5 774.5q22.5 -22.5 22.5 -55.5t-22.5 -55t-58.5 -22q-35 0 -57.5 22t-22.5 55t22.5 55.5t57.5 22.5q36 0 58.5 -22.5z" />
    <glyph glyph-name="k" unicode="k" horiz-adv-x="534" 
d="M205 755v-755h-128v741zM522 529l-176 -233l193 -296h-147l-182 289l177 240h135z" />
    <glyph glyph-name="l" unicode="l" horiz-adv-x="295" 
d="M106.5 20.5q-34.5 35.5 -34.5 100.5v620l128 14v-630q0 -37 30 -37q15 0 30 5l27 -90q-40 -18 -85 -18q-61 0 -95.5 35.5z" />
    <glyph glyph-name="m" unicode="m" horiz-adv-x="850" 
d="M740 500.5q38 -43.5 38 -117.5v-383h-128v363q0 85 -58 85q-31 0 -53.5 -19.5t-46.5 -60.5v-368h-128v363q0 85 -58 85q-32 0 -54.5 -19.5t-46.5 -60.5v-368h-128v529h111l10 -69q60 84 153 84q46 0 79.5 -23.5t48.5 -65.5q32 43 70.5 66t88.5 23q64 0 102 -43.5z" />
    <glyph glyph-name="n" unicode="n" horiz-adv-x="581" 
d="M469.5 501.5q39.5 -42.5 39.5 -118.5v-383h-128v363q0 47 -16.5 66t-48.5 19q-33 0 -59.5 -20.5t-51.5 -59.5v-368h-128v529h111l10 -69q65 84 161 84q71 0 110.5 -42.5z" />
    <glyph glyph-name="o" unicode="o" horiz-adv-x="584" 
d="M475.5 469.5q65.5 -74.5 65.5 -204.5q0 -83 -30 -146.5t-86 -98.5t-133 -35q-117 0 -183 74.5t-66 205.5q0 83 30 146t86.5 98t133.5 35q117 0 182.5 -74.5zM178 265q0 -94 28.5 -138.5t85.5 -44.5t85.5 45t28.5 138t-28.5 137.5t-84.5 44.5q-115 0 -115 -182z" />
    <glyph glyph-name="p" unicode="p" horiz-adv-x="596" 
d="M499 471q48 -73 48 -205q0 -82 -24.5 -145.5t-72 -99.5t-112.5 -36q-84 0 -133 58v-247l-128 -14v747h112l7 -65q31 40 71 60t84 20q100 0 148 -73zM413 265q0 97 -25 140t-75 43q-32 0 -60 -19.5t-48 -52.5v-238q37 -55 97 -55q111 0 111 182z" />
    <glyph glyph-name="q" unicode="q" horiz-adv-x="599" 
d="M522 529v-747l-128 14v264q-55 -75 -145 -75q-97 0 -149 75t-52 204q0 81 26 144.5t74.5 99.5t112.5 36q84 0 143 -67l7 52h111zM345 98.5q26 16.5 49 51.5v242q-23 28 -46.5 42t-53.5 14q-52 0 -81.5 -45.5t-29.5 -137.5q0 -98 26 -140.5t76 -42.5q34 0 60 16.5z" />
    <glyph glyph-name="r" unicode="r" horiz-adv-x="394" 
d="M391 536l-22 -124q-24 6 -47 6q-47 0 -74 -33.5t-43 -102.5v-282h-128v529h111l12 -104q19 57 55 87.5t83 30.5q29 0 53 -7z" />
    <glyph glyph-name="s" unicode="s" horiz-adv-x="476" 
d="M432 481l-50 -75q-68 43 -133 43q-38 0 -59 -14.5t-21 -38.5q0 -18 9 -30t32.5 -22.5t69.5 -23.5q86 -23 127.5 -61t41.5 -106q0 -79 -64 -123.5t-159 -44.5q-65 0 -118.5 20t-92.5 55l64 72q69 -52 144 -52q43 0 68.5 17t25.5 47q0 23 -9.5 36.5t-34 24t-76.5 25.5
q-81 22 -119 61.5t-38 98.5q0 44 25.5 79t72 55t106.5 20q107 0 188 -63z" />
    <glyph glyph-name="t" unicode="t" horiz-adv-x="375" 
d="M380 25q-28 -20 -62.5 -30t-70.5 -10q-78 1 -118.5 44.5t-40.5 128.5v279h-83v92h83v117l128 15v-132h123l-13 -92h-110v-276q0 -39 13.5 -56t42.5 -17t63 19z" />
    <glyph glyph-name="u" unicode="u" horiz-adv-x="577" 
d="M500 0h-111l-7 74q-29 -45 -68.5 -67t-93.5 -22q-71 0 -109.5 43.5t-38.5 120.5v380h128v-364q0 -45 15.5 -64t49.5 -19q61 0 107 75v372h128v-529z" />
    <glyph glyph-name="v" unicode="v" horiz-adv-x="504" 
d="M502 529l-172 -529h-153l-175 529h139l113 -426l116 426h132z" />
    <glyph glyph-name="w" unicode="w" horiz-adv-x="734" 
d="M723 529l-115 -529h-160l-80 415l-82 -415h-157l-117 529h128l74 -435l92 435h131l84 -435l79 435h123z" />
    <glyph glyph-name="x" unicode="x" horiz-adv-x="500" 
d="M326 283l177 -283h-148l-109 210l-108 -210h-141l176 279l-158 250h146l90 -180l89 180h139z" />
    <glyph glyph-name="y" unicode="y" horiz-adv-x="506" 
d="M333 -2q-32 -98 -97 -152.5t-178 -63.5l-13 93q52 8 83.5 22.5t50.5 38.5t35 64h-44l-168 529h136l115 -444l120 444h132z" />
    <glyph glyph-name="z" unicode="z" horiz-adv-x="449" 
d="M421 529v-92l-256 -337h261l-13 -100h-395v92l257 337h-235v100h381z" />
    <glyph glyph-name="braceleft" unicode="{" horiz-adv-x="323" 
d="M288 746q-47 0 -65.5 -14.5t-18.5 -49.5v-210q0 -58 -22 -84t-69 -39q47 -12 69 -38t22 -83v-210q0 -35 19 -49.5t65 -14.5v-92q-78 0 -122.5 17t-63 51t-18.5 89v199q0 44 -14.5 61.5t-52.5 17.5v105q38 0 52.5 18t14.5 62v199q0 56 18.5 90t62.5 50.5t123 16.5v-92z
" />
    <glyph glyph-name="bar" unicode="|" horiz-adv-x="388" 
d="M253 809v-913h-118v913h118z" />
    <glyph glyph-name="braceright" unicode="}" horiz-adv-x="323" 
d="M158 821.5q44 -16.5 62.5 -50.5t18.5 -90v-199q0 -44 14.5 -62t53.5 -18v-105q-39 0 -53.5 -17.5t-14.5 -61.5v-199q0 -55 -18.5 -89t-63 -51t-122.5 -17v92q46 0 65 14.5t19 49.5v210q0 57 22 83t69 38q-47 13 -69 39t-22 84v210q0 35 -18.5 49.5t-65.5 14.5v92
q79 0 123 -16.5z" />
    <glyph glyph-name="asciitilde" unicode="~" horiz-adv-x="502" 
d="M274.5 249.5q-23.5 9.5 -51.5 27.5q-19 12 -31.5 18t-25.5 6q-23 0 -38.5 -13.5t-31.5 -38.5l-71 36q57 113 150 113q31 0 54 -9.5t50 -26.5q19 -12 32 -18t27 -6q22 0 38 12.5t32 35.5l69 -37q-54 -109 -147 -109q-32 0 -55.5 9.5z" />
    <glyph glyph-name="uni00A0" unicode="&#xa0;" horiz-adv-x="250" 
 />
    <glyph glyph-name="exclamdown" unicode="&#xa1;" horiz-adv-x="241" 
d="M177.5 479q23.5 -24 23.5 -57q0 -34 -23 -57.5t-57 -23.5t-58 23.5t-24 57.5q0 33 24 57t58 24q33 0 56.5 -24zM174 241l16 -447h-138l16 447h106z" />
    <glyph glyph-name="cent" unicode="&#xa2;" horiz-adv-x="478" 
d="M462 46q-54 -45 -124 -57v-147h-99v147q-92 17 -144 88.5t-52 182.5q0 113 52.5 188t144.5 92v148h98v-147q68 -12 124 -59l-57 -77q-27 20 -52 29t-55 9q-119 0 -119 -181q0 -92 31 -132.5t88 -40.5q28 0 51.5 9t55.5 29z" />
    <glyph glyph-name="sterling" unicode="&#xa3;" horiz-adv-x="531" 
d="M229 148q-13 -28 -50 -48h313l-15 -100h-444v95q36 12 53.5 27t23.5 37t6 61v96h-67v72h67v99q0 88 53 143t149 55q62 0 109 -22.5t84 -69.5l-80 -60q-22 28 -46 40.5t-56 12.5q-43 0 -65 -25.5t-22 -73.5v-99h195v-72h-195v-92q0 -48 -13 -76z" />
    <glyph glyph-name="currency" unicode="&#xa4;" 
d="M462 221l76 -75l-63 -63l-78 76q-51 -31 -118 -31q-63 0 -116 32l-79 -77l-61 63l77 77q-34 51 -34 118q0 65 33 118l-76 79l63 63l78 -79q51 32 115 32q68 0 119 -31l78 78l62 -63l-76 -77q35 -52 35 -120t-35 -120zM362 251q28 32 28 91q0 58 -28 90t-81 32t-80.5 -32
t-27.5 -90t27.5 -90.5t80.5 -32.5t81 32z" />
    <glyph glyph-name="yen" unicode="&#xa5;" horiz-adv-x="554" 
d="M555 673l-183 -324h105v-73h-136v-80h136v-72h-136v-124h-128v124h-135v72h135v80h-135v73h104l-184 324h138l144 -288l142 288h133z" />
    <glyph glyph-name="brokenbar" unicode="&#xa6;" horiz-adv-x="388" 
d="M253 809v-366h-118v366h118zM253 262v-366h-118v366h118z" />
    <glyph glyph-name="section" unicode="&#xa7;" horiz-adv-x="542" 
d="M446 133q13 -24 13 -58q0 -69 -57.5 -111t-152.5 -42q-102 0 -181 53l44 78q61 -38 134 -38q41 0 65 14t24 39q0 21 -9 33.5t-34 24.5t-78 29q-80 25 -117 57.5t-37 91.5q0 38 21.5 69.5t57.5 52.5q-28 20 -41 45t-13 60q0 69 55.5 110.5t146.5 41.5q105 0 183 -55
l-44 -75q-64 39 -134 39q-41 0 -62.5 -14.5t-21.5 -40.5q0 -20 9 -33t34 -25.5t76 -28.5q80 -26 117.5 -60t37.5 -90q0 -38 -21 -69t-56 -53q28 -21 41 -45zM334 215q16 16 24.5 34t8.5 34q0 20 -8.5 34t-30.5 25.5t-64 26.5q-28 9 -58 21q-14 -16 -22 -34.5t-8 -33.5
q0 -31 18 -47t68 -33z" />
    <glyph glyph-name="dieresis" unicode="&#xa8;" horiz-adv-x="422" 
d="M149 765q20 -20 20 -49t-20 -49t-49 -20q-30 0 -50.5 20t-20.5 49t20.5 49t50.5 20q29 0 49 -20zM371 765q20 -20 20 -49t-20 -49t-50 -20q-29 0 -49.5 20t-20.5 49t20.5 49t49.5 20q30 0 50 -20z" />
    <glyph glyph-name="copyright" unicode="&#xa9;" horiz-adv-x="810" 
d="M570.5 716.5q74.5 -41.5 118 -116t43.5 -167.5t-43.5 -167t-118 -115.5t-164.5 -41.5t-165 41.5t-119 115.5t-44 167t44 167.5t119 116t165 41.5t164.5 -41.5zM278 658.5q-57 -32.5 -89.5 -91.5t-32.5 -134t32.5 -133.5t89.5 -90.5t128 -32t127.5 32t89 90.5t32.5 133.5
t-32.5 134t-89.5 91.5t-127 32.5q-71 0 -128 -32.5zM532 582l-42 -55q-18 14 -35.5 20t-38.5 6q-37 0 -59.5 -29t-22.5 -90q0 -60 21.5 -89t59.5 -29q24 0 43 7.5t39 23.5l39 -57q-55 -50 -127 -50q-78 0 -124.5 51t-46.5 143q0 60 22.5 104t61 67t86.5 23q70 0 124 -46z
" />
    <glyph glyph-name="ordfeminine" unicode="&#xaa;" horiz-adv-x="500" 
d="M298 527v17q0 35 -16.5 48t-57.5 13q-48 0 -111 -21l-28 78q81 29 158 29q89 0 130.5 -35.5t41.5 -105.5v-154q0 -23 7 -33.5t23 -15.5l-25 -78q-37 3 -61 16t-39 40q-42 -58 -127 -58q-63 0 -100.5 35t-37.5 90q0 65 51 100t146 35h46zM298 389v71h-34q-88 0 -88 -60
q0 -23 13.5 -35.5t38.5 -12.5q44 0 70 37zM61 102h394v-102h-394v102z" />
    <glyph glyph-name="guillemotleft" unicode="&#xab;" horiz-adv-x="604" 
d="M228 547l78 -53l-132 -208l132 -209l-78 -52l-183 219v83zM481 547l78 -53l-132 -208l132 -209l-78 -52l-183 219v83z" />
    <glyph glyph-name="logicalnot" unicode="&#xac;" horiz-adv-x="517" 
d="M462 377v-251h-109v149h-298v102h407z" />
    <glyph glyph-name="uni00AD" unicode="&#xad;" horiz-adv-x="405" 
d="M52 262v102h302v-102h-302z" />
    <glyph glyph-name="registered" unicode="&#xae;" horiz-adv-x="639" 
d="M454.5 720q60.5 -35 95.5 -96t35 -136q0 -74 -34.5 -134.5t-95.5 -95t-136 -34.5q-74 0 -134.5 34.5t-95.5 95t-35 134.5t35 135.5t96 96.5t134 35q75 0 135.5 -35zM422 309q45 26 70 72.5t25 106.5q0 61 -25 108t-70 73.5t-103 26.5q-56 0 -101 -26.5t-70.5 -73.5
t-25.5 -108q0 -60 25.5 -106.5t70 -72.5t101.5 -26q58 0 103 26zM413.5 500.5q-16.5 -19.5 -44.5 -29.5l74 -116h-75l-59 104h-23v-104h-65v279h81q128 0 128 -86q0 -28 -16.5 -47.5zM286 511h29q49 0 49 38q0 36 -50 36h-28v-74z" />
    <glyph glyph-name="macron" unicode="&#xaf;" horiz-adv-x="351" 
d="M321 661h-291v91h291v-91z" />
    <glyph glyph-name="degree" unicode="&#xb0;" horiz-adv-x="522" 
d="M135.5 395q-39.5 20 -64 58t-24.5 88t24.5 87.5t63.5 57.5t83 20q45 0 84.5 -20t63.5 -57.5t24 -88.5q0 -50 -24.5 -87.5t-64 -57.5t-83.5 -20q-43 0 -82.5 20zM274 476q22 23 22 64t-22 64.5t-56 23.5t-55.5 -23t-21.5 -64t21.5 -64.5t55.5 -23.5t56 23z" />
    <glyph glyph-name="plusminus" unicode="&#xb1;" horiz-adv-x="517" 
d="M58 0v102h401v-102h-401zM314 585v-153h149v-101h-149v-153h-110v153h-148v101h148v153h110z" />
    <glyph glyph-name="uni00B2" unicode="&#xb2;" horiz-adv-x="400" 
d="M305 714q40 -35 40 -88q0 -33 -15 -62.5t-51.5 -67.5t-106.5 -98h182l-10 -77h-284v71q80 75 116 112.5t51 62.5t15 50q0 26 -15.5 40.5t-41.5 14.5q-24 0 -42.5 -10t-38.5 -33l-59 47q58 73 150 73q70 0 110 -35z" />
    <glyph glyph-name="uni00B3" unicode="&#xb3;" horiz-adv-x="400" 
d="M305.5 718.5q38.5 -30.5 38.5 -77.5q0 -37 -23.5 -62.5t-66.5 -35.5q47 -4 76 -29.5t29 -72.5q0 -56 -45 -93.5t-123 -37.5q-94 0 -150 64l56 53q20 -21 41 -30.5t47 -9.5q32 0 51 15.5t19 44.5q0 31 -18.5 45t-54.5 14h-36l12 68h24q30 0 47 14t17 39q0 23 -16 35.5
t-43 12.5q-44 0 -86 -36l-50 53q61 57 147 57q69 0 107.5 -30.5z" />
    <glyph glyph-name="acute" unicode="&#xb4;" horiz-adv-x="322" 
d="M240 820l52 -100l-226 -90l-36 65z" />
    <glyph glyph-name="uni00B5" unicode="&#xb5;" horiz-adv-x="585" 
d="M408 -15q-10 23 -15 42t-9 49q-22 -38 -53 -62t-68 -24q-32 0 -53.5 10.5t-38.5 35.5q15 -34 22 -64t7 -77v-99l-123 -13v746h128v-367q0 -74 63 -74q64 0 105 78v363h128v-348q0 -100 25 -181z" />
    <glyph glyph-name="paragraph" unicode="&#xb6;" horiz-adv-x="763" 
d="M637 691v-894l-113 -16v817h-102v-801l-113 -16v491q-115 4 -174 61t-59 149q0 99 68 154t188 55h305z" />
    <glyph glyph-name="periodcentered" unicode="&#xb7;" horiz-adv-x="240" 
d="M177 366.5q24 -23.5 24 -57.5q0 -33 -24 -57t-58 -24q-33 0 -56.5 24t-23.5 57q0 34 23 57.5t57 23.5t58 -23.5z" />
    <glyph glyph-name="cedilla" unicode="&#xb8;" horiz-adv-x="300" 
d="M171 -52q50 -5 74.5 -29.5t24.5 -62.5q0 -50 -38 -79.5t-99 -29.5q-31 0 -58 7.5t-45 20.5l31 63q30 -16 63 -16q49 0 49 34q0 20 -21.5 29t-69.5 9l15 122h74v-68z" />
    <glyph glyph-name="uni00B9" unicode="&#xb9;" horiz-adv-x="400" 
d="M288 740v-419h-98v323l-95 -57l-44 67l148 86h89z" />
    <glyph glyph-name="ordmasculine" unicode="&#xba;" horiz-adv-x="500" 
d="M401 635q54 -56 54 -156q0 -96 -54.5 -154t-150.5 -58t-150.5 56.5t-54.5 156.5q0 96 55.5 153.5t150.5 57.5q96 0 150 -56zM188.5 574q-20.5 -30 -20.5 -94q0 -65 20.5 -95.5t61.5 -30.5q42 0 62 30.5t20 94.5q0 65 -20 95t-61 30q-42 0 -62.5 -30zM50 0v102h401v-102
h-401z" />
    <glyph glyph-name="guillemotright" unicode="&#xbb;" horiz-adv-x="598" 
d="M123 547l183 -220v-83l-183 -219l-78 52l131 209l-131 208zM371 547l183 -220v-83l-183 -219l-78 52l131 209l-131 208z" />
    <glyph glyph-name="onequarter" unicode="&#xbc;" horiz-adv-x="952" 
d="M288 691v-419h-98v323l-95 -57l-44 67l148 86h89zM642 755l77 -38l-409 -799l-77 38zM919 164v-74h-50v-90h-95l-1 90h-189v67l125 271l84 -31l-106 -233h87l15 99h80v-99h50z" />
    <glyph glyph-name="onehalf" unicode="&#xbd;" horiz-adv-x="952" 
d="M288 691v-419h-98v323l-95 -57l-44 67l148 86h89zM642 755l77 -38l-409 -799l-77 38zM857 393q40 -35 40 -88q0 -33 -15 -62.5t-51.5 -67.5t-106.5 -98h182l-10 -77h-284v71q80 75 116 112.5t51 62.5t15 50q0 26 -15.5 40.5t-41.5 14.5q-24 0 -42.5 -10t-38.5 -33l-59 47
q58 73 150 73q70 0 110 -35z" />
    <glyph glyph-name="threequarters" unicode="&#xbe;" horiz-adv-x="952" 
d="M305.5 669.5q38.5 -30.5 38.5 -77.5q0 -37 -23.5 -62.5t-66.5 -35.5q47 -4 76 -29.5t29 -72.5q0 -56 -45 -93.5t-123 -37.5q-94 0 -150 64l56 53q20 -21 41 -30.5t47 -9.5q32 0 51 15.5t19 44.5q0 31 -18.5 45t-54.5 14h-36l12 68h24q30 0 47 14t17 39q0 23 -16 35.5
t-43 12.5q-44 0 -86 -36l-50 53q61 57 147 57q69 0 107.5 -30.5zM642 755l77 -38l-409 -799l-77 38zM919 164v-74h-50v-90h-95l-1 90h-189v67l125 271l84 -31l-106 -233h87l15 99h80v-99h50z" />
    <glyph glyph-name="questiondown" unicode="&#xbf;" horiz-adv-x="471" 
d="M202.5 364.5q-23.5 23.5 -23.5 57.5q0 33 23.5 57t57.5 24q33 0 56.5 -24t23.5 -57q0 -34 -23 -57.5t-57 -23.5t-57.5 23.5zM115.5 -197q-46.5 22 -70 59t-23.5 81q0 40 14 68.5t33.5 46t52.5 40.5q41 27 60.5 49.5t19.5 58.5v35h120v-40q0 -45 -14.5 -75.5t-34.5 -49
t-52 -39.5q-34 -22 -50 -39.5t-16 -44.5q0 -33 22.5 -51.5t61.5 -18.5q71 0 127 66l84 -65q-89 -103 -222 -103q-66 0 -112.5 22z" />
    <glyph glyph-name="Agrave" unicode="&#xc0;" horiz-adv-x="583" 
d="M447 0l-43 160h-229l-43 -160h-137l215 691h163l214 -691h-140zM201 260h176l-88 330zM205 936l212 -117l-33 -66l-229 83z" />
    <glyph glyph-name="Aacute" unicode="&#xc1;" horiz-adv-x="583" 
d="M447 0l-43 160h-229l-43 -160h-137l215 691h163l214 -691h-140zM201 260h176l-88 330zM373 936l50 -100l-229 -83l-33 66z" />
    <glyph glyph-name="Acircumflex" unicode="&#xc2;" horiz-adv-x="583" 
d="M447 0l-43 160h-229l-43 -160h-137l215 691h163l214 -691h-140zM201 260h176l-88 330zM161 757l-49 55l139 121h80l139 -121l-49 -55l-130 82z" />
    <glyph glyph-name="Atilde" unicode="&#xc3;" horiz-adv-x="583" 
d="M447 0l-43 160h-229l-43 -160h-137l215 691h163l214 -691h-140zM201 260h176l-88 330zM313.5 777.5q-15.5 7.5 -35.5 20.5q-15 10 -24 14.5t-19 4.5q-17 0 -28.5 -10.5t-24.5 -34.5l-69 34q20 47 50 75.5t70 28.5q22 0 37.5 -7t36.5 -20q13 -10 22.5 -14.5t19.5 -4.5
q15 0 27 10t26 33l68 -34q-20 -48 -51 -75.5t-69 -27.5q-21 0 -36.5 7.5z" />
    <glyph glyph-name="Adieresis" unicode="&#xc4;" horiz-adv-x="583" 
d="M447 0l-43 160h-229l-43 -160h-137l215 691h163l214 -691h-140zM201 260h176l-88 330zM230 891q20 -20 20 -49t-20 -49t-49 -20q-30 0 -50.5 20t-20.5 49t20.5 49t50.5 20q29 0 49 -20zM452 891q20 -20 20 -49t-20 -49t-50 -20q-29 0 -49.5 20t-20.5 49t20.5 49t49.5 20
q30 0 50 -20z" />
    <glyph glyph-name="Aring" unicode="&#xc5;" horiz-adv-x="583" 
d="M447 0l-43 160h-229l-43 -160h-137l215 691h163l214 -691h-140zM201 260h176l-88 330zM384 944.5q35 -34.5 35 -85.5q0 -50 -35.5 -85t-91.5 -35q-57 0 -92.5 35t-35.5 85q0 51 35.5 85.5t92.5 34.5t92 -34.5zM256 898q-13 -14 -13 -39t13 -38.5t36 -13.5q22 0 35 13.5
t13 38.5t-13 39t-35 14q-23 0 -36 -14z" />
    <glyph glyph-name="AE" unicode="&#xc6;" horiz-adv-x="832" 
d="M560 99h230v-99h-339l-32 160h-240l-57 -160h-140l273 691h496l-15 -98h-288l44 -194h250v-98h-228zM214 260h185l-67 331z" />
    <glyph glyph-name="Ccedilla" unicode="&#xc7;" horiz-adv-x="568" 
d="M479.5 15.5q-44.5 -22.5 -99.5 -28.5v-39q50 -5 74.5 -29.5t24.5 -62.5q0 -50 -38 -79.5t-99 -29.5q-31 0 -58 7.5t-45 20.5l31 63q30 -16 63 -16q49 0 49 34q0 20 -21.5 29t-69.5 9l12 94q-119 15 -189.5 108t-70.5 251q0 113 39.5 194t108 123t154.5 42q63 0 110 -18
t92 -55l-67 -78q-61 49 -128 49q-77 0 -123.5 -62t-46.5 -195q0 -130 46 -193t124 -63q41 0 73 14.5t68 41.5l62 -78q-31 -31 -75.5 -53.5z" />
    <glyph glyph-name="Egrave" unicode="&#xc8;" horiz-adv-x="530" 
d="M482 691l-14 -98h-255v-193h222v-98h-222v-203h273v-99h-405v691h401zM197 936l212 -117l-33 -66l-229 83z" />
    <glyph glyph-name="Eacute" unicode="&#xc9;" horiz-adv-x="530" 
d="M482 691l-14 -98h-255v-193h222v-98h-222v-203h273v-99h-405v691h401zM365 936l50 -100l-229 -83l-33 66z" />
    <glyph glyph-name="Ecircumflex" unicode="&#xca;" horiz-adv-x="530" 
d="M482 691l-14 -98h-255v-193h222v-98h-222v-203h273v-99h-405v691h401zM153 757l-49 55l139 121h80l139 -121l-49 -55l-130 82z" />
    <glyph glyph-name="Edieresis" unicode="&#xcb;" horiz-adv-x="530" 
d="M482 691l-14 -98h-255v-193h222v-98h-222v-203h273v-99h-405v691h401zM222 891q20 -20 20 -49t-20 -49t-49 -20q-30 0 -50.5 20t-20.5 49t20.5 49t50.5 20q29 0 49 -20zM444 891q20 -20 20 -49t-20 -49t-50 -20q-29 0 -49.5 20t-20.5 49t20.5 49t49.5 20q30 0 50 -20z
" />
    <glyph glyph-name="Igrave" unicode="&#xcc;" horiz-adv-x="294" 
d="M213 691v-691h-132v691h132zM60 936l212 -117l-33 -66l-229 83z" />
    <glyph glyph-name="Iacute" unicode="&#xcd;" horiz-adv-x="294" 
d="M213 691v-691h-132v691h132zM228 936l50 -100l-229 -83l-33 66z" />
    <glyph glyph-name="Icircumflex" unicode="&#xce;" horiz-adv-x="294" 
d="M213 691v-691h-132v691h132zM16 757l-49 55l139 121h80l139 -121l-49 -55l-130 82z" />
    <glyph glyph-name="Idieresis" unicode="&#xcf;" horiz-adv-x="294" 
d="M213 691v-691h-132v691h132zM85 891q20 -20 20 -49t-20 -49t-49 -20q-30 0 -50.5 20t-20.5 49t20.5 49t50.5 20q29 0 49 -20zM307 891q20 -20 20 -49t-20 -49t-50 -20q-29 0 -49.5 20t-20.5 49t20.5 49t49.5 20q30 0 50 -20z" />
    <glyph glyph-name="Eth" unicode="&#xd0;" horiz-adv-x="661" 
d="M521.5 618q96.5 -73 96.5 -269q0 -192 -95 -270.5t-241 -78.5h-188v310h-77v86h77v295h170q161 0 257.5 -73zM429 153.5q50 54.5 50 195.5q0 98 -25.5 151.5t-67 72.5t-99.5 19h-61v-196h145v-86h-145v-211h65q88 0 138 54.5z" />
    <glyph glyph-name="Ntilde" unicode="&#xd1;" horiz-adv-x="672" 
d="M591 0h-171l-237 559q9 -74 13.5 -134t4.5 -143v-282h-120v691h167l241 -560q-6 40 -12 105.5t-6 130.5v324h120v-691zM365.5 777.5q-15.5 7.5 -35.5 20.5q-15 10 -24 14.5t-19 4.5q-17 0 -28.5 -10.5t-24.5 -34.5l-69 34q20 47 50 75.5t70 28.5q22 0 37.5 -7t36.5 -20
q13 -10 22.5 -14.5t19.5 -4.5q15 0 27 10t26 33l68 -34q-20 -48 -51 -75.5t-69 -27.5q-21 0 -36.5 7.5z" />
    <glyph glyph-name="Ograve" unicode="&#xd2;" horiz-adv-x="691" 
d="M507 664q68 -42 104.5 -123t36.5 -195q0 -113 -37 -194t-105 -124t-160 -43q-93 0 -161 42t-105 123t-37 195q0 112 37 193.5t105.5 124.5t160.5 43q93 0 161 -42zM224 542.5q-42 -62.5 -42 -197.5q0 -259 164 -259q80 0 121.5 62t41.5 198q0 135 -41.5 197t-121.5 62
t-122 -62.5zM259 936l212 -117l-33 -66l-229 83z" />
    <glyph glyph-name="Oacute" unicode="&#xd3;" horiz-adv-x="691" 
d="M507 664q68 -42 104.5 -123t36.5 -195q0 -113 -37 -194t-105 -124t-160 -43q-93 0 -161 42t-105 123t-37 195q0 112 37 193.5t105.5 124.5t160.5 43q93 0 161 -42zM224 542.5q-42 -62.5 -42 -197.5q0 -259 164 -259q80 0 121.5 62t41.5 198q0 135 -41.5 197t-121.5 62
t-122 -62.5zM427 936l50 -100l-229 -83l-33 66z" />
    <glyph glyph-name="Ocircumflex" unicode="&#xd4;" horiz-adv-x="691" 
d="M507 664q68 -42 104.5 -123t36.5 -195q0 -113 -37 -194t-105 -124t-160 -43q-93 0 -161 42t-105 123t-37 195q0 112 37 193.5t105.5 124.5t160.5 43q93 0 161 -42zM224 542.5q-42 -62.5 -42 -197.5q0 -259 164 -259q80 0 121.5 62t41.5 198q0 135 -41.5 197t-121.5 62
t-122 -62.5zM215 757l-49 55l139 121h80l139 -121l-49 -55l-130 82z" />
    <glyph glyph-name="Otilde" unicode="&#xd5;" horiz-adv-x="691" 
d="M507 664q68 -42 104.5 -123t36.5 -195q0 -113 -37 -194t-105 -124t-160 -43q-93 0 -161 42t-105 123t-37 195q0 112 37 193.5t105.5 124.5t160.5 43q93 0 161 -42zM224 542.5q-42 -62.5 -42 -197.5q0 -259 164 -259q80 0 121.5 62t41.5 198q0 135 -41.5 197t-121.5 62
t-122 -62.5zM367.5 777.5q-15.5 7.5 -35.5 20.5q-15 10 -24 14.5t-19 4.5q-17 0 -28.5 -10.5t-24.5 -34.5l-69 34q20 47 50 75.5t70 28.5q22 0 37.5 -7t36.5 -20q13 -10 22.5 -14.5t19.5 -4.5q15 0 27 10t26 33l68 -34q-20 -48 -51 -75.5t-69 -27.5q-21 0 -36.5 7.5z" />
    <glyph glyph-name="Odieresis" unicode="&#xd6;" horiz-adv-x="691" 
d="M507 664q68 -42 104.5 -123t36.5 -195q0 -113 -37 -194t-105 -124t-160 -43q-93 0 -161 42t-105 123t-37 195q0 112 37 193.5t105.5 124.5t160.5 43q93 0 161 -42zM224 542.5q-42 -62.5 -42 -197.5q0 -259 164 -259q80 0 121.5 62t41.5 198q0 135 -41.5 197t-121.5 62
t-122 -62.5zM284 891q20 -20 20 -49t-20 -49t-49 -20q-30 0 -50.5 20t-20.5 49t20.5 49t50.5 20q29 0 49 -20zM506 891q20 -20 20 -49t-20 -49t-50 -20q-29 0 -49.5 20t-20.5 49t20.5 49t49.5 20q30 0 50 -20z" />
    <glyph glyph-name="multiply" unicode="&#xd7;" horiz-adv-x="510" 
d="M374 499l73 -73l-118 -117l118 -121l-73 -73l-117 122l-121 -122l-73 73l118 116l-118 122l73 73l117 -123z" />
    <glyph glyph-name="Oslash" unicode="&#xd8;" horiz-adv-x="691" 
d="M610 544q38 -82 38 -198q0 -113 -37 -194t-105 -124t-160 -43q-26 0 -58 5l-36 -121l-103 27l41 128q-71 42 -109 123.5t-38 197.5q0 112 37 193.5t105.5 124.5t160.5 43q32 0 56 -4l37 122l104 -28l-41 -129q70 -41 108 -123zM224 542.5q-42 -62.5 -42 -197.5
q0 -166 58 -222l144 479q-18 3 -38 3q-80 0 -122 -62.5zM467.5 148q41.5 62 41.5 198q0 88 -14.5 142.5t-44.5 81.5l-143 -481q18 -3 39 -3q80 0 121.5 62z" />
    <glyph glyph-name="Ugrave" unicode="&#xd9;" horiz-adv-x="656" 
d="M585 226q0 -70 -29.5 -124.5t-88 -85.5t-140.5 -31q-124 0 -190 65.5t-66 175.5v465h132v-458q0 -73 30.5 -109t93.5 -36q64 0 94.5 36t30.5 109v458h133v-465zM241 936l212 -117l-33 -66l-229 83z" />
    <glyph glyph-name="Uacute" unicode="&#xda;" horiz-adv-x="656" 
d="M585 226q0 -70 -29.5 -124.5t-88 -85.5t-140.5 -31q-124 0 -190 65.5t-66 175.5v465h132v-458q0 -73 30.5 -109t93.5 -36q64 0 94.5 36t30.5 109v458h133v-465zM409 936l50 -100l-229 -83l-33 66z" />
    <glyph glyph-name="Ucircumflex" unicode="&#xdb;" horiz-adv-x="656" 
d="M585 226q0 -70 -29.5 -124.5t-88 -85.5t-140.5 -31q-124 0 -190 65.5t-66 175.5v465h132v-458q0 -73 30.5 -109t93.5 -36q64 0 94.5 36t30.5 109v458h133v-465zM197 757l-49 55l139 121h80l139 -121l-49 -55l-130 82z" />
    <glyph glyph-name="Udieresis" unicode="&#xdc;" horiz-adv-x="656" 
d="M585 226q0 -70 -29.5 -124.5t-88 -85.5t-140.5 -31q-124 0 -190 65.5t-66 175.5v465h132v-458q0 -73 30.5 -109t93.5 -36q64 0 94.5 36t30.5 109v458h133v-465zM266 891q20 -20 20 -49t-20 -49t-49 -20q-30 0 -50.5 20t-20.5 49t20.5 49t50.5 20q29 0 49 -20zM488 891
q20 -20 20 -49t-20 -49t-50 -20q-29 0 -49.5 20t-20.5 49t20.5 49t49.5 20q30 0 50 -20z" />
    <glyph glyph-name="Yacute" unicode="&#xdd;" horiz-adv-x="574" 
d="M576 691l-222 -429v-262h-134v261l-222 430h146l146 -321l146 321h140zM368 936l50 -100l-229 -83l-33 66z" />
    <glyph glyph-name="Thorn" unicode="&#xde;" horiz-adv-x="591" 
d="M492 522.5q73 -55.5 73 -167.5q0 -118 -74 -176.5t-197 -58.5h-81v-120h-132v691h132v-113h72q134 0 207 -55.5zM391 249.5q36 30.5 36 105.5q0 66 -36.5 96t-106.5 30h-71v-262h71q71 0 107 30.5z" />
    <glyph glyph-name="germandbls" unicode="&#xdf;" horiz-adv-x="600" 
d="M401 735.5q44 -19.5 67.5 -53t23.5 -74.5q0 -39 -16 -62.5t-47 -51.5q-22 -19 -32.5 -33t-10.5 -32q0 -22 16 -38t50 -39q37 -26 61 -47.5t41.5 -56.5t17.5 -84q0 -54 -25.5 -95t-69.5 -62.5t-96 -21.5q-63 0 -111 25l38 88q23 -13 58 -13q34 0 54 21t20 60q0 27 -11 48
t-26.5 35t-44.5 36q-43 31 -64.5 57.5t-21.5 69.5q0 35 13 55.5t39 44.5q23 21 34.5 38.5t11.5 44.5q0 31 -21 48.5t-54 17.5q-90 0 -90 -123v-538h-128v536q0 104 57 161.5t163 57.5q60 0 104 -19.5z" />
    <glyph glyph-name="agrave" unicode="&#xe0;" horiz-adv-x="546" 
d="M477.5 94.5q9.5 -14.5 30.5 -22.5l-27 -85q-45 4 -73.5 22t-43.5 55q-27 -40 -67.5 -59.5t-90.5 -19.5q-79 0 -125 45t-46 118q0 86 62.5 131.5t178.5 45.5h66v30q0 51 -23.5 71.5t-75.5 20.5q-58 0 -140 -28l-30 87q99 38 192 38q203 0 203 -182v-222q0 -31 9.5 -45.5z
M342 143v107h-53q-124 0 -124 -92q0 -38 19 -59t56 -21q65 0 102 65zM197 820l210 -125l-37 -65l-225 90z" />
    <glyph glyph-name="aacute" unicode="&#xe1;" horiz-adv-x="546" 
d="M477.5 94.5q9.5 -14.5 30.5 -22.5l-27 -85q-45 4 -73.5 22t-43.5 55q-27 -40 -67.5 -59.5t-90.5 -19.5q-79 0 -125 45t-46 118q0 86 62.5 131.5t178.5 45.5h66v30q0 51 -23.5 71.5t-75.5 20.5q-58 0 -140 -28l-30 87q99 38 192 38q203 0 203 -182v-222q0 -31 9.5 -45.5z
M342 143v107h-53q-124 0 -124 -92q0 -38 19 -59t56 -21q65 0 102 65zM342 820l52 -100l-226 -90l-36 65z" />
    <glyph glyph-name="acircumflex" unicode="&#xe2;" horiz-adv-x="546" 
d="M477.5 94.5q9.5 -14.5 30.5 -22.5l-27 -85q-45 4 -73.5 22t-43.5 55q-27 -40 -67.5 -59.5t-90.5 -19.5q-79 0 -125 45t-46 118q0 86 62.5 131.5t178.5 45.5h66v30q0 51 -23.5 71.5t-75.5 20.5q-58 0 -140 -28l-30 87q99 38 192 38q203 0 203 -182v-222q0 -31 9.5 -45.5z
M342 143v107h-53q-124 0 -124 -92q0 -38 19 -59t56 -21q65 0 102 65zM136 627l-49 55l138 126h81l139 -126l-49 -55l-130 88z" />
    <glyph glyph-name="atilde" unicode="&#xe3;" horiz-adv-x="546" 
d="M477.5 94.5q9.5 -14.5 30.5 -22.5l-27 -85q-45 4 -73.5 22t-43.5 55q-27 -40 -67.5 -59.5t-90.5 -19.5q-79 0 -125 45t-46 118q0 86 62.5 131.5t178.5 45.5h66v30q0 51 -23.5 71.5t-75.5 20.5q-58 0 -140 -28l-30 87q99 38 192 38q203 0 203 -182v-222q0 -31 9.5 -45.5z
M342 143v107h-53q-124 0 -124 -92q0 -38 19 -59t56 -21q65 0 102 65zM287.5 651.5q-15.5 7.5 -35.5 20.5q-15 10 -24 14.5t-19 4.5q-17 0 -28.5 -10.5t-24.5 -34.5l-69 34q20 47 50 75.5t70 28.5q22 0 37.5 -7t36.5 -20q13 -10 22.5 -14.5t19.5 -4.5q15 0 27 10t26 33
l68 -34q-20 -48 -51 -75.5t-69 -27.5q-21 0 -36.5 7.5z" />
    <glyph glyph-name="adieresis" unicode="&#xe4;" horiz-adv-x="546" 
d="M477.5 94.5q9.5 -14.5 30.5 -22.5l-27 -85q-45 4 -73.5 22t-43.5 55q-27 -40 -67.5 -59.5t-90.5 -19.5q-79 0 -125 45t-46 118q0 86 62.5 131.5t178.5 45.5h66v30q0 51 -23.5 71.5t-75.5 20.5q-58 0 -140 -28l-30 87q99 38 192 38q203 0 203 -182v-222q0 -31 9.5 -45.5z
M342 143v107h-53q-124 0 -124 -92q0 -38 19 -59t56 -21q65 0 102 65zM204 765q20 -20 20 -49t-20 -49t-49 -20q-30 0 -50.5 20t-20.5 49t20.5 49t50.5 20q29 0 49 -20zM426 765q20 -20 20 -49t-20 -49t-50 -20q-29 0 -49.5 20t-20.5 49t20.5 49t49.5 20q30 0 50 -20z" />
    <glyph glyph-name="aring" unicode="&#xe5;" horiz-adv-x="546" 
d="M477.5 94.5q9.5 -14.5 30.5 -22.5l-27 -85q-45 4 -73.5 22t-43.5 55q-27 -40 -67.5 -59.5t-90.5 -19.5q-79 0 -125 45t-46 118q0 86 62.5 131.5t178.5 45.5h66v30q0 51 -23.5 71.5t-75.5 20.5q-58 0 -140 -28l-30 87q99 38 192 38q203 0 203 -182v-222q0 -31 9.5 -45.5z
M342 143v107h-53q-124 0 -124 -92q0 -38 19 -59t56 -21q65 0 102 65zM358 818.5q35 -34.5 35 -85.5q0 -50 -35.5 -85t-91.5 -35q-57 0 -92.5 35t-35.5 85q0 51 35.5 85.5t92.5 34.5t92 -34.5zM230 772q-13 -14 -13 -39t13 -38.5t36 -13.5q22 0 35 13.5t13 38.5t-13 39
t-35 14q-23 0 -36 -14z" />
    <glyph glyph-name="ae" unicode="&#xe6;" horiz-adv-x="852" 
d="M811 225h-331q6 -77 39.5 -110t89.5 -33q35 0 66 11t66 36l54 -73q-90 -71 -197 -71q-67 0 -118 24t-83 69q-35 -50 -81.5 -71.5t-106.5 -21.5q-80 0 -127 45t-47 118q0 86 63.5 131.5t181.5 45.5h67v30q0 50 -23.5 70.5t-75.5 20.5q-57 0 -141 -28l-29 88q99 38 191 38
q112 0 161 -74q60 74 160 74q104 0 164 -71t60 -196q0 -31 -3 -52zM688 314q-2 139 -104 139q-47 0 -73 -34.5t-32 -110.5h209v6zM308.5 97q27.5 19 52.5 58q-11 40 -13 89v4h-53q-124 0 -124 -92q0 -38 19 -58t56 -20q35 0 62.5 19z" />
    <glyph glyph-name="ccedilla" unicode="&#xe7;" horiz-adv-x="478" 
d="M317 -14v-38q50 -5 74.5 -29.5t24.5 -62.5q0 -50 -38 -79.5t-99 -29.5q-31 0 -58 7.5t-45 20.5l31 63q30 -16 63 -16q49 0 49 34q0 20 -21.5 29t-69.5 9l12 95q-93 17 -145 88.5t-52 182.5q0 84 30 148.5t86 100t131 35.5q52 0 93.5 -15t78.5 -47l-57 -77q-27 20 -52 29
t-55 9q-119 0 -119 -181q0 -92 31 -132.5t88 -40.5q28 0 51.5 9t55.5 29l57 -81q-65 -53 -145 -60z" />
    <glyph glyph-name="egrave" unicode="&#xe8;" horiz-adv-x="549" 
d="M508 225h-332q6 -77 40 -110t90 -33q35 0 66 11.5t66 35.5l53 -73q-88 -71 -196 -71q-121 0 -186.5 74t-65.5 202q0 81 28 145.5t81 101t126 36.5q111 0 172 -70.5t61 -196.5q0 -10 -3 -52zM384 314q0 139 -103 139q-47 0 -73.5 -34.5t-31.5 -110.5h208v6zM212 820
l210 -125l-37 -65l-225 90z" />
    <glyph glyph-name="eacute" unicode="&#xe9;" horiz-adv-x="549" 
d="M508 225h-332q6 -77 40 -110t90 -33q35 0 66 11.5t66 35.5l53 -73q-88 -71 -196 -71q-121 0 -186.5 74t-65.5 202q0 81 28 145.5t81 101t126 36.5q111 0 172 -70.5t61 -196.5q0 -10 -3 -52zM384 314q0 139 -103 139q-47 0 -73.5 -34.5t-31.5 -110.5h208v6zM357 820
l52 -100l-226 -90l-36 65z" />
    <glyph glyph-name="ecircumflex" unicode="&#xea;" horiz-adv-x="549" 
d="M508 225h-332q6 -77 40 -110t90 -33q35 0 66 11.5t66 35.5l53 -73q-88 -71 -196 -71q-121 0 -186.5 74t-65.5 202q0 81 28 145.5t81 101t126 36.5q111 0 172 -70.5t61 -196.5q0 -10 -3 -52zM384 314q0 139 -103 139q-47 0 -73.5 -34.5t-31.5 -110.5h208v6zM151 627
l-49 55l138 126h81l139 -126l-49 -55l-130 88z" />
    <glyph glyph-name="edieresis" unicode="&#xeb;" horiz-adv-x="549" 
d="M508 225h-332q6 -77 40 -110t90 -33q35 0 66 11.5t66 35.5l53 -73q-88 -71 -196 -71q-121 0 -186.5 74t-65.5 202q0 81 28 145.5t81 101t126 36.5q111 0 172 -70.5t61 -196.5q0 -10 -3 -52zM384 314q0 139 -103 139q-47 0 -73.5 -34.5t-31.5 -110.5h208v6zM219 765
q20 -20 20 -49t-20 -49t-49 -20q-30 0 -50.5 20t-20.5 49t20.5 49t50.5 20q29 0 49 -20zM441 765q20 -20 20 -49t-20 -49t-50 -20q-29 0 -49.5 20t-20.5 49t20.5 49t49.5 20q30 0 50 -20z" />
    <glyph glyph-name="igrave" unicode="&#xec;" horiz-adv-x="282" 
d="M205 529v-529h-128v529h128zM72 820l210 -125l-37 -65l-225 90z" />
    <glyph glyph-name="iacute" unicode="&#xed;" horiz-adv-x="282" 
d="M205 529v-529h-128v529h128zM217 820l52 -100l-226 -90l-36 65z" />
    <glyph glyph-name="icircumflex" unicode="&#xee;" horiz-adv-x="282" 
d="M205 529v-529h-128v529h128zM11 627l-49 55l138 126h81l139 -126l-49 -55l-130 88z" />
    <glyph glyph-name="idieresis" unicode="&#xef;" horiz-adv-x="282" 
d="M205 529v-529h-128v529h128zM79 765q20 -20 20 -49t-20 -49t-49 -20q-30 0 -50.5 20t-20.5 49t20.5 49t50.5 20q29 0 49 -20zM301 765q20 -20 20 -49t-20 -49t-50 -20q-29 0 -49.5 20t-20.5 49t20.5 49t49.5 20q30 0 50 -20z" />
    <glyph glyph-name="eth" unicode="&#xf0;" horiz-adv-x="575" 
d="M485.5 502.5q40.5 -95.5 40.5 -231.5q0 -83 -29.5 -148t-85 -101.5t-130.5 -36.5q-67 0 -121 29.5t-85.5 86t-31.5 133.5q0 65 25 121t71.5 89t108.5 33q83 0 139 -56q-13 54 -39 95.5t-71 76.5l-62 -61l-83 39l64 68q-48 17 -101 27l26 88q81 -14 148 -42l71 76l69 -60
l-60 -60q96 -70 136.5 -165.5zM366 126.5q30 45.5 30 134.5l-1 65q-44 58 -117 58q-104 0 -104 -146q0 -78 28.5 -117.5t78.5 -39.5q55 0 85 45.5z" />
    <glyph glyph-name="ntilde" unicode="&#xf1;" horiz-adv-x="581" 
d="M469.5 501.5q39.5 -42.5 39.5 -118.5v-383h-128v363q0 47 -16.5 66t-48.5 19q-33 0 -59.5 -20.5t-51.5 -59.5v-368h-128v529h111l10 -69q65 84 161 84q71 0 110.5 -42.5zM317.5 651.5q-15.5 7.5 -35.5 20.5q-15 10 -24 14.5t-19 4.5q-17 0 -28.5 -10.5t-24.5 -34.5
l-69 34q20 47 50 75.5t70 28.5q22 0 37.5 -7t36.5 -20q13 -10 22.5 -14.5t19.5 -4.5q15 0 27 10t26 33l68 -34q-20 -48 -51 -75.5t-69 -27.5q-21 0 -36.5 7.5z" />
    <glyph glyph-name="ograve" unicode="&#xf2;" horiz-adv-x="584" 
d="M475.5 469.5q65.5 -74.5 65.5 -204.5q0 -83 -30 -146.5t-86 -98.5t-133 -35q-117 0 -183 74.5t-66 205.5q0 83 30 146t86.5 98t133.5 35q117 0 182.5 -74.5zM178 265q0 -94 28.5 -138.5t85.5 -44.5t85.5 45t28.5 138t-28.5 137.5t-84.5 44.5q-115 0 -115 -182zM223 820
l210 -125l-37 -65l-225 90z" />
    <glyph glyph-name="oacute" unicode="&#xf3;" horiz-adv-x="584" 
d="M475.5 469.5q65.5 -74.5 65.5 -204.5q0 -83 -30 -146.5t-86 -98.5t-133 -35q-117 0 -183 74.5t-66 205.5q0 83 30 146t86.5 98t133.5 35q117 0 182.5 -74.5zM178 265q0 -94 28.5 -138.5t85.5 -44.5t85.5 45t28.5 138t-28.5 137.5t-84.5 44.5q-115 0 -115 -182zM368 820
l52 -100l-226 -90l-36 65z" />
    <glyph glyph-name="ocircumflex" unicode="&#xf4;" horiz-adv-x="584" 
d="M475.5 469.5q65.5 -74.5 65.5 -204.5q0 -83 -30 -146.5t-86 -98.5t-133 -35q-117 0 -183 74.5t-66 205.5q0 83 30 146t86.5 98t133.5 35q117 0 182.5 -74.5zM178 265q0 -94 28.5 -138.5t85.5 -44.5t85.5 45t28.5 138t-28.5 137.5t-84.5 44.5q-115 0 -115 -182zM162 627
l-49 55l138 126h81l139 -126l-49 -55l-130 88z" />
    <glyph glyph-name="otilde" unicode="&#xf5;" horiz-adv-x="584" 
d="M475.5 469.5q65.5 -74.5 65.5 -204.5q0 -83 -30 -146.5t-86 -98.5t-133 -35q-117 0 -183 74.5t-66 205.5q0 83 30 146t86.5 98t133.5 35q117 0 182.5 -74.5zM178 265q0 -94 28.5 -138.5t85.5 -44.5t85.5 45t28.5 138t-28.5 137.5t-84.5 44.5q-115 0 -115 -182z
M313.5 651.5q-15.5 7.5 -35.5 20.5q-15 10 -24 14.5t-19 4.5q-17 0 -28.5 -10.5t-24.5 -34.5l-69 34q20 47 50 75.5t70 28.5q22 0 37.5 -7t36.5 -20q13 -10 22.5 -14.5t19.5 -4.5q15 0 27 10t26 33l68 -34q-20 -48 -51 -75.5t-69 -27.5q-21 0 -36.5 7.5z" />
    <glyph glyph-name="odieresis" unicode="&#xf6;" horiz-adv-x="584" 
d="M475.5 469.5q65.5 -74.5 65.5 -204.5q0 -83 -30 -146.5t-86 -98.5t-133 -35q-117 0 -183 74.5t-66 205.5q0 83 30 146t86.5 98t133.5 35q117 0 182.5 -74.5zM178 265q0 -94 28.5 -138.5t85.5 -44.5t85.5 45t28.5 138t-28.5 137.5t-84.5 44.5q-115 0 -115 -182zM230 765
q20 -20 20 -49t-20 -49t-49 -20q-30 0 -50.5 20t-20.5 49t20.5 49t50.5 20q29 0 49 -20zM452 765q20 -20 20 -49t-20 -49t-50 -20q-29 0 -49.5 20t-20.5 49t20.5 49t49.5 20q30 0 50 -20z" />
    <glyph glyph-name="divide" unicode="&#xf7;" horiz-adv-x="510" 
d="M313 154.5q24 -23.5 24 -57.5q0 -33 -24 -57t-58 -24q-33 0 -56.5 24t-23.5 57q0 34 23 57.5t57 23.5t58 -23.5zM313 625.5q24 -23.5 24 -57.5q0 -33 -24 -57t-58 -24q-33 0 -56.5 24t-23.5 57q0 34 23 57.5t57 23.5t58 -23.5zM55 281v102h401v-102h-401z" />
    <glyph glyph-name="oslash" unicode="&#xf8;" horiz-adv-x="584" 
d="M512 413q29 -63 29 -148q0 -83 -30 -146.5t-86 -98.5t-133 -35q-21 0 -41 3l-38 -121l-98 29l41 124q-54 34 -83.5 96.5t-29.5 148.5q0 83 30 146t86.5 98t133.5 35q21 0 41 -3l39 121l97 -29l-42 -124q55 -33 84 -96zM171 265q0 -59 8.5 -95.5t26.5 -57.5l111 334
q-7 1 -24 1q-122 0 -122 -182zM413 265q0 112 -35 152l-110 -334q8 -1 24 -1q121 0 121 183z" />
    <glyph glyph-name="ugrave" unicode="&#xf9;" horiz-adv-x="577" 
d="M500 0h-111l-7 74q-29 -45 -68.5 -67t-93.5 -22q-71 0 -109.5 43.5t-38.5 120.5v380h128v-364q0 -45 15.5 -64t49.5 -19q61 0 107 75v372h128v-529zM217 820l210 -125l-37 -65l-225 90z" />
    <glyph glyph-name="uacute" unicode="&#xfa;" horiz-adv-x="577" 
d="M500 0h-111l-7 74q-29 -45 -68.5 -67t-93.5 -22q-71 0 -109.5 43.5t-38.5 120.5v380h128v-364q0 -45 15.5 -64t49.5 -19q61 0 107 75v372h128v-529zM362 820l52 -100l-226 -90l-36 65z" />
    <glyph glyph-name="ucircumflex" unicode="&#xfb;" horiz-adv-x="577" 
d="M500 0h-111l-7 74q-29 -45 -68.5 -67t-93.5 -22q-71 0 -109.5 43.5t-38.5 120.5v380h128v-364q0 -45 15.5 -64t49.5 -19q61 0 107 75v372h128v-529zM156 627l-49 55l138 126h81l139 -126l-49 -55l-130 88z" />
    <glyph glyph-name="udieresis" unicode="&#xfc;" horiz-adv-x="577" 
d="M500 0h-111l-7 74q-29 -45 -68.5 -67t-93.5 -22q-71 0 -109.5 43.5t-38.5 120.5v380h128v-364q0 -45 15.5 -64t49.5 -19q61 0 107 75v372h128v-529zM224 765q20 -20 20 -49t-20 -49t-49 -20q-30 0 -50.5 20t-20.5 49t20.5 49t50.5 20q29 0 49 -20zM446 765q20 -20 20 -49
t-20 -49t-50 -20q-29 0 -49.5 20t-20.5 49t20.5 49t49.5 20q30 0 50 -20z" />
    <glyph glyph-name="yacute" unicode="&#xfd;" horiz-adv-x="506" 
d="M333 -2q-32 -98 -97 -152.5t-178 -63.5l-13 93q52 8 83.5 22.5t50.5 38.5t35 64h-44l-168 529h136l115 -444l120 444h132zM329 820l52 -100l-226 -90l-36 65z" />
    <glyph glyph-name="thorn" unicode="&#xfe;" horiz-adv-x="596" 
d="M498.5 471q48.5 -73 48.5 -205q0 -82 -24.5 -145.5t-72 -99.5t-112.5 -36q-84 0 -133 58v-244l-128 -17v959l128 14v-282q29 36 66.5 53.5t77.5 17.5q101 0 149.5 -73zM413 265q0 98 -25.5 140.5t-76.5 42.5q-31 0 -58.5 -19.5t-47.5 -52.5v-238q37 -55 97 -55
q111 0 111 182z" />
    <glyph glyph-name="ydieresis" unicode="&#xff;" horiz-adv-x="506" 
d="M333 -2q-32 -98 -97 -152.5t-178 -63.5l-13 93q52 8 83.5 22.5t50.5 38.5t35 64h-44l-168 529h136l115 -444l120 444h132zM191 765q20 -20 20 -49t-20 -49t-49 -20q-30 0 -50.5 20t-20.5 49t20.5 49t50.5 20q29 0 49 -20zM413 765q20 -20 20 -49t-20 -49t-50 -20
q-29 0 -49.5 20t-20.5 49t20.5 49t49.5 20q30 0 50 -20z" />
    <glyph glyph-name="Amacron" unicode="&#x100;" horiz-adv-x="583" 
d="M447 0l-43 160h-229l-43 -160h-137l215 691h163l214 -691h-140zM201 260h176l-88 330zM437 787h-291v91h291v-91z" />
    <glyph glyph-name="amacron" unicode="&#x101;" horiz-adv-x="546" 
d="M477.5 94.5q9.5 -14.5 30.5 -22.5l-27 -85q-45 4 -73.5 22t-43.5 55q-27 -40 -67.5 -59.5t-90.5 -19.5q-79 0 -125 45t-46 118q0 86 62.5 131.5t178.5 45.5h66v30q0 51 -23.5 71.5t-75.5 20.5q-58 0 -140 -28l-30 87q99 38 192 38q203 0 203 -182v-222q0 -31 9.5 -45.5z
M342 143v107h-53q-124 0 -124 -92q0 -38 19 -59t56 -21q65 0 102 65zM411 661h-291v91h291v-91z" />
    <glyph glyph-name="Abreve" unicode="&#x102;" horiz-adv-x="583" 
d="M447 0l-43 160h-229l-43 -160h-137l215 691h163l214 -691h-140zM201 260h176l-88 330zM179 795q-44 41 -50 103l75 15q10 -31 32 -49t55 -18t56 18t32 49l76 -15q-6 -62 -50.5 -103t-113.5 -41q-68 0 -112 41z" />
    <glyph glyph-name="abreve" unicode="&#x103;" horiz-adv-x="546" 
d="M477.5 94.5q9.5 -14.5 30.5 -22.5l-27 -85q-45 4 -73.5 22t-43.5 55q-27 -40 -67.5 -59.5t-90.5 -19.5q-79 0 -125 45t-46 118q0 86 62.5 131.5t178.5 45.5h66v30q0 51 -23.5 71.5t-75.5 20.5q-58 0 -140 -28l-30 87q99 38 192 38q203 0 203 -182v-222q0 -31 9.5 -45.5z
M342 143v107h-53q-124 0 -124 -92q0 -38 19 -59t56 -21q65 0 102 65zM152.5 680q-43.5 43 -49.5 112l75 14q20 -77 87 -77q34 0 56.5 20t31.5 57l76 -14q-6 -69 -50.5 -112t-113.5 -43t-112.5 43z" />
    <glyph glyph-name="Aogonek" unicode="&#x104;" horiz-adv-x="583" 
d="M428 -54q-26 -26 -26 -54q0 -46 55 -46q27 0 61 7l-10 -85q-37 -7 -67 -7q-61 0 -99 30t-38 79q0 51 34.5 88t102.5 64l-37 138h-229l-43 -160h-137l215 691h163l214 -691h-64q-69 -28 -95 -54zM201 260h176l-88 330z" />
    <glyph glyph-name="aogonek" unicode="&#x105;" horiz-adv-x="546" 
d="M386 -67q-26 -26 -26 -54q0 -46 55 -46q27 0 61 7l-10 -85q-37 -7 -67 -7q-61 0 -99 30t-38 79q0 99 142 154q-27 19 -40 53q-27 -40 -67.5 -59.5t-90.5 -19.5q-79 0 -125 45t-46 118q0 86 62.5 131.5t178.5 45.5h66v30q0 51 -23.5 71.5t-75.5 20.5q-58 0 -140 -28
l-30 87q99 38 192 38q203 0 203 -182v-222q0 -31 9.5 -45.5t30.5 -22.5l-27 -85q-69 -28 -95 -54zM342 143v107h-53q-124 0 -124 -92q0 -38 19 -59t56 -21q65 0 102 65z" />
    <glyph glyph-name="Cacute" unicode="&#x106;" horiz-adv-x="568" 
d="M455 688q47 -18 92 -55l-67 -78q-61 49 -128 49q-77 0 -123.5 -62t-46.5 -195q0 -130 46 -193t124 -63q41 0 73 14.5t68 41.5l62 -78q-35 -36 -88.5 -60t-119.5 -24q-90 0 -159 42t-107 123.5t-38 196.5q0 113 39.5 194t108 123t154.5 42q63 0 110 -18zM432 936l50 -100
l-229 -83l-33 66z" />
    <glyph glyph-name="cacute" unicode="&#x107;" horiz-adv-x="478" 
d="M383.5 529q41.5 -15 78.5 -47l-57 -77q-27 20 -52 29t-55 9q-119 0 -119 -181q0 -92 31 -132.5t88 -40.5q28 0 51.5 9t55.5 29l57 -81q-75 -61 -171 -61q-76 0 -132 33.5t-86 95.5t-30 146t30 148.5t86 100t131 35.5q52 0 93.5 -15zM366 820l52 -100l-226 -90l-36 65z
" />
    <glyph glyph-name="Ccircumflex" unicode="&#x108;" horiz-adv-x="568" 
d="M455 688q47 -18 92 -55l-67 -78q-61 49 -128 49q-77 0 -123.5 -62t-46.5 -195q0 -130 46 -193t124 -63q41 0 73 14.5t68 41.5l62 -78q-35 -36 -88.5 -60t-119.5 -24q-90 0 -159 42t-107 123.5t-38 196.5q0 113 39.5 194t108 123t154.5 42q63 0 110 -18zM220 757l-49 55
l139 121h80l139 -121l-49 -55l-130 82z" />
    <glyph glyph-name="ccircumflex" unicode="&#x109;" horiz-adv-x="478" 
d="M383.5 529q41.5 -15 78.5 -47l-57 -77q-27 20 -52 29t-55 9q-119 0 -119 -181q0 -92 31 -132.5t88 -40.5q28 0 51.5 9t55.5 29l57 -81q-75 -61 -171 -61q-76 0 -132 33.5t-86 95.5t-30 146t30 148.5t86 100t131 35.5q52 0 93.5 -15zM160 627l-49 55l138 126h81l139 -126
l-49 -55l-130 88z" />
    <glyph glyph-name="Cdotaccent" unicode="&#x10a;" horiz-adv-x="568" 
d="M455 688q47 -18 92 -55l-67 -78q-61 49 -128 49q-77 0 -123.5 -62t-46.5 -195q0 -130 46 -193t124 -63q41 0 73 14.5t68 41.5l62 -78q-35 -36 -88.5 -60t-119.5 -24q-90 0 -159 42t-107 123.5t-38 196.5q0 113 39.5 194t108 123t154.5 42q63 0 110 -18zM408.5 900.5
q22.5 -22.5 22.5 -55.5t-22.5 -55t-58.5 -22q-35 0 -57.5 22t-22.5 55t22.5 55.5t57.5 22.5q36 0 58.5 -22.5z" />
    <glyph glyph-name="cdotaccent" unicode="&#x10b;" horiz-adv-x="478" 
d="M383.5 529q41.5 -15 78.5 -47l-57 -77q-27 20 -52 29t-55 9q-119 0 -119 -181q0 -92 31 -132.5t88 -40.5q28 0 51.5 9t55.5 29l57 -81q-75 -61 -171 -61q-76 0 -132 33.5t-86 95.5t-30 146t30 148.5t86 100t131 35.5q52 0 93.5 -15zM347.5 774.5q22.5 -22.5 22.5 -55.5
t-22.5 -55t-58.5 -22q-35 0 -57.5 22t-22.5 55t22.5 55.5t57.5 22.5q36 0 58.5 -22.5z" />
    <glyph glyph-name="Ccaron" unicode="&#x10c;" horiz-adv-x="568" 
d="M455 688q47 -18 92 -55l-67 -78q-61 49 -128 49q-77 0 -123.5 -62t-46.5 -195q0 -130 46 -193t124 -63q41 0 73 14.5t68 41.5l62 -78q-35 -36 -88.5 -60t-119.5 -24q-90 0 -159 42t-107 123.5t-38 196.5q0 113 39.5 194t108 123t154.5 42q63 0 110 -18zM481 928l49 -56
l-139 -120h-80l-139 120l49 56l130 -83z" />
    <glyph glyph-name="ccaron" unicode="&#x10d;" horiz-adv-x="478" 
d="M383.5 529q41.5 -15 78.5 -47l-57 -77q-27 20 -52 29t-55 9q-119 0 -119 -181q0 -92 31 -132.5t88 -40.5q28 0 51.5 9t55.5 29l57 -81q-75 -61 -171 -61q-76 0 -132 33.5t-86 95.5t-30 146t30 148.5t86 100t131 35.5q52 0 93.5 -15zM420 800l49 -56l-139 -125h-80
l-139 125l49 56l130 -88z" />
    <glyph glyph-name="Dcaron" unicode="&#x10e;" horiz-adv-x="648" 
d="M508.5 618q96.5 -73 96.5 -269q0 -192 -95 -270.5t-241 -78.5h-188v691h170q161 0 257.5 -73zM213 592v-493h65q88 0 138 54.5t50 195.5q0 98 -25.5 151.5t-67 72.5t-99.5 19h-61zM429 928l49 -56l-139 -120h-80l-139 120l49 56l130 -83z" />
    <glyph glyph-name="dcaron" unicode="&#x10f;" horiz-adv-x="646" 
d="M522 741v-741h-113l-9 67q-25 -38 -63.5 -60t-87.5 -22q-97 0 -149 75t-52 204q0 81 26 144.5t74.5 99.5t112.5 36q76 0 133 -57v268zM345 98.5q26 16.5 49 51.5v242q-23 28 -46.5 42t-54.5 14q-51 0 -80.5 -45.5t-29.5 -137.5q0 -98 26 -140.5t76 -42.5q34 0 60 16.5z
M635 540l53 201l-103 14l-21 -204z" />
    <glyph glyph-name="Dcroat" unicode="&#x110;" horiz-adv-x="661" 
d="M521.5 618q96.5 -73 96.5 -269q0 -192 -95 -270.5t-241 -78.5h-188v310h-77v86h77v295h170q161 0 257.5 -73zM429 153.5q50 54.5 50 195.5q0 98 -25.5 151.5t-67 72.5t-99.5 19h-61v-196h145v-86h-145v-211h65q88 0 138 54.5z" />
    <glyph glyph-name="dcroat" unicode="&#x111;" horiz-adv-x="606" 
d="M592 683v-82h-70v-601h-113l-9 67q-25 -38 -63.5 -60t-87.5 -22q-97 0 -149 75t-52 204q0 81 26 144.5t74.5 99.5t112.5 36q76 0 133 -57v114h-146v82h146v72l128 -14v-58h70zM345 98.5q26 16.5 49 51.5v242q-23 28 -46.5 42t-54.5 14q-51 0 -80.5 -45.5t-29.5 -137.5
q0 -98 26 -140.5t76 -42.5q34 0 60 16.5z" />
    <glyph glyph-name="Emacron" unicode="&#x112;" horiz-adv-x="530" 
d="M482 691l-14 -98h-255v-193h222v-98h-222v-203h273v-99h-405v691h401zM429 787h-291v91h291v-91z" />
    <glyph glyph-name="emacron" unicode="&#x113;" horiz-adv-x="549" 
d="M508 225h-332q6 -77 40 -110t90 -33q35 0 66 11.5t66 35.5l53 -73q-88 -71 -196 -71q-121 0 -186.5 74t-65.5 202q0 81 28 145.5t81 101t126 36.5q111 0 172 -70.5t61 -196.5q0 -10 -3 -52zM384 314q0 139 -103 139q-47 0 -73.5 -34.5t-31.5 -110.5h208v6zM426 661h-291
v91h291v-91z" />
    <glyph glyph-name="Ebreve" unicode="&#x114;" horiz-adv-x="530" 
d="M482 691l-14 -98h-255v-193h222v-98h-222v-203h273v-99h-405v691h401zM171 795q-44 41 -50 103l75 15q10 -31 32 -49t55 -18t56 18t32 49l76 -15q-6 -62 -50.5 -103t-113.5 -41q-68 0 -112 41z" />
    <glyph glyph-name="ebreve" unicode="&#x115;" horiz-adv-x="549" 
d="M508 225h-332q6 -77 40 -110t90 -33q35 0 66 11.5t66 35.5l53 -73q-88 -71 -196 -71q-121 0 -186.5 74t-65.5 202q0 81 28 145.5t81 101t126 36.5q111 0 172 -70.5t61 -196.5q0 -10 -3 -52zM384 314q0 139 -103 139q-47 0 -73.5 -34.5t-31.5 -110.5h208v6zM167.5 680
q-43.5 43 -49.5 112l75 14q20 -77 87 -77q34 0 56.5 20t31.5 57l76 -14q-6 -69 -50.5 -112t-113.5 -43t-112.5 43z" />
    <glyph glyph-name="Edotaccent" unicode="&#x116;" horiz-adv-x="530" 
d="M482 691l-14 -98h-255v-193h222v-98h-222v-203h273v-99h-405v691h401zM341.5 900.5q22.5 -22.5 22.5 -55.5t-22.5 -55t-58.5 -22q-35 0 -57.5 22t-22.5 55t22.5 55.5t57.5 22.5q36 0 58.5 -22.5z" />
    <glyph glyph-name="edotaccent" unicode="&#x117;" horiz-adv-x="549" 
d="M508 225h-332q6 -77 40 -110t90 -33q35 0 66 11.5t66 35.5l53 -73q-88 -71 -196 -71q-121 0 -186.5 74t-65.5 202q0 81 28 145.5t81 101t126 36.5q111 0 172 -70.5t61 -196.5q0 -10 -3 -52zM384 314q0 139 -103 139q-47 0 -73.5 -34.5t-31.5 -110.5h208v6zM338.5 774.5
q22.5 -22.5 22.5 -55.5t-22.5 -55t-58.5 -22q-35 0 -57.5 22t-22.5 55t22.5 55.5t57.5 22.5q36 0 58.5 -22.5z" />
    <glyph glyph-name="Eogonek" unicode="&#x118;" horiz-adv-x="530" 
d="M486 99v-99h-40q-69 -28 -95 -54t-26 -54q0 -46 55 -46q27 0 61 7l-10 -85q-37 -7 -67 -7q-61 0 -99 30t-38 79q0 80 90 130h-236v691h401l-14 -98h-255v-193h222v-98h-222v-203h273z" />
    <glyph glyph-name="eogonek" unicode="&#x119;" horiz-adv-x="549" 
d="M508 225h-332q6 -77 40 -110t90 -33q35 0 66 11.5t66 35.5l53 -73q-50 -40 -105 -57q-56 -26 -77 -50t-21 -49q0 -46 54 -46q29 0 61 7l-10 -85q-37 -7 -67 -7q-61 0 -99 30t-38 79q0 68 74 108q-106 10 -163 83t-57 192q0 81 28 145.5t81 101t126 36.5q111 0 172 -70.5
t61 -196.5q0 -10 -3 -52zM384 314q0 139 -103 139q-47 0 -73.5 -34.5t-31.5 -110.5h208v6z" />
    <glyph glyph-name="Ecaron" unicode="&#x11a;" horiz-adv-x="530" 
d="M482 691l-14 -98h-255v-193h222v-98h-222v-203h273v-99h-405v691h401zM414 928l49 -56l-139 -120h-80l-139 120l49 56l130 -83z" />
    <glyph glyph-name="ecaron" unicode="&#x11b;" horiz-adv-x="549" 
d="M508 225h-332q6 -77 40 -110t90 -33q35 0 66 11.5t66 35.5l53 -73q-88 -71 -196 -71q-121 0 -186.5 74t-65.5 202q0 81 28 145.5t81 101t126 36.5q111 0 172 -70.5t61 -196.5q0 -10 -3 -52zM384 314q0 139 -103 139q-47 0 -73.5 -34.5t-31.5 -110.5h208v6zM411 800
l49 -56l-139 -125h-80l-139 125l49 56l130 -88z" />
    <glyph glyph-name="Gcircumflex" unicode="&#x11c;" horiz-adv-x="638" 
d="M480.5 685.5q52.5 -20.5 99.5 -60.5l-71 -74q-37 29 -69.5 42t-75.5 13q-80 0 -131 -64t-51 -196q0 -138 40.5 -199t123.5 -61q63 0 110 27v180h-104l-14 98h248v-338q-112 -68 -238 -68q-148 0 -226.5 92t-78.5 269q0 113 42.5 194.5t114.5 123.5t160 42
q68 0 120.5 -20.5zM222 757l-49 55l139 121h80l139 -121l-49 -55l-130 82z" />
    <glyph glyph-name="gcircumflex" unicode="&#x11d;" horiz-adv-x="537" 
d="M537 501q-51 -18 -153 -18q49 -22 72.5 -54.5t23.5 -81.5q0 -52 -25.5 -92t-74 -63t-113.5 -23q-36 0 -63 8q-22 -15 -22 -39q0 -37 64 -37h81q58 0 101.5 -19t67.5 -53.5t24 -77.5q0 -80 -68 -124.5t-196 -44.5q-92 0 -144.5 19t-74.5 55t-22 92h115q0 -28 10.5 -44
t38 -24t79.5 -8q73 0 103 18t30 52q0 30 -23 46.5t-67 16.5h-80q-75 0 -113 29t-38 73q0 28 16.5 54t45.5 44q-48 25 -70.5 61.5t-22.5 87.5q0 57 28 100t77.5 66.5t113.5 23.5q84 -2 135.5 12.5t111.5 46.5zM192.5 429.5q-24.5 -27.5 -24.5 -73.5q0 -48 25 -76t69 -28
q46 0 70 27.5t24 77.5q0 100 -96 100q-43 0 -67.5 -27.5zM138 627l-49 55l138 126h81l139 -126l-49 -55l-130 88z" />
    <glyph glyph-name="Gbreve" unicode="&#x11e;" horiz-adv-x="638" 
d="M480.5 685.5q52.5 -20.5 99.5 -60.5l-71 -74q-37 29 -69.5 42t-75.5 13q-80 0 -131 -64t-51 -196q0 -138 40.5 -199t123.5 -61q63 0 110 27v180h-104l-14 98h248v-338q-112 -68 -238 -68q-148 0 -226.5 92t-78.5 269q0 113 42.5 194.5t114.5 123.5t160 42
q68 0 120.5 -20.5zM240 795q-44 41 -50 103l75 15q10 -31 32 -49t55 -18t56 18t32 49l76 -15q-6 -62 -50.5 -103t-113.5 -41q-68 0 -112 41z" />
    <glyph glyph-name="gbreve" unicode="&#x11f;" horiz-adv-x="537" 
d="M537 501q-51 -18 -153 -18q49 -22 72.5 -54.5t23.5 -81.5q0 -52 -25.5 -92t-74 -63t-113.5 -23q-36 0 -63 8q-22 -15 -22 -39q0 -37 64 -37h81q58 0 101.5 -19t67.5 -53.5t24 -77.5q0 -80 -68 -124.5t-196 -44.5q-92 0 -144.5 19t-74.5 55t-22 92h115q0 -28 10.5 -44
t38 -24t79.5 -8q73 0 103 18t30 52q0 30 -23 46.5t-67 16.5h-80q-75 0 -113 29t-38 73q0 28 16.5 54t45.5 44q-48 25 -70.5 61.5t-22.5 87.5q0 57 28 100t77.5 66.5t113.5 23.5q84 -2 135.5 12.5t111.5 46.5zM192.5 429.5q-24.5 -27.5 -24.5 -73.5q0 -48 25 -76t69 -28
q46 0 70 27.5t24 77.5q0 100 -96 100q-43 0 -67.5 -27.5zM154.5 680q-43.5 43 -49.5 112l75 14q20 -77 87 -77q34 0 56.5 20t31.5 57l76 -14q-6 -69 -50.5 -112t-113.5 -43t-112.5 43z" />
    <glyph glyph-name="Gdotaccent" unicode="&#x120;" horiz-adv-x="638" 
d="M480.5 685.5q52.5 -20.5 99.5 -60.5l-71 -74q-37 29 -69.5 42t-75.5 13q-80 0 -131 -64t-51 -196q0 -138 40.5 -199t123.5 -61q63 0 110 27v180h-104l-14 98h248v-338q-112 -68 -238 -68q-148 0 -226.5 92t-78.5 269q0 113 42.5 194.5t114.5 123.5t160 42
q68 0 120.5 -20.5zM410.5 900.5q22.5 -22.5 22.5 -55.5t-22.5 -55t-58.5 -22q-35 0 -57.5 22t-22.5 55t22.5 55.5t57.5 22.5q36 0 58.5 -22.5z" />
    <glyph glyph-name="gdotaccent" unicode="&#x121;" horiz-adv-x="537" 
d="M537 501q-51 -18 -153 -18q49 -22 72.5 -54.5t23.5 -81.5q0 -52 -25.5 -92t-74 -63t-113.5 -23q-36 0 -63 8q-22 -15 -22 -39q0 -37 64 -37h81q58 0 101.5 -19t67.5 -53.5t24 -77.5q0 -80 -68 -124.5t-196 -44.5q-92 0 -144.5 19t-74.5 55t-22 92h115q0 -28 10.5 -44
t38 -24t79.5 -8q73 0 103 18t30 52q0 30 -23 46.5t-67 16.5h-80q-75 0 -113 29t-38 73q0 28 16.5 54t45.5 44q-48 25 -70.5 61.5t-22.5 87.5q0 57 28 100t77.5 66.5t113.5 23.5q84 -2 135.5 12.5t111.5 46.5zM192.5 429.5q-24.5 -27.5 -24.5 -73.5q0 -48 25 -76t69 -28
q46 0 70 27.5t24 77.5q0 100 -96 100q-43 0 -67.5 -27.5zM325.5 774.5q22.5 -22.5 22.5 -55.5t-22.5 -55t-58.5 -22q-35 0 -57.5 22t-22.5 55t22.5 55.5t57.5 22.5q36 0 58.5 -22.5z" />
    <glyph glyph-name="Gcommaaccent" unicode="&#x122;" horiz-adv-x="638" 
d="M480.5 685.5q52.5 -20.5 99.5 -60.5l-71 -74q-37 29 -69.5 42t-75.5 13q-80 0 -131 -64t-51 -196q0 -138 40.5 -199t123.5 -61q63 0 110 27v180h-104l-14 98h248v-338q-112 -68 -238 -68q-148 0 -226.5 92t-78.5 269q0 113 42.5 194.5t114.5 123.5t160 42
q68 0 120.5 -20.5zM396 -91.5q20 -19.5 20 -48.5q0 -16 -5.5 -32.5t-21.5 -48.5l-44 -91h-67l28 116q-29 22 -29 56q0 29 20 48.5t50 19.5q29 0 49 -19.5z" />
    <glyph glyph-name="gcommaaccent" unicode="&#x123;" horiz-adv-x="537" 
d="M537 501q-51 -18 -153 -18q49 -22 72.5 -54.5t23.5 -81.5q0 -52 -25.5 -92t-74 -63t-113.5 -23q-36 0 -63 8q-22 -15 -22 -39q0 -37 64 -37h81q58 0 101.5 -19t67.5 -53.5t24 -77.5q0 -80 -68 -124.5t-196 -44.5q-92 0 -144.5 19t-74.5 55t-22 92h115q0 -28 10.5 -44
t38 -24t79.5 -8q73 0 103 18t30 52q0 30 -23 46.5t-67 16.5h-80q-75 0 -113 29t-38 73q0 28 16.5 54t45.5 44q-48 25 -70.5 61.5t-22.5 87.5q0 57 28 100t77.5 66.5t113.5 23.5q84 -2 135.5 12.5t111.5 46.5zM192.5 429.5q-24.5 -27.5 -24.5 -73.5q0 -48 25 -76t69 -28
q46 0 70 27.5t24 77.5q0 100 -96 100q-43 0 -67.5 -27.5zM218 599.5q-20 19.5 -20 48.5q0 16 5.5 32.5t21.5 48.5l44 91h67l-28 -116q29 -22 29 -56q0 -29 -20 -48.5t-50 -19.5q-29 0 -49 19.5z" />
    <glyph glyph-name="Hcircumflex" unicode="&#x124;" horiz-adv-x="672" 
d="M459 0v309h-246v-309h-132v691h132v-277h246v277h133v-691h-133zM205 757l-49 55l139 121h80l139 -121l-49 -55l-130 82z" />
    <glyph glyph-name="hcircumflex" unicode="&#x125;" horiz-adv-x="581" 
d="M469 501q40 -43 40 -118v-383h-128v363q0 47 -16.5 66t-48.5 19t-59 -20.5t-52 -58.5v-369h-128v740l128 13v-287q64 78 154 78q70 0 110 -43zM159 807l-49 55l139 121h80l139 -121l-49 -55l-130 82z" />
    <glyph glyph-name="Hbar" unicode="&#x126;" horiz-adv-x="682" 
d="M659 585v-81h-62v-504h-133v309h-246v-309h-132v504h-63v81h63v106h132v-106h246v106h133v-106h62zM464 414v90h-246v-90h246z" />
    <glyph glyph-name="hbar" unicode="&#x127;" horiz-adv-x="589" 
d="M476 501q40 -43 40 -118v-383h-128v363q0 47 -16.5 66t-48.5 19t-59 -20.5t-52 -58.5v-369h-128v601h-69v82h69v57l128 13v-70h140v-82h-140v-135q64 78 154 78q70 0 110 -43z" />
    <glyph glyph-name="Itilde" unicode="&#x128;" horiz-adv-x="294" 
d="M213 691v-691h-132v691h132zM168.5 777.5q-15.5 7.5 -35.5 20.5q-15 10 -24 14.5t-19 4.5q-17 0 -28.5 -10.5t-24.5 -34.5l-69 34q20 47 50 75.5t70 28.5q22 0 37.5 -7t36.5 -20q13 -10 22.5 -14.5t19.5 -4.5q15 0 27 10t26 33l68 -34q-20 -48 -51 -75.5t-69 -27.5
q-21 0 -36.5 7.5z" />
    <glyph glyph-name="itilde" unicode="&#x129;" horiz-adv-x="282" 
d="M205 529v-529h-128v529h128zM162.5 651.5q-15.5 7.5 -35.5 20.5q-15 10 -24 14.5t-19 4.5q-17 0 -28.5 -10.5t-24.5 -34.5l-69 34q20 47 50 75.5t70 28.5q22 0 37.5 -7t36.5 -20q13 -10 22.5 -14.5t19.5 -4.5q15 0 27 10t26 33l68 -34q-20 -48 -51 -75.5t-69 -27.5
q-21 0 -36.5 7.5z" />
    <glyph glyph-name="Imacron" unicode="&#x12a;" horiz-adv-x="294" 
d="M213 691v-691h-132v691h132zM292 787h-291v91h291v-91z" />
    <glyph glyph-name="imacron" unicode="&#x12b;" horiz-adv-x="282" 
d="M205 529v-529h-128v529h128zM286 661h-291v91h291v-91z" />
    <glyph glyph-name="Ibreve" unicode="&#x12c;" horiz-adv-x="294" 
d="M213 691v-691h-132v691h132zM34 795q-44 41 -50 103l75 15q10 -31 32 -49t55 -18t56 18t32 49l76 -15q-6 -62 -50.5 -103t-113.5 -41q-68 0 -112 41z" />
    <glyph glyph-name="ibreve" unicode="&#x12d;" horiz-adv-x="282" 
d="M205 529v-529h-128v529h128zM27.5 680q-43.5 43 -49.5 112l75 14q20 -77 87 -77q34 0 56.5 20t31.5 57l76 -14q-6 -69 -50.5 -112t-113.5 -43t-112.5 43z" />
    <glyph glyph-name="Iogonek" unicode="&#x12e;" horiz-adv-x="294" 
d="M213 691v-691h-15q-69 -28 -95 -54t-26 -54q0 -46 55 -46q27 0 61 7l-10 -85q-37 -7 -67 -7q-61 0 -99 30t-38 79q0 85 102 136v685h132z" />
    <glyph glyph-name="iogonek" unicode="&#x12f;" horiz-adv-x="282" 
d="M82.5 664q-22.5 22 -22.5 55t22.5 55.5t57.5 22.5q36 0 58.5 -22.5t22.5 -55.5t-22.5 -55t-58.5 -22q-35 0 -57.5 22zM77 529h128v-529h-14q-69 -28 -95 -54t-26 -54q0 -46 55 -46q27 0 61 7l-10 -85q-37 -7 -67 -7q-61 0 -99 30t-38 79q0 85 105 138v521z" />
    <glyph glyph-name="Idotaccent" unicode="&#x130;" horiz-adv-x="294" 
d="M213 691v-691h-132v691h132zM204.5 900.5q22.5 -22.5 22.5 -55.5t-22.5 -55t-58.5 -22q-35 0 -57.5 22t-22.5 55t22.5 55.5t57.5 22.5q36 0 58.5 -22.5z" />
    <glyph glyph-name="dotlessi" unicode="&#x131;" horiz-adv-x="282" 
d="M205 529v-529h-128v529h128z" />
    <glyph glyph-name="IJ" unicode="&#x132;" horiz-adv-x="606" 
d="M213 691v-691h-132v691h132zM529 101q0 -111 -52.5 -167.5t-150.5 -88.5l-35 95q44 17 66.5 38.5t30.5 51t8 76.5v585h133v-590z" />
    <glyph glyph-name="ij" unicode="&#x133;" horiz-adv-x="563" 
d="M205 529v-529h-128v529h128zM198.5 774.5q22.5 -22.5 22.5 -55.5t-22.5 -55t-58.5 -22q-35 0 -57.5 22t-22.5 55t22.5 55.5t57.5 22.5q36 0 58.5 -22.5zM486 47q0 -78 -22.5 -127.5t-63.5 -79.5t-107 -57l-41 93q39 18 61 35.5t33.5 47.5t11.5 80v490h128v-482z
M479.5 774.5q22.5 -22.5 22.5 -55.5t-22.5 -55t-58.5 -22q-35 0 -57.5 22t-22.5 55t22.5 55.5t57.5 22.5q36 0 58.5 -22.5z" />
    <glyph glyph-name="Jcircumflex" unicode="&#x134;" horiz-adv-x="312" 
d="M235 101q0 -111 -52.5 -167.5t-150.5 -88.5l-35 95q44 17 66.5 38.5t30.5 51t8 76.5v585h133v-590zM38 757l-49 55l139 121h80l139 -121l-49 -55l-130 82z" />
    <glyph glyph-name="jcircumflex" unicode="&#x135;" horiz-adv-x="281" 
d="M204 47q0 -78 -22.5 -127.5t-63.5 -79.5t-107 -57l-41 93q39 18 61 35.5t33.5 47.5t11.5 80v490h128v-482zM10 627l-49 55l138 126h81l139 -126l-49 -55l-130 88z" />
    <glyph glyph-name="Kcommaaccent" unicode="&#x136;" horiz-adv-x="613" 
d="M213 691v-691h-132v691h132zM601 691l-239 -313l258 -378h-157l-244 369l239 322h143zM371 -91.5q20 -19.5 20 -48.5q0 -16 -5.5 -32.5t-21.5 -48.5l-44 -91h-67l28 116q-29 22 -29 56q0 29 20 48.5t50 19.5q29 0 49 -19.5z" />
    <glyph glyph-name="kcommaaccent" unicode="&#x137;" horiz-adv-x="534" 
d="M205 755v-755h-128v741zM522 529l-176 -233l193 -296h-147l-182 289l177 240h135zM317 -91.5q20 -19.5 20 -48.5q0 -16 -5.5 -32.5t-21.5 -48.5l-44 -91h-67l28 116q-29 22 -29 56q0 29 20 48.5t50 19.5q29 0 49 -19.5z" />
    <glyph glyph-name="kgreenlandic" unicode="&#x138;" horiz-adv-x="532" 
d="M205 529v-529h-128v529h128zM520 529l-176 -243l193 -286h-147l-182 279l177 250h135z" />
    <glyph glyph-name="Lacute" unicode="&#x139;" horiz-adv-x="506" 
d="M213 691v-583h277l-15 -108h-394v691h132zM228 936l50 -100l-229 -83l-33 66z" />
    <glyph glyph-name="lacute" unicode="&#x13a;" horiz-adv-x="295" 
d="M106.5 20.5q-34.5 35.5 -34.5 100.5v620l128 14v-630q0 -37 30 -37q15 0 30 5l27 -90q-40 -18 -85 -18q-61 0 -95.5 35.5zM217 986l50 -100l-229 -83l-33 66z" />
    <glyph glyph-name="Lcommaaccent" unicode="&#x13b;" horiz-adv-x="506" 
d="M213 691v-583h277l-15 -108h-394v691h132zM329 -91.5q20 -19.5 20 -48.5q0 -16 -5.5 -32.5t-21.5 -48.5l-44 -91h-67l28 116q-29 22 -29 56q0 29 20 48.5t50 19.5q29 0 49 -19.5z" />
    <glyph glyph-name="lcommaaccent" unicode="&#x13c;" horiz-adv-x="295" 
d="M106.5 20.5q-34.5 35.5 -34.5 100.5v620l128 14v-630q0 -37 30 -37q15 0 30 5l27 -90q-40 -18 -85 -18q-61 0 -95.5 35.5zM232 -91.5q20 -19.5 20 -48.5q0 -16 -5.5 -32.5t-21.5 -48.5l-44 -91h-67l28 116q-29 22 -29 56q0 29 20 48.5t50 19.5q29 0 49 -19.5z" />
    <glyph glyph-name="Lcaron" unicode="&#x13d;" horiz-adv-x="506" 
d="M213 691v-583h277l-15 -108h-394v691h132zM333 490l53 201l-103 14l-21 -204z" />
    <glyph glyph-name="lcaron" unicode="&#x13e;" horiz-adv-x="334" 
d="M106.5 20.5q-34.5 35.5 -34.5 100.5v620l128 14v-630q0 -37 30 -37q15 0 30 5l27 -90q-40 -18 -85 -18q-61 0 -95.5 35.5zM314 540l53 201l-103 14l-21 -204z" />
    <glyph glyph-name="Ldot" unicode="&#x13f;" horiz-adv-x="506" 
d="M213 691v-583h277l-15 -108h-394v691h132zM453.5 449.5q22.5 -22.5 22.5 -55.5t-22.5 -55t-58.5 -22q-35 0 -57.5 22t-22.5 55t22.5 55.5t57.5 22.5q36 0 58.5 -22.5z" />
    <glyph glyph-name="ldot" unicode="&#x140;" horiz-adv-x="392" 
d="M106.5 20.5q-34.5 35.5 -34.5 100.5v620l128 14v-630q0 -37 30 -37q15 0 30 5l27 -90q-40 -18 -85 -18q-61 0 -95.5 35.5zM387.5 432.5q22.5 -22.5 22.5 -55.5t-22.5 -55t-58.5 -22q-35 0 -57.5 22t-22.5 55t22.5 55.5t57.5 22.5q36 0 58.5 -22.5z" />
    <glyph glyph-name="Lslash" unicode="&#x141;" horiz-adv-x="535" 
d="M242 108h277l-15 -108h-394v239l-49 -30l-46 75l95 58v349h132v-267l143 89l46 -75l-189 -117v-213z" />
    <glyph glyph-name="lslash" unicode="&#x142;" horiz-adv-x="337" 
d="M278 93l27 -90q-40 -18 -85 -18q-61 0 -95.5 35.5t-34.5 100.5v162l-46 -28l-44 73l90 57v356l128 14v-293l78 47l43 -74l-121 -74v-236q0 -37 30 -37q15 0 30 5z" />
    <glyph glyph-name="Nacute" unicode="&#x143;" horiz-adv-x="672" 
d="M591 0h-171l-237 559q9 -74 13.5 -134t4.5 -143v-282h-120v691h167l241 -560q-6 40 -12 105.5t-6 130.5v324h120v-691zM425 936l50 -100l-229 -83l-33 66z" />
    <glyph glyph-name="nacute" unicode="&#x144;" horiz-adv-x="581" 
d="M469.5 501.5q39.5 -42.5 39.5 -118.5v-383h-128v363q0 47 -16.5 66t-48.5 19q-33 0 -59.5 -20.5t-51.5 -59.5v-368h-128v529h111l10 -69q65 84 161 84q71 0 110.5 -42.5zM372 820l52 -100l-226 -90l-36 65z" />
    <glyph glyph-name="Ncommaaccent" unicode="&#x145;" horiz-adv-x="672" 
d="M591 0h-171l-237 559q9 -74 13.5 -134t4.5 -143v-282h-120v691h167l241 -560q-6 40 -12 105.5t-6 130.5v324h120v-691zM388 -91.5q20 -19.5 20 -48.5q0 -16 -5.5 -32.5t-21.5 -48.5l-44 -91h-67l28 116q-29 22 -29 56q0 29 20 48.5t50 19.5q29 0 49 -19.5z" />
    <glyph glyph-name="ncommaaccent" unicode="&#x146;" horiz-adv-x="581" 
d="M469.5 501.5q39.5 -42.5 39.5 -118.5v-383h-128v363q0 47 -16.5 66t-48.5 19q-33 0 -59.5 -20.5t-51.5 -59.5v-368h-128v529h111l10 -69q65 84 161 84q71 0 110.5 -42.5zM342 -91.5q20 -19.5 20 -48.5q0 -16 -5.5 -32.5t-21.5 -48.5l-44 -91h-67l28 116q-29 22 -29 56
q0 29 20 48.5t50 19.5q29 0 49 -19.5z" />
    <glyph glyph-name="Ncaron" unicode="&#x147;" horiz-adv-x="672" 
d="M591 0h-171l-237 559q9 -74 13.5 -134t4.5 -143v-282h-120v691h167l241 -560q-6 40 -12 105.5t-6 130.5v324h120v-691zM474 928l49 -56l-139 -120h-80l-139 120l49 56l130 -83z" />
    <glyph glyph-name="ncaron" unicode="&#x148;" horiz-adv-x="581" 
d="M469.5 501.5q39.5 -42.5 39.5 -118.5v-383h-128v363q0 47 -16.5 66t-48.5 19q-33 0 -59.5 -20.5t-51.5 -59.5v-368h-128v529h111l10 -69q65 84 161 84q71 0 110.5 -42.5zM426 800l49 -56l-139 -125h-80l-139 125l49 56l130 -88z" />
    <glyph glyph-name="napostrophe" unicode="&#x149;" horiz-adv-x="699" 
d="M148 739q18 -18 18 -45q0 -15 -5 -30.5t-20 -45.5l-41 -84h-61l26 108q-27 23 -27 52q0 26 19 44.5t46 18.5t45 -18zM586.5 501.5q39.5 -42.5 39.5 -118.5v-383h-128v363q0 47 -16.5 66t-48.5 19q-33 0 -59.5 -20.5t-51.5 -59.5v-368h-128v529h111l10 -69q65 84 161 84
q71 0 110.5 -42.5z" />
    <glyph glyph-name="Eng" unicode="&#x14a;" horiz-adv-x="672" 
d="M591 691v-734q0 -86 -47.5 -130.5t-130.5 -44.5q-75 0 -129 41l46 80q20 -11 35 -16t36 -5q58 0 58 67v51h-39l-237 559q9 -74 13.5 -134t4.5 -143v-282h-120v691h167l241 -560q-6 40 -12 105.5t-6 130.5v324h120z" />
    <glyph glyph-name="eng" unicode="&#x14b;" horiz-adv-x="581" 
d="M469.5 501.5q39.5 -42.5 39.5 -118.5v-426q0 -85 -47.5 -130t-128.5 -45q-77 0 -129 41l45 76q20 -10 35.5 -15t36.5 -5q60 0 60 67v417q0 47 -16.5 66t-48.5 19q-33 0 -59.5 -20.5t-51.5 -59.5v-368h-128v529h111l10 -69q65 84 161 84q71 0 110.5 -42.5z" />
    <glyph glyph-name="Omacron" unicode="&#x14c;" horiz-adv-x="691" 
d="M507 664q68 -42 104.5 -123t36.5 -195q0 -113 -37 -194t-105 -124t-160 -43q-93 0 -161 42t-105 123t-37 195q0 112 37 193.5t105.5 124.5t160.5 43q93 0 161 -42zM224 542.5q-42 -62.5 -42 -197.5q0 -259 164 -259q80 0 121.5 62t41.5 198q0 135 -41.5 197t-121.5 62
t-122 -62.5zM491 787h-291v91h291v-91z" />
    <glyph glyph-name="omacron" unicode="&#x14d;" horiz-adv-x="584" 
d="M475.5 469.5q65.5 -74.5 65.5 -204.5q0 -83 -30 -146.5t-86 -98.5t-133 -35q-117 0 -183 74.5t-66 205.5q0 83 30 146t86.5 98t133.5 35q117 0 182.5 -74.5zM178 265q0 -94 28.5 -138.5t85.5 -44.5t85.5 45t28.5 138t-28.5 137.5t-84.5 44.5q-115 0 -115 -182zM437 661
h-291v91h291v-91z" />
    <glyph glyph-name="Obreve" unicode="&#x14e;" horiz-adv-x="691" 
d="M507 664q68 -42 104.5 -123t36.5 -195q0 -113 -37 -194t-105 -124t-160 -43q-93 0 -161 42t-105 123t-37 195q0 112 37 193.5t105.5 124.5t160.5 43q93 0 161 -42zM224 542.5q-42 -62.5 -42 -197.5q0 -259 164 -259q80 0 121.5 62t41.5 198q0 135 -41.5 197t-121.5 62
t-122 -62.5zM233 795q-44 41 -50 103l75 15q10 -31 32 -49t55 -18t56 18t32 49l76 -15q-6 -62 -50.5 -103t-113.5 -41q-68 0 -112 41z" />
    <glyph glyph-name="obreve" unicode="&#x14f;" horiz-adv-x="584" 
d="M475.5 469.5q65.5 -74.5 65.5 -204.5q0 -83 -30 -146.5t-86 -98.5t-133 -35q-117 0 -183 74.5t-66 205.5q0 83 30 146t86.5 98t133.5 35q117 0 182.5 -74.5zM178 265q0 -94 28.5 -138.5t85.5 -44.5t85.5 45t28.5 138t-28.5 137.5t-84.5 44.5q-115 0 -115 -182zM178.5 680
q-43.5 43 -49.5 112l75 14q20 -77 87 -77q34 0 56.5 20t31.5 57l76 -14q-6 -69 -50.5 -112t-113.5 -43t-112.5 43z" />
    <glyph glyph-name="Ohungarumlaut" unicode="&#x150;" horiz-adv-x="691" 
d="M507 664q68 -42 104.5 -123t36.5 -195q0 -113 -37 -194t-105 -124t-160 -43q-93 0 -161 42t-105 123t-37 195q0 112 37 193.5t105.5 124.5t160.5 43q93 0 161 -42zM224 542.5q-42 -62.5 -42 -197.5q0 -259 164 -259q80 0 121.5 62t41.5 198q0 135 -41.5 197t-121.5 62
t-122 -62.5zM305 973l94 -46l-105 -167l-72 30zM470 973l93 -48l-115 -170l-70 32z" />
    <glyph glyph-name="ohungarumlaut" unicode="&#x151;" horiz-adv-x="584" 
d="M475.5 469.5q65.5 -74.5 65.5 -204.5q0 -83 -30 -146.5t-86 -98.5t-133 -35q-117 0 -183 74.5t-66 205.5q0 83 30 146t86.5 98t133.5 35q117 0 182.5 -74.5zM178 265q0 -94 28.5 -138.5t85.5 -44.5t85.5 45t28.5 138t-28.5 137.5t-84.5 44.5q-115 0 -115 -182zM252 847
l94 -46l-105 -167l-72 30zM417 847l93 -48l-115 -170l-70 32z" />
    <glyph glyph-name="OE" unicode="&#x152;" horiz-adv-x="901" 
d="M857 0h-441q-39 -15 -85 -15q-85 0 -150.5 42t-101.5 123.5t-36 194.5q0 112 36.5 193.5t101.5 124.5t150 43q49 0 89 -15h434l-15 -98h-288q63 -74 74 -193h182v-98h-181q-11 -125 -80 -203h311v-99zM223 148.5q41 -62.5 113 -62.5q153 0 153 260q0 259 -153 259
q-73 0 -113.5 -63t-40.5 -197t41 -196.5z" />
    <glyph glyph-name="oe" unicode="&#x153;" horiz-adv-x="911" 
d="M870 225h-331q6 -77 39.5 -110t89.5 -33q35 0 66 11t66 36l53 -73q-88 -71 -196 -71q-122 0 -185 92q-65 -92 -180 -92q-117 0 -183 74.5t-66 205.5q0 83 30 146t86 98t133 35q117 0 181 -89q63 89 171 89t168.5 -71t60.5 -196q0 -10 -3 -52zM747 314q-1 67 -25.5 103
t-74.5 36q-49 0 -76 -34t-33 -111h209v6zM406 265q0 182 -114 182t-114 -182q0 -94 28.5 -138.5t85.5 -44.5q114 0 114 183z" />
    <glyph glyph-name="Racute" unicode="&#x154;" horiz-adv-x="611" 
d="M297 277h-84v-277h-132v691h206q274 0 274 -203q0 -69 -34 -114t-106 -73l181 -301h-152zM213 372h82q63 0 95.5 27.5t32.5 88.5q0 56 -33.5 81.5t-105.5 25.5h-71v-223zM381 936l50 -100l-229 -83l-33 66z" />
    <glyph glyph-name="racute" unicode="&#x155;" horiz-adv-x="394" 
d="M391 536l-22 -124q-24 6 -47 6q-47 0 -74 -33.5t-43 -102.5v-282h-128v529h111l12 -104q19 57 55 87.5t83 30.5q29 0 53 -7zM312 820l52 -100l-226 -90l-36 65z" />
    <glyph glyph-name="Rcommaaccent" unicode="&#x156;" horiz-adv-x="611" 
d="M297 277h-84v-277h-132v691h206q274 0 274 -203q0 -69 -34 -114t-106 -73l181 -301h-152zM213 372h82q63 0 95.5 27.5t32.5 88.5q0 56 -33.5 81.5t-105.5 25.5h-71v-223zM361 -91.5q20 -19.5 20 -48.5q0 -16 -5.5 -32.5t-21.5 -48.5l-44 -91h-67l28 116q-29 22 -29 56
q0 29 20 48.5t50 19.5q29 0 49 -19.5z" />
    <glyph glyph-name="rcommaaccent" unicode="&#x157;" horiz-adv-x="394" 
d="M391 536l-22 -124q-24 6 -47 6q-47 0 -74 -33.5t-43 -102.5v-282h-128v529h111l12 -104q19 57 55 87.5t83 30.5q29 0 53 -7zM192 -91.5q20 -19.5 20 -48.5q0 -16 -5.5 -32.5t-21.5 -48.5l-44 -91h-67l28 116q-29 22 -29 56q0 29 20 48.5t50 19.5q29 0 49 -19.5z" />
    <glyph glyph-name="Rcaron" unicode="&#x158;" horiz-adv-x="611" 
d="M297 277h-84v-277h-132v691h206q274 0 274 -203q0 -69 -34 -114t-106 -73l181 -301h-152zM213 372h82q63 0 95.5 27.5t32.5 88.5q0 56 -33.5 81.5t-105.5 25.5h-71v-223zM430 928l49 -56l-139 -120h-80l-139 120l49 56l130 -83z" />
    <glyph glyph-name="rcaron" unicode="&#x159;" horiz-adv-x="394" 
d="M391 536l-22 -124q-24 6 -47 6q-47 0 -74 -33.5t-43 -102.5v-282h-128v529h111l12 -104q19 57 55 87.5t83 30.5q29 0 53 -7zM366 800l49 -56l-139 -125h-80l-139 125l49 56l130 -88z" />
    <glyph glyph-name="Sacute" unicode="&#x15a;" 
d="M407 685q54 -21 101 -64l-65 -75q-37 31 -74.5 45t-80.5 14q-48 0 -77.5 -21.5t-29.5 -60.5q0 -26 11.5 -43t41.5 -32t89 -33q102 -32 153.5 -79.5t51.5 -138.5q0 -62 -31.5 -110t-90.5 -75t-140 -27q-79 0 -141.5 25.5t-107.5 69.5l68 76q40 -34 83 -51.5t95 -17.5
q57 0 92 27t35 76q0 30 -12 49.5t-41 35t-84 32.5q-110 34 -159 82t-49 126q0 57 30 100t83.5 67t121.5 24q73 0 127 -21zM368 936l50 -100l-229 -83l-33 66z" />
    <glyph glyph-name="sacute" unicode="&#x15b;" horiz-adv-x="476" 
d="M432 481l-50 -75q-68 43 -133 43q-38 0 -59 -14.5t-21 -38.5q0 -18 9 -30t32.5 -22.5t69.5 -23.5q86 -23 127.5 -61t41.5 -106q0 -79 -64 -123.5t-159 -44.5q-65 0 -118.5 20t-92.5 55l64 72q69 -52 144 -52q43 0 68.5 17t25.5 47q0 23 -9.5 36.5t-34 24t-76.5 25.5
q-81 22 -119 61.5t-38 98.5q0 44 25.5 79t72 55t106.5 20q107 0 188 -63zM323 820l52 -100l-226 -90l-36 65z" />
    <glyph glyph-name="Scircumflex" unicode="&#x15c;" 
d="M407 685q54 -21 101 -64l-65 -75q-37 31 -74.5 45t-80.5 14q-48 0 -77.5 -21.5t-29.5 -60.5q0 -26 11.5 -43t41.5 -32t89 -33q102 -32 153.5 -79.5t51.5 -138.5q0 -62 -31.5 -110t-90.5 -75t-140 -27q-79 0 -141.5 25.5t-107.5 69.5l68 76q40 -34 83 -51.5t95 -17.5
q57 0 92 27t35 76q0 30 -12 49.5t-41 35t-84 32.5q-110 34 -159 82t-49 126q0 57 30 100t83.5 67t121.5 24q73 0 127 -21zM156 757l-49 55l139 121h80l139 -121l-49 -55l-130 82z" />
    <glyph glyph-name="scircumflex" unicode="&#x15d;" horiz-adv-x="476" 
d="M432 481l-50 -75q-68 43 -133 43q-38 0 -59 -14.5t-21 -38.5q0 -18 9 -30t32.5 -22.5t69.5 -23.5q86 -23 127.5 -61t41.5 -106q0 -79 -64 -123.5t-159 -44.5q-65 0 -118.5 20t-92.5 55l64 72q69 -52 144 -52q43 0 68.5 17t25.5 47q0 23 -9.5 36.5t-34 24t-76.5 25.5
q-81 22 -119 61.5t-38 98.5q0 44 25.5 79t72 55t106.5 20q107 0 188 -63zM117 627l-49 55l138 126h81l139 -126l-49 -55l-130 88z" />
    <glyph glyph-name="Scedilla" unicode="&#x15e;" 
d="M470.5 55q-57.5 -57 -158.5 -68v-39q50 -5 74.5 -29.5t24.5 -62.5q0 -50 -38 -79.5t-99 -29.5q-31 0 -58 7.5t-45 20.5l31 63q30 -16 63 -16q49 0 49 34q0 20 -21.5 29t-69.5 9l11 92q-131 10 -217 94l68 76q40 -34 83 -51.5t95 -17.5q57 0 92 27t35 76q0 30 -12 49.5
t-41 35t-84 32.5q-110 34 -159 82t-49 126q0 57 30 100t83.5 67t121.5 24q73 0 127 -21t101 -64l-65 -75q-37 31 -74.5 45t-80.5 14q-48 0 -77.5 -21.5t-29.5 -60.5q0 -26 11.5 -43t41.5 -32t89 -33q102 -32 153.5 -79.5t51.5 -138.5q0 -85 -57.5 -142z" />
    <glyph glyph-name="scedilla" unicode="&#x15f;" horiz-adv-x="476" 
d="M400.5 41.5q-48.5 -42.5 -126.5 -53.5v-40q50 -5 74.5 -29.5t24.5 -62.5q0 -50 -38 -79.5t-99 -29.5q-31 0 -58 7.5t-45 20.5l31 63q30 -16 63 -16q49 0 49 34q0 20 -21.5 29t-69.5 9l11 92q-107 8 -181 74l64 72q69 -52 144 -52q43 0 68.5 17t25.5 47q0 23 -9.5 36.5
t-34 24t-76.5 25.5q-81 22 -119 61.5t-38 98.5q0 44 25.5 79t72 55t106.5 20q107 0 188 -63l-50 -75q-68 43 -133 43q-38 0 -59 -14.5t-21 -38.5q0 -18 9 -30t32.5 -22.5t69.5 -23.5q86 -23 127.5 -61t41.5 -106q0 -69 -48.5 -111.5z" />
    <glyph glyph-name="Scaron" unicode="&#x160;" 
d="M407 685q54 -21 101 -64l-65 -75q-37 31 -74.5 45t-80.5 14q-48 0 -77.5 -21.5t-29.5 -60.5q0 -26 11.5 -43t41.5 -32t89 -33q102 -32 153.5 -79.5t51.5 -138.5q0 -62 -31.5 -110t-90.5 -75t-140 -27q-79 0 -141.5 25.5t-107.5 69.5l68 76q40 -34 83 -51.5t95 -17.5
q57 0 92 27t35 76q0 30 -12 49.5t-41 35t-84 32.5q-110 34 -159 82t-49 126q0 57 30 100t83.5 67t121.5 24q73 0 127 -21zM417 928l49 -56l-139 -120h-80l-139 120l49 56l130 -83z" />
    <glyph glyph-name="scaron" unicode="&#x161;" horiz-adv-x="476" 
d="M432 481l-50 -75q-68 43 -133 43q-38 0 -59 -14.5t-21 -38.5q0 -18 9 -30t32.5 -22.5t69.5 -23.5q86 -23 127.5 -61t41.5 -106q0 -79 -64 -123.5t-159 -44.5q-65 0 -118.5 20t-92.5 55l64 72q69 -52 144 -52q43 0 68.5 17t25.5 47q0 23 -9.5 36.5t-34 24t-76.5 25.5
q-81 22 -119 61.5t-38 98.5q0 44 25.5 79t72 55t106.5 20q107 0 188 -63zM377 800l49 -56l-139 -125h-80l-139 125l49 56l130 -88z" />
    <glyph glyph-name="uni0162" unicode="&#x162;" horiz-adv-x="530" 
d="M407 -81.5q25 -24.5 25 -62.5q0 -50 -39 -79.5t-101 -29.5q-30 0 -56.5 7.5t-43.5 20.5l31 63q30 -16 60 -16q52 0 52 35q0 19 -21.5 28t-69.5 9l13 106h-59v586h-186v105h513l-14 -105h-180v-638q51 -5 76 -29.5z" />
    <glyph glyph-name="uni0163" unicode="&#x163;" horiz-adv-x="375" 
d="M343.5 -81.5q24.5 -24.5 24.5 -62.5q0 -50 -38 -79.5t-99 -29.5q-31 0 -58 7.5t-45 20.5l31 63q30 -16 63 -16q49 0 49 34q0 20 -21.5 29t-69.5 9l12 98q-51 14 -77.5 56t-26.5 110v279h-83v92h83v117l128 15v-132h123l-13 -92h-110v-276q0 -39 13.5 -56t42.5 -17t63 19
l45 -82q-48 -34 -111 -39v-38q50 -5 74.5 -29.5z" />
    <glyph glyph-name="Tcaron" unicode="&#x164;" horiz-adv-x="530" 
d="M525 691l-14 -105h-180v-586h-133v586h-186v105h513zM395 928l49 -56l-139 -120h-80l-139 120l49 56l130 -83z" />
    <glyph glyph-name="tcaron" unicode="&#x165;" horiz-adv-x="375" 
d="M367 765l-53 -201l-71 11l21 204zM380 25q-28 -20 -62.5 -30t-70.5 -10q-78 1 -118.5 44.5t-40.5 128.5v279h-83v92h83v117l128 15v-132h123l-13 -92h-110v-276q0 -39 13.5 -56t42.5 -17t63 19z" />
    <glyph glyph-name="Tbar" unicode="&#x166;" horiz-adv-x="530" 
d="M511 585h-180v-197h120v-82h-120v-307h-133v307h-118v82h118v197h-186v105h513z" />
    <glyph glyph-name="tbar" unicode="&#x167;" horiz-adv-x="375" 
d="M380 25q-28 -20 -62.5 -30t-70.5 -10q-78 1 -118.5 44.5t-40.5 128.5v112h-73v89h73v78h-83v92h83v117l128 15v-132h123l-13 -92h-110v-78h106v-89h-106v-109q0 -39 13.5 -56t42.5 -17t63 19z" />
    <glyph glyph-name="Utilde" unicode="&#x168;" horiz-adv-x="656" 
d="M585 226q0 -70 -29.5 -124.5t-88 -85.5t-140.5 -31q-124 0 -190 65.5t-66 175.5v465h132v-458q0 -73 30.5 -109t93.5 -36q64 0 94.5 36t30.5 109v458h133v-465zM349.5 777.5q-15.5 7.5 -35.5 20.5q-15 10 -24 14.5t-19 4.5q-17 0 -28.5 -10.5t-24.5 -34.5l-69 34
q20 47 50 75.5t70 28.5q22 0 37.5 -7t36.5 -20q13 -10 22.5 -14.5t19.5 -4.5q15 0 27 10t26 33l68 -34q-20 -48 -51 -75.5t-69 -27.5q-21 0 -36.5 7.5z" />
    <glyph glyph-name="utilde" unicode="&#x169;" horiz-adv-x="577" 
d="M500 0h-111l-7 74q-29 -45 -68.5 -67t-93.5 -22q-71 0 -109.5 43.5t-38.5 120.5v380h128v-364q0 -45 15.5 -64t49.5 -19q61 0 107 75v372h128v-529zM307.5 651.5q-15.5 7.5 -35.5 20.5q-15 10 -24 14.5t-19 4.5q-17 0 -28.5 -10.5t-24.5 -34.5l-69 34q20 47 50 75.5
t70 28.5q22 0 37.5 -7t36.5 -20q13 -10 22.5 -14.5t19.5 -4.5q15 0 27 10t26 33l68 -34q-20 -48 -51 -75.5t-69 -27.5q-21 0 -36.5 7.5z" />
    <glyph glyph-name="Umacron" unicode="&#x16a;" horiz-adv-x="656" 
d="M585 226q0 -70 -29.5 -124.5t-88 -85.5t-140.5 -31q-124 0 -190 65.5t-66 175.5v465h132v-458q0 -73 30.5 -109t93.5 -36q64 0 94.5 36t30.5 109v458h133v-465zM473 787h-291v91h291v-91z" />
    <glyph glyph-name="umacron" unicode="&#x16b;" horiz-adv-x="577" 
d="M500 0h-111l-7 74q-29 -45 -68.5 -67t-93.5 -22q-71 0 -109.5 43.5t-38.5 120.5v380h128v-364q0 -45 15.5 -64t49.5 -19q61 0 107 75v372h128v-529zM431 661h-291v91h291v-91z" />
    <glyph glyph-name="Ubreve" unicode="&#x16c;" horiz-adv-x="656" 
d="M585 226q0 -70 -29.5 -124.5t-88 -85.5t-140.5 -31q-124 0 -190 65.5t-66 175.5v465h132v-458q0 -73 30.5 -109t93.5 -36q64 0 94.5 36t30.5 109v458h133v-465zM215 795q-44 41 -50 103l75 15q10 -31 32 -49t55 -18t56 18t32 49l76 -15q-6 -62 -50.5 -103t-113.5 -41
q-68 0 -112 41z" />
    <glyph glyph-name="ubreve" unicode="&#x16d;" horiz-adv-x="577" 
d="M500 0h-111l-7 74q-29 -45 -68.5 -67t-93.5 -22q-71 0 -109.5 43.5t-38.5 120.5v380h128v-364q0 -45 15.5 -64t49.5 -19q61 0 107 75v372h128v-529zM172.5 680q-43.5 43 -49.5 112l75 14q20 -77 87 -77q34 0 56.5 20t31.5 57l76 -14q-6 -69 -50.5 -112t-113.5 -43
t-112.5 43z" />
    <glyph glyph-name="Uring" unicode="&#x16e;" horiz-adv-x="656" 
d="M585 226q0 -70 -29.5 -124.5t-88 -85.5t-140.5 -31q-124 0 -190 65.5t-66 175.5v465h132v-458q0 -73 30.5 -109t93.5 -36q64 0 94.5 36t30.5 109v458h133v-465zM420 944.5q35 -34.5 35 -85.5q0 -50 -35.5 -85t-91.5 -35q-57 0 -92.5 35t-35.5 85q0 51 35.5 85.5
t92.5 34.5t92 -34.5zM292 898q-13 -14 -13 -39t13 -38.5t36 -13.5q22 0 35 13.5t13 38.5t-13 39t-35 14q-23 0 -36 -14z" />
    <glyph glyph-name="uring" unicode="&#x16f;" horiz-adv-x="577" 
d="M500 0h-111l-7 74q-29 -45 -68.5 -67t-93.5 -22q-71 0 -109.5 43.5t-38.5 120.5v380h128v-364q0 -45 15.5 -64t49.5 -19q61 0 107 75v372h128v-529zM378 818.5q35 -34.5 35 -85.5q0 -50 -35.5 -85t-91.5 -35q-57 0 -92.5 35t-35.5 85q0 51 35.5 85.5t92.5 34.5t92 -34.5z
M250 772q-13 -14 -13 -39t13 -38.5t36 -13.5q22 0 35 13.5t13 38.5t-13 39t-35 14q-23 0 -36 -14z" />
    <glyph glyph-name="Uhungarumlaut" unicode="&#x170;" horiz-adv-x="656" 
d="M585 226q0 -70 -29.5 -124.5t-88 -85.5t-140.5 -31q-124 0 -190 65.5t-66 175.5v465h132v-458q0 -73 30.5 -109t93.5 -36q64 0 94.5 36t30.5 109v458h133v-465zM287 973l94 -46l-105 -167l-72 30zM452 973l93 -48l-115 -170l-70 32z" />
    <glyph glyph-name="uhungarumlaut" unicode="&#x171;" horiz-adv-x="577" 
d="M500 0h-111l-7 74q-29 -45 -68.5 -67t-93.5 -22q-71 0 -109.5 43.5t-38.5 120.5v380h128v-364q0 -45 15.5 -64t49.5 -19q61 0 107 75v372h128v-529zM246 847l94 -46l-105 -167l-72 30zM411 847l93 -48l-115 -170l-70 32z" />
    <glyph glyph-name="Uogonek" unicode="&#x172;" horiz-adv-x="656" 
d="M585 691v-465q0 -83 -40.5 -143t-117.5 -84q-68 -28 -93 -53.5t-25 -53.5q0 -46 54 -46q29 0 61 7l-10 -85q-37 -7 -67 -7q-61 0 -99 30t-38 79q0 74 89 116q-111 7 -169.5 72t-58.5 168v465h132v-458q0 -73 30.5 -109t93.5 -36q64 0 94.5 36t30.5 109v458h133z" />
    <glyph glyph-name="uogonek" unicode="&#x173;" horiz-adv-x="577" 
d="M405 -54q-26 -26 -26 -54q0 -46 55 -46q27 0 61 7l-10 -85q-37 -7 -67 -7q-61 0 -99 30t-38 79q0 45 27 79t80 60l-6 65q-29 -45 -68.5 -67t-93.5 -22q-71 0 -109.5 43.5t-38.5 120.5v380h128v-364q0 -45 15.5 -64t49.5 -19q61 0 107 75v372h128v-529q-69 -28 -95 -54z
" />
    <glyph glyph-name="Wcircumflex" unicode="&#x174;" horiz-adv-x="837" 
d="M821 691l-127 -691h-172l-105 551l-108 -551h-167l-125 691h131l88 -586l113 586h140l111 -586l96 586h125zM288 757l-49 55l139 121h80l139 -121l-49 -55l-130 82z" />
    <glyph glyph-name="wcircumflex" unicode="&#x175;" horiz-adv-x="734" 
d="M723 529l-115 -529h-160l-80 415l-82 -415h-157l-117 529h128l74 -435l92 435h131l84 -435l79 435h123zM237 627l-49 55l138 126h81l139 -126l-49 -55l-130 88z" />
    <glyph glyph-name="Ycircumflex" unicode="&#x176;" horiz-adv-x="574" 
d="M576 691l-222 -429v-262h-134v261l-222 430h146l146 -321l146 321h140zM156 757l-49 55l139 121h80l139 -121l-49 -55l-130 82z" />
    <glyph glyph-name="ycircumflex" unicode="&#x177;" horiz-adv-x="506" 
d="M333 -2q-32 -98 -97 -152.5t-178 -63.5l-13 93q52 8 83.5 22.5t50.5 38.5t35 64h-44l-168 529h136l115 -444l120 444h132zM123 627l-49 55l138 126h81l139 -126l-49 -55l-130 88z" />
    <glyph glyph-name="Ydieresis" unicode="&#x178;" horiz-adv-x="574" 
d="M576 691l-222 -429v-262h-134v261l-222 430h146l146 -321l146 321h140zM225 891q20 -20 20 -49t-20 -49t-49 -20q-30 0 -50.5 20t-20.5 49t20.5 49t50.5 20q29 0 49 -20zM447 891q20 -20 20 -49t-20 -49t-50 -20q-29 0 -49.5 20t-20.5 49t20.5 49t49.5 20q30 0 50 -20z
" />
    <glyph glyph-name="Zacute" unicode="&#x179;" horiz-adv-x="534" 
d="M496 691v-102l-319 -481h322l-14 -108h-462v101l325 485h-292v105h440zM355 936l50 -100l-229 -83l-33 66z" />
    <glyph glyph-name="zacute" unicode="&#x17a;" horiz-adv-x="449" 
d="M421 529v-92l-256 -337h261l-13 -100h-395v92l257 337h-235v100h381zM302 820l52 -100l-226 -90l-36 65z" />
    <glyph glyph-name="Zdotaccent" unicode="&#x17b;" horiz-adv-x="534" 
d="M496 691v-102l-319 -481h322l-14 -108h-462v101l325 485h-292v105h440zM331.5 900.5q22.5 -22.5 22.5 -55.5t-22.5 -55t-58.5 -22q-35 0 -57.5 22t-22.5 55t22.5 55.5t57.5 22.5q36 0 58.5 -22.5z" />
    <glyph glyph-name="zdotaccent" unicode="&#x17c;" horiz-adv-x="449" 
d="M421 529v-92l-256 -337h261l-13 -100h-395v92l257 337h-235v100h381zM283.5 774.5q22.5 -22.5 22.5 -55.5t-22.5 -55t-58.5 -22q-35 0 -57.5 22t-22.5 55t22.5 55.5t57.5 22.5q36 0 58.5 -22.5z" />
    <glyph glyph-name="Zcaron" unicode="&#x17d;" horiz-adv-x="534" 
d="M496 691v-102l-319 -481h322l-14 -108h-462v101l325 485h-292v105h440zM404 928l49 -56l-139 -120h-80l-139 120l49 56l130 -83z" />
    <glyph glyph-name="zcaron" unicode="&#x17e;" horiz-adv-x="449" 
d="M421 529v-92l-256 -337h261l-13 -100h-395v92l257 337h-235v100h381zM356 800l49 -56l-139 -125h-80l-139 125l49 56l130 -88z" />
    <glyph glyph-name="longs" unicode="&#x17f;" horiz-adv-x="347" 
d="M415 724l-37 -86q-43 20 -87 20q-38 0 -54.5 -17.5t-16.5 -55.5v-585h-128v437h-86v92h86v58q0 75 48.5 121.5t137.5 46.5q70 0 137 -31z" />
    <glyph glyph-name="uni0180" unicode="&#x180;" horiz-adv-x="603" 
d="M502 470.5q52 -73.5 52 -205.5q0 -82 -25.5 -145.5t-72.5 -99t-111 -35.5q-43 0 -78.5 18t-61.5 51l-8 -54h-113v601h-69v82h69v58l128 14v-72h140v-82h-140v-132q26 36 63.5 55.5t82.5 19.5q92 0 144 -73.5zM391 125.5q29 44.5 29 139.5q0 100 -27 141.5t-76 41.5
q-61 0 -105 -72v-234q17 -29 42.5 -45t55.5 -16q52 0 81 44.5z" />
    <glyph glyph-name="uni0181" unicode="&#x181;" horiz-adv-x="728" 
d="M649.5 315.5q43.5 -37.5 43.5 -116.5q0 -108 -76 -153.5t-213 -45.5h-208v593h-30q-50 0 -50 -45q0 -17 4 -32t13 -37l-84 -39q-20 30 -31 56.5t-11 57.5q0 63 44 100t122 37h204q286 0 286 -176q0 -61 -37 -99.5t-91 -49.5q71 -13 114.5 -50.5zM328 594v-187h81
q55 0 87 24.5t32 72.5q0 50 -33.5 70t-104.5 20h-62zM516.5 121q38.5 22 38.5 83q0 59 -36.5 85t-99.5 26h-91v-216h77q73 0 111.5 22z" />
    <glyph glyph-name="uni0182" unicode="&#x182;" horiz-adv-x="588" 
d="M494.5 385q70.5 -54 70.5 -160q0 -114 -73 -169.5t-197 -55.5h-214v691h406l-14 -103h-260v-149h82q129 0 199.5 -54zM391 127.5q35 28.5 35 95.5q0 62 -34.5 91t-103.5 29h-75v-244h78q65 0 100 28.5z" />
    <glyph glyph-name="uni0183" unicode="&#x183;" horiz-adv-x="596" 
d="M495 464.5q52 -72.5 52 -203.5q0 -80 -25.5 -143t-72.5 -98t-111 -35q-43 0 -78.5 18t-61.5 51l-8 -54h-113v741h349l-15 -94h-206v-185q26 36 63 55.5t81 19.5q94 0 146 -72.5zM384 124.5q29 43.5 29 136.5q0 98 -27 139t-76 41q-61 0 -105 -71v-228q18 -29 43.5 -45
t55.5 -16q51 0 80 43.5z" />
    <glyph glyph-name="uni0184" unicode="&#x184;" horiz-adv-x="596" 
d="M505.5 392.5q70.5 -54.5 70.5 -163.5q0 -116 -73 -172.5t-197 -56.5h-214v506l-72 47q53 56 91 138h114v-244h81q129 0 199.5 -54.5zM402.5 128q34.5 29 34.5 99q0 65 -34.5 94.5t-103.5 29.5h-74v-252h78q65 0 99.5 29z" />
    <glyph glyph-name="uni0185" unicode="&#x185;" horiz-adv-x="531" 
d="M449.5 315.5q56.5 -46.5 56.5 -134.5q0 -89 -60.5 -135t-155.5 -46h-201v354l-73 47q56 57 91 128h110v-167h52q124 0 180.5 -46.5zM374 183q0 47 -24 69.5t-83 22.5h-50v-186h60q97 0 97 94z" />
    <glyph glyph-name="uni0186" unicode="&#x186;" horiz-adv-x="568" 
d="M391 664.5q64 -41.5 99 -122.5t35 -195q0 -115 -38 -196.5t-106 -123.5t-158 -42q-120 0 -210 84l63 77q37 -27 68.5 -41t72.5 -14q78 0 123.5 62t45.5 194q0 135 -41.5 196t-111.5 61q-77 0 -147 -49l-65 78q47 37 99.5 55t120.5 18q86 0 150 -41.5z" />
    <glyph glyph-name="uni0187" unicode="&#x187;" horiz-adv-x="568" 
d="M716 805l-41 -81q-19 11 -35 16t-36 5q-57 0 -57 -67v-45l-59 -69q-67 40 -137 40q-77 0 -123 -62t-46 -195q0 -131 46 -193.5t125 -62.5q40 0 71 15t69 43l62 -80q-35 -36 -88.5 -60t-119.5 -24q-90 0 -159 42t-107 123.5t-38 196.5q0 112 39.5 193.5t106 123.5
t146.5 42q54 0 94 -17q3 74 44 114t117 40q70 0 126 -38z" />
    <glyph glyph-name="uni0188" unicode="&#x188;" horiz-adv-x="478" 
d="M631 717l-41 -80q-19 11 -35 16t-36 5q-57 0 -57 -68v-108l-49 -67q-26 14 -52 21t-61 7q-121 0 -121 -181q0 -92 31 -132.5t88 -40.5q28 0 51.5 9t55.5 29l57 -81q-75 -61 -171 -61q-76 0 -132 33.5t-86 95.5t-30 146t30 148.5t83.5 100t123.5 35.5q38 0 64 -10v57
q0 79 42 121.5t119 42.5q70 0 126 -38z" />
    <glyph glyph-name="uni0189" unicode="&#x189;" horiz-adv-x="661" 
d="M521.5 618q96.5 -73 96.5 -269q0 -192 -95 -270.5t-241 -78.5h-188v310h-77v86h77v295h170q161 0 257.5 -73zM429 153.5q50 54.5 50 195.5q0 98 -25.5 151.5t-67 72.5t-99.5 19h-61v-196h145v-86h-145v-211h65q88 0 138 54.5z" />
    <glyph glyph-name="uni018A" unicode="&#x18a;" horiz-adv-x="763" 
d="M623.5 618q96.5 -73 96.5 -269q0 -192 -95 -270.5t-241 -78.5h-188v593h-30q-50 0 -50 -45q0 -17 4 -32t13 -37l-84 -39q-20 30 -31 56.5t-11 57.5q0 63 44 100t122 37h193q161 0 257.5 -73zM531 153.5q50 54.5 50 195.5q0 98 -25.5 151.5t-67 72.5t-99.5 19h-61v-493h65
q88 0 138 54.5z" />
    <glyph glyph-name="uni018B" unicode="&#x18b;" horiz-adv-x="588" 
d="M507 690v-690h-222q-120 0 -191 53.5t-71 164.5q0 106 71.5 163.5t198.5 57.5h82v149h-268v103h401zM375 99v244h-75q-69 0 -103.5 -30.5t-34.5 -94.5q0 -65 35 -92t100 -27h78z" />
    <glyph glyph-name="uni018C" unicode="&#x18c;" horiz-adv-x="599" 
d="M522 0h-113l-9 67q-25 -38 -63.5 -60t-87.5 -22q-97 0 -149 74.5t-52 201.5q0 80 26 142.5t74.5 98t114.5 35.5q74 0 131 -57v167h-213v94h341v-741zM345 98.5q26 16.5 49 51.5v235q-23 28 -46.5 42t-53.5 14q-52 0 -81.5 -45t-29.5 -135q0 -95 26 -137t76 -42
q34 0 60 16.5z" />
    <glyph glyph-name="uni018D" unicode="&#x18d;" horiz-adv-x="578" 
d="M459 6.5q21 -32.5 21 -77.5q0 -41 -22 -75t-66.5 -54t-108.5 -20q-107 0 -185 58l61 72q28 -19 54.5 -28t58.5 -9q42 0 62 16t20 42q0 20 -8.5 33.5t-31 27t-69.5 33.5q-105 43 -153.5 101.5t-48.5 157.5q0 74 30 133t85.5 93t130.5 34q113 0 179.5 -68t66.5 -187
q0 -74 -40 -129.5t-112 -90.5q55 -30 76 -62.5zM189.5 203q11.5 -31 40 -54t82.5 -48q46 34 67.5 78t21.5 106q0 162 -111 162q-55 0 -83.5 -41t-28.5 -123q0 -49 11.5 -80z" />
    <glyph glyph-name="uni018E" unicode="&#x18e;" horiz-adv-x="530" 
d="M50 691h399v-691h-405v99h273v203h-222v98h222v193h-267v98z" />
    <glyph glyph-name="uni018F" unicode="&#x18f;" horiz-adv-x="644" 
d="M525 617q76 -89 76 -263q0 -122 -35.5 -204.5t-100 -123.5t-150.5 -41q-140 0 -211 91.5t-71 260.5q0 21 4 59h428q-4 108 -45.5 158.5t-117.5 50.5q-49 0 -89.5 -16t-78.5 -45l-62 75q51 44 109.5 65.5t130.5 21.5q137 0 213 -89zM421 136q39 51 44 164h-303
q3 -215 150 -215q70 0 109 51z" />
    <glyph glyph-name="uni0190" unicode="&#x190;" horiz-adv-x="532" 
d="M510 617l-67 -71q-67 60 -144 60q-54 0 -80 -26t-26 -67q0 -46 31.5 -72.5t85.5 -26.5h71l-17 -99h-52q-68 0 -102.5 -29.5t-34.5 -83.5t34.5 -84t96.5 -30q45 0 81 16t68 48l74 -71q-88 -96 -234 -96q-75 0 -134 26.5t-92.5 74.5t-33.5 110q0 76 45.5 120t121.5 52
q-70 15 -107.5 56t-37.5 103q0 51 27.5 91.5t79.5 64t122 23.5q130 0 224 -89z" />
    <glyph glyph-name="uni0191" unicode="&#x191;" horiz-adv-x="489" 
d="M213 593v-207h213v-98h-213v-331q0 -86 -47.5 -130.5t-130.5 -44.5q-75 0 -129 41l46 80q20 -11 35 -16t36 -5q58 0 58 67v742h391l-14 -98h-245z" />
    <glyph glyph-name="florin" unicode="&#x192;" horiz-adv-x="358" 
d="M242.5 641q-16.5 -17 -16.5 -56v-56h127l-14 -92h-113v-390q0 -78 -22.5 -127.5t-63 -79.5t-106.5 -57l-41 93q39 18 60.5 35.5t33 47.5t11.5 80v398h-83v92h83v58q0 75 48.5 121.5t137.5 46.5q40 0 73.5 -8t68.5 -23l-37 -86q-45 20 -89 20q-41 0 -57.5 -17z" />
    <glyph glyph-name="uni0193" unicode="&#x193;" horiz-adv-x="602" 
d="M750 805l-42 -81q-19 11 -34.5 16t-35.5 5q-58 0 -58 -67v-53l-64 -67q-39 24 -75 36t-77 12q-80 0 -131 -64t-51 -196q0 -138 40.5 -199t123.5 -61q63 0 110 27v180h-104l-14 98h248v-338q-108 -68 -243 -68q-145 0 -222.5 92t-77.5 269q0 112 42 193.5t111 124
t148 42.5q71 0 119 -24q1 77 42 119t119 42q68 0 126 -38z" />
    <glyph glyph-name="uni0194" unicode="&#x194;" horiz-adv-x="562" 
d="M355 82q35 -62 50 -102.5t15 -83.5q0 -54 -34 -84t-103 -30t-103 30t-34 84q0 37 15 78t50 108l-216 609h142l147 -521l148 521h135zM305.5 -52q-7.5 23 -22.5 59q-30 -68 -30 -102q0 -33 30 -33t30 34q0 19 -7.5 42z" />
    <glyph glyph-name="uni0195" unicode="&#x195;" horiz-adv-x="877" 
d="M822 251q0 -90 -35 -149.5t-91.5 -88t-120.5 -28.5q-84 0 -139 48t-55 140v190q0 47 -16.5 66t-48.5 19t-59 -20.5t-52 -58.5v-369h-128v740l128 13v-287q64 78 154 78q70 0 110 -43t40 -118v-206q0 -95 74 -95q45 0 77.5 42.5t32.5 137.5q0 128 -26 267h127
q28 -147 28 -278z" />
    <glyph glyph-name="uni0196" unicode="&#x196;" horiz-adv-x="380" 
d="M378 26q-54 -41 -129 -41q-83 0 -130.5 44.5t-47.5 130.5v531h132v-539q0 -67 58 -67q21 0 36 5t35 16z" />
    <glyph glyph-name="uni0197" unicode="&#x197;" horiz-adv-x="322" 
d="M312 409v-99h-85v-310h-132v310h-85v99h85v282h132v-282h85z" />
    <glyph glyph-name="uni0198" unicode="&#x198;" horiz-adv-x="637" 
d="M219 369l152 231q37 58 73.5 82t92.5 24q61 0 106 -36l-39 -79q-13 8 -24 12t-28 4q-23 0 -39 -10.5t-38 -44.5l-114 -174l259 -378h-157zM213 691v-691h-132v691h132z" />
    <glyph glyph-name="uni0199" unicode="&#x199;" horiz-adv-x="534" 
d="M221 640.5q-16 -17.5 -16 -55.5v-585h-128v587q0 75 48.5 121.5t137.5 46.5q71 0 136 -31l-37 -86q-43 20 -87 20q-38 0 -54 -17.5zM346 296l193 -296h-147l-182 289l177 240h135z" />
    <glyph glyph-name="uni019A" unicode="&#x19a;" horiz-adv-x="326" 
d="M313 3q-40 -18 -85 -18q-61 0 -95.5 35.5t-34.5 100.5v205h-88v92h88v323l128 14v-337h86v-92h-86v-201q0 -37 30 -37q15 0 30 5z" />
    <glyph glyph-name="uni019B" unicode="&#x19b;" horiz-adv-x="511" 
d="M416 257q24 -78 49.5 -130t62.5 -99l-122 -43q-53 78 -85.5 166t-65.5 254l-116 -420l-126 30l161 478h65q-14 58 -30 90l-60 -56l-76 44l77 72q-33 17 -85 24l16 88q48 -8 83 -19t61 -28l69 65l60 -62l-66 -61q44 -62 74 -186q30 -129 54 -207z" />
    <glyph glyph-name="uni019C" unicode="&#x19c;" horiz-adv-x="923" 
d="M843 691v-691h-116l-10 71q-35 -44 -73 -65t-86 -21q-52 0 -90 25t-58 70q-40 -49 -81 -72t-91 -23q-79 0 -123 54.5t-44 143.5v508h132v-503q0 -48 19 -74.5t54 -26.5q33 0 58.5 18.5t55.5 60.5v17v508h133v-503q0 -48 19 -74.5t53 -26.5q35 0 60 18.5t55 61.5v524h133z
" />
    <glyph glyph-name="uni019D" unicode="&#x19d;" horiz-adv-x="672" 
d="M591 691v-691h-171l-237 559q9 -74 13.5 -134t4.5 -143v-326q0 -85 -45.5 -129.5t-122.5 -44.5q-76 0 -130 41l46 78q19 -12 34.5 -17t37.5 -5q60 0 60 67v745h167l241 -560q-6 40 -12 105.5t-6 130.5v324h120z" />
    <glyph glyph-name="uni019E" unicode="&#x19e;" horiz-adv-x="581" 
d="M469.5 501.5q39.5 -42.5 39.5 -118.5v-601l-128 14v567q0 47 -16.5 66t-48.5 19q-33 0 -59.5 -20.5t-51.5 -59.5v-368h-128v529h111l10 -69q65 84 161 84q71 0 110.5 -42.5z" />
    <glyph glyph-name="uni019F" unicode="&#x19f;" horiz-adv-x="691" 
d="M507 664q68 -42 104.5 -123t36.5 -195q0 -113 -37 -194t-105 -124t-160 -43q-93 0 -161 42t-105 123t-37 195q0 112 37 193.5t105.5 124.5t160.5 43q93 0 161 -42zM180 392h332q-14 213 -166 213t-166 -213zM512 310h-333q6 -116 49.5 -170t117.5 -54q155 0 166 224z" />
    <glyph glyph-name="Ohorn" unicode="&#x1a0;" horiz-adv-x="710" 
d="M595 573q53 -90 53 -227q0 -113 -37 -194t-105 -124t-160 -43q-93 0 -161 42t-105 123t-37 195q0 112 37 193.5t105.5 124.5t160.5 43q122 0 200 -72q27 4 39 17t12 37q0 22 -3.5 37t-10.5 33l89 15q19 -36 19 -85q0 -95 -96 -115zM467.5 148q41.5 62 41.5 198
q0 135 -41.5 197t-121.5 62t-122 -62.5t-42 -197.5q0 -259 164 -259q80 0 121.5 62z" />
    <glyph glyph-name="ohorn" unicode="&#x1a1;" horiz-adv-x="611" 
d="M589 446q-26 -29 -75 -38q27 -60 27 -143t-30 -146.5t-86 -98.5t-133 -35q-117 0 -183 74.5t-66 205.5q0 83 30 146t86.5 98t133.5 35q114 0 180 -71q25 3 36.5 15.5t11.5 35.5q0 21 -3.5 36t-10.5 33l89 15q19 -36 19 -85q0 -48 -26 -77zM377.5 127q28.5 45 28.5 138
t-28.5 137.5t-84.5 44.5q-115 0 -115 -182q0 -94 28.5 -138.5t85.5 -44.5t85.5 45z" />
    <glyph glyph-name="uni01A2" unicode="&#x1a2;" horiz-adv-x="945" 
d="M816 661.5q48 -45.5 48 -131.5v-736h-133v741q0 76 -66 76q-23 0 -42.5 -5t-41.5 -16q67 -93 67 -244q0 -113 -37 -194t-105 -124t-160 -43q-93 0 -161 42t-105 123t-37 195q0 112 37 193.5t105.5 124.5t160.5 43q99 0 172 -52q39 27 77.5 40t83.5 13q89 0 137 -45.5z
M467.5 148q41.5 62 41.5 198q0 135 -41.5 197t-121.5 62t-122 -62.5t-42 -197.5q0 -259 164 -259q80 0 121.5 62z" />
    <glyph glyph-name="uni01A3" unicode="&#x1a3;" horiz-adv-x="812" 
d="M689 498.5q46 -45.5 46 -131.5v-585l-128 14v579q0 73 -63 73q-23 0 -49 -8q46 -71 46 -175q0 -83 -30 -146.5t-86 -98.5t-133 -35q-117 0 -183 74.5t-66 205.5q0 83 30 146t86.5 98t133.5 35q78 0 133 -36q32 18 64 27t70 9q83 0 129 -45.5zM377.5 127q28.5 45 28.5 138
t-28.5 137.5t-84.5 44.5q-115 0 -115 -182q0 -94 28.5 -138.5t85.5 -44.5t85.5 45z" />
    <glyph glyph-name="uni01A4" unicode="&#x1a4;" horiz-adv-x="706" 
d="M606.5 636q73.5 -55 73.5 -165q0 -115 -74 -172.5t-197 -57.5h-81v-241h-132v593h-30q-50 0 -50 -45q0 -17 4 -32t13 -37l-84 -39q-20 30 -31 56.5t-11 57.5q0 63 44 100t122 37h227q133 0 206.5 -55zM506 369.5q36 29.5 36 101.5q0 123 -143 123h-71v-254h71
q71 0 107 29.5z" />
    <glyph glyph-name="uni01A5" unicode="&#x1a5;" horiz-adv-x="596" 
d="M498.5 471q48.5 -73 48.5 -205q0 -82 -24.5 -145.5t-72 -99.5t-112.5 -36q-84 0 -133 58v-247l-128 -14v805q0 75 48.5 121.5t137.5 46.5q71 0 136 -31l-37 -86q-43 20 -87 20q-38 0 -54 -17.5t-16 -55.5v-115q30 37 67.5 55.5t76.5 18.5q101 0 149.5 -73zM413 265
q0 98 -25.5 140.5t-76.5 42.5q-31 0 -58.5 -19.5t-47.5 -52.5v-238q37 -55 97 -55q111 0 111 182z" />
    <glyph glyph-name="uni01A6" unicode="&#x1a6;" horiz-adv-x="611" 
d="M297 159h-84v-159h-132v691h132v-118h74q274 0 274 -203q0 -69 -34 -114t-106 -73l181 -301h-152zM213 254h82q63 0 95.5 27.5t32.5 88.5q0 56 -33.5 81.5t-105.5 25.5h-71v-223z" />
    <glyph glyph-name="uni01A7" unicode="&#x1a7;" horiz-adv-x="551" 
d="M406.5 683q52.5 -23 81 -65t28.5 -98q0 -78 -50 -125.5t-160 -81.5q-78 -24 -107 -52.5t-29 -72.5q0 -48 33 -74t87 -26q94 0 176 67l68 -75q-46 -44 -109.5 -69.5t-142.5 -25.5q-75 0 -131.5 27t-87.5 74t-31 107q0 88 51.5 135.5t153.5 79.5q57 18 87.5 34.5t42.5 35.5
t12 47q0 40 -27 60t-74 20q-45 0 -83 -14t-76 -44l-65 74q49 42 105.5 63.5t126.5 21.5q68 0 120.5 -23z" />
    <glyph glyph-name="uni01A8" unicode="&#x1a8;" horiz-adv-x="466" 
d="M345.5 524q43.5 -20 67 -54.5t23.5 -78.5q0 -62 -37.5 -97.5t-121.5 -59.5q-49 -14 -73.5 -26t-34 -26t-9.5 -36q0 -31 23.5 -48.5t61.5 -17.5q72 0 143 51l63 -71q-39 -35 -92.5 -55t-118.5 -20q-58 0 -106.5 19.5t-77.5 57t-29 89.5q0 68 41.5 104.5t128.5 59.5
q45 12 68.5 23.5t32 25t8.5 33.5q0 24 -19.5 38t-56.5 14q-69 0 -137 -42l-49 74q89 63 198 63q60 0 103.5 -20z" />
    <glyph glyph-name="uni01A9" unicode="&#x1a9;" horiz-adv-x="503" 
d="M473 691v-100h-296l183 -218v-64l-184 -207h297v-102h-443v100l206 239l-206 252v100h443z" />
    <glyph glyph-name="uni01AA" unicode="&#x1aa;" horiz-adv-x="360" 
d="M460 -177q-52 -41 -129 -41q-81 0 -128.5 45t-47.5 130v498q-31 -11 -59 -11q-64 0 -105 42.5t-41 111.5q0 70 45 113.5t118 43.5q79 0 124.5 -44t45.5 -124v-641q0 -67 60 -67q21 0 36.5 5t35.5 15zM155 542v61q0 59 -44 59t-44 -61q0 -33 12.5 -48.5t39.5 -15.5
q14 0 36 5z" />
    <glyph glyph-name="uni01AB" unicode="&#x1ab;" horiz-adv-x="375" 
d="M380 25v-68q0 -85 -46 -129.5t-128 -44.5q-77 0 -132 40l46 78q21 -11 38 -16.5t40 -5.5q66 0 66 67v42q-10 -3 -23 -3q-73 1 -113 45t-40 128v279h-83v92h83v117l128 15v-132h123l-13 -92h-110v-284q0 -38 13.5 -54.5t44.5 -16.5q30 0 69 12z" />
    <glyph glyph-name="uni01AC" unicode="&#x1ac;" horiz-adv-x="577" 
d="M558 586h-180v-586h-132v586h-79q-24 0 -36.5 -11.5t-12.5 -31.5q0 -16 4 -28t13 -34l-91 -42q-37 60 -37 114q0 64 45.5 101t125.5 37h394z" />
    <glyph glyph-name="uni01AD" unicode="&#x1ad;" horiz-adv-x="375" 
d="M380 25q-28 -20 -62.5 -30t-70.5 -10q-78 1 -118.5 44.5t-40.5 128.5v279h-83v92h83v55q0 80 44.5 125.5t123.5 45.5q67 0 123 -38l-41 -77q-19 11 -34.5 16t-33.5 5q-54 0 -54 -67v-65h123l-13 -92h-110v-276q0 -39 13.5 -56t42.5 -17q30 0 63 20z" />
    <glyph glyph-name="uni01AE" unicode="&#x1ae;" horiz-adv-x="531" 
d="M389 -118q21 0 36 5t35 16l46 -80q-54 -41 -129 -41q-83 0 -130.5 44.5t-47.5 130.5v43h-1v586h-186v105h513l-14 -105h-180v-637q0 -67 58 -67z" />
    <glyph glyph-name="Uhorn" unicode="&#x1af;" horiz-adv-x="703" 
d="M723 688q0 -58 -36 -87.5t-102 -31.5v-343q0 -70 -29.5 -124.5t-88 -85.5t-140.5 -31q-124 0 -190 65.5t-66 175.5v465h132v-458q0 -73 30.5 -109t93.5 -36q64 0 94.5 36t30.5 109v458h133v-56q44 9 44 53q0 22 -3.5 37t-10.5 33l89 15q19 -36 19 -85z" />
    <glyph glyph-name="uhorn" unicode="&#x1b0;" horiz-adv-x="624" 
d="M638 523q0 -57 -36 -86.5t-102 -31.5v-405h-111l-7 74q-29 -45 -68.5 -67t-93.5 -22q-71 0 -109.5 43.5t-38.5 120.5v380h128v-364q0 -45 15.5 -64t49.5 -19q61 0 107 75v372h128v-56q23 4 33.5 16t10.5 35q0 21 -3.5 36t-10.5 33l89 15q19 -36 19 -85z" />
    <glyph glyph-name="uni01B1" unicode="&#x1b1;" horiz-adv-x="691" 
d="M185 25.5q-69 40.5 -105.5 114t-36.5 168.5q0 103 34.5 169.5t95.5 114.5h-108v99h220v-96q-53 -51 -78 -115.5t-25 -171.5q0 -110 42 -166t122 -56q78 0 120.5 56.5t42.5 166.5q0 105 -25.5 169.5t-76.5 116.5v96h220v-99h-108q61 -43 95 -110t34 -173
q0 -94 -37.5 -167.5t-106 -115t-158.5 -41.5q-92 0 -161 40.5z" />
    <glyph glyph-name="uni01B2" unicode="&#x1b2;" horiz-adv-x="656" 
d="M549.5 669q35.5 -37 35.5 -111v-262q0 -95 -34.5 -165.5t-97 -108t-145.5 -37.5q-73 0 -126.5 29.5t-82 81t-28.5 117.5v478h132v-476q0 -60 28 -93.5t79 -33.5q68 0 105 52.5t37 157.5v263q0 25 -7.5 35t-26.5 10q-18 0 -32 -6l-25 88q39 18 87 18q66 0 101.5 -37z" />
    <glyph glyph-name="uni01B3" unicode="&#x1b3;" horiz-adv-x="611" 
d="M220 261l-222 430h146l146 -321l88 205q28 71 66 101t100 30q34 0 61 -10t53 -28l-41 -76q-27 18 -58 18q-23 0 -38.5 -13t-31.5 -48l-135 -287v-262h-134v261z" />
    <glyph glyph-name="uni01B4" unicode="&#x1b4;" horiz-adv-x="512" 
d="M45 -125q52 8 83.5 22.5t50.5 38.5t35 64h-44l-168 529h136l115 -444l87 364q16 70 46.5 100t88.5 30q40 0 77 -16l-26 -85q-13 5 -30 5t-26.5 -9t-16.5 -33l-112 -424q-28 -110 -97 -168t-186 -67z" />
    <glyph glyph-name="uni01B5" unicode="&#x1b5;" horiz-adv-x="534" 
d="M167 108h332l-14 -108h-462v98l140 204h-84v91h146l132 193h-301v105h440v-99l-135 -199h91v-91h-153z" />
    <glyph glyph-name="uni01B6" unicode="&#x1b6;" horiz-adv-x="449" 
d="M160 97h266l-13 -97h-395v89l105 137h-72v85h137l92 121h-240v97h381v-89l-98 -129h70v-85h-135z" />
    <glyph glyph-name="uni01B7" unicode="&#x1b7;" horiz-adv-x="533" 
d="M440.5 347q57.5 -52 57.5 -145q0 -62 -31.5 -111.5t-90.5 -77.5t-140 -28q-77 0 -132.5 24.5t-96.5 72.5l71 69q34 -34 69 -49t82 -15q63 0 97 31.5t34 87.5q0 59 -34.5 85t-104.5 26h-94v81l191 193h-276v100h426v-98l-195 -193q110 -1 167.5 -53z" />
    <glyph glyph-name="uni01B8" unicode="&#x1b8;" horiz-adv-x="533" 
d="M526 82q-42 -49 -98.5 -73t-137.5 -24q-77 0 -135 27t-89 75.5t-31 109.5q0 90 59.5 145.5t164.5 57.5l-194 193v98h425v-100h-274l190 -194v-80h-94q-140 0 -140 -117q0 -52 33 -82.5t92 -30.5q51 0 87.5 15t70.5 49z" />
    <glyph glyph-name="uni01B9" unicode="&#x1b9;" horiz-adv-x="497" 
d="M503 -121q-42 -48 -97 -72.5t-129 -24.5q-76 0 -133.5 28t-89 77.5t-31.5 111.5q0 98 59.5 152.5t166.5 58.5l-197 228v91h416v-99h-271l186 -223v-79h-86q-72 0 -106 -30t-34 -94q0 -58 33.5 -90t92.5 -32q45 0 80 14.5t72 47.5z" />
    <glyph glyph-name="uni01BA" unicode="&#x1ba;" horiz-adv-x="491" 
d="M28 -72q0 53 41 82.5t128 43.5q74 11 105.5 29t31.5 55q0 58 -82 58h-141v77l174 161h-262v95h413v-87l-186 -166h39q84 0 131.5 -37t47.5 -104q0 -140 -200 -169q-71 -11 -94.5 -22t-23.5 -30q0 -15 15 -29t46 -29l-36 -75q-147 53 -147 147z" />
    <glyph glyph-name="uni01BB" unicode="&#x1bb;" horiz-adv-x="507" 
d="M467 101l-14 -101h-419v94q105 107 146 151h-112v91h191q34 44 47.5 78t13.5 72q0 46 -26.5 72t-70.5 26q-39 0 -68.5 -16.5t-61.5 -54.5l-78 62q85 110 218 110q68 0 117.5 -25t75.5 -68t26 -96q0 -42 -12.5 -80t-41.5 -80h62v-91h-137q-56 -61 -144 -144h288z" />
    <glyph glyph-name="uni01BC" unicode="&#x1bc;" horiz-adv-x="528" 
d="M446 597h-259v-177q53 26 111 26q56 0 99.5 -26t68 -76.5t24.5 -119.5q0 -71 -31.5 -125t-89 -84t-134.5 -30q-129 0 -216 95l72 68q61 -64 141 -64q60 0 93 36t33 105q0 129 -107 129q-24 0 -45.5 -5.5t-49.5 -17.5h-92v360h398z" />
    <glyph glyph-name="uni01BD" unicode="&#x1bd;" horiz-adv-x="467" 
d="M382 432h-202v-102q40 17 86 17q47 0 85 -21t60.5 -60.5t22.5 -92.5q0 -56 -27.5 -98.5t-77.5 -66t-116 -23.5q-61 0 -106 19.5t-84 57.5l67 71q33 -26 58 -36.5t62 -10.5q42 0 67 23t25 66q0 41 -20.5 60.5t-54.5 19.5q-23 0 -40 -4t-38 -13h-86v291h339z" />
    <glyph glyph-name="uni01BE" unicode="&#x1be;" horiz-adv-x="513" 
d="M424 362.5q45 -52.5 45 -145.5q0 -68 -29.5 -120t-83.5 -81.5t-125 -29.5q-64 0 -116 22t-99 67l66 67q33 -30 65.5 -44.5t70.5 -14.5q58 0 88 35.5t30 100.5q0 67 -30 104t-93 53l-62 14v147h-74v82h74v121l128 13v-134h102v-82h-102v-98l28 -5q72 -19 117 -71.5z" />
    <glyph glyph-name="uni01BF" unicode="&#x1bf;" horiz-adv-x="591" 
d="M497 492.5q50 -51.5 50 -139.5q0 -83 -34 -142t-91.5 -101t-148.5 -88l-68 -34v-192l-128 -14v747h112l8 -70q34 41 75.5 63t96.5 22q78 0 128 -51.5zM373.5 216q39.5 56 39.5 135q0 48 -21 72.5t-61 24.5q-37 0 -67.5 -16t-58.5 -47v-300l47 27q82 48 121.5 104z" />
    <glyph glyph-name="uni01C0" unicode="&#x1c0;" horiz-adv-x="275" 
d="M194 753v-753h-113v741z" />
    <glyph glyph-name="uni01C1" unicode="&#x1c1;" horiz-adv-x="464" 
d="M194 753v-753h-113v741zM383 753v-753h-113v741z" />
    <glyph glyph-name="uni01C2" unicode="&#x1c2;" horiz-adv-x="322" 
d="M312 402h-94v-71h94v-78h-94v-253h-113v253h-95v78h95v71h-95v78h95v261l113 12v-273h94v-78z" />
    <glyph glyph-name="uni01C3" unicode="&#x1c3;" horiz-adv-x="323" 
d="M218 753v-529h-114v517zM218.5 123.5q23.5 -23.5 23.5 -57.5q0 -33 -23.5 -57t-57.5 -24q-33 0 -56.5 24t-23.5 57q0 34 23 57.5t57 23.5t57.5 -23.5z" />
    <glyph glyph-name="uni01C4" unicode="&#x1c4;" horiz-adv-x="1157" 
d="M508.5 618q96.5 -73 96.5 -269q0 -192 -95 -270.5t-241 -78.5h-188v691h170q161 0 257.5 -73zM213 592v-493h65q88 0 138 54.5t50 195.5q0 98 -25.5 151.5t-67 72.5t-99.5 19h-61zM1119 691v-102l-319 -481h322l-14 -108h-462v101l325 485h-292v105h440zM1027 928l49 -56
l-139 -120h-80l-139 120l49 56l130 -83z" />
    <glyph glyph-name="uni01C5" unicode="&#x1c5;" horiz-adv-x="1087" 
d="M508.5 618q96.5 -73 96.5 -269q0 -192 -95 -270.5t-241 -78.5h-188v691h170q161 0 257.5 -73zM213 592v-493h65q88 0 138 54.5t50 195.5q0 98 -25.5 151.5t-67 72.5t-99.5 19h-61zM1059 529v-92l-256 -337h261l-13 -100h-395v92l257 337h-235v100h381zM994 800l49 -56
l-139 -125h-80l-139 125l49 56l130 -88z" />
    <glyph glyph-name="uni01C6" unicode="&#x1c6;" horiz-adv-x="1048" 
d="M522 741v-741h-113l-9 67q-25 -38 -63.5 -60t-87.5 -22q-97 0 -149 75t-52 204q0 81 26 144.5t74.5 99.5t112.5 36q76 0 133 -57v268zM345 98.5q26 16.5 49 51.5v242q-23 28 -46.5 42t-54.5 14q-51 0 -80.5 -45.5t-29.5 -137.5q0 -98 26 -140.5t76 -42.5q34 0 60 16.5z
M1020 529v-92l-256 -337h261l-13 -100h-395v92l257 337h-235v100h381zM955 800l49 -56l-139 -125h-80l-139 125l49 56l130 -88z" />
    <glyph glyph-name="uni01C7" unicode="&#x1c7;" horiz-adv-x="797" 
d="M213 691v-583h277l-15 -108h-394v691h132zM720 101q0 -111 -52.5 -167.5t-150.5 -88.5l-35 95q44 17 66.5 38.5t30.5 51t8 76.5v585h133v-590z" />
    <glyph glyph-name="uni01C8" unicode="&#x1c8;" horiz-adv-x="772" 
d="M213 691v-583h277l-15 -108h-394v691h132zM695 47q0 -78 -22.5 -127.5t-63.5 -79.5t-107 -57l-41 93q39 18 61 35.5t33.5 47.5t11.5 80v490h128v-482zM688.5 774.5q22.5 -22.5 22.5 -55.5t-22.5 -55t-58.5 -22q-35 0 -57.5 22t-22.5 55t22.5 55.5t57.5 22.5
q36 0 58.5 -22.5z" />
    <glyph glyph-name="uni01C9" unicode="&#x1c9;" horiz-adv-x="576" 
d="M106.5 20.5q-34.5 35.5 -34.5 100.5v620l128 14v-630q0 -37 30 -37q15 0 30 5l27 -90q-40 -18 -85 -18q-61 0 -95.5 35.5zM499 47q0 -78 -22.5 -127.5t-63.5 -79.5t-107 -57l-41 93q39 18 61 35.5t33.5 47.5t11.5 80v490h128v-482zM492.5 774.5q22.5 -22.5 22.5 -55.5
t-22.5 -55t-58.5 -22q-35 0 -57.5 22t-22.5 55t22.5 55.5t57.5 22.5q36 0 58.5 -22.5z" />
    <glyph glyph-name="uni01CA" unicode="&#x1ca;" horiz-adv-x="984" 
d="M591 0h-171l-237 559q9 -74 13.5 -134t4.5 -143v-282h-120v691h167l241 -560q-6 40 -12 105.5t-6 130.5v324h120v-691zM907 101q0 -111 -52.5 -167.5t-150.5 -88.5l-35 95q44 17 66.5 38.5t30.5 51t8 76.5v585h133v-590z" />
    <glyph glyph-name="uni01CB" unicode="&#x1cb;" horiz-adv-x="953" 
d="M591 0h-171l-237 559q9 -74 13.5 -134t4.5 -143v-282h-120v691h167l241 -560q-6 40 -12 105.5t-6 130.5v324h120v-691zM876 47q0 -78 -22.5 -127.5t-63.5 -79.5t-107 -57l-41 93q39 18 61 35.5t33.5 47.5t11.5 80v490h128v-482zM869.5 774.5q22.5 -22.5 22.5 -55.5
t-22.5 -55t-58.5 -22q-35 0 -57.5 22t-22.5 55t22.5 55.5t57.5 22.5q36 0 58.5 -22.5z" />
    <glyph glyph-name="uni01CC" unicode="&#x1cc;" horiz-adv-x="862" 
d="M469.5 501.5q39.5 -42.5 39.5 -118.5v-383h-128v363q0 47 -16.5 66t-48.5 19q-33 0 -59.5 -20.5t-51.5 -59.5v-368h-128v529h111l10 -69q65 84 161 84q71 0 110.5 -42.5zM785 47q0 -78 -22.5 -127.5t-63.5 -79.5t-107 -57l-41 93q39 18 61 35.5t33.5 47.5t11.5 80v490
h128v-482zM778.5 774.5q22.5 -22.5 22.5 -55.5t-22.5 -55t-58.5 -22q-35 0 -57.5 22t-22.5 55t22.5 55.5t57.5 22.5q36 0 58.5 -22.5z" />
    <glyph glyph-name="uni01CD" unicode="&#x1cd;" horiz-adv-x="583" 
d="M447 0l-43 160h-229l-43 -160h-137l215 691h163l214 -691h-140zM201 260h176l-88 330zM422 928l49 -56l-139 -120h-80l-139 120l49 56l130 -83z" />
    <glyph glyph-name="uni01CE" unicode="&#x1ce;" horiz-adv-x="546" 
d="M477.5 94.5q9.5 -14.5 30.5 -22.5l-27 -85q-45 4 -73.5 22t-43.5 55q-27 -40 -67.5 -59.5t-90.5 -19.5q-79 0 -125 45t-46 118q0 86 62.5 131.5t178.5 45.5h66v30q0 51 -23.5 71.5t-75.5 20.5q-58 0 -140 -28l-30 87q99 38 192 38q203 0 203 -182v-222q0 -31 9.5 -45.5z
M342 143v107h-53q-124 0 -124 -92q0 -38 19 -59t56 -21q65 0 102 65zM396 800l49 -56l-139 -125h-80l-139 125l49 56l130 -88z" />
    <glyph glyph-name="uni01CF" unicode="&#x1cf;" horiz-adv-x="294" 
d="M213 691v-691h-132v691h132zM277 928l49 -56l-139 -120h-80l-139 120l49 56l130 -83z" />
    <glyph glyph-name="uni01D0" unicode="&#x1d0;" horiz-adv-x="282" 
d="M205 529v-529h-128v529h128zM271 800l49 -56l-139 -125h-80l-139 125l49 56l130 -88z" />
    <glyph glyph-name="uni01D1" unicode="&#x1d1;" horiz-adv-x="691" 
d="M507 664q68 -42 104.5 -123t36.5 -195q0 -113 -37 -194t-105 -124t-160 -43q-93 0 -161 42t-105 123t-37 195q0 112 37 193.5t105.5 124.5t160.5 43q93 0 161 -42zM224 542.5q-42 -62.5 -42 -197.5q0 -259 164 -259q80 0 121.5 62t41.5 198q0 135 -41.5 197t-121.5 62
t-122 -62.5zM476 928l49 -56l-139 -120h-80l-139 120l49 56l130 -83z" />
    <glyph glyph-name="uni01D2" unicode="&#x1d2;" horiz-adv-x="584" 
d="M475.5 469.5q65.5 -74.5 65.5 -204.5q0 -83 -30 -146.5t-86 -98.5t-133 -35q-117 0 -183 74.5t-66 205.5q0 83 30 146t86.5 98t133.5 35q117 0 182.5 -74.5zM178 265q0 -94 28.5 -138.5t85.5 -44.5t85.5 45t28.5 138t-28.5 137.5t-84.5 44.5q-115 0 -115 -182zM422 800
l49 -56l-139 -125h-80l-139 125l49 56l130 -88z" />
    <glyph glyph-name="uni01D3" unicode="&#x1d3;" horiz-adv-x="656" 
d="M585 226q0 -70 -29.5 -124.5t-88 -85.5t-140.5 -31q-124 0 -190 65.5t-66 175.5v465h132v-458q0 -73 30.5 -109t93.5 -36q64 0 94.5 36t30.5 109v458h133v-465zM458 928l49 -56l-139 -120h-80l-139 120l49 56l130 -83z" />
    <glyph glyph-name="uni01D4" unicode="&#x1d4;" horiz-adv-x="577" 
d="M500 0h-111l-7 74q-29 -45 -68.5 -67t-93.5 -22q-71 0 -109.5 43.5t-38.5 120.5v380h128v-364q0 -45 15.5 -64t49.5 -19q61 0 107 75v372h128v-529zM416 800l49 -56l-139 -125h-80l-139 125l49 56l130 -88z" />
    <glyph glyph-name="uni01D5" unicode="&#x1d5;" horiz-adv-x="656" 
d="M585 226q0 -70 -29.5 -124.5t-88 -85.5t-140.5 -31q-124 0 -190 65.5t-66 175.5v465h132v-458q0 -73 30.5 -109t93.5 -36q64 0 94.5 36t30.5 109v458h133v-465zM266 864q20 -20 20 -49t-20 -49t-49 -20q-30 0 -50.5 20t-20.5 49t20.5 49t50.5 20q29 0 49 -20zM488 864
q20 -20 20 -49t-20 -49t-50 -20q-29 0 -49.5 20t-20.5 49t20.5 49t49.5 20q30 0 50 -20zM476 924h-291v91h291v-91z" />
    <glyph glyph-name="uni01D6" unicode="&#x1d6;" horiz-adv-x="577" 
d="M500 0h-111l-7 74q-29 -45 -68.5 -67t-93.5 -22q-71 0 -109.5 43.5t-38.5 120.5v380h128v-364q0 -45 15.5 -64t49.5 -19q61 0 107 75v372h128v-529zM224 730q20 -20 20 -49t-20 -49t-49 -20q-30 0 -50.5 20t-20.5 49t20.5 49t50.5 20q29 0 49 -20zM446 730q20 -20 20 -49
t-20 -49t-50 -20q-29 0 -49.5 20t-20.5 49t20.5 49t49.5 20q30 0 50 -20zM431 797h-291v91h291v-91z" />
    <glyph glyph-name="uni01D7" unicode="&#x1d7;" horiz-adv-x="656" 
d="M585 226q0 -70 -29.5 -124.5t-88 -85.5t-140.5 -31q-124 0 -190 65.5t-66 175.5v465h132v-458q0 -73 30.5 -109t93.5 -36q64 0 94.5 36t30.5 109v458h133v-465zM403 1060l73 -70l-148 -134l-50 45zM263 865q20 -20 20 -49t-20 -49t-49 -20q-31 0 -51 20t-20 49t20 49
t51 20q29 0 49 -20zM491.5 865q20.5 -20 20.5 -49t-20.5 -49t-49.5 -20q-30 0 -50 20t-20 49t20 49t50 20q29 0 49.5 -20z" />
    <glyph glyph-name="uni01D8" unicode="&#x1d8;" horiz-adv-x="577" 
d="M500 0h-111l-7 74q-29 -45 -68.5 -67t-93.5 -22q-71 0 -109.5 43.5t-38.5 120.5v380h128v-364q0 -45 15.5 -64t49.5 -19q61 0 107 75v372h128v-529zM361 924l73 -70l-148 -134l-50 45zM221 730q20 -20 20 -49t-20 -49.5t-49 -20.5q-30 0 -50.5 20.5t-20.5 49.5t20.5 49
t50.5 20q29 0 49 -20zM449.5 730q20.5 -20 20.5 -49t-20.5 -49.5t-49.5 -20.5q-30 0 -50 20.5t-20 49.5t20 49t50 20q29 0 49.5 -20z" />
    <glyph glyph-name="uni01D9" unicode="&#x1d9;" horiz-adv-x="656" 
d="M585 226q0 -70 -29.5 -124.5t-88 -85.5t-140.5 -31q-124 0 -190 65.5t-66 175.5v465h132v-458q0 -73 30.5 -109t93.5 -36q64 0 94.5 36t30.5 109v458h133v-465zM455 1064l49 -56l-139 -120h-80l-139 120l49 56l130 -83zM263 865q20 -20 20 -49t-20 -49t-49 -20
q-31 0 -51 20t-20 49t20 49t51 20q29 0 49 -20zM491.5 865q20.5 -20 20.5 -49t-20.5 -49t-49.5 -20q-30 0 -50 20t-20 49t20 49t50 20q29 0 49.5 -20z" />
    <glyph glyph-name="uni01DA" unicode="&#x1da;" horiz-adv-x="577" 
d="M500 0h-111l-7 74q-29 -45 -68.5 -67t-93.5 -22q-71 0 -109.5 43.5t-38.5 120.5v380h128v-364q0 -45 15.5 -64t49.5 -19q61 0 107 75v372h128v-529zM416 928l49 -56l-139 -120h-80l-139 120l49 56l130 -83zM222 730q20 -20 20 -49t-20 -49.5t-50 -20.5q-29 0 -49.5 20.5
t-20.5 49.5t20.5 49t49.5 20q30 0 50 -20zM450.5 730q20.5 -20 20.5 -49t-20.5 -49.5t-50.5 -20.5q-29 0 -49.5 20.5t-20.5 49.5t20.5 49t49.5 20q30 0 50.5 -20z" />
    <glyph glyph-name="uni01DB" unicode="&#x1db;" horiz-adv-x="656" 
d="M585 226q0 -70 -29.5 -124.5t-88 -85.5t-140.5 -31q-124 0 -190 65.5t-66 175.5v465h132v-458q0 -73 30.5 -109t93.5 -36q64 0 94.5 36t30.5 109v458h133v-465zM254 1060l126 -159l-50 -45l-148 134zM263 865q20 -20 20 -49t-20 -49t-49 -20q-30 0 -50.5 20t-20.5 49
t20.5 49t50.5 20q29 0 49 -20zM492 865q20 -20 20 -49t-20 -49t-50 -20q-29 0 -49.5 20t-20.5 49t20.5 49t49.5 20q30 0 50 -20z" />
    <glyph glyph-name="uni01DC" unicode="&#x1dc;" horiz-adv-x="577" 
d="M500 0h-111l-7 74q-29 -45 -68.5 -67t-93.5 -22q-71 0 -109.5 43.5t-38.5 120.5v380h128v-364q0 -45 15.5 -64t49.5 -19q61 0 107 75v372h128v-529zM212 924l126 -159l-50 -45l-148 134zM221 730q20 -20 20 -49t-20 -49.5t-49 -20.5q-30 0 -50.5 20.5t-20.5 49.5t20.5 49
t50.5 20q29 0 49 -20zM450 730q20 -20 20 -49t-20 -49.5t-50 -20.5q-29 0 -49.5 20.5t-20.5 49.5t20.5 49t49.5 20q30 0 50 -20z" />
    <glyph glyph-name="uni01DD" unicode="&#x1dd;" horiz-adv-x="555" 
d="M451 469.5q61 -74.5 61 -204.5q0 -83 -28.5 -146t-83 -98.5t-128.5 -35.5q-70 0 -123 32t-82 92t-29 143q0 29 3 53h343q-5 75 -34.5 109.5t-84.5 34.5q-37 0 -69.5 -11t-65.5 -36l-55 76q82 66 194 66q121 0 182 -74.5zM352 112.5q28 33.5 32 109.5h-223v-8
q0 -64 29.5 -99.5t81.5 -35.5t80 33.5z" />
    <glyph glyph-name="uni01DE" unicode="&#x1de;" horiz-adv-x="583" 
d="M447 0l-43 160h-229l-43 -160h-137l215 691h163l214 -691h-140zM201 260h176l-88 330zM230 864q20 -20 20 -49t-20 -49t-49 -20q-30 0 -50.5 20t-20.5 49t20.5 49t50.5 20q29 0 49 -20zM452 864q20 -20 20 -49t-20 -49t-50 -20q-29 0 -49.5 20t-20.5 49t20.5 49t49.5 20
q30 0 50 -20zM440 924h-291v91h291v-91z" />
    <glyph glyph-name="uni01DF" unicode="&#x1df;" horiz-adv-x="546" 
d="M477.5 94.5q9.5 -14.5 30.5 -22.5l-27 -85q-45 4 -73.5 22t-43.5 55q-27 -40 -67.5 -59.5t-90.5 -19.5q-79 0 -125 45t-46 118q0 86 62.5 131.5t178.5 45.5h66v30q0 51 -23.5 71.5t-75.5 20.5q-58 0 -140 -28l-30 87q99 38 192 38q203 0 203 -182v-222q0 -31 9.5 -45.5z
M342 143v107h-53q-124 0 -124 -92q0 -38 19 -59t56 -21q65 0 102 65zM204 730q20 -20 20 -49t-20 -49t-49 -20q-30 0 -50.5 20t-20.5 49t20.5 49t50.5 20q29 0 49 -20zM426 730q20 -20 20 -49t-20 -49t-50 -20q-29 0 -49.5 20t-20.5 49t20.5 49t49.5 20q30 0 50 -20z
M411 797h-291v91h291v-91z" />
    <glyph glyph-name="uni01E0" unicode="&#x1e0;" horiz-adv-x="583" 
d="M447 0l-43 160h-229l-43 -160h-137l215 691h163l214 -691h-140zM201 260h176l-88 330zM350.5 870.5q22.5 -22.5 22.5 -55.5t-22.5 -55t-58.5 -22q-35 0 -57.5 22t-22.5 55t22.5 55.5t57.5 22.5q36 0 58.5 -22.5zM440 924h-291v91h291v-91z" />
    <glyph glyph-name="uni01E1" unicode="&#x1e1;" horiz-adv-x="546" 
d="M477.5 94.5q9.5 -14.5 30.5 -22.5l-27 -85q-45 4 -73.5 22t-43.5 55q-27 -40 -67.5 -59.5t-90.5 -19.5q-79 0 -125 45t-46 118q0 86 62.5 131.5t178.5 45.5h66v30q0 51 -23.5 71.5t-75.5 20.5q-58 0 -140 -28l-30 87q99 38 192 38q203 0 203 -182v-222q0 -31 9.5 -45.5z
M342 143v107h-53q-124 0 -124 -92q0 -38 19 -59t56 -21q65 0 102 65zM323.5 731.5q22.5 -22.5 22.5 -55.5t-22.5 -55t-58.5 -22q-35 0 -57.5 22t-22.5 55t22.5 55.5t57.5 22.5q36 0 58.5 -22.5zM412 788h-291v91h291v-91z" />
    <glyph glyph-name="uni01E2" unicode="&#x1e2;" horiz-adv-x="832" 
d="M560 99h230v-99h-339l-32 160h-240l-57 -160h-140l273 691h496l-15 -98h-288l44 -194h250v-98h-228zM214 260h185l-67 331zM624 787h-291v91h291v-91z" />
    <glyph glyph-name="uni01E3" unicode="&#x1e3;" horiz-adv-x="852" 
d="M811 225h-331q6 -77 39.5 -110t89.5 -33q35 0 66 11t66 36l54 -73q-90 -71 -197 -71q-67 0 -118 24t-83 69q-35 -50 -81.5 -71.5t-106.5 -21.5q-80 0 -127 45t-47 118q0 86 63.5 131.5t181.5 45.5h67v30q0 50 -23.5 70.5t-75.5 20.5q-57 0 -141 -28l-29 88q99 38 191 38
q112 0 161 -74q60 74 160 74q104 0 164 -71t60 -196q0 -31 -3 -52zM688 314q-2 139 -104 139q-47 0 -73 -34.5t-32 -110.5h209v6zM308.5 97q27.5 19 52.5 58q-11 40 -13 89v4h-53q-124 0 -124 -92q0 -38 19 -58t56 -20q35 0 62.5 19zM573 661h-291v91h291v-91z" />
    <glyph glyph-name="uni01E4" unicode="&#x1e4;" horiz-adv-x="654" 
d="M651 173h-65v-120q-108 -68 -240 -68q-147 0 -225 92t-78 269q0 113 42.5 194.5t114 123.5t158.5 42q71 0 123.5 -20.5t98.5 -60.5l-70 -74q-38 29 -70.5 42t-75.5 13q-80 0 -131 -64t-51 -196q0 -138 40.5 -199t123.5 -61q61 0 117 25v62h-114v87h114v50h-112l-13 90
h248v-140h65v-87z" />
    <glyph glyph-name="uni01E5" unicode="&#x1e5;" horiz-adv-x="537" 
d="M569 -88h-54q-15 -62 -81 -96t-178 -34q-92 0 -144.5 19t-74.5 55t-22 92h115q0 -30 10.5 -46.5t38 -24.5t79.5 -8q61 0 95.5 10.5t46.5 32.5h-133v68h131q-23 35 -97 35h-80q-75 0 -113 26.5t-38 68.5q0 28 16 52.5t46 42.5q-48 25 -70.5 61.5t-22.5 87.5q0 57 28 100
t77.5 66.5t113.5 23.5q84 -2 135.5 12.5t111.5 46.5l32 -102q-51 -18 -153 -18q49 -22 72.5 -54.5t23.5 -81.5q0 -52 -25.5 -92t-74 -63t-113.5 -23q-36 0 -63 8q-22 -15 -22 -39q0 -16 13.5 -25.5t50.5 -9.5h81q77 0 128 -33.5t62 -89.5h52v-68zM192.5 429.5
q-24.5 -27.5 -24.5 -73.5q0 -48 25 -76t69 -28q46 0 70 27.5t24 77.5q0 100 -96 100q-43 0 -67.5 -27.5z" />
    <glyph glyph-name="Gcaron" unicode="&#x1e6;" horiz-adv-x="638" 
d="M480.5 685.5q52.5 -20.5 99.5 -60.5l-71 -74q-37 29 -69.5 42t-75.5 13q-80 0 -131 -64t-51 -196q0 -138 40.5 -199t123.5 -61q63 0 110 27v180h-104l-14 98h248v-338q-112 -68 -238 -68q-148 0 -226.5 92t-78.5 269q0 113 42.5 194.5t114.5 123.5t160 42
q68 0 120.5 -20.5zM483 928l49 -56l-139 -120h-80l-139 120l49 56l130 -83z" />
    <glyph glyph-name="gcaron" unicode="&#x1e7;" horiz-adv-x="537" 
d="M537 501q-51 -18 -153 -18q49 -22 72.5 -54.5t23.5 -81.5q0 -52 -25.5 -92t-74 -63t-113.5 -23q-36 0 -63 8q-22 -15 -22 -39q0 -37 64 -37h81q58 0 101.5 -19t67.5 -53.5t24 -77.5q0 -80 -68 -124.5t-196 -44.5q-92 0 -144.5 19t-74.5 55t-22 92h115q0 -28 10.5 -44
t38 -24t79.5 -8q73 0 103 18t30 52q0 30 -23 46.5t-67 16.5h-80q-75 0 -113 29t-38 73q0 28 16.5 54t45.5 44q-48 25 -70.5 61.5t-22.5 87.5q0 57 28 100t77.5 66.5t113.5 23.5q84 -2 135.5 12.5t111.5 46.5zM192.5 429.5q-24.5 -27.5 -24.5 -73.5q0 -48 25 -76t69 -28
q46 0 70 27.5t24 77.5q0 100 -96 100q-43 0 -67.5 -27.5zM398 800l49 -56l-139 -125h-80l-139 125l49 56l130 -88z" />
    <glyph glyph-name="uni01E8" unicode="&#x1e8;" horiz-adv-x="613" 
d="M213 691v-691h-132v691h132zM601 691l-239 -313l258 -378h-157l-244 369l239 322h143zM459 928l49 -56l-139 -120h-80l-139 120l49 56l130 -83z" />
    <glyph glyph-name="uni01E9" unicode="&#x1e9;" horiz-adv-x="534" 
d="M205 755v-755h-128v741zM522 529l-176 -233l193 -296h-147l-182 289l177 240h135zM419 978l49 -56l-139 -120h-80l-139 120l49 56l130 -83z" />
    <glyph glyph-name="uni01EA" unicode="&#x1ea;" horiz-adv-x="691" 
d="M595 120.5q-53 -89.5 -148 -120.5q-69 -28 -95 -54t-26 -54q0 -46 55 -46q27 0 61 7l-10 -85q-37 -7 -67 -7q-61 0 -99 30t-38 79q0 70 70 118q-120 16 -187.5 108.5t-67.5 248.5q0 112 37 193.5t105.5 124.5t160.5 43q93 0 161 -42t104.5 -123t36.5 -195
q0 -136 -53 -225.5zM467.5 148q41.5 62 41.5 198q0 135 -41.5 197t-121.5 62t-122 -62.5t-42 -197.5q0 -259 164 -259q80 0 121.5 62z" />
    <glyph glyph-name="uni01EB" unicode="&#x1eb;" horiz-adv-x="584" 
d="M284 -55.5q-24 -25.5 -24 -52.5q0 -46 55 -46q27 0 61 7l-10 -85q-37 -7 -67 -7q-61 0 -99 30t-38 79q0 72 74 120q-92 17 -142.5 89t-50.5 186q0 83 30 146t86.5 98t133.5 35q117 0 182.5 -74.5t65.5 -204.5q0 -103 -44.5 -174t-125.5 -95q-63 -26 -87 -51.5z
M206.5 126.5q28.5 -44.5 85.5 -44.5t85.5 45t28.5 138t-28.5 137.5t-84.5 44.5q-115 0 -115 -182q0 -94 28.5 -138.5z" />
    <glyph glyph-name="uni01EC" unicode="&#x1ec;" horiz-adv-x="691" 
d="M491 878v-91h-291v91h291zM595 120.5q-53 -89.5 -148 -120.5q-69 -28 -95 -54t-26 -54q0 -46 55 -46q27 0 61 7l-10 -85q-37 -7 -67 -7q-61 0 -99 30t-38 79q0 70 70 118q-120 16 -187.5 108.5t-67.5 248.5q0 112 37 193.5t105.5 124.5t160.5 43q93 0 161 -42t104.5 -123
t36.5 -195q0 -136 -53 -225.5zM467.5 148q41.5 62 41.5 198q0 135 -41.5 197t-121.5 62t-122 -62.5t-42 -197.5q0 -259 164 -259q80 0 121.5 62z" />
    <glyph glyph-name="uni01ED" unicode="&#x1ed;" horiz-adv-x="584" 
d="M437 752v-91h-291v91h291zM284 -55.5q-24 -25.5 -24 -52.5q0 -46 55 -46q27 0 61 7l-10 -85q-37 -7 -67 -7q-61 0 -99 30t-38 79q0 72 74 120q-92 17 -142.5 89t-50.5 186q0 83 30 146t86.5 98t133.5 35q117 0 182.5 -74.5t65.5 -204.5q0 -103 -44.5 -174t-125.5 -95
q-63 -26 -87 -51.5zM206.5 126.5q28.5 -44.5 85.5 -44.5t85.5 45t28.5 138t-28.5 137.5t-84.5 44.5q-115 0 -115 -182q0 -94 28.5 -138.5z" />
    <glyph glyph-name="uni01EE" unicode="&#x1ee;" horiz-adv-x="533" 
d="M440.5 347q57.5 -52 57.5 -145q0 -62 -31.5 -111.5t-90.5 -77.5t-140 -28q-77 0 -132.5 24.5t-96.5 72.5l71 69q34 -34 69 -49t82 -15q63 0 97 31.5t34 87.5q0 59 -34.5 85t-104.5 26h-94v81l191 193h-276v100h426v-98l-195 -193q110 -1 167.5 -53zM385 928l49 -56
l-139 -120h-80l-139 120l49 56l130 -83z" />
    <glyph glyph-name="uni01EF" unicode="&#x1ef;" horiz-adv-x="497" 
d="M415 155.5q58 -50.5 58 -147.5q0 -66 -31 -117t-88.5 -80t-135.5 -29q-74 0 -129 24.5t-96 72.5l71 67q35 -34 69.5 -49t78.5 -15q60 0 93.5 33.5t33.5 98.5q0 61 -33 87.5t-106 26.5h-86v81l186 221h-271v99h416v-91l-197 -228q109 -4 167 -54.5zM367 800l49 -56
l-139 -125h-80l-139 125l49 56l130 -88z" />
    <glyph glyph-name="uni01F0" unicode="&#x1f0;" horiz-adv-x="281" 
d="M204 47q0 -78 -22.5 -127.5t-63.5 -79.5t-107 -57l-41 93q39 18 61 35.5t33.5 47.5t11.5 80v490h128v-482zM270 800l49 -56l-139 -125h-80l-139 125l49 56l130 -88z" />
    <glyph glyph-name="uni01F1" unicode="&#x1f1;" horiz-adv-x="1157" 
d="M508.5 618q96.5 -73 96.5 -269q0 -192 -95 -270.5t-241 -78.5h-188v691h170q161 0 257.5 -73zM213 592v-493h65q88 0 138 54.5t50 195.5q0 98 -25.5 151.5t-67 72.5t-99.5 19h-61zM1119 691v-102l-319 -481h322l-14 -108h-462v101l325 485h-292v105h440z" />
    <glyph glyph-name="uni01F2" unicode="&#x1f2;" horiz-adv-x="1087" 
d="M508.5 618q96.5 -73 96.5 -269q0 -192 -95 -270.5t-241 -78.5h-188v691h170q161 0 257.5 -73zM213 592v-493h65q88 0 138 54.5t50 195.5q0 98 -25.5 151.5t-67 72.5t-99.5 19h-61zM1059 529v-92l-256 -337h261l-13 -100h-395v92l257 337h-235v100h381z" />
    <glyph glyph-name="uni01F3" unicode="&#x1f3;" horiz-adv-x="1048" 
d="M522 741v-741h-113l-9 67q-25 -38 -63.5 -60t-87.5 -22q-97 0 -149 75t-52 204q0 81 26 144.5t74.5 99.5t112.5 36q76 0 133 -57v268zM345 98.5q26 16.5 49 51.5v242q-23 28 -46.5 42t-54.5 14q-51 0 -80.5 -45.5t-29.5 -137.5q0 -98 26 -140.5t76 -42.5q34 0 60 16.5z
M1020 529v-92l-256 -337h261l-13 -100h-395v92l257 337h-235v100h381z" />
    <glyph glyph-name="uni01F4" unicode="&#x1f4;" horiz-adv-x="638" 
d="M480.5 685.5q52.5 -20.5 99.5 -60.5l-71 -74q-37 29 -69.5 42t-75.5 13q-80 0 -131 -64t-51 -196q0 -138 40.5 -199t123.5 -61q63 0 110 27v180h-104l-14 98h248v-338q-112 -68 -238 -68q-148 0 -226.5 92t-78.5 269q0 113 42.5 194.5t114.5 123.5t160 42
q68 0 120.5 -20.5zM434 936l50 -100l-229 -83l-33 66z" />
    <glyph glyph-name="uni01F5" unicode="&#x1f5;" horiz-adv-x="537" 
d="M537 501q-51 -18 -153 -18q49 -22 72.5 -54.5t23.5 -81.5q0 -52 -25.5 -92t-74 -63t-113.5 -23q-36 0 -63 8q-22 -15 -22 -39q0 -37 64 -37h81q58 0 101.5 -19t67.5 -53.5t24 -77.5q0 -80 -68 -124.5t-196 -44.5q-92 0 -144.5 19t-74.5 55t-22 92h115q0 -28 10.5 -44
t38 -24t79.5 -8q73 0 103 18t30 52q0 30 -23 46.5t-67 16.5h-80q-75 0 -113 29t-38 73q0 28 16.5 54t45.5 44q-48 25 -70.5 61.5t-22.5 87.5q0 57 28 100t77.5 66.5t113.5 23.5q84 -2 135.5 12.5t111.5 46.5zM192.5 429.5q-24.5 -27.5 -24.5 -73.5q0 -48 25 -76t69 -28
q46 0 70 27.5t24 77.5q0 100 -96 100q-43 0 -67.5 -27.5zM344 820l52 -100l-226 -90l-36 65z" />
    <glyph glyph-name="uni01F6" unicode="&#x1f6;" horiz-adv-x="959" 
d="M897 391q7 -66 7 -140q0 -90 -35 -149.5t-91.5 -88t-120.5 -28.5q-85 0 -141.5 48.5t-56.5 139.5v136h-246v-309h-132v691h132v-277h246v277h133v-514q0 -95 74 -95q44 0 77 43t33 137q0 123 -27 267h128q13 -72 20 -138z" />
    <glyph glyph-name="uni01F7" unicode="&#x1f7;" horiz-adv-x="591" 
d="M469 683q44 -23 70 -66.5t26 -102.5q0 -75 -35 -127.5t-93 -87.5t-143 -67l-81 -30v-202h-132v691h132v-48q63 63 159 63q53 0 97 -23zM427 509q0 48 -25 72.5t-69 24.5q-68 0 -120 -49v-257l61 25q153 64 153 184z" />
    <glyph glyph-name="uni01F8" unicode="&#x1f8;" horiz-adv-x="672" 
d="M591 0h-171l-237 559q9 -74 13.5 -134t4.5 -143v-282h-120v691h167l241 -560q-6 40 -12 105.5t-6 130.5v324h120v-691zM257 936l212 -117l-33 -66l-229 83z" />
    <glyph glyph-name="uni01F9" unicode="&#x1f9;" horiz-adv-x="581" 
d="M469.5 501.5q39.5 -42.5 39.5 -118.5v-383h-128v363q0 47 -16.5 66t-48.5 19q-33 0 -59.5 -20.5t-51.5 -59.5v-368h-128v529h111l10 -69q65 84 161 84q71 0 110.5 -42.5zM227 820l210 -125l-37 -65l-225 90z" />
    <glyph glyph-name="Aringacute" unicode="&#x1fa;" horiz-adv-x="583" 
d="M447 0l-43 160h-229l-43 -160h-137l215 691h163l214 -691h-140zM201 260h176l-88 330zM384 929.5q35 -34.5 35 -85.5q0 -50 -35.5 -85t-91.5 -35q-57 0 -92.5 35t-35.5 85q0 51 35.5 85.5t92.5 34.5t92 -34.5zM256 883q-13 -14 -13 -39t13 -38.5t36 -13.5q22 0 35 13.5
t13 38.5t-13 39t-35 14q-23 0 -36 -14zM374 1152l50 -100l-229 -83l-33 66z" />
    <glyph glyph-name="aringacute" unicode="&#x1fb;" horiz-adv-x="546" 
d="M397 908l-229 -83l-33 66l212 117zM173.5 785.5q35.5 34.5 92.5 34.5t92 -34.5t35 -85.5q0 -50 -35.5 -85t-91.5 -35q-57 0 -92.5 35t-35.5 85q0 51 35.5 85.5zM301 739q-13 14 -35 14q-23 0 -36 -14t-13 -39t13 -38.5t36 -13.5q22 0 35 13.5t13 38.5t-13 39zM477.5 94.5
q9.5 -14.5 30.5 -22.5l-27 -85q-45 4 -73.5 22t-43.5 55q-27 -40 -67.5 -59.5t-90.5 -19.5q-79 0 -125 45t-46 118q0 86 62.5 131.5t178.5 45.5h66v30q0 51 -23.5 71.5t-75.5 20.5q-58 0 -140 -28l-30 87q99 38 192 38q203 0 203 -182v-222q0 -31 9.5 -45.5zM342 143v107
h-53q-124 0 -124 -92q0 -38 19 -59t56 -21q65 0 102 65z" />
    <glyph glyph-name="AEacute" unicode="&#x1fc;" horiz-adv-x="832" 
d="M560 99h230v-99h-339l-32 160h-240l-57 -160h-140l273 691h496l-15 -98h-288l44 -194h250v-98h-228zM214 260h185l-67 331zM560 936l50 -100l-229 -83l-33 66z" />
    <glyph glyph-name="aeacute" unicode="&#x1fd;" horiz-adv-x="852" 
d="M811 225h-331q6 -77 39.5 -110t89.5 -33q35 0 66 11t66 36l54 -73q-90 -71 -197 -71q-67 0 -118 24t-83 69q-35 -50 -81.5 -71.5t-106.5 -21.5q-80 0 -127 45t-47 118q0 86 63.5 131.5t181.5 45.5h67v30q0 50 -23.5 70.5t-75.5 20.5q-57 0 -141 -28l-29 88q99 38 191 38
q112 0 161 -74q60 74 160 74q104 0 164 -71t60 -196q0 -31 -3 -52zM688 314q-2 139 -104 139q-47 0 -73 -34.5t-32 -110.5h209v6zM308.5 97q27.5 19 52.5 58q-11 40 -13 89v4h-53q-124 0 -124 -92q0 -38 19 -58t56 -20q35 0 62.5 19zM504 820l52 -100l-226 -90l-36 65z" />
    <glyph glyph-name="Oslashacute" unicode="&#x1fe;" horiz-adv-x="691" 
d="M610 544q38 -82 38 -198q0 -113 -37 -194t-105 -124t-160 -43q-26 0 -58 5l-36 -121l-103 27l41 128q-71 42 -109 123.5t-38 197.5q0 112 37 193.5t105.5 124.5t160.5 43q32 0 56 -4l37 122l104 -28l-41 -129q70 -41 108 -123zM224 542.5q-42 -62.5 -42 -197.5
q0 -166 58 -222l144 479q-18 3 -38 3q-80 0 -122 -62.5zM467.5 148q41.5 62 41.5 198q0 88 -14.5 142.5t-44.5 81.5l-143 -481q18 -3 39 -3q80 0 121.5 62zM423 962l50 -100l-229 -83l-33 66z" />
    <glyph glyph-name="oslashacute" unicode="&#x1ff;" horiz-adv-x="584" 
d="M512 413q29 -63 29 -148q0 -83 -30 -146.5t-86 -98.5t-133 -35q-21 0 -41 3l-38 -121l-98 29l41 124q-54 34 -83.5 96.5t-29.5 148.5q0 83 30 146t86.5 98t133.5 35q21 0 41 -3l39 121l97 -29l-42 -124q55 -33 84 -96zM171 265q0 -59 8.5 -95.5t26.5 -57.5l111 334
q-7 1 -24 1q-122 0 -122 -182zM413 265q0 112 -35 152l-110 -334q8 -1 24 -1q121 0 121 183zM368 820l52 -100l-226 -90l-36 65z" />
    <glyph glyph-name="uni0200" unicode="&#x200;" horiz-adv-x="583" 
d="M447 0l-43 160h-229l-43 -160h-137l215 691h163l214 -691h-140zM201 260h176l-88 330zM165 973l92 -186l-71 -32l-114 170zM330 973l83 -183l-72 -30l-105 167z" />
    <glyph glyph-name="uni0201" unicode="&#x201;" horiz-adv-x="546" 
d="M477.5 94.5q9.5 -14.5 30.5 -22.5l-27 -85q-45 4 -73.5 22t-43.5 55q-27 -40 -67.5 -59.5t-90.5 -19.5q-79 0 -125 45t-46 118q0 86 62.5 131.5t178.5 45.5h66v30q0 51 -23.5 71.5t-75.5 20.5q-58 0 -140 -28l-30 87q99 38 192 38q203 0 203 -182v-222q0 -31 9.5 -45.5z
M342 143v107h-53q-124 0 -124 -92q0 -38 19 -59t56 -21q65 0 102 65zM148 847l92 -186l-71 -32l-114 170zM313 847l83 -183l-72 -30l-105 167z" />
    <glyph glyph-name="uni0202" unicode="&#x202;" horiz-adv-x="583" 
d="M447 0l-43 160h-229l-43 -160h-137l215 691h163l214 -691h-140zM201 260h176l-88 330zM404.5 895q44.5 -43 50.5 -112l-76 -14q-9 37 -31.5 57t-56.5 20q-67 0 -87 -77l-75 14q6 69 49.5 112t112.5 43t113.5 -43z" />
    <glyph glyph-name="uni0203" unicode="&#x203;" horiz-adv-x="546" 
d="M477.5 94.5q9.5 -14.5 30.5 -22.5l-27 -85q-45 4 -73.5 22t-43.5 55q-27 -40 -67.5 -59.5t-90.5 -19.5q-79 0 -125 45t-46 118q0 86 62.5 131.5t178.5 45.5h66v30q0 51 -23.5 71.5t-75.5 20.5q-58 0 -140 -28l-30 87q99 38 192 38q203 0 203 -182v-222q0 -31 9.5 -45.5z
M342 143v107h-53q-124 0 -124 -92q0 -38 19 -59t56 -21q65 0 102 65zM378.5 733q44.5 -43 50.5 -112l-76 -14q-9 37 -31.5 57t-56.5 20q-67 0 -87 -77l-75 14q6 69 49.5 112t112.5 43t113.5 -43z" />
    <glyph glyph-name="uni0204" unicode="&#x204;" horiz-adv-x="530" 
d="M482 691l-14 -98h-255v-193h222v-98h-222v-203h273v-99h-405v691h401zM157 973l92 -186l-71 -32l-114 170zM322 973l83 -183l-72 -30l-105 167z" />
    <glyph glyph-name="uni0205" unicode="&#x205;" horiz-adv-x="549" 
d="M508 225h-332q6 -77 40 -110t90 -33q35 0 66 11.5t66 35.5l53 -73q-88 -71 -196 -71q-121 0 -186.5 74t-65.5 202q0 81 28 145.5t81 101t126 36.5q111 0 172 -70.5t61 -196.5q0 -10 -3 -52zM384 314q0 139 -103 139q-47 0 -73.5 -34.5t-31.5 -110.5h208v6zM163 847
l92 -186l-71 -32l-114 170zM328 847l83 -183l-72 -30l-105 167z" />
    <glyph glyph-name="uni0206" unicode="&#x206;" horiz-adv-x="530" 
d="M482 691l-14 -98h-255v-193h222v-98h-222v-203h273v-99h-405v691h401zM396.5 895q44.5 -43 50.5 -112l-76 -14q-9 37 -31.5 57t-56.5 20q-67 0 -87 -77l-75 14q6 69 49.5 112t112.5 43t113.5 -43z" />
    <glyph glyph-name="uni0207" unicode="&#x207;" horiz-adv-x="549" 
d="M508 225h-332q6 -77 40 -110t90 -33q35 0 66 11.5t66 35.5l53 -73q-88 -71 -196 -71q-121 0 -186.5 74t-65.5 202q0 81 28 145.5t81 101t126 36.5q111 0 172 -70.5t61 -196.5q0 -10 -3 -52zM384 314q0 139 -103 139q-47 0 -73.5 -34.5t-31.5 -110.5h208v6zM393.5 733
q44.5 -43 50.5 -112l-76 -14q-9 37 -31.5 57t-56.5 20q-67 0 -87 -77l-75 14q6 69 49.5 112t112.5 43t113.5 -43z" />
    <glyph glyph-name="uni0208" unicode="&#x208;" horiz-adv-x="294" 
d="M213 691v-691h-132v691h132zM20 973l92 -186l-71 -32l-114 170zM185 973l83 -183l-72 -30l-105 167z" />
    <glyph glyph-name="uni0209" unicode="&#x209;" horiz-adv-x="282" 
d="M205 529v-529h-128v529h128zM23 847l92 -186l-71 -32l-114 170zM188 847l83 -183l-72 -30l-105 167z" />
    <glyph glyph-name="uni020A" unicode="&#x20a;" horiz-adv-x="294" 
d="M213 691v-691h-132v691h132zM259.5 895q44.5 -43 50.5 -112l-76 -14q-9 37 -31.5 57t-56.5 20q-67 0 -87 -77l-75 14q6 69 49.5 112t112.5 43t113.5 -43z" />
    <glyph glyph-name="uni020B" unicode="&#x20b;" horiz-adv-x="282" 
d="M205 529v-529h-128v529h128zM253.5 733q44.5 -43 50.5 -112l-76 -14q-9 37 -31.5 57t-56.5 20q-67 0 -87 -77l-75 14q6 69 49.5 112t112.5 43t113.5 -43z" />
    <glyph glyph-name="uni020C" unicode="&#x20c;" horiz-adv-x="691" 
d="M507 664q68 -42 104.5 -123t36.5 -195q0 -113 -37 -194t-105 -124t-160 -43q-93 0 -161 42t-105 123t-37 195q0 112 37 193.5t105.5 124.5t160.5 43q93 0 161 -42zM224 542.5q-42 -62.5 -42 -197.5q0 -259 164 -259q80 0 121.5 62t41.5 198q0 135 -41.5 197t-121.5 62
t-122 -62.5zM219 973l92 -186l-71 -32l-114 170zM384 973l83 -183l-72 -30l-105 167z" />
    <glyph glyph-name="uni020D" unicode="&#x20d;" horiz-adv-x="584" 
d="M475.5 469.5q65.5 -74.5 65.5 -204.5q0 -83 -30 -146.5t-86 -98.5t-133 -35q-117 0 -183 74.5t-66 205.5q0 83 30 146t86.5 98t133.5 35q117 0 182.5 -74.5zM178 265q0 -94 28.5 -138.5t85.5 -44.5t85.5 45t28.5 138t-28.5 137.5t-84.5 44.5q-115 0 -115 -182zM174 847
l92 -186l-71 -32l-114 170zM339 847l83 -183l-72 -30l-105 167z" />
    <glyph glyph-name="uni020E" unicode="&#x20e;" horiz-adv-x="691" 
d="M507 664q68 -42 104.5 -123t36.5 -195q0 -113 -37 -194t-105 -124t-160 -43q-93 0 -161 42t-105 123t-37 195q0 112 37 193.5t105.5 124.5t160.5 43q93 0 161 -42zM224 542.5q-42 -62.5 -42 -197.5q0 -259 164 -259q80 0 121.5 62t41.5 198q0 135 -41.5 197t-121.5 62
t-122 -62.5zM458.5 895q44.5 -43 50.5 -112l-76 -14q-9 37 -31.5 57t-56.5 20q-67 0 -87 -77l-75 14q6 69 49.5 112t112.5 43t113.5 -43z" />
    <glyph glyph-name="uni020F" unicode="&#x20f;" horiz-adv-x="584" 
d="M475.5 469.5q65.5 -74.5 65.5 -204.5q0 -83 -30 -146.5t-86 -98.5t-133 -35q-117 0 -183 74.5t-66 205.5q0 83 30 146t86.5 98t133.5 35q117 0 182.5 -74.5zM178 265q0 -94 28.5 -138.5t85.5 -44.5t85.5 45t28.5 138t-28.5 137.5t-84.5 44.5q-115 0 -115 -182zM404.5 733
q44.5 -43 50.5 -112l-76 -14q-9 37 -31.5 57t-56.5 20q-67 0 -87 -77l-75 14q6 69 49.5 112t112.5 43t113.5 -43z" />
    <glyph glyph-name="uni0210" unicode="&#x210;" horiz-adv-x="611" 
d="M297 277h-84v-277h-132v691h206q274 0 274 -203q0 -69 -34 -114t-106 -73l181 -301h-152zM213 372h82q63 0 95.5 27.5t32.5 88.5q0 56 -33.5 81.5t-105.5 25.5h-71v-223zM173 973l92 -186l-71 -32l-114 170zM338 973l83 -183l-72 -30l-105 167z" />
    <glyph glyph-name="uni0211" unicode="&#x211;" horiz-adv-x="394" 
d="M391 536l-22 -124q-24 6 -47 6q-47 0 -74 -33.5t-43 -102.5v-282h-128v529h111l12 -104q19 57 55 87.5t83 30.5q29 0 53 -7zM118 847l92 -186l-71 -32l-114 170zM283 847l83 -183l-72 -30l-105 167z" />
    <glyph glyph-name="uni0212" unicode="&#x212;" horiz-adv-x="611" 
d="M297 277h-84v-277h-132v691h206q274 0 274 -203q0 -69 -34 -114t-106 -73l181 -301h-152zM213 372h82q63 0 95.5 27.5t32.5 88.5q0 56 -33.5 81.5t-105.5 25.5h-71v-223zM412.5 895q44.5 -43 50.5 -112l-76 -14q-9 37 -31.5 57t-56.5 20q-67 0 -87 -77l-75 14
q6 69 49.5 112t112.5 43t113.5 -43z" />
    <glyph glyph-name="uni0213" unicode="&#x213;" horiz-adv-x="394" 
d="M391 536l-22 -124q-24 6 -47 6q-47 0 -74 -33.5t-43 -102.5v-282h-128v529h111l12 -104q19 57 55 87.5t83 30.5q29 0 53 -7zM348.5 733q44.5 -43 50.5 -112l-76 -14q-9 37 -31.5 57t-56.5 20q-67 0 -87 -77l-75 14q6 69 49.5 112t112.5 43t113.5 -43z" />
    <glyph glyph-name="uni0214" unicode="&#x214;" horiz-adv-x="656" 
d="M585 226q0 -70 -29.5 -124.5t-88 -85.5t-140.5 -31q-124 0 -190 65.5t-66 175.5v465h132v-458q0 -73 30.5 -109t93.5 -36q64 0 94.5 36t30.5 109v458h133v-465zM201 973l92 -186l-71 -32l-114 170zM366 973l83 -183l-72 -30l-105 167z" />
    <glyph glyph-name="uni0215" unicode="&#x215;" horiz-adv-x="577" 
d="M500 0h-111l-7 74q-29 -45 -68.5 -67t-93.5 -22q-71 0 -109.5 43.5t-38.5 120.5v380h128v-364q0 -45 15.5 -64t49.5 -19q61 0 107 75v372h128v-529zM168 847l92 -186l-71 -32l-114 170zM333 847l83 -183l-72 -30l-105 167z" />
    <glyph glyph-name="uni0216" unicode="&#x216;" horiz-adv-x="656" 
d="M585 226q0 -70 -29.5 -124.5t-88 -85.5t-140.5 -31q-124 0 -190 65.5t-66 175.5v465h132v-458q0 -73 30.5 -109t93.5 -36q64 0 94.5 36t30.5 109v458h133v-465zM440.5 895q44.5 -43 50.5 -112l-76 -14q-9 37 -31.5 57t-56.5 20q-67 0 -87 -77l-75 14q6 69 49.5 112
t112.5 43t113.5 -43z" />
    <glyph glyph-name="uni0217" unicode="&#x217;" horiz-adv-x="577" 
d="M500 0h-111l-7 74q-29 -45 -68.5 -67t-93.5 -22q-71 0 -109.5 43.5t-38.5 120.5v380h128v-364q0 -45 15.5 -64t49.5 -19q61 0 107 75v372h128v-529zM398.5 733q44.5 -43 50.5 -112l-76 -14q-9 37 -31.5 57t-56.5 20q-67 0 -87 -77l-75 14q6 69 49.5 112t112.5 43
t113.5 -43z" />
    <glyph glyph-name="Scommaaccent" unicode="&#x218;" 
d="M407 685q54 -21 101 -64l-65 -75q-37 31 -74.5 45t-80.5 14q-48 0 -77.5 -21.5t-29.5 -60.5q0 -26 11.5 -43t41.5 -32t89 -33q102 -32 153.5 -79.5t51.5 -138.5q0 -62 -31.5 -110t-90.5 -75t-140 -27q-79 0 -141.5 25.5t-107.5 69.5l68 76q40 -34 83 -51.5t95 -17.5
q57 0 92 27t35 76q0 30 -12 49.5t-41 35t-84 32.5q-110 34 -159 82t-49 126q0 57 30 100t83.5 67t121.5 24q73 0 127 -21zM327 -91.5q20 -19.5 20 -48.5q0 -16 -5.5 -32.5t-21.5 -48.5l-44 -91h-67l28 116q-29 22 -29 56q0 29 20 48.5t50 19.5q29 0 49 -19.5z" />
    <glyph glyph-name="scommaaccent" unicode="&#x219;" horiz-adv-x="476" 
d="M432 481l-50 -75q-68 43 -133 43q-38 0 -59 -14.5t-21 -38.5q0 -18 9 -30t32.5 -22.5t69.5 -23.5q86 -23 127.5 -61t41.5 -106q0 -79 -64 -123.5t-159 -44.5q-65 0 -118.5 20t-92.5 55l64 72q69 -52 144 -52q43 0 68.5 17t25.5 47q0 23 -9.5 36.5t-34 24t-76.5 25.5
q-81 22 -119 61.5t-38 98.5q0 44 25.5 79t72 55t106.5 20q107 0 188 -63zM290 -91.5q20 -19.5 20 -48.5q0 -16 -5.5 -32.5t-21.5 -48.5l-44 -91h-67l28 116q-29 22 -29 56q0 29 20 48.5t50 19.5q29 0 49 -19.5z" />
    <glyph glyph-name="uni021A" unicode="&#x21a;" horiz-adv-x="530" 
d="M525 691l-14 -105h-180v-586h-133v586h-186v105h513zM316 -91.5q20 -19.5 20 -48.5q0 -16 -5.5 -32.5t-21.5 -48.5l-44 -91h-67l28 116q-29 22 -29 56q0 29 20 48.5t50 19.5q29 0 49 -19.5z" />
    <glyph glyph-name="uni021B" unicode="&#x21b;" horiz-adv-x="375" 
d="M380 25q-28 -20 -62.5 -30t-70.5 -10q-78 1 -118.5 44.5t-40.5 128.5v279h-83v92h83v117l128 15v-132h123l-13 -92h-110v-276q0 -39 13.5 -56t42.5 -17t63 19zM285 -91.5q20 -19.5 20 -48.5q0 -16 -5.5 -32.5t-21.5 -48.5l-44 -91h-67l28 116q-29 22 -29 56q0 29 20 48.5
t50 19.5q29 0 49 -19.5z" />
    <glyph glyph-name="uni021C" unicode="&#x21c;" horiz-adv-x="513" 
d="M353.5 682q50.5 -24 76.5 -65.5t26 -95.5q0 -65 -37.5 -106.5t-107.5 -56.5q77 -8 122 -48t45 -115q0 -106 -100 -185.5t-310 -117.5l-11 102q109 26 171 57t86 67t24 82q0 105 -137 105h-69l16 99h55q55 0 85.5 27t30.5 77q0 45 -25 71.5t-77 26.5q-75 0 -150 -60
l-64 71q97 89 229 89q71 0 121.5 -24z" />
    <glyph glyph-name="uni021D" unicode="&#x21d;" horiz-adv-x="480" 
d="M352 504.5q58 -39.5 58 -110.5q0 -48 -27.5 -77.5t-84.5 -43.5q67 -3 103 -33.5t36 -83.5q0 -87 -98 -155.5t-277 -105.5l-14 87q134 41 194 81t61 94q0 33 -21 48t-62 15h-97l8 88h55q94 0 94 75q0 36 -23.5 52.5t-63.5 16.5q-37 0 -66 -9.5t-59 -28.5l-60 69
q85 61 201 61q85 0 143 -39.5z" />
    <glyph glyph-name="uni021E" unicode="&#x21e;" horiz-adv-x="672" 
d="M459 0v309h-246v-309h-132v691h132v-277h246v277h133v-691h-133zM466 928l49 -56l-139 -120h-80l-139 120l49 56l130 -83z" />
    <glyph glyph-name="uni021F" unicode="&#x21f;" horiz-adv-x="581" 
d="M469 501q40 -43 40 -118v-383h-128v363q0 47 -16.5 66t-48.5 19t-59 -20.5t-52 -58.5v-369h-128v740l128 13v-287q64 78 154 78q70 0 110 -43zM420 978l49 -56l-139 -120h-80l-139 120l49 56l130 -83z" />
    <glyph glyph-name="uni0220" unicode="&#x220;" horiz-adv-x="662" 
d="M541.5 653.5q46.5 -52.5 46.5 -136.5v-723h-133v700q0 56 -21 83t-68 27q-46 0 -79.5 -19t-73.5 -60v-525h-132v691h115l11 -74q43 44 90 66.5t109 22.5q89 0 135.5 -52.5z" />
    <glyph glyph-name="uni0221" unicode="&#x221;" horiz-adv-x="766" 
d="M746.5 206q32.5 -30 32.5 -80q0 -67 -50.5 -104t-131.5 -37q-24 0 -56 5l-32 -70l-69 28l33 68q-41 25 -61 67q-60 -98 -163 -98q-97 0 -149 75t-52 204q0 82 26 145.5t74.5 99t114.5 35.5q74 0 131 -57v268l128 -14v-574q0 -27 4 -40q25 57 56.5 83t80.5 26
q51 0 83.5 -30zM345.5 99q25.5 17 49.5 52q-1 8 -1 23v218q-23 28 -46.5 42t-53.5 14q-52 0 -81.5 -45.5t-29.5 -137.5q0 -98 26 -140.5t76 -42.5q35 0 60.5 17zM682 128q0 14 -8 22.5t-23 8.5q-20 0 -35 -16t-34 -59q8 -1 27 -1q73 0 73 45z" />
    <glyph glyph-name="uni0222" unicode="&#x222;" horiz-adv-x="651" 
d="M574 325.5q34 -46.5 34 -111.5q0 -61 -34 -113.5t-98 -84t-150 -31.5t-150.5 31t-98.5 83t-34 114t34 109t98 72q-89 48 -89 155v142h132v-144q0 -53 25 -82t83 -29t83 30.5t25 80.5v144h134v-142q0 -50 -23.5 -89t-68.5 -64q64 -24 98 -70.5zM433.5 119q35.5 33 35.5 96
q0 58 -36 90.5t-107 32.5t-107.5 -32.5t-36.5 -91.5q0 -62 37 -95t107 -33q72 0 107.5 33z" />
    <glyph glyph-name="uni0223" unicode="&#x223;" horiz-adv-x="578" 
d="M504 341.5q31 -48.5 31 -121.5q0 -64 -29.5 -118t-85 -85.5t-131.5 -31.5t-131.5 31t-85 84.5t-29.5 119.5q0 69 31 118t90 73q-83 44 -83 140v190h127v-203q0 -42 20 -65.5t62 -23.5q81 0 81 89v203h127v-190q0 -45 -22 -80t-63 -58q60 -23 91 -71.5zM374 116
q27 34 27 105q0 139 -112 139t-112 -139t112 -139q58 0 85 34z" />
    <glyph glyph-name="uni0224" unicode="&#x224;" horiz-adv-x="531" 
d="M496 589l-319 -481h315v-151q0 -86 -47.5 -130.5t-130.5 -44.5q-77 0 -129 41l45 81q19 -12 35 -17t40 -5q60 0 60 67v51h-342v101l325 485h-292v105h440v-102z" />
    <glyph glyph-name="uni0225" unicode="&#x225;" horiz-adv-x="445" 
d="M421 437l-256 -337h255v-143q0 -85 -47.5 -130t-128.5 -45q-77 0 -129 41l45 77q20 -11 35.5 -16t38.5 -5q63 0 63 67v54h-279v92l257 337h-235v100h381v-92z" />
    <glyph glyph-name="uni0226" unicode="&#x226;" horiz-adv-x="583" 
d="M447 0l-43 160h-229l-43 -160h-137l215 691h163l214 -691h-140zM201 260h176l-88 330zM349.5 900.5q22.5 -22.5 22.5 -55.5t-22.5 -55t-58.5 -22q-35 0 -57.5 22t-22.5 55t22.5 55.5t57.5 22.5q36 0 58.5 -22.5z" />
    <glyph glyph-name="uni0227" unicode="&#x227;" horiz-adv-x="546" 
d="M477.5 94.5q9.5 -14.5 30.5 -22.5l-27 -85q-45 4 -73.5 22t-43.5 55q-27 -40 -67.5 -59.5t-90.5 -19.5q-79 0 -125 45t-46 118q0 86 62.5 131.5t178.5 45.5h66v30q0 51 -23.5 71.5t-75.5 20.5q-58 0 -140 -28l-30 87q99 38 192 38q203 0 203 -182v-222q0 -31 9.5 -45.5z
M342 143v107h-53q-124 0 -124 -92q0 -38 19 -59t56 -21q65 0 102 65zM323.5 774.5q22.5 -22.5 22.5 -55.5t-22.5 -55t-58.5 -22q-35 0 -57.5 22t-22.5 55t22.5 55.5t57.5 22.5q36 0 58.5 -22.5z" />
    <glyph glyph-name="uni0228" unicode="&#x228;" horiz-adv-x="530" 
d="M320 0v-52q50 -5 74.5 -29.5t24.5 -62.5q0 -50 -38 -79.5t-99 -29.5q-31 0 -58 7.5t-45 20.5l31 63q30 -16 63 -16q49 0 49 34q0 20 -21.5 29t-69.5 9l13 106h-163v691h401l-14 -98h-255v-193h222v-98h-222v-203h273v-99h-166z" />
    <glyph glyph-name="uni0229" unicode="&#x229;" horiz-adv-x="549" 
d="M508 225h-332q6 -77 40 -110t90 -33q35 0 66 11.5t66 35.5l53 -73q-76 -61 -163 -69v-39q50 -5 74.5 -29.5t24.5 -62.5q0 -50 -38 -79.5t-99 -29.5q-31 0 -58 7.5t-45 20.5l31 63q30 -16 63 -16q49 0 49 34q0 20 -21.5 29t-69.5 9l12 94q-101 13 -154.5 85.5t-53.5 187.5
q0 81 28 145.5t81 101t126 36.5q111 0 172 -70.5t61 -196.5q0 -10 -3 -52zM384 314q0 139 -103 139q-47 0 -73.5 -34.5t-31.5 -110.5h208v6z" />
    <glyph glyph-name="uni022A" unicode="&#x22a;" horiz-adv-x="691" 
d="M507 664q68 -42 104.5 -123t36.5 -195q0 -113 -37 -194t-105 -124t-160 -43q-93 0 -161 42t-105 123t-37 195q0 112 37 193.5t105.5 124.5t160.5 43q93 0 161 -42zM224 542.5q-42 -62.5 -42 -197.5q0 -259 164 -259q80 0 121.5 62t41.5 198q0 135 -41.5 197t-121.5 62
t-122 -62.5zM284 864q20 -20 20 -49t-20 -49t-49 -20q-30 0 -50.5 20t-20.5 49t20.5 49t50.5 20q29 0 49 -20zM506 864q20 -20 20 -49t-20 -49t-50 -20q-29 0 -49.5 20t-20.5 49t20.5 49t49.5 20q30 0 50 -20zM494 924h-291v91h291v-91z" />
    <glyph glyph-name="uni022B" unicode="&#x22b;" horiz-adv-x="584" 
d="M475.5 469.5q65.5 -74.5 65.5 -204.5q0 -83 -30 -146.5t-86 -98.5t-133 -35q-117 0 -183 74.5t-66 205.5q0 83 30 146t86.5 98t133.5 35q117 0 182.5 -74.5zM178 265q0 -94 28.5 -138.5t85.5 -44.5t85.5 45t28.5 138t-28.5 137.5t-84.5 44.5q-115 0 -115 -182zM230 730
q20 -20 20 -49t-20 -49t-49 -20q-30 0 -50.5 20t-20.5 49t20.5 49t50.5 20q29 0 49 -20zM452 730q20 -20 20 -49t-20 -49t-50 -20q-29 0 -49.5 20t-20.5 49t20.5 49t49.5 20q30 0 50 -20zM437 797h-291v91h291v-91z" />
    <glyph glyph-name="uni022C" unicode="&#x22c;" horiz-adv-x="691" 
d="M507 664q68 -42 104.5 -123t36.5 -195q0 -113 -37 -194t-105 -124t-160 -43q-93 0 -161 42t-105 123t-37 195q0 112 37 193.5t105.5 124.5t160.5 43q93 0 161 -42zM224 542.5q-42 -62.5 -42 -197.5q0 -259 164 -259q80 0 121.5 62t41.5 198q0 135 -41.5 197t-121.5 62
t-122 -62.5zM367.5 763.5q-15.5 7.5 -35.5 20.5q-15 10 -24 14.5t-19 4.5q-17 0 -28.5 -10.5t-24.5 -34.5l-69 34q20 47 50 75.5t70 28.5q22 0 37.5 -7t36.5 -20q13 -10 22.5 -14.5t19.5 -4.5q15 0 27 10t26 33l68 -34q-20 -48 -51 -75.5t-69 -27.5q-21 0 -36.5 7.5z
M491 929h-291v91h291v-91z" />
    <glyph glyph-name="uni022D" unicode="&#x22d;" horiz-adv-x="584" 
d="M475.5 469.5q65.5 -74.5 65.5 -204.5q0 -83 -30 -146.5t-86 -98.5t-133 -35q-117 0 -183 74.5t-66 205.5q0 83 30 146t86.5 98t133.5 35q117 0 182.5 -74.5zM178 265q0 -94 28.5 -138.5t85.5 -44.5t85.5 45t28.5 138t-28.5 137.5t-84.5 44.5q-115 0 -115 -182z
M313.5 601.5q-15.5 7.5 -35.5 20.5q-15 10 -24 14.5t-19 4.5q-17 0 -28.5 -10.5t-24.5 -34.5l-69 34q20 47 50 75.5t70 28.5q22 0 37.5 -7t36.5 -20q13 -10 22.5 -14.5t19.5 -4.5q15 0 27 10t26 33l68 -34q-20 -48 -51 -75.5t-69 -27.5q-21 0 -36.5 7.5zM437 822h-291v91
h291v-91z" />
    <glyph glyph-name="uni022E" unicode="&#x22e;" horiz-adv-x="691" 
d="M507 664q68 -42 104.5 -123t36.5 -195q0 -113 -37 -194t-105 -124t-160 -43q-93 0 -161 42t-105 123t-37 195q0 112 37 193.5t105.5 124.5t160.5 43q93 0 161 -42zM224 542.5q-42 -62.5 -42 -197.5q0 -259 164 -259q80 0 121.5 62t41.5 198q0 135 -41.5 197t-121.5 62
t-122 -62.5zM403.5 900.5q22.5 -22.5 22.5 -55.5t-22.5 -55t-58.5 -22q-35 0 -57.5 22t-22.5 55t22.5 55.5t57.5 22.5q36 0 58.5 -22.5z" />
    <glyph glyph-name="uni022F" unicode="&#x22f;" horiz-adv-x="584" 
d="M475.5 469.5q65.5 -74.5 65.5 -204.5q0 -83 -30 -146.5t-86 -98.5t-133 -35q-117 0 -183 74.5t-66 205.5q0 83 30 146t86.5 98t133.5 35q117 0 182.5 -74.5zM178 265q0 -94 28.5 -138.5t85.5 -44.5t85.5 45t28.5 138t-28.5 137.5t-84.5 44.5q-115 0 -115 -182z
M349.5 774.5q22.5 -22.5 22.5 -55.5t-22.5 -55t-58.5 -22q-35 0 -57.5 22t-22.5 55t22.5 55.5t57.5 22.5q36 0 58.5 -22.5z" />
    <glyph glyph-name="uni0230" unicode="&#x230;" horiz-adv-x="691" 
d="M507 664q68 -42 104.5 -123t36.5 -195q0 -113 -37 -194t-105 -124t-160 -43q-93 0 -161 42t-105 123t-37 195q0 112 37 193.5t105.5 124.5t160.5 43q93 0 161 -42zM224 542.5q-42 -62.5 -42 -197.5q0 -259 164 -259q80 0 121.5 62t41.5 198q0 135 -41.5 197t-121.5 62
t-122 -62.5zM404.5 870.5q22.5 -22.5 22.5 -55.5t-22.5 -55t-58.5 -22q-35 0 -57.5 22t-22.5 55t22.5 55.5t57.5 22.5q36 0 58.5 -22.5zM494 924h-291v91h291v-91z" />
    <glyph glyph-name="uni0231" unicode="&#x231;" horiz-adv-x="584" 
d="M475.5 469.5q65.5 -74.5 65.5 -204.5q0 -83 -30 -146.5t-86 -98.5t-133 -35q-117 0 -183 74.5t-66 205.5q0 83 30 146t86.5 98t133.5 35q117 0 182.5 -74.5zM178 265q0 -94 28.5 -138.5t85.5 -44.5t85.5 45t28.5 138t-28.5 137.5t-84.5 44.5q-115 0 -115 -182z
M349.5 731.5q22.5 -22.5 22.5 -55.5t-22.5 -55t-58.5 -22q-35 0 -57.5 22t-22.5 55t22.5 55.5t57.5 22.5q36 0 58.5 -22.5zM438 788h-291v91h291v-91z" />
    <glyph glyph-name="uni0232" unicode="&#x232;" horiz-adv-x="574" 
d="M576 691l-222 -429v-262h-134v261l-222 430h146l146 -321l146 321h140zM432 787h-291v91h291v-91z" />
    <glyph glyph-name="uni0233" unicode="&#x233;" horiz-adv-x="506" 
d="M333 -2q-32 -98 -97 -152.5t-178 -63.5l-13 93q52 8 83.5 22.5t50.5 38.5t35 64h-44l-168 529h136l115 -444l120 444h132zM398 661h-291v91h291v-91z" />
    <glyph glyph-name="uni0234" unicode="&#x234;" horiz-adv-x="443" 
d="M424.5 206q32.5 -30 32.5 -80q0 -67 -51 -104t-132 -37q-25 0 -55 5l-32 -70l-69 28l32 68q-78 49 -78 158v567l128 14v-588q0 -27 4 -40q25 57 56.5 83t80.5 26q51 0 83.5 -30zM360 128q0 14 -8 22.5t-23 8.5q-20 0 -35 -16t-34 -59q8 -1 27 -1q73 0 73 45z" />
    <glyph glyph-name="uni0235" unicode="&#x235;" horiz-adv-x="753" 
d="M733.5 206q32.5 -30 32.5 -80q0 -67 -50.5 -104t-131.5 -37q-24 0 -56 5l-31 -70l-70 28l33 68q-79 48 -79 158v189q0 47 -16.5 66t-48.5 19q-33 0 -59.5 -20.5t-51.5 -59.5v-368h-128v529h111l10 -69q65 84 161 84q71 0 110.5 -42.5t39.5 -118.5v-216q0 -27 4 -40
q25 57 56.5 83t80.5 26q51 0 83.5 -30zM669 128q0 14 -8 22.5t-23 8.5q-20 0 -34.5 -16t-33.5 -59q7 -1 26 -1q73 0 73 45z" />
    <glyph glyph-name="uni0236" unicode="&#x236;" horiz-adv-x="459" 
d="M440 206q32 -30 32 -80q0 -67 -50.5 -104t-131.5 -37q-32 0 -56 5l-31 -70l-69 28l31 67q-77 44 -77 159v263h-83v92h83v117l128 15v-132h123l-13 -92h-110v-270q0 -26 4 -41q24 57 56 83.5t81 26.5q51 0 83 -30zM375 128q0 15 -7.5 23t-22.5 8q-20 0 -35 -16t-34 -59
q8 -1 27 -1q72 0 72 45z" />
    <glyph glyph-name="uni0237" unicode="&#x237;" horiz-adv-x="281" 
d="M204 47q0 -78 -22.5 -127.5t-63.5 -79.5t-107 -57l-41 93q39 18 61 35.5t33.5 47.5t11.5 80v490h128v-482z" />
    <glyph glyph-name="uni0238" unicode="&#x238;" horiz-adv-x="873" 
d="M775 470.5q49 -73.5 49 -205.5q0 -82 -25 -145.5t-70 -99t-104 -35.5q-41 0 -73.5 21.5t-55.5 58.5l-9 -65h-98l-9 67q-25 -38 -61.5 -60t-79.5 -22q-90 0 -140.5 75.5t-50.5 203.5q0 81 25 144.5t70.5 99.5t104.5 36q36 0 68.5 -18t57.5 -52v267l128 14v-286
q53 75 139 75q85 0 134 -73.5zM327 99q24 17 47 51v235q-41 63 -95 63q-43 0 -69.5 -46t-26.5 -137q0 -183 92 -183q28 0 52 17zM663 126q27 45 27 139q0 183 -90 183q-32 0 -55 -17.5t-43 -48.5v-228q21 -37 41.5 -55t51.5 -18q41 0 68 45z" />
    <glyph glyph-name="uni0239" unicode="&#x239;" horiz-adv-x="873" 
d="M777.5 470.5q46.5 -73.5 46.5 -204.5q0 -81 -24 -145t-68.5 -100t-104.5 -36q-76 0 -125 71v-260l-128 -14v275q-25 -34 -60 -53t-76 -19q-90 0 -140 75.5t-50 203.5q0 81 25.5 144.5t72 99.5t107.5 36q38 0 71 -19t59 -58l7 62h96l7 -67q58 82 145 82q93 0 139.5 -73.5z
M327 99q24 17 47 51v228q-21 36 -43.5 53t-50.5 17q-44 0 -70.5 -46t-26.5 -137q0 -96 24.5 -139.5t66.5 -43.5q29 0 53 17zM663.5 128q26.5 45 26.5 137q0 97 -22.5 140t-65.5 43q-28 0 -54 -19t-46 -50v-231q35 -65 89 -65q46 0 72.5 45z" />
    <glyph glyph-name="uni023A" unicode="&#x23a;" horiz-adv-x="583" 
d="M456 0l-44 160h-126l-62 -232l-52 12l58 220h-63l-44 -160h-128l215 691h162l16 62l52 -12l-38 -143l185 -598h-131zM193 254h62l64 240l-30 110zM311 254h75l-39 139z" />
    <glyph glyph-name="uni023B" unicode="&#x23b;" horiz-adv-x="568" 
d="M555 69q-35 -36 -88.5 -60t-119.5 -24q-38 0 -76 8l-17 -65l-52 12l19 70q-84 37 -131 123t-47 214q0 113 39.5 194t108 123t154.5 42q29 0 59 -5l14 52l51 -12l-14 -53q46 -17 92 -55l-67 -78q-23 19 -52 32l-129 -488q27 -8 53 -8q41 0 73 14.5t68 41.5zM252 127
l126 475q-18 2 -26 2q-77 0 -123.5 -62t-46.5 -195q0 -158 70 -220z" />
    <glyph glyph-name="uni023C" unicode="&#x23c;" horiz-adv-x="478" 
d="M349.5 98q23.5 9 55.5 29l57 -81q-75 -61 -171 -61q-26 0 -54 5l-17 -62l-50 12l17 64q-69 29 -106.5 95t-37.5 161q0 84 30 148.5t86 100t131 35.5q22 0 43 -3l15 57l50 -12l-15 -57q43 -15 79 -47l-57 -77q-23 17 -49 28l-91 -340q13 -4 33 -4q28 0 51.5 9zM218 119
l88 324h-8q-119 0 -119 -181q0 -101 39 -143z" />
    <glyph glyph-name="uni023D" unicode="&#x23d;" horiz-adv-x="518" 
d="M225 108h277l-15 -108h-394v312h-83v102h83v277h132v-277h87v-102h-87v-204z" />
    <glyph glyph-name="uni023E" unicode="&#x23e;" horiz-adv-x="530" 
d="M511 589h-93l-93 -215v-374h-121v93l-71 -165l-47 20l118 274v367h-192v102h394l28 66l47 -21l-19 -45h63zM325 504l37 85h-37v-85z" />
    <glyph glyph-name="uni023F" unicode="&#x23f;" horiz-adv-x="478" 
d="M418 -108l31 -79q-39 -30 -101 -30q-40 0 -69.5 15t-50.5 38.5t-52 66.5q-40 53 -71 87.5t-78 64.5q-3 1 -9 5l54 72q78 -52 154 -52q43 0 67 16t24 46q0 24 -9.5 37.5t-34 24.5t-76.5 26q-81 22 -119 61.5t-38 98.5q0 44 25.5 79t72 55t106.5 20q107 0 188 -63l-50 -75
q-68 43 -133 43q-38 0 -59 -14.5t-21 -38.5q0 -18 9 -30t32.5 -22.5t69.5 -23.5q86 -23 127.5 -61t41.5 -106q0 -53 -30 -91t-78.5 -57.5t-102.5 -19.5h-10q26 -20 57 -57q23 -26 38 -37t40 -11q28 0 55 12z" />
    <glyph glyph-name="uni0240" unicode="&#x240;" horiz-adv-x="423" 
d="M303.5 -204q-28.5 13 -47.5 32t-45 52q-29 36 -51 58t-57 39.5t-85 22.5v92l257 337h-235v100h381v-92l-282 -364q54 -17 85.5 -46t65.5 -76q26 -37 46 -54t49 -17t56 12l32 -79q-41 -30 -101 -30q-40 0 -68.5 13z" />
    <glyph glyph-name="uni0241" unicode="&#x241;" horiz-adv-x="489" 
d="M148 325l63 17q62 17 91 49.5t29 94.5q0 55 -29 87.5t-82 32.5q-40 0 -75 -14.5t-72 -45.5l-66 71q49 45 104 67t122 22q72 0 125.5 -27t82 -75.5t28.5 -111.5q0 -88 -43 -134.5t-121 -73.5l-24 -8v-276h-133v325z" />
    <glyph glyph-name="uni0242" unicode="&#x242;" horiz-adv-x="453" 
d="M115 200l61 17q53 14 81 43.5t28 79.5q0 46 -26 75t-72 29q-37 0 -64 -11.5t-59 -37.5l-64 69q43 40 89.5 60t107.5 20q67 0 117.5 -26t78 -72t27.5 -104q0 -140 -150 -184l-27 -7v-151h-128v200z" />
    <glyph glyph-name="uni0243" unicode="&#x243;" horiz-adv-x="626" 
d="M547.5 315.5q43.5 -37.5 43.5 -116.5q0 -108 -76 -153.5t-213 -45.5h-208v172h-77v76h77v443h181q286 0 286 -176q0 -61 -37 -99.5t-91 -49.5q71 -13 114.5 -50.5zM226 594v-187h81q55 0 87 24.5t32 72.5q0 50 -33.5 70t-104.5 20h-62zM414.5 121q38.5 22 38.5 83
q0 59 -36.5 85t-99.5 26h-91v-67h135v-76h-135v-73h77q73 0 111.5 22z" />
    <glyph glyph-name="uni0244" unicode="&#x244;" horiz-adv-x="685" 
d="M662 504h-62v-278q0 -70 -29.5 -124.5t-88 -85.5t-140.5 -31q-124 0 -190 65.5t-66 175.5v278h-63v81h63v106h132v-106h249v106h133v-106h62v-81zM467 504h-249v-271q0 -73 30.5 -109t93.5 -36q64 0 94.5 36t30.5 109v271z" />
    <glyph glyph-name="uni0245" unicode="&#x245;" horiz-adv-x="583" 
d="M373 691l214 -691h-140l-157 590l-158 -590h-137l215 691h163z" />
    <glyph glyph-name="uni0246" unicode="&#x246;" horiz-adv-x="530" 
d="M486 99v-99h-239l-19 -72l-53 12l16 60h-110v691h294l16 62l52 -12l-13 -50h52l-14 -98h-64l-51 -193h82v-98h-108l-54 -203h213zM213 593v-193h84l51 193h-135zM213 99h4l54 203h-58v-203z" />
    <glyph glyph-name="uni0247" unicode="&#x247;" horiz-adv-x="549" 
d="M286 227l-36 -137q26 -8 56 -8q35 0 66 11.5t66 35.5l53 -73q-88 -71 -196 -71q-37 0 -72 8l-17 -65l-49 12l19 69q-65 31 -99 96t-34 156q0 81 28 145.5t81 101t126 36.5q21 0 42 -3l15 57l48 -12l-15 -57q69 -25 106 -90t37 -162q0 -8 -3 -50h-222zM202.5 420
q-27.5 -35 -33.5 -114h87l40 148q-5 1 -15 1q-51 0 -78.5 -35zM344 439l-36 -133h85v6q-2 96 -49 127zM235 227h-66q6 -71 37 -107z" />
    <glyph glyph-name="uni0248" unicode="&#x248;" horiz-adv-x="326" 
d="M319 292h-84v-191q0 -111 -52.5 -167.5t-150.5 -88.5l-35 95q44 17 66.5 38.5t30.5 51t8 76.5v186h-85v102h85v297h133v-297h84v-102z" />
    <glyph glyph-name="uni0249" unicode="&#x249;" horiz-adv-x="323" 
d="M313 209h-87v-162q0 -78 -22.5 -127.5t-63.5 -79.5t-107 -57l-41 93q39 18 61 35.5t33.5 47.5t11.5 80v170h-87v92h87v228h128v-228h87v-92zM219.5 774.5q22.5 -22.5 22.5 -55.5t-22.5 -55t-58.5 -22q-35 0 -57.5 22t-22.5 55t22.5 55.5t57.5 22.5q36 0 58.5 -22.5z" />
    <glyph glyph-name="uni024A" unicode="&#x24a;" horiz-adv-x="671" 
d="M765 -177q-54 -41 -129 -41q-83 0 -130.5 44.5t-47.5 130.5v86q-58 -58 -144 -58q-78 0 -139.5 40t-96.5 118.5t-35 188.5q0 116 35.5 200.5t97.5 129t142 44.5q85 0 148 -58l6 43h118v-742q0 -67 58 -67q21 0 36 5t35 16zM458 135v423q-50 47 -117 47q-159 0 -159 -273
q0 -247 154 -247q72 0 122 50z" />
    <glyph glyph-name="uni024B" unicode="&#x24b;" horiz-adv-x="599" 
d="M609 -200q-38 -18 -85 -18q-61 0 -95.5 35.5t-34.5 100.5v141q-25 -35 -62 -54.5t-83 -19.5q-97 0 -149 75t-52 204q0 82 26 145.5t74.5 99t114.5 35.5q80 0 141 -67l7 52h111v-608q0 -37 30 -37q15 0 30 5zM345 98.5q26 16.5 49 51.5v242q-23 28 -46.5 42t-53.5 14
q-52 0 -81.5 -45.5t-29.5 -137.5q0 -98 26 -140.5t76 -42.5q34 0 60 16.5z" />
    <glyph glyph-name="uni024C" unicode="&#x24c;" horiz-adv-x="624" 
d="M463 0l-153 277h-84v-277h-132v277h-77v95h77v319h206q274 0 274 -203q0 -69 -34 -114t-106 -73l181 -301h-152zM403.5 399.5q32.5 27.5 32.5 88.5q0 56 -33.5 81.5t-105.5 25.5h-71v-223h82q63 0 95.5 27.5z" />
    <glyph glyph-name="uni024D" unicode="&#x24d;" horiz-adv-x="413" 
d="M410 536l-22 -124q-24 6 -47 6q-45 0 -72 -30.5t-42 -93.5h85v-92h-88v-202h-128v202h-86v92h86v235h111l12 -104q19 57 55 87.5t83 30.5q29 0 53 -7z" />
    <glyph glyph-name="uni024E" unicode="&#x24e;" horiz-adv-x="574" 
d="M576 691l-42 -81h42v-82h-84l-138 -266v-262h-133v261l-138 267h-81v82h39l-42 81h142l37 -81h225l37 81h136zM290 363l75 165h-150z" />
    <glyph glyph-name="uni024F" unicode="&#x24f;" horiz-adv-x="523" 
d="M468 391h42v-79h-67l-102 -314q-32 -98 -97 -152.5t-178 -63.5l-13 93q52 8 83.5 22.5t50.5 38.5t35 64h-44l-99 312h-68v79h43l-44 138h136l36 -138h162l37 138h132zM261 85l61 227h-120z" />
    <glyph glyph-name="uni0250" unicode="&#x250;" horiz-adv-x="546" 
d="M443 110l30 -87q-99 -38 -192 -38q-203 0 -203 182v222q0 31 -9.5 45.5t-30.5 22.5l27 85q45 -4 73.5 -22t43.5 -55q27 40 67.5 59.5t90.5 19.5q79 0 125 -45t46 -118q0 -86 -62.5 -131.5t-178.5 -45.5h-66v-30q0 -51 23.5 -71.5t75.5 -20.5q58 0 140 28zM204 386v-107
h53q124 0 124 92q0 38 -19 59t-56 21q-65 0 -102 -65z" />
    <glyph glyph-name="uni0251" unicode="&#x251;" horiz-adv-x="598" 
d="M525.5 107.5q9.5 -16.5 34.5 -28.5l-38 -94q-50 10 -78 29.5t-42 51.5q-28 -38 -68 -59.5t-86 -21.5q-97 0 -151 75.5t-54 203.5q0 82 26.5 145.5t75.5 99t116 35.5q81 0 137 -66l7 51h111v-369q0 -36 9.5 -52.5zM338.5 99q25.5 17 49.5 52v241q-23 28 -47 42t-55 14
q-51 0 -79.5 -45t-28.5 -138q0 -98 26 -140.5t74 -42.5q35 0 60.5 17z" />
    <glyph glyph-name="uni0252" unicode="&#x252;" horiz-adv-x="598" 
d="M501 468.5q54 -75.5 54 -203.5q0 -82 -26.5 -145.5t-75.5 -99t-116 -35.5q-81 0 -137 66l-7 -51h-111v369q0 36 -9.5 52.5t-34.5 28.5l38 94q50 -10 78 -29.5t42 -51.5q28 38 68 59.5t86 21.5q97 0 151 -75.5zM391.5 126q28.5 45 28.5 138q0 98 -26 140.5t-74 42.5
q-35 0 -60.5 -17t-49.5 -52v-241q23 -28 47 -42t55 -14q51 0 79.5 45z" />
    <glyph glyph-name="uni0253" unicode="&#x253;" horiz-adv-x="596" 
d="M495 471q52 -73 52 -206q0 -82 -25.5 -145.5t-72.5 -99t-111 -35.5q-43 0 -78.5 18t-61.5 51l-8 -54h-113v587q0 75 48.5 121.5t137.5 46.5q71 0 136 -31l-37 -86q-43 20 -87 20q-38 0 -54 -17.5t-16 -55.5v-116q26 36 63 55.5t81 19.5q94 0 146 -73zM384 125.5
q29 44.5 29 139.5q0 100 -27 141.5t-76 41.5q-61 0 -105 -72v-234q18 -29 43.5 -45t55.5 -16q51 0 80 44.5z" />
    <glyph glyph-name="uni0254" unicode="&#x254;" horiz-adv-x="480" 
d="M93.5 0q-41.5 15 -77.5 44l59 77q28 -20 52 -29t57 -10q118 0 118 183q0 94 -28 138t-86 44q-29 0 -56 -9t-55 -28l-56 74q71 60 173 60q114 0 178 -74t64 -205q0 -83 -29.5 -146.5t-85.5 -98.5t-133 -35q-53 0 -94.5 15z" />
    <glyph glyph-name="uni0255" unicode="&#x255;" horiz-adv-x="495" 
d="M445.5 214.5q34.5 -30.5 34.5 -83.5q0 -70 -51.5 -108t-131.5 -38q-40 0 -72 8l-32 -73l-70 28l34 74q-54 33 -84 94.5t-30 143.5q0 84 30 148.5t86 100t131 35.5q52 0 93.5 -15t78.5 -47l-58 -78q-26 20 -51 29.5t-55 9.5q-119 0 -119 -181q0 -89 30 -134q26 62 60 89.5
t88 27.5t88.5 -30.5zM364.5 95.5q18.5 12.5 18.5 37.5q0 17 -9 26t-26 9q-25 0 -42 -17t-38 -62q19 -6 44 -6q34 0 52.5 12.5z" />
    <glyph glyph-name="uni0256" unicode="&#x256;" horiz-adv-x="599" 
d="M699 -177q-52 -41 -129 -41q-81 0 -128.5 45t-47.5 130v101q-25 -34 -62 -53.5t-83 -19.5q-97 0 -149 75t-52 204q0 82 26 145.5t74.5 99t114.5 35.5q74 0 131 -57v268l128 -14v-795q0 -67 60 -67q21 0 36.5 5t35.5 15zM345 98.5q26 16.5 49 51.5v242q-23 28 -46.5 42
t-53.5 14q-52 0 -81.5 -45.5t-29.5 -137.5q0 -98 26 -140.5t76 -42.5q34 0 60 16.5z" />
    <glyph glyph-name="uni0257" unicode="&#x257;" horiz-adv-x="599" 
d="M691 717l-41 -80q-19 11 -35 16t-36 5q-57 0 -57 -68v-590h-113l-9 67q-25 -38 -63.5 -60t-87.5 -22q-97 0 -149 75t-52 204q0 82 26 145.5t74.5 99t114.5 35.5q74 0 131 -57v97q0 80 45 125.5t126 45.5q70 0 126 -38zM345 98.5q26 16.5 49 51.5v242q-23 28 -46.5 42
t-53.5 14q-52 0 -81.5 -45.5t-29.5 -137.5q0 -98 26 -140.5t76 -42.5q34 0 60 16.5z" />
    <glyph glyph-name="uni0258" unicode="&#x258;" horiz-adv-x="549" 
d="M447 468q59 -76 59 -207q0 -127 -66 -201.5t-186 -74.5q-108 0 -196 71l53 73q36 -25 68 -36t71 -11q55 0 86.5 32.5t37.5 110.5h-333q-3 42 -3 52q0 125 62 196t171 71q117 0 176 -76zM165 308h209q-4 81 -28 113t-76 32q-53 0 -79 -36t-26 -103v-6z" />
    <glyph glyph-name="uni0259" unicode="&#x259;" horiz-adv-x="555" 
d="M451 469.5q61 -74.5 61 -204.5q0 -83 -28.5 -146t-83 -98.5t-128.5 -35.5q-70 0 -123 32t-82 92t-29 143q0 29 3 53h343q-5 75 -34.5 109.5t-84.5 34.5q-37 0 -69.5 -11t-65.5 -36l-55 76q82 66 194 66q121 0 182 -74.5zM352 112.5q28 33.5 32 109.5h-223v-8
q0 -64 29.5 -99.5t81.5 -35.5t80 33.5z" />
    <glyph glyph-name="uni025A" unicode="&#x25a;" horiz-adv-x="802" 
d="M819 347q-53 -37 -123 -37q-68 0 -106.5 33.5t-42.5 92.5l-1 6l-59 -33q25 -59 25 -144q0 -83 -28.5 -146t-83 -98.5t-128.5 -35.5q-70 0 -123 32t-82 92t-29 143q0 29 3 53h343q-5 75 -34.5 109.5t-84.5 34.5q-37 0 -69.5 -11t-65.5 -36l-55 76q82 66 194 66t175 -66
l98 51h111v-64q0 -62 57 -62q20 0 34.5 4.5t33.5 15.5zM352 112.5q28 33.5 32 109.5h-223v-8q0 -64 29.5 -99.5t81.5 -35.5t80 33.5z" />
    <glyph glyph-name="uni025B" unicode="&#x25b;" horiz-adv-x="475" 
d="M449 489l-55 -70q-30 17 -56 25t-59 8q-40 0 -62.5 -17.5t-22.5 -49.5q0 -30 23.5 -48.5t64.5 -18.5h64l-13 -88h-57q-53 0 -75.5 -18t-22.5 -56q0 -35 25.5 -55.5t73.5 -20.5q36 0 67.5 10.5t66.5 32.5l56 -75q-40 -30 -92 -46.5t-112 -16.5q-99 0 -159.5 42.5
t-60.5 119.5q0 117 138 135q-117 23 -117 117q0 67 54.5 106t144.5 39q110 0 186 -55z" />
    <glyph glyph-name="uni025C" unicode="&#x25c;" horiz-adv-x="499" 
d="M370.5 505q57.5 -39 57.5 -106q0 -45 -27.5 -73.5t-84.5 -42.5q70 -11 104.5 -41.5t34.5 -87.5q0 -82 -65.5 -125.5t-170.5 -43.5q-123 0 -211 65l63 74q35 -23 68 -33.5t75 -10.5q107 0 107 79q0 71 -113 71h-77l8 88h58q47 0 74 17.5t27 53.5q0 33 -23.5 48t-62.5 15
q-38 0 -67 -10t-59 -30l-59 71q42 31 91 46t110 15q85 0 142.5 -39z" />
    <glyph glyph-name="uni025D" unicode="&#x25d;" horiz-adv-x="735" 
d="M753 347q-53 -37 -123 -37q-68 0 -106.5 33.5t-42.5 92.5l-1 6l-53 -29q1 -5 1 -14q0 -45 -27.5 -73.5t-84.5 -42.5q70 -11 104.5 -41.5t34.5 -87.5q0 -82 -65.5 -125.5t-170.5 -43.5q-123 0 -211 65l63 74q35 -23 68 -33.5t75 -10.5q107 0 107 79q0 71 -113 71h-77l8 88
h58q47 0 74 17.5t27 53.5q0 33 -23.5 48t-62.5 15q-38 0 -67 -10t-59 -30l-59 71q42 31 91 46t110 15q51 0 94.5 -15t70.5 -43l83 43h111v-64q0 -62 57 -62q20 0 34.5 4.5t33.5 15.5z" />
    <glyph glyph-name="uni025E" unicode="&#x25e;" horiz-adv-x="571" 
d="M108 58.5q-65 73.5 -65 206.5q0 83 30 146t87 98t136 35q90 0 147.5 -40t57.5 -107q0 -86 -112 -114q69 -11 104 -41.5t35 -87.5q0 -79 -63.5 -124t-166.5 -45q-125 0 -190 73.5zM370 99.5q27 19.5 27 60.5q0 38 -28.5 54t-79.5 16h-36l8 88h17q43 0 69 17.5t26 52.5
q0 30 -21.5 47t-57.5 17q-60 0 -90 -45.5t-30 -141.5q0 -98 27.5 -141.5t94.5 -43.5q47 0 74 19.5z" />
    <glyph glyph-name="uni025F" unicode="&#x25f;" horiz-adv-x="323" 
d="M313 209h-87v-162q0 -78 -22.5 -127.5t-63.5 -79.5t-107 -57l-41 93q39 18 61 35.5t33.5 47.5t11.5 80v170h-87v92h87v228h128v-228h87v-92z" />
    <glyph glyph-name="uni0260" unicode="&#x260;" horiz-adv-x="599" 
d="M691 717l-41 -80q-19 11 -35 16t-36 5q-57 0 -57 -68v-580q0 -113 -61.5 -170.5t-179.5 -57.5q-108 0 -181 47l41 82q60 -32 130 -32q67 0 95 27.5t28 88.5v83q-25 -34 -62 -53.5t-83 -19.5q-97 0 -149 73.5t-52 195.5q0 77 26 138.5t75 96.5t114 35q74 0 131 -57v97
q0 80 45 125.5t126 45.5q70 0 126 -38zM345 118.5q26 16.5 49 51.5v222q-23 28 -46.5 42t-53.5 14q-52 0 -81.5 -44t-29.5 -129q0 -91 26.5 -132t75.5 -41q34 0 60 16.5z" />
    <glyph glyph-name="uni0261" unicode="&#x261;" horiz-adv-x="599" 
d="M522 529v-519q0 -113 -61.5 -170.5t-179.5 -57.5q-108 0 -181 47l41 82q60 -32 130 -32q67 0 95 27.5t28 88.5v83q-25 -34 -62 -53.5t-83 -19.5q-97 0 -149 73.5t-52 195.5q0 77 26 138.5t75 96.5t114 35q77 0 141 -66l7 51h111zM345 118.5q26 16.5 49 51.5v222
q-23 28 -46.5 42t-53.5 14q-52 0 -81.5 -44t-29.5 -129q0 -91 26.5 -132t75.5 -41q34 0 60 16.5z" />
    <glyph glyph-name="uni0262" unicode="&#x262;" 
d="M413.5 526.5q45.5 -17.5 86.5 -51.5l-64 -71q-31 23 -60 33.5t-65 10.5q-60 0 -97 -46t-37 -135q0 -100 30 -143t88 -43q47 0 87 18v117h-81l-13 89h216v-260q-99 -58 -211 -58q-122 0 -186 70.5t-64 209.5q0 84 35 146.5t95 96.5t132 34q63 0 108.5 -17.5z" />
    <glyph glyph-name="uni0263" unicode="&#x263;" horiz-adv-x="506" 
d="M320 74q36 -59 51.5 -99t15.5 -82q0 -52 -33.5 -81.5t-98.5 -29.5t-98 29.5t-33 81.5q0 37 15.5 77t51.5 103l-189 456h136l117 -373l118 373h132zM279 -58.5q-7 20.5 -24 55.5q-16 -36 -23 -56.5t-7 -41.5q0 -15 8 -23.5t22 -8.5q15 0 23 8.5t8 24.5q0 21 -7 41.5z" />
    <glyph glyph-name="uni0264" unicode="&#x264;" horiz-adv-x="543" 
d="M506.5 536.5q20.5 -7.5 41.5 -21.5l-38 -73q-11 5 -19 7.5t-20 2.5q-14 0 -23 -8.5t-21 -32.5l-92 -176q33 -49 46 -79.5t13 -65.5q0 -47 -31.5 -76t-91.5 -29q-59 0 -90.5 28.5t-31.5 75.5q0 32 13 62.5t45 83.5l-91 176q-12 24 -21.5 32.5t-22.5 8.5q-12 0 -20 -2.5
t-19 -7.5l-38 73q20 14 41 21.5t48 7.5q50 0 79.5 -27t54.5 -87l53 -120l55 120q26 62 54.5 88t78.5 26q27 0 47.5 -7.5zM292 126.5q-6 14.5 -21 41.5q-15 -28 -20.5 -42t-5.5 -29q0 -29 26 -29q27 0 27 29q0 15 -6 29.5z" />
    <glyph glyph-name="uni0265" unicode="&#x265;" horiz-adv-x="581" 
d="M504 529v-747l-128 14v268q-63 -79 -154 -79q-70 0 -110 43t-40 118v383h128v-362q0 -47 17 -66t49 -19q60 0 110 78v369h128z" />
    <glyph glyph-name="uni0266" unicode="&#x266;" horiz-adv-x="581" 
d="M469 501q40 -43 40 -118v-383h-128v363q0 47 -16.5 66t-48.5 19t-59 -20.5t-52 -58.5v-369h-128v587q0 75 48.5 121.5t137.5 46.5q71 0 136 -31l-37 -86q-43 20 -87 20q-38 0 -54 -17.5t-16 -55.5v-119q64 78 154 78q70 0 110 -43z" />
    <glyph glyph-name="uni0267" unicode="&#x267;" horiz-adv-x="581" 
d="M469 501q40 -43 40 -118v-426q0 -85 -47.5 -130t-128.5 -45q-77 0 -129 41l45 76q20 -10 35.5 -15t36.5 -5q60 0 60 67v417q0 47 -16.5 66t-48.5 19t-59 -20.5t-52 -58.5v-369h-128v587q0 75 48.5 121.5t137.5 46.5q71 0 136 -31l-37 -86q-43 20 -87 20q-38 0 -54 -17.5
t-16 -55.5v-119q64 78 154 78q70 0 110 -43z" />
    <glyph glyph-name="uni0268" unicode="&#x268;" horiz-adv-x="322" 
d="M102.5 664q-22.5 22 -22.5 55t22.5 55.5t57.5 22.5q36 0 58.5 -22.5t22.5 -55.5t-22.5 -55t-58.5 -22q-35 0 -57.5 22zM312 328v-92h-87v-236h-128v236h-87v92h87v201h128v-201h87z" />
    <glyph glyph-name="uni0269" unicode="&#x269;" horiz-adv-x="295" 
d="M106.5 20.5q-34.5 35.5 -34.5 100.5v408h128v-404q0 -37 30 -37q13 0 30 5l27 -90q-40 -18 -85 -18q-61 0 -95.5 35.5z" />
    <glyph glyph-name="uni026A" unicode="&#x26a;" horiz-adv-x="335" 
d="M315 435h-84v-340h84v-95h-295v95h83v340h-83v94h295v-94z" />
    <glyph glyph-name="uni026B" unicode="&#x26b;" horiz-adv-x="426" 
d="M276 287v-162q0 -37 30 -37q15 0 30 5l27 -90q-40 -18 -85 -18q-61 0 -95.5 35.5t-34.5 100.5v222q-9 4 -20 4q-23 0 -38.5 -13.5t-31.5 -38.5l-71 36q57 113 150 113h11v297l128 14v-366q13 -5 24 -5q22 0 38 12.5t32 35.5l69 -37q-54 -109 -147 -109q-11 0 -16 1z" />
    <glyph glyph-name="uni026C" unicode="&#x26c;" horiz-adv-x="398" 
d="M367 3q-40 -18 -85 -18q-61 0 -95.5 35.5t-34.5 100.5v126q-75 2 -113.5 33.5t-38.5 85.5q0 51 33.5 80t84.5 29q18 0 34 -4v270l128 14v-432q25 1 73 11l12 -70q-50 -11 -85 -14v-125q0 -37 30 -37q15 0 30 5zM152 322v79q-12 3 -25 3q-17 0 -27 -9.5t-10 -27.5
q0 -45 62 -45z" />
    <glyph glyph-name="uni026D" unicode="&#x26d;" horiz-adv-x="282" 
d="M382 -177q-52 -41 -129 -41q-81 0 -128.5 45t-47.5 130v784l128 14v-809q0 -67 60 -67q21 0 36.5 5t35.5 15z" />
    <glyph glyph-name="uni026E" unicode="&#x26e;" horiz-adv-x="686" 
d="M605 154q58 -51 58 -148q0 -65 -31 -116t-88.5 -79.5t-135.5 -28.5q-126 0 -207 79l63 73q33 -27 65 -39.5t72 -12.5q61 0 94.5 33t33.5 97q0 63 -33 89.5t-106 26.5h-87v81l187 221h-290v-305q0 -37 30 -37q15 0 30 5l27 -90q-40 -18 -85 -18q-61 0 -95.5 35.5
t-34.5 100.5v620l128 14v-226h435v-91l-197 -228q109 -5 167 -56z" />
    <glyph glyph-name="uni026F" unicode="&#x26f;" horiz-adv-x="850" 
d="M773 529v-529h-111l-10 69q-60 -84 -153 -84q-46 0 -79.5 23.5t-48.5 65.5q-32 -43 -70.5 -66t-88.5 -23q-64 0 -102 43.5t-38 117.5v383h128v-363q0 -85 58 -85q31 0 53.5 19.5t46.5 60.5v368h128v-363q0 -85 58 -85q32 0 54.5 19.5t46.5 60.5v368h128z" />
    <glyph glyph-name="uni0270" unicode="&#x270;" horiz-adv-x="850" 
d="M773 529v-747l-128 14v263q-58 -74 -146 -74q-46 0 -79.5 23.5t-48.5 65.5q-32 -43 -70.5 -66t-88.5 -23q-64 0 -102 43.5t-38 117.5v383h128v-363q0 -85 58 -85q31 0 53.5 19.5t46.5 60.5v368h128v-363q0 -85 58 -85q32 0 54.5 19.5t46.5 60.5v368h128z" />
    <glyph glyph-name="uni0271" unicode="&#x271;" horiz-adv-x="850" 
d="M740 500.5q38 -43.5 38 -117.5v-426q0 -85 -47.5 -130t-128.5 -45q-75 0 -129 41l45 77q21 -11 36 -16t36 -5q60 0 60 67v417q0 85 -58 85q-31 0 -53.5 -19.5t-46.5 -60.5v-368h-128v363q0 85 -58 85q-32 0 -54.5 -19.5t-46.5 -60.5v-368h-128v529h111l10 -69
q60 84 153 84q46 0 79.5 -23.5t48.5 -65.5q32 43 70.5 66t88.5 23q64 0 102 -43.5z" />
    <glyph glyph-name="uni0272" unicode="&#x272;" horiz-adv-x="581" 
d="M469.5 501.5q39.5 -42.5 39.5 -118.5v-383h-128v363q0 47 -16.5 66t-48.5 19q-33 0 -59.5 -20.5t-51.5 -59.5v-411q0 -85 -47.5 -130t-128.5 -45q-77 0 -129 41l45 76q20 -10 35.5 -15t36.5 -5q60 0 60 67v583h111l10 -69q65 84 161 84q71 0 110.5 -42.5z" />
    <glyph glyph-name="uni0273" unicode="&#x273;" horiz-adv-x="581" 
d="M686 -177q-52 -41 -129 -41q-81 0 -128.5 45t-47.5 130v406q0 47 -16.5 66t-48.5 19q-33 0 -59.5 -20.5t-51.5 -59.5v-368h-128v529h111l10 -69q65 84 161 84q71 0 110.5 -42.5t39.5 -118.5v-437q0 -67 60 -67q21 0 36.5 5t35.5 15z" />
    <glyph glyph-name="uni0274" unicode="&#x274;" horiz-adv-x="591" 
d="M514 0h-157l-183 413q9 -58 13.5 -111.5t4.5 -124.5v-177h-115v529h156l184 -413q-9 52 -13.5 91t-4.5 97v225h115v-529z" />
    <glyph glyph-name="uni0275" unicode="&#x275;" horiz-adv-x="584" 
d="M475.5 469.5q65.5 -74.5 65.5 -204.5q0 -83 -30 -146.5t-86 -98.5t-133 -35q-117 0 -183 74.5t-66 205.5q0 83 30 146t86.5 98t133.5 35q117 0 182.5 -74.5zM176 309h232q-12 140 -115 140q-104 0 -117 -140zM409 229h-234q5 -76 34.5 -112t82.5 -36q107 0 117 148z" />
    <glyph glyph-name="uni0276" unicode="&#x276;" horiz-adv-x="761" 
d="M734 0h-356q-45 -15 -86 -15q-117 0 -183 74.5t-66 205.5q0 83 30 146t86.5 98t133.5 35q49 0 91 -15h349l-13 -91h-240q43 -53 55 -124h157v-91h-156q-10 -80 -61 -131h259v-92zM207 126.5q29 -44.5 86 -44.5q53 0 83.5 45.5t30.5 137.5t-30.5 137t-83.5 45
q-115 0 -115 -182q0 -94 29 -138.5z" />
    <glyph glyph-name="uni0277" unicode="&#x277;" horiz-adv-x="763" 
d="M632.5 464q87.5 -80 87.5 -223q0 -128 -53.5 -192t-139.5 -64q-122 0 -145 118q-15 -62 -51 -90t-99 -28q-85 0 -137 63t-52 193q0 142 88.5 222.5t251.5 80.5q162 0 249.5 -80zM593 245q0 99 -49 152.5t-161 53.5q-113 0 -163 -54t-50 -153q0 -84 20.5 -123t61.5 -39
q34 0 52 21t18 81v118l120 16v-134q0 -55 17.5 -78.5t50.5 -23.5q83 0 83 163z" />
    <glyph glyph-name="uni0278" unicode="&#x278;" horiz-adv-x="647" 
d="M550.5 79.5q-61.5 -66.5 -163.5 -75.5v-208l-128 -14v222q-103 9 -163.5 75.5t-60.5 183.5q0 121 61.5 187.5t162.5 74.5v215l128 13v-228q104 -9 164.5 -75t60.5 -183q0 -121 -61.5 -187.5zM268 92v346q-53 -7 -78.5 -49.5t-25.5 -125.5q0 -159 104 -171zM457 141
q26 43 26 126q0 159 -105 170v-345q53 6 79 49z" />
    <glyph glyph-name="uni0279" unicode="&#x279;" horiz-adv-x="394" 
d="M317 529v-529h-111l-12 104q-19 -57 -55 -87.5t-83 -30.5q-29 0 -53 7l22 124q24 -6 47 -6q47 0 74 33.5t43 102.5v282h128z" />
    <glyph glyph-name="uni027A" unicode="&#x27a;" horiz-adv-x="394" 
d="M317 741v-741h-111l-12 104q-19 -57 -55 -87.5t-83 -30.5q-29 0 -53 7l22 124q24 -6 47 -6q47 0 74 33.5t43 102.5v508z" />
    <glyph glyph-name="uni027B" unicode="&#x27b;" horiz-adv-x="394" 
d="M494 -177q-52 -41 -129 -41q-81 0 -128.5 45t-47.5 130v133q-20 -50 -54.5 -77t-78.5 -27q-23 0 -53 7l22 125q22 -7 47 -7q47 0 74 33.5t43 102.5v282h128v-583q0 -67 60 -67q21 0 36.5 5t35.5 15z" />
    <glyph glyph-name="uni027C" unicode="&#x27c;" horiz-adv-x="394" 
d="M391 536l-22 -124q-24 6 -47 6q-47 0 -74 -33.5t-43 -102.5v-486l-128 -14v747h111l12 -104q19 57 55 87.5t83 30.5q29 0 53 -7z" />
    <glyph glyph-name="uni027D" unicode="&#x27d;" horiz-adv-x="394" 
d="M301.5 -116q15.5 5 35.5 15l45 -76q-52 -41 -129 -41q-81 0 -128.5 45t-47.5 130v572h111l12 -104q19 57 55 87.5t83 30.5q29 0 53 -7l-22 -124q-24 6 -47 6q-47 0 -74 -33.5t-43 -102.5v-336q0 -67 60 -67q21 0 36.5 5z" />
    <glyph glyph-name="uni027E" unicode="&#x27e;" horiz-adv-x="381" 
d="M377 505l-45 -76q-20 10 -35.5 15t-36.5 5q-60 0 -60 -67v-382h-128v371q0 85 47.5 130t128.5 45q77 0 129 -41z" />
    <glyph glyph-name="uni027F" unicode="&#x27f;" horiz-adv-x="381" 
d="M261.5 501q47.5 -45 47.5 -130v-371h-128v382q0 67 -60 67q-21 0 -36.5 -5t-35.5 -15l-45 76q52 41 129 41q81 0 128.5 -45z" />
    <glyph glyph-name="uni0280" unicode="&#x280;" horiz-adv-x="529" 
d="M258 192h-56v-192h-125v529h169q111 0 169.5 -42.5t58.5 -125.5q0 -52 -25.5 -90.5t-74.5 -59.5l137 -211h-138zM202 276h52q47 0 69.5 19.5t22.5 65.5q0 43 -25 62t-77 19h-42v-166z" />
    <glyph glyph-name="uni0281" unicode="&#x281;" horiz-adv-x="529" 
d="M449 263q25 -38 25 -90q0 -87 -58.5 -130t-169.5 -43h-169v529h125v-191h57l114 191h138l-136 -209q49 -19 74 -57zM321.5 107q24.5 19 24.5 66q0 43 -23 62t-69 19h-52v-166h42q53 0 77.5 19z" />
    <glyph glyph-name="uni0282" unicode="&#x282;" horiz-adv-x="476" 
d="M131 4v-58q0 -67 66 -67q23 0 40 5.5t38 16.5l45 -78q-55 -40 -131 -40q-82 0 -128 44.5t-46 129.5v103l55 62q67 -42 152 -42q43 0 69 17t26 45q0 24 -9.5 37.5t-34 24.5t-76.5 26q-81 22 -119 61.5t-38 98.5q0 44 25.5 79t72 55t106.5 20q107 0 188 -63l-50 -77
q-66 45 -130 45q-40 0 -61.5 -14.5t-21.5 -38.5q0 -18 9 -30t32.5 -22.5t69.5 -23.5q86 -23 127.5 -61t41.5 -106q0 -53 -29 -91t-78 -57.5t-106 -19.5q-61 0 -105 19z" />
    <glyph glyph-name="uni0283" unicode="&#x283;" horiz-adv-x="282" 
d="M374 717l-41 -80q-19 11 -35 16t-36 5q-57 0 -57 -68v-633q0 -85 -47.5 -130t-128.5 -45q-77 0 -129 41l45 76q20 -10 35.5 -15t36.5 -5q60 0 60 67v638q0 80 45 125.5t126 45.5q70 0 126 -38z" />
    <glyph glyph-name="uni0284" unicode="&#x284;" horiz-adv-x="323" 
d="M312 92v-92h-88q-7 -61 -31 -101t-62 -66t-97 -50l-40 89q52 24 76 50t27 78h-88v92h89v492q0 80 45 125.5t126 45.5q70 0 126 -38l-41 -80q-19 11 -35 16t-36 5q-57 0 -57 -68v-498h86z" />
    <glyph glyph-name="uni0285" unicode="&#x285;" horiz-adv-x="464" 
d="M469 26q-52 -41 -129 -41q-81 0 -128.5 45t-47.5 130v219q0 68 -57 68q-20 0 -36 -5t-35 -16l-41 80q56 38 126 38q81 0 126 -45.5t45 -125.5v-224q0 -67 60 -67q21 0 36.5 5t35.5 15z" />
    <glyph glyph-name="uni0286" unicode="&#x286;" horiz-adv-x="323" 
d="M246 590v-61l1 -520v-15q56 -16 105 -40l-26 -58q-42 18 -87 31q-33 -145 -185 -145q-65 0 -102 30.5t-37 82.5q0 59 41 91.5t112 32.5q22 0 50 -2v567q0 80 45 125.5t126 45.5q70 0 126 -38l-41 -80q-19 11 -35 16t-36 5q-57 0 -57 -68zM100 -122.5q16 21.5 18 71.5
q-42 3 -50 3q-34 0 -51.5 -13.5t-17.5 -38.5q0 -44 49 -44q36 0 52 21.5z" />
    <glyph glyph-name="uni0287" unicode="&#x287;" horiz-adv-x="375" 
d="M370 0h-83v-117l-128 -15v132h-123l13 92h110v276q0 39 -13.5 56t-42.5 17t-63 -19l-45 82q28 20 62.5 30t70.5 10q78 -1 118.5 -44.5t40.5 -128.5v-279h83v-92z" />
    <glyph glyph-name="uni0288" unicode="&#x288;" horiz-adv-x="375" 
d="M393 -177q-52 -41 -129 -41q-81 0 -128.5 45t-47.5 130v480h-83v92h83v117l128 15v-132h123l-13 -92h-110v-491q0 -67 60 -67q21 0 36.5 5t35.5 15z" />
    <glyph glyph-name="uni0289" unicode="&#x289;" horiz-adv-x="612" 
d="M596 306h-80v-306h-111l-7 74q-29 -45 -68.5 -67t-93.5 -22q-71 0 -109.5 43.5t-38.5 120.5v157h-80v85h80v138h128v-138h172v138h128v-138h80v-85zM388 306h-172v-141q0 -45 15.5 -64t49.5 -19q61 0 107 75v149z" />
    <glyph glyph-name="uni028A" unicode="&#x28a;" horiz-adv-x="583" 
d="M159 17q-56 32 -86 88t-30 126q0 67 25 117t72 89h-83v92h185v-87q-31 -36 -48.5 -83.5t-17.5 -117.5q0 -79 29.5 -120t85.5 -41q57 0 86.5 41t29.5 120q0 70 -17.5 117t-48.5 84v87h184v-92h-82q47 -39 72 -89t25 -117q0 -69 -30 -125t-86.5 -88.5t-132.5 -32.5t-132 32
z" />
    <glyph glyph-name="uni028B" unicode="&#x28b;" horiz-adv-x="574" 
d="M127.5 32.5q-55.5 47.5 -55.5 136.5v360h128v-352q0 -95 75 -95q49 0 80 40t31 132v154q0 19 -7 28t-23 9q-15 0 -28 -5l-24 88q35 16 79 16q61 0 96 -36t35 -106v-144q0 -94 -33.5 -155t-89 -89.5t-124.5 -28.5q-84 0 -139.5 47.5z" />
    <glyph glyph-name="uni028C" unicode="&#x28c;" horiz-adv-x="504" 
d="M2 0l172 529h153l175 -529h-139l-113 426l-116 -426h-132z" />
    <glyph glyph-name="uni028D" unicode="&#x28d;" horiz-adv-x="734" 
d="M11 0l115 529h160l80 -415l82 415h157l117 -529h-128l-74 435l-92 -435h-131l-84 435l-79 -435h-123z" />
    <glyph glyph-name="uni028E" unicode="&#x28e;" horiz-adv-x="506" 
d="M173 531q34 106 97.5 160.5t177.5 63.5l12 -90q-53 -7 -85 -22.5t-51 -42t-34 -71.5h46l169 -529h-136l-116 444l-119 -444h-132z" />
    <glyph glyph-name="uni028F" unicode="&#x28f;" horiz-adv-x="480" 
d="M487 529l-183 -334v-195h-128v194l-183 335h137l112 -249l112 249h133z" />
    <glyph glyph-name="uni0290" unicode="&#x290;" horiz-adv-x="449" 
d="M603 -177q-54 -41 -129 -41q-80 0 -125.5 45t-45.5 130v43h-285v92l257 337h-235v100h381v-92l-256 -337h261v-154q0 -67 60 -67q21 0 36 5t36 16z" />
    <glyph glyph-name="uni0291" unicode="&#x291;" horiz-adv-x="502" 
d="M321 0q-4 -28 -4 -87v-38h-81q0 76 5 125h-223v92l257 337h-235v100h381v-89l-259 -340h94q32 142 150 142q50 0 82 -28.5t32 -78.5q0 -133 -199 -135zM360 153.5q-15 -15.5 -23 -53.5q49 1 69 9t20 31q0 29 -30 29q-21 0 -36 -15.5z" />
    <glyph glyph-name="uni0292" unicode="&#x292;" horiz-adv-x="497" 
d="M415 155.5q58 -50.5 58 -147.5q0 -66 -31 -117t-88.5 -80t-135.5 -29q-74 0 -129 24.5t-96 72.5l71 67q35 -34 69.5 -49t78.5 -15q60 0 93.5 33.5t33.5 98.5q0 61 -33 87.5t-106 26.5h-86v81l186 221h-271v99h416v-91l-197 -228q109 -4 167 -54.5z" />
    <glyph glyph-name="uni0293" unicode="&#x293;" horiz-adv-x="497" 
d="M430 -124.5q-43 -55.5 -126 -78.5l25 -54l-72 -28l-31 68q-13 -1 -39 -1q-105 0 -160.5 37.5t-55.5 106.5q0 54 34.5 86t88.5 32q58 0 94 -34t71 -119q41 13 60.5 43t19.5 80q0 64 -33 91t-106 27h-86v80l187 218h-272v99h416v-91l-198 -225q110 -3 168 -54.5t58 -149.5
q0 -78 -43 -133.5zM92 -107q26 -11 91 -11q-23 50 -39 67.5t-40 17.5q-18 0 -28 -9.5t-10 -26.5q0 -27 26 -38z" />
    <glyph glyph-name="uni0294" unicode="&#x294;" horiz-adv-x="461" 
d="M131 351l51 15q61 19 92.5 54.5t31.5 101.5q0 65 -30 100.5t-88 35.5q-38 0 -70 -14.5t-66 -44.5l-65 67q47 45 98.5 67t116.5 22q72 0 125.5 -29t82.5 -81t29 -121q0 -93 -44 -141.5t-119 -74.5l-17 -6v-302h-128v351z" />
    <glyph glyph-name="uni0295" unicode="&#x295;" horiz-adv-x="462" 
d="M203 0v302l-17 6q-76 26 -120 74.5t-44 141.5q0 68 30.5 120.5t85.5 81.5t126 29q63 0 114 -22t97 -67l-65 -67q-34 30 -65 44.5t-69 14.5q-57 0 -89 -36t-32 -101t31.5 -100.5t93.5 -54.5l51 -15v-351h-128z" />
    <glyph glyph-name="uni0296" unicode="&#x296;" horiz-adv-x="513" 
d="M279 753v-314l28 -5q72 -19 117 -71.5t45 -145.5q0 -68 -29.5 -120t-83.5 -81.5t-125 -29.5q-64 0 -116 22t-99 67l66 67q33 -30 65.5 -44.5t70.5 -14.5q58 0 88 35.5t30 100.5q0 67 -30 104t-93 53l-62 14v350z" />
    <glyph glyph-name="uni0297" unicode="&#x297;" horiz-adv-x="491" 
d="M475 482l-55 -75q-26 19 -50.5 27.5t-52.5 8.5q-61 0 -93 -67t-32 -215q0 -147 31 -210.5t91 -63.5q27 0 51 9t53 29l57 -81q-76 -60 -164 -60q-122 0 -188.5 96t-66.5 279q0 184 67.5 284.5t190.5 100.5q92 0 161 -62z" />
    <glyph glyph-name="uni0298" unicode="&#x298;" horiz-adv-x="795" 
d="M582 662.5q80 -43.5 125 -124.5t45 -192q0 -108 -45 -190t-125.5 -126.5t-183.5 -44.5q-104 0 -184.5 43.5t-125.5 125t-45 192.5q0 107 45 189t126 126.5t184 44.5q104 0 184 -43.5zM229.5 545.5q-61.5 -66.5 -61.5 -199.5q0 -134 62 -200.5t168 -66.5q108 0 168.5 66
t60.5 201q0 133 -61.5 199.5t-167.5 66.5q-107 0 -168.5 -66.5zM454 398q21 -21 21 -52q0 -30 -21 -51t-54 -21t-54 21t-21 51q0 31 21 52t54 21t54 -21z" />
    <glyph glyph-name="uni0299" unicode="&#x299;" 
d="M517 162q0 -82 -62.5 -122t-168.5 -40h-209v523q107 21 193 21q103 0 162 -37t59 -107q0 -45 -28 -73t-82 -38q136 -15 136 -127zM205 452v-134h76q83 0 83 71q0 68 -95 68q-27 0 -64 -5zM384 170q0 37 -23 54.5t-76 17.5h-80v-153h78q101 0 101 81z" />
    <glyph glyph-name="uni029A" unicode="&#x29a;" horiz-adv-x="571" 
d="M106.5 30q-63.5 45 -63.5 124q0 57 35 87.5t104 41.5q-112 28 -112 114q0 67 57.5 107t147.5 40q79 0 136 -35t87 -98t30 -146q0 -133 -65 -206.5t-190 -73.5q-103 0 -166.5 45zM369.5 123.5q27.5 43.5 27.5 141.5q0 96 -30 141.5t-90 45.5q-36 0 -57.5 -17t-21.5 -47
q0 -35 26 -52.5t69 -17.5h17l8 -88h-36q-51 0 -79.5 -16t-28.5 -54q0 -41 27 -60.5t74 -19.5q67 0 94.5 43.5z" />
    <glyph glyph-name="uni029B" unicode="&#x29b;" 
d="M669 717l-41 -80q-19 11 -34.5 16t-36.5 5q-57 0 -57 -68v-115l-58 -64q-34 19 -63 28t-67 9q-62 0 -98.5 -46t-36.5 -135q0 -100 30 -143t88 -43q47 0 87 18v117h-81l-13 89h216v-260q-94 -58 -210 -58q-122 0 -186.5 71t-64.5 209q0 83 34.5 146t93 97t127.5 34
q46 0 84 -15v62q0 79 42 121.5t120 42.5q69 0 125 -38z" />
    <glyph glyph-name="uni029C" unicode="&#x29c;" horiz-adv-x="589" 
d="M384 0v221h-179v-221h-128v529h128v-211h179v211h128v-529h-128z" />
    <glyph glyph-name="uni029D" unicode="&#x29d;" horiz-adv-x="325" 
d="M326 -104q-42 18 -87 31q-31 -145 -185 -145q-65 0 -102 30.5t-37 82.5q0 59 41 91.5t112 32.5q23 0 51 -2v512h128v-517v-18q56 -16 105 -40zM99.5 -122q16.5 22 18.5 70q-26 4 -50 4q-34 0 -51.5 -13.5t-17.5 -38.5q0 -44 49 -44q35 0 51.5 22zM240.5 774.5
q22.5 -22.5 22.5 -55.5t-22.5 -55t-58.5 -22q-35 0 -57.5 22t-22.5 55t22.5 55.5t57.5 22.5q36 0 58.5 -22.5z" />
    <glyph glyph-name="uni029E" unicode="&#x29e;" horiz-adv-x="534" 
d="M12 0l176 233l-193 296h147l181 -289l-176 -240h-135zM329 -204v733h128v-747z" />
    <glyph glyph-name="uni029F" unicode="&#x29f;" horiz-adv-x="444" 
d="M205 529v-427h227l-14 -102h-341v529h128z" />
    <glyph glyph-name="uni02A0" unicode="&#x2a0;" horiz-adv-x="599" 
d="M691 717l-41 -80q-19 11 -35 16t-36 5q-57 0 -57 -68v-808l-128 14v263q-25 -35 -62 -54.5t-83 -19.5q-97 0 -149 75t-52 204q0 81 26 145t73.5 99.5t111.5 35.5q84 0 135 -64v104q0 80 45 125.5t126 45.5q70 0 126 -38zM345 98.5q26 16.5 49 51.5v242q-23 28 -46.5 42
t-53.5 14q-52 0 -81.5 -45.5t-29.5 -137.5q0 -98 26 -140.5t76 -42.5q34 0 60 16.5z" />
    <glyph glyph-name="uni02A1" unicode="&#x2a1;" horiz-adv-x="461" 
d="M259 302v-83h102v-82h-102v-137h-128v137h-67v82h67v132l51 15q61 19 92.5 54.5t31.5 101.5q0 65 -30 100.5t-88 35.5q-38 0 -70 -14.5t-66 -44.5l-65 67q47 45 98.5 67t116.5 22q72 0 125.5 -29t82.5 -81t29 -121q0 -93 -44 -141.5t-119 -74.5z" />
    <glyph glyph-name="uni02A2" unicode="&#x2a2;" horiz-adv-x="462" 
d="M187 622q-32 -36 -32 -101t31.5 -100.5t93.5 -54.5l51 -15v-132h67v-82h-67v-137h-128v137h-102v82h102v83l-17 6q-76 26 -120 74.5t-44 141.5q0 68 30.5 120.5t85.5 81.5t126 29q63 0 114 -22t97 -67l-65 -67q-34 30 -65 44.5t-69 14.5q-57 0 -89 -36z" />
    <glyph glyph-name="uni02A3" unicode="&#x2a3;" horiz-adv-x="951" 
d="M928 100l-13 -100h-506l-9 67q-25 -38 -63.5 -60t-87.5 -22q-97 0 -149 75t-52 204q0 81 26 144.5t74.5 99.5t112.5 36q76 0 133 -57v268l128 -14v-212h402v-92l-263 -337h267zM345 98.5q26 16.5 49 51.5v242q-23 28 -46.5 42t-54.5 14q-51 0 -80.5 -45.5t-29.5 -137.5
q0 -98 26 -140.5t76 -42.5q34 0 60 16.5zM522 429v-337l262 337h-262z" />
    <glyph glyph-name="uni02A4" unicode="&#x2a4;" horiz-adv-x="989" 
d="M907 155.5q58 -50.5 58 -147.5q0 -66 -31 -117t-88.5 -80t-135.5 -29q-74 0 -129 24.5t-96 72.5l71 67q35 -34 69.5 -49t78.5 -15q60 0 93.5 33.5t33.5 98.5q0 61 -33 87.5t-106 26.5h-86v81l186 221h-270v-430h-113l-9 67q-25 -38 -63.5 -60t-87.5 -22q-97 0 -149 75
t-52 204q0 81 26 144.5t74.5 99.5t112.5 36q76 0 133 -57v268l128 -14v-212h415v-91l-197 -228q109 -4 167 -54.5zM345 98.5q26 16.5 49 51.5v242q-23 28 -46.5 42t-54.5 14q-51 0 -80.5 -45.5t-29.5 -137.5q0 -98 26 -140.5t76 -42.5q34 0 60 16.5z" />
    <glyph glyph-name="uni02A5" unicode="&#x2a5;" horiz-adv-x="1004" 
d="M823 0q-5 -39 -5 -125h-80q0 76 5 125h-334l-9 67q-25 -38 -63.5 -60t-87.5 -22q-97 0 -149 75t-52 204q0 81 26 144.5t74.5 99.5t112.5 36q76 0 133 -57v268l128 -14v-212h401v-89l-263 -340h98q32 142 149 142q50 0 82.5 -28.5t32.5 -78.5q0 -133 -199 -135zM345 98.5
q26 16.5 49 51.5v242q-23 28 -46.5 42t-54.5 14q-51 0 -80.5 -45.5t-29.5 -137.5q0 -98 26 -140.5t76 -42.5q34 0 60 16.5zM522 429v-334l258 334h-258zM907.5 109.5q20.5 8.5 20.5 30.5q0 29 -30 29q-21 0 -36 -15.5t-23 -53.5q48 1 68.5 9.5z" />
    <glyph glyph-name="uni02A6" unicode="&#x2a6;" horiz-adv-x="722" 
d="M659 257.5q36 -37.5 36 -96.5q0 -85 -79 -130.5t-221 -45.5q-157 0 -232 57t-75 173v222h-83v92h83v117l128 15v-132h100l-14 -92h-86v-219q0 -72 41 -104t139 -32q87 0 126.5 17t39.5 53q0 27 -18 44.5t-77 34.5q-83 26 -115 62t-32 96q0 44 24 79.5t67.5 55.5t98.5 20
q99 0 175 -62l-47 -73q-64 40 -123 40q-32 0 -52 -14.5t-20 -39.5q0 -24 20.5 -40t80.5 -35q79 -25 115 -62.5z" />
    <glyph glyph-name="uni02A7" unicode="&#x2a7;" horiz-adv-x="584" 
d="M676 717l-41 -80q-19 11 -35 16t-36 5q-57 0 -57 -68v-633q0 -85 -47.5 -130t-128.5 -45q-77 0 -129 41l45 76q20 -10 35.5 -15t36.5 -5q60 0 60 67v59q-53 -20 -108 -20q-92 1 -137.5 45.5t-45.5 134.5v272h-83v92h83v117l128 15v-132h163v55q0 80 45 125.5t126 45.5
q70 0 126 -38zM379 97v340h-163v-270q0 -43 17.5 -61t57.5 -18q38 0 88 9z" />
    <glyph glyph-name="uni02A8" unicode="&#x2a8;" horiz-adv-x="794" 
d="M745 214.5q34 -30.5 34 -83.5q0 -70 -51.5 -108t-131.5 -38q-103 0 -169 57q-51 -30 -91 -43.5t-82 -13.5q-166 1 -166 173v279h-83v92h83v117l128 15v-132h123l-13 -92h-110v-276q0 -39 15 -56t51 -17q42 0 93 21q-33 63 -33 151q0 84 30 148.5t86 100t131 35.5
q52 0 93.5 -15t78.5 -47l-58 -78q-26 20 -51 29.5t-54 9.5q-120 0 -120 -181q0 -53 10 -89q43 37 83.5 54.5t85.5 17.5q54 0 88 -30.5zM682 133q0 35 -36 35q-24 0 -51 -13t-69 -46q32 -26 85 -26q71 0 71 50z" />
    <glyph glyph-name="uni02A9" unicode="&#x2a9;" horiz-adv-x="878" 
d="M766.5 501.5q39.5 -42.5 39.5 -118.5v-426q0 -85 -47.5 -130t-128.5 -45q-77 0 -129 41l45 76q20 -10 35.5 -15t36.5 -5q60 0 60 67v417q0 47 -16.5 66t-48.5 19q-33 0 -59.5 -20.5t-51.5 -59.5v-368h-128v437h-154v-437h-128v437h-86v92h86v58q0 75 48.5 121.5
t137.5 46.5q70 0 137 -31l-37 -86q-43 20 -87 20q-38 0 -54.5 -17.5t-16.5 -55.5v-56h265l10 -69q65 84 161 84q71 0 110.5 -42.5z" />
    <glyph glyph-name="uni02AA" unicode="&#x2aa;" horiz-adv-x="678" 
d="M72 205v536l128 14v-554q0 -63 36.5 -91t118.5 -28q89 0 129.5 17t40.5 53q0 18 -7 30t-29 24t-66 25q-83 26 -115 62t-32 96q0 44 24 79.5t67.5 55.5t99.5 20q98 0 174 -62l-47 -73q-64 40 -123 40q-32 0 -51.5 -14.5t-19.5 -39.5t20.5 -40.5t80.5 -34.5
q79 -25 114.5 -62.5t35.5 -96.5q0 -86 -77 -131t-219 -45q-283 0 -283 220z" />
    <glyph glyph-name="uni02AB" unicode="&#x2ab;" horiz-adv-x="689" 
d="M653 0h-374q-37 -15 -77 -15q-61 0 -95.5 35.5t-34.5 100.5v620l128 14v-630q0 -37 30 -37q15 0 30 5l255 336h-234v100h381v-92l-260 -337h264z" />
    <glyph glyph-name="uni02AC" unicode="&#x2ac;" horiz-adv-x="468" 
d="M438 666l-64 -266h-96l-41 194l-43 -194h-98l-66 266h81l38 -203l46 203h87l42 -204l39 204h75zM438 266l-64 -266h-96l-41 194l-43 -194h-98l-66 266h81l38 -203l46 203h87l42 -204l39 204h75z" />
    <glyph glyph-name="uni02AD" unicode="&#x2ad;" horiz-adv-x="354" 
d="M30 400v157h294v-157h-80v86h-134v-86h-80zM30 0v157h294v-157h-80v86h-134v-86h-80z" />
    <glyph glyph-name="uni02AE" unicode="&#x2ae;" horiz-adv-x="690" 
d="M613 529v-747l-128 14v268q-63 -79 -154 -79q-70 0 -110 43t-40 118v236q0 67 -60 67q-21 0 -36.5 -5t-35.5 -15l-45 76q52 41 129 41q81 0 128.5 -45t47.5 -130v-204q0 -47 17 -66t49 -19q61 0 110 78v369h128z" />
    <glyph glyph-name="uni02AF" unicode="&#x2af;" horiz-adv-x="690" 
d="M790 -177q-52 -41 -129 -41q-81 0 -128.5 45t-47.5 130v107q-63 -79 -154 -79q-70 0 -110 43t-40 118v236q0 67 -60 67q-21 0 -36.5 -5t-35.5 -15l-45 76q52 41 129 41q81 0 128.5 -45t47.5 -130v-204q0 -47 17 -66t49 -19q61 0 110 78v369h128v-583q0 -67 60 -67
q21 0 36.5 5t35.5 15z" />
    <glyph glyph-name="uni02B0" unicode="&#x2b0;" horiz-adv-x="311" 
d="M258.5 652.5q22.5 -20.5 22.5 -59.5v-193h-81v177q0 20 -7.5 27.5t-21.5 7.5q-16 0 -28.5 -7t-32.5 -23v-182h-80v372l80 9v-144q36 36 87 36q39 0 61.5 -20.5z" />
    <glyph glyph-name="uni02B1" unicode="&#x2b1;" horiz-adv-x="311" 
d="M258.5 652.5q22.5 -20.5 22.5 -59.5v-193h-81v177q0 20 -7.5 27.5t-21.5 7.5q-16 0 -28.5 -7t-32.5 -23v-182h-80v293q0 38 28.5 62t79.5 24q19 0 41.5 -4.5t39.5 -11.5l-23 -53q-27 8 -49 8q-19 0 -28 -6.5t-9 -24.5v-50q36 36 87 36q39 0 61.5 -20.5z" />
    <glyph glyph-name="uni02B2" unicode="&#x2b2;" horiz-adv-x="207" 
d="M164 793q13 -13 13 -33q0 -19 -13 -32.5t-36 -13.5q-21 0 -35.5 13.5t-14.5 32.5t14.5 32.5t35.5 13.5q23 0 36 -13zM168 426q0 -60 -28.5 -88.5t-86.5 -46.5l-23 53q33 17 45.5 32.5t12.5 48.5v240h80v-239z" />
    <glyph glyph-name="uni02B4" unicode="&#x2b4;" horiz-adv-x="245" 
d="M215 666v-266h-61l-14 56q-10 -30 -29.5 -46.5t-47.5 -16.5q-21 0 -33 5l13 74q11 -4 27 -4q26 0 40.5 19t24.5 57v122h80z" />
    <glyph glyph-name="uni02B7" unicode="&#x2b7;" horiz-adv-x="468" 
d="M438 666l-64 -266h-96l-41 194l-43 -194h-98l-66 266h81l38 -203l46 203h87l42 -204l39 204h75z" />
    <glyph glyph-name="uni02B8" unicode="&#x2b8;" horiz-adv-x="351" 
d="M219 397q-20 -52 -55 -78t-99 -33l-10 55q42 8 61 20t33 39h-26l-93 266h84l59 -215l68 215h80z" />
    <glyph glyph-name="uni02B9" unicode="&#x2b9;" horiz-adv-x="312" 
d="M53 420l83 271h123l-117 -271h-89z" />
    <glyph glyph-name="uni02BA" unicode="&#x2ba;" horiz-adv-x="486" 
d="M53 420l83 271h123l-117 -271h-89zM227 420l83 271h123l-117 -271h-89z" />
    <glyph glyph-name="uni02BB" unicode="&#x2bb;" horiz-adv-x="220" 
d="M51.5 607.5q-21.5 20.5 -21.5 51.5q0 16 5 33t18 45l65 136h72l-41 -154q32 -22 32 -60q0 -31 -22 -51.5t-54 -20.5t-53.5 20.5z" />
    <glyph glyph-name="uni02BC" unicode="&#x2bc;" horiz-adv-x="236" 
d="M173.5 739.5q21.5 -20.5 21.5 -51.5q0 -16 -5 -33t-18 -45l-65 -136h-72l41 154q-32 22 -32 60q0 31 22 51.5t54 20.5t53.5 -20.5z" />
    <glyph glyph-name="uni02BF" unicode="&#x2bf;" horiz-adv-x="188" 
d="M158 681q-23 0 -36 13.5t-13 38.5t13 39t36 14v67q-57 0 -92.5 -34.5t-35.5 -85.5q0 -50 35.5 -85t92.5 -35v68z" />
    <glyph glyph-name="uni02C0" unicode="&#x2c0;" horiz-adv-x="279" 
d="M84 705q38 3 54.5 11t16.5 29q0 17 -11 25t-31 8q-28 0 -59 -13l-24 59q43 25 102 25q56 0 86.5 -26t30.5 -70q0 -38 -21.5 -60.5t-61.5 -29.5v-55h-82v97z" />
    <glyph glyph-name="circumflex" unicode="&#x2c6;" horiz-adv-x="418" 
d="M79 627l-49 55l138 126h81l139 -126l-49 -55l-130 88z" />
    <glyph glyph-name="caron" unicode="&#x2c7;" horiz-adv-x="418" 
d="M339 800l49 -56l-139 -125h-80l-139 125l49 56l130 -88z" />
    <glyph glyph-name="uni02C8" unicode="&#x2c8;" horiz-adv-x="175" 
d="M30 623v248h115v-248h-115z" />
    <glyph glyph-name="uni02CA" unicode="&#x2ca;" horiz-adv-x="322" 
d="M240 820l52 -100l-226 -90l-36 65z" />
    </font>
</defs>
</svg>
