<?xml version="1.0" standalone="no"?>
<!DOCTYPE svg PUBLIC "-//W3C//DTD SVG 1.1//EN" "http://www.w3.org/Graphics/SVG/1.1/DTD/svg11.dtd" >
<svg xmlns="http://www.w3.org/2000/svg" xmlns:xlink="http://www.w3.org/1999/xlink" version="1.1">
<metadata>
Created by FontForge 20170731 at Fri Dec  2 11:32:35 2016
 By Aleksey,,,
Digitized data copyright 2012-2016, The Mozilla Foundation and Telefonica S.A.
</metadata>
<defs>
<font id="FiraSans-Regular" horiz-adv-x="560" >
  <font-face 
    font-family="Fira Sans"
    font-weight="400"
    font-stretch="normal"
    units-per-em="1000"
    panose-1="2 11 5 3 5 0 0 2 0 4"
    ascent="800"
    descent="-200"
    x-height="527"
    cap-height="689"
    bbox="-756 -353 1360 1104"
    underline-thickness="50"
    underline-position="-150"
    unicode-range="U+000D-FEFF"
  />
<missing-glyph horiz-adv-x="666" 
d="M543 1050v-1400h-420v1400h420zM489 998h-311v-1296h311v1296zM409.5 419q25.5 -32 25.5 -83q0 -53 -22.5 -82t-72.5 -36v-45q0 -11 -7.5 -17.5t-17.5 -6.5t-17.5 6.5t-7.5 17.5v84q53 3 72 19.5t19 57.5q0 33 -13 51t-48 18q-29 0 -52 -11q-8 -3 -13 -3q-11 0 -17.5 6.5
t-6.5 16.5q0 19 29.5 29t63.5 10q60 0 85.5 -32zM340 110q10 -10 10 -25q0 -16 -10 -26.5t-25 -10.5t-25 10.5t-10 26.5q0 15 10 25t25 10t25 -10z" />
    <glyph glyph-name="fi" unicode="fi" horiz-adv-x="575" 
d="M352.5 741q34.5 -9 69.5 -27l-32 -64q-52 25 -111 25q-53 0 -73 -19t-20 -59v-70h294v-527h-92v456h-202v-456h-92v456h-84v71h84v69q0 70 45 112t137 42q42 0 76.5 -9z" />
    <glyph glyph-name="fl" unicode="fl" horiz-adv-x="592" 
d="M572 6q-37 -18 -78 -18q-51 0 -78 29.5t-27 86.5v555q-31 9 -57 13t-58 4q-49 0 -68.5 -18t-19.5 -58v-73h128l-10 -71h-118v-456h-92v456h-84v71h84v72q0 69 44.5 110t129.5 41q34 0 61.5 -5t60.5 -15l91 12v-636q0 -21 7.5 -31.5t25.5 -10.5q19 0 34 6z" />
    <glyph glyph-name=".notdef" horiz-adv-x="666" 
d="M543 1050v-1400h-420v1400h420zM489 998h-311v-1296h311v1296zM409.5 419q25.5 -32 25.5 -83q0 -53 -22.5 -82t-72.5 -36v-45q0 -11 -7.5 -17.5t-17.5 -6.5t-17.5 6.5t-7.5 17.5v84q53 3 72 19.5t19 57.5q0 33 -13 51t-48 18q-29 0 -52 -11q-8 -3 -13 -3q-11 0 -17.5 6.5
t-6.5 16.5q0 19 29.5 29t63.5 10q60 0 85.5 -32zM340 110q10 -10 10 -25q0 -16 -10 -26.5t-25 -10.5t-25 10.5t-10 26.5q0 15 10 25t25 10t25 -10z" />
    <glyph glyph-name=".null" horiz-adv-x="0" 
 />
    <glyph glyph-name="nonmarkingreturn" unicode="&#xd;" horiz-adv-x="265" 
 />
    <glyph glyph-name="space" unicode=" " horiz-adv-x="265" 
 />
    <glyph glyph-name="exclam" unicode="!" horiz-adv-x="241" 
d="M170 689l-10 -459h-81l-11 459h102zM170 107q20 -20 20 -49t-20 -49.5t-50 -20.5q-29 0 -49 20.5t-20 49.5t20 49t49 20q30 0 50 -20z" />
    <glyph glyph-name="quotedbl" unicode="&#x22;" horiz-adv-x="399" 
d="M75 427l-15 262h99l-15 -262h-69zM255 427l-15 262h99l-15 -262h-69z" />
    <glyph glyph-name="numbersign" unicode="#" horiz-adv-x="518" 
d="M503 447h-76l-28 -215h67v-69h-77l-21 -163h-78l21 163h-154l-21 -163h-78l21 163h-64v69h74l28 215h-65v70h74l20 152h78l-20 -152h154l20 152h78l-20 -152h67v-70zM321 232l28 215h-154l-28 -215h154z" />
    <glyph glyph-name="dollar" unicode="$" horiz-adv-x="531" 
d="M443 58q-48 -52 -133 -66v-147h-80v144q-123 6 -205 86l54 59q72 -70 172 -70q63 0 103.5 31t40.5 88q0 33 -12.5 55t-43.5 39t-89 35q-103 32 -150.5 75.5t-47.5 117.5q0 70 49 117t129 56v146h80v-147q48 -5 86.5 -23.5t73.5 -51.5l-53 -58q-34 32 -70.5 46t-79.5 14
q-53 0 -86.5 -24.5t-33.5 -70.5q0 -29 12 -48.5t43 -36t91 -35.5q63 -19 105 -42t67.5 -62t25.5 -99q0 -76 -48 -128z" />
    <glyph glyph-name="percent" unicode="%" horiz-adv-x="826" 
d="M613 711l64 -42l-463 -700l-64 42zM324.5 633q45.5 -46 45.5 -123t-45.5 -123t-117.5 -46q-71 0 -116.5 46t-45.5 123t45.5 123t116.5 46q72 0 117.5 -46zM144.5 587q-18.5 -30 -18.5 -77q0 -46 18.5 -76.5t62.5 -30.5q81 0 81 107q0 46 -18 76.5t-63 30.5
q-44 0 -62.5 -30zM736 280q45 -46 45 -123t-45 -123t-117 -46t-117.5 46t-45.5 123t45.5 123t117.5 46t117 -46zM556.5 233.5q-18.5 -29.5 -18.5 -76.5q0 -46 18.5 -76.5t62.5 -30.5q81 0 81 107q0 46 -18 76t-63 30q-44 0 -62.5 -29.5z" />
    <glyph glyph-name="ampersand" unicode="&#x26;" horiz-adv-x="729" 
d="M397.5 681.5q41.5 -19.5 64.5 -54.5t23 -78q0 -59 -37.5 -101.5t-103.5 -81.5l176 -166q40 81 60 169l86 -25q-35 -116 -89 -197l112 -105l-66 -54l-97 94q-43 -47 -97 -70.5t-124 -23.5q-66 0 -116.5 23t-79 65.5t-28.5 98.5q0 62 35 108.5t104 90.5q-50 48 -73.5 86
t-23.5 86q0 68 47.5 111.5t131.5 43.5q54 0 95.5 -19.5zM237 609q-24 -24 -24 -62q0 -36 19 -64.5t60 -67.5q51 31 77 61.5t26 67.5q0 42 -25 65.5t-67 23.5t-66 -24zM199 256.5q-24 -34.5 -24 -78.5q0 -55 38.5 -86t101.5 -31q47 0 85 18t73 54l-200 191q-50 -33 -74 -67.5
z" />
    <glyph glyph-name="quotesingle" unicode="'" horiz-adv-x="219" 
d="M75 427l-15 262h99l-15 -262h-69z" />
    <glyph glyph-name="parenleft" unicode="(" horiz-adv-x="324" 
d="M284 805q-52 -77 -82.5 -137.5t-48 -137.5t-17.5 -180q0 -102 17.5 -179t48 -138.5t82.5 -137.5l-58 -40q-66 94 -101.5 154.5t-60 145t-24.5 195.5t24.5 195.5t60 145t101.5 154.5z" />
    <glyph glyph-name="parenright" unicode=")" horiz-adv-x="324" 
d="M199.5 690.5q35.5 -60.5 60 -145t24.5 -195.5t-24.5 -195.5t-60 -145t-101.5 -154.5l-58 40q52 76 82.5 137.5t48 138.5t17.5 179q0 103 -17.5 180t-48 137.5t-82.5 137.5l58 40q66 -94 101.5 -154.5z" />
    <glyph glyph-name="asterisk" unicode="*" horiz-adv-x="439" 
d="M419 561l-153 -33l104 -116l-72 -53l-79 134l-78 -134l-72 52l103 117l-152 33l27 82l142 -61l-15 157h90l-15 -158l142 63z" />
    <glyph glyph-name="plus" unicode="+" horiz-adv-x="499" 
d="M291 519v-150h146v-76h-146v-149h-84v149h-145v76h145v150h84z" />
    <glyph glyph-name="comma" unicode="," horiz-adv-x="240" 
d="M169 107q20 -20 20 -49q0 -31 -18 -71l-67 -153h-66l40 166q-13 10 -20.5 25t-7.5 33q0 29 20 49t49 20q30 0 50 -20z" />
    <glyph glyph-name="hyphen" unicode="-" horiz-adv-x="403" 
d="M60 274v78h283v-78h-283z" />
    <glyph glyph-name="period" unicode="." horiz-adv-x="240" 
d="M169 107q20 -20 20 -49t-20 -49.5t-50 -20.5q-29 0 -49 20.5t-20 49.5t20 49t49 20q30 0 50 -20z" />
    <glyph glyph-name="slash" unicode="/" horiz-adv-x="520" 
d="M337 807l78 -18l-231 -893l-79 19z" />
    <glyph glyph-name="zero" unicode="0" horiz-adv-x="558" 
d="M446.5 590.5q56.5 -88.5 56.5 -256.5t-56.5 -257t-167.5 -89t-167.5 89t-56.5 257t56.5 256.5t167.5 88.5t167.5 -88.5zM182.5 542q-31.5 -64 -31.5 -208t31.5 -208.5t96.5 -64.5q64 0 96 64.5t32 208.5q0 143 -32 207.5t-96 64.5q-65 0 -96.5 -64z" />
    <glyph glyph-name="one" unicode="1" horiz-adv-x="433" 
d="M323 669v-669h-92v571l-156 -95l-40 65l207 128h81z" />
    <glyph glyph-name="two" unicode="2" horiz-adv-x="495" 
d="M333.5 655q45.5 -24 70.5 -65.5t25 -93.5q0 -61 -27.5 -117t-84.5 -121t-173 -181h301l-11 -77h-395v73q134 139 190 203.5t80 112.5t24 103q0 52 -30 81.5t-80 29.5q-41 0 -72 -17t-66 -56l-60 48q41 51 91 76t112 25q60 0 105.5 -24z" />
    <glyph glyph-name="three" unicode="3" horiz-adv-x="499" 
d="M331.5 656q44.5 -23 68 -62t23.5 -85q0 -61 -35.5 -100.5t-94.5 -53.5q67 -6 109 -48t42 -114q0 -58 -28 -105t-80 -73.5t-120 -26.5q-61 0 -112 22.5t-89 67.5l55 51q33 -34 67.5 -50t75.5 -16q63 0 99 35.5t36 95.5q0 66 -34 93t-99 27h-50l11 71h34q52 0 86.5 31
t34.5 87q0 47 -30 74.5t-81 27.5q-39 0 -71.5 -14t-66.5 -46l-48 55q85 79 191 79q62 0 106.5 -23z" />
    <glyph glyph-name="four" unicode="4" horiz-adv-x="532" 
d="M502 238v-73h-87v-165h-89v165h-286v66l201 448l77 -32l-181 -409h190l8 180h80v-180h87z" />
    <glyph glyph-name="five" unicode="5" horiz-adv-x="501" 
d="M420 597h-261v-197q51 26 107 26q86 0 138 -56.5t52 -155.5q0 -66 -29 -117.5t-81.5 -80t-121.5 -28.5q-61 0 -109 21.5t-89 63.5l54 53q32 -32 66 -47.5t77 -15.5q64 0 100.5 40t36.5 113t-33 106t-89 33q-26 0 -48 -5.5t-47 -17.5h-72v337h362z" />
    <glyph glyph-name="six" unicode="6" horiz-adv-x="533" 
d="M401 416q42 -24 67 -72t25 -117q0 -71 -28.5 -125.5t-77 -84t-107.5 -29.5q-117 0 -171 86.5t-54 239.5q0 109 30.5 191.5t87.5 128t135 45.5q76 0 138 -41l-36 -61q-47 29 -103 29q-72 0 -114 -69t-46 -185q62 88 161 88q51 0 93 -24zM369 105q31 44 31 119
q0 143 -108 143q-44 0 -81 -24.5t-63 -67.5q3 -110 34.5 -162t97.5 -52q58 0 89 44z" />
    <glyph glyph-name="seven" unicode="7" horiz-adv-x="444" 
d="M414 669v-69l-250 -610l-84 28l241 576h-296v75h389z" />
    <glyph glyph-name="eight" unicode="8" horiz-adv-x="551" 
d="M506 179q0 -55 -29.5 -98.5t-82.5 -68t-120 -24.5q-68 0 -120 24t-80.5 67t-28.5 98q0 62 33.5 104t98.5 70q-53 27 -78.5 65.5t-25.5 90.5q0 54 28.5 93t75 59t99.5 20q52 0 98.5 -19t75.5 -57.5t29 -92.5q0 -50 -28 -86t-86 -65q141 -57 141 -180zM193.5 583
q-30.5 -27 -30.5 -77q0 -48 29.5 -73t94.5 -46l17 -6q45 26 65 55t20 71q0 47 -29.5 75t-83.5 28q-52 0 -82.5 -27zM373.5 93q36.5 32 36.5 85q0 36 -14 60.5t-45 43t-87 37.5l-25 9q-50 -24 -74 -60.5t-24 -90.5q0 -55 36 -85.5t98 -30.5t98.5 32z" />
    <glyph glyph-name="nine" unicode="9" horiz-adv-x="525" 
d="M420 609.5q55 -69.5 55 -190.5q0 -137 -37 -220.5t-113 -133t-206 -87.5l-21 69q134 38 205.5 103t76.5 173q-23 -36 -62 -58t-88 -22q-52 0 -94 26.5t-66.5 75t-24.5 113.5q0 68 29 118t77.5 76.5t107.5 26.5q106 0 161 -69.5zM382 398q2 111 -27.5 159.5t-93.5 48.5
q-59 0 -91 -39t-32 -111q0 -70 30 -105.5t81 -35.5q79 0 133 83z" />
    <glyph glyph-name="colon" unicode=":" horiz-adv-x="240" 
d="M169 107q20 -20 20 -49t-20 -49.5t-50 -20.5q-29 0 -49 20.5t-20 49.5t20 49t49 20q30 0 50 -20zM169 475q20 -20 20 -49t-20 -49.5t-50 -20.5q-29 0 -49 20.5t-20 49.5t20 49t49 20q30 0 50 -20z" />
    <glyph glyph-name="semicolon" unicode=";" horiz-adv-x="240" 
d="M169 107q20 -20 20 -49q0 -31 -18 -71l-67 -153h-66l40 166q-13 10 -20.5 25t-7.5 33q0 29 20 49t49 20q30 0 50 -20zM169 475q20 -20 20 -49t-20 -49.5t-50 -20.5q-29 0 -49 20.5t-20 49.5t20 49t49 20q30 0 50 -20z" />
    <glyph glyph-name="less" unicode="&#x3c;" horiz-adv-x="500" 
d="M417 551l33 -76l-327 -142l327 -144l-33 -74l-367 171v94z" />
    <glyph glyph-name="equal" unicode="=" horiz-adv-x="500" 
d="M62 389v77h376v-77h-376zM62 196v77h376v-77h-376z" />
    <glyph glyph-name="greater" unicode="&#x3e;" horiz-adv-x="500" 
d="M83 551l367 -171v-94l-367 -171l-33 74l327 144l-327 142z" />
    <glyph glyph-name="question" unicode="?" horiz-adv-x="459" 
d="M341.5 679.5q43.5 -21.5 65.5 -57.5t22 -77q0 -39 -13.5 -66.5t-32.5 -44.5t-51 -40q-42 -29 -63 -53.5t-21 -65.5v-45h-91v50q0 43 14.5 73t34.5 48t53 41q38 25 56 45t18 52q0 41 -27 63.5t-74 22.5q-80 0 -139 -72l-63 49q84 99 208 99q60 0 103.5 -21.5zM255 107
q20 -20 20 -49t-20 -49.5t-50 -20.5q-29 0 -49 20.5t-20 49.5t20 49t49 20q30 0 50 -20z" />
    <glyph glyph-name="at" unicode="@" horiz-adv-x="1020" 
d="M756 647.5q96 -53.5 145 -143.5t49 -197q0 -130 -50 -214t-147 -84q-56 0 -87.5 31t-40.5 72q-19 -44 -54.5 -72.5t-89.5 -28.5q-80 0 -126.5 60t-46.5 160q0 126 60 193.5t158 67.5q42 0 79 -9t78 -31v-259q0 -62 17 -87.5t51 -25.5q106 0 106 225q0 97 -38 169
t-112 111.5t-181 39.5q-110 0 -192.5 -49.5t-126.5 -137t-44 -198.5t42.5 -196.5t124.5 -133t196 -47.5q95 0 192 34l25 -71q-56 -20 -105.5 -29.5t-112.5 -9.5q-134 0 -237 55.5t-160.5 158.5t-57.5 239q0 130 57.5 235t161.5 165.5t237 60.5q134 0 230 -53.5zM600 164v247
q-33 15 -71 15q-131 0 -131 -195q0 -75 24 -114t70 -39q75 0 108 86z" />
    <glyph glyph-name="A" unicode="A" horiz-adv-x="573" 
d="M467 0l-52 173h-261l-52 -173h-96l221 689h120l220 -689h-100zM177 250h215l-107 360z" />
    <glyph glyph-name="B" unicode="B" horiz-adv-x="608" 
d="M519 314q44 -38 44 -118q0 -196 -273 -196h-190v689h163q131 0 200.5 -43t69.5 -131q0 -60 -37.5 -100t-91.5 -51q71 -12 115 -50zM195 614v-217h104q60 0 98.5 29t38.5 82q0 60 -40.5 83t-122.5 23h-78zM418.5 101q44.5 25 44.5 95q0 68 -43 98t-112 30h-113v-248h95
q84 0 128.5 25z" />
    <glyph glyph-name="C" unicode="C" 
d="M445.5 685q42.5 -16 86.5 -52l-52 -61q-63 51 -133 51q-86 0 -138.5 -66t-52.5 -212q0 -142 52 -209.5t138 -67.5q44 0 77 15t70 42l47 -60q-32 -33 -82 -55t-115 -22q-84 0 -149.5 41.5t-102 122t-36.5 193.5t38 193.5t103 121.5t145 41q62 0 104.5 -16z" />
    <glyph glyph-name="D" unicode="D" horiz-adv-x="644" 
d="M494.5 616.5q94.5 -72.5 94.5 -268.5q0 -191 -94.5 -269.5t-229.5 -78.5h-165v689h144q156 0 250.5 -72.5zM195 613v-538h77q96 0 156 59t60 214q0 109 -31 167.5t-79 78t-113 19.5h-70z" />
    <glyph glyph-name="E" unicode="E" horiz-adv-x="535" 
d="M473 689l-11 -76h-267v-225h232v-76h-232v-236h286v-76h-381v689h373z" />
    <glyph glyph-name="F" unicode="F" horiz-adv-x="491" 
d="M100 0v689h366l-11 -76h-260v-235h225v-75h-225v-303h-95z" />
    <glyph glyph-name="G" unicode="G" horiz-adv-x="631" 
d="M466.5 682.5q47.5 -18.5 94.5 -57.5l-56 -58q-37 30 -71 43t-80 13q-53 0 -97.5 -28.5t-72.5 -91t-28 -158.5q0 -145 47.5 -212t140.5 -67q76 0 131 31v208h-122l-11 77h227v-333q-107 -61 -225 -61q-136 0 -212.5 91t-76.5 266q0 112 40.5 192.5t109 122t149.5 41.5
q65 0 112.5 -18.5z" />
    <glyph glyph-name="H" unicode="H" horiz-adv-x="680" 
d="M485 0v323h-290v-323h-95v689h95v-288h290v288h95v-689h-95z" />
    <glyph glyph-name="I" unicode="I" horiz-adv-x="295" 
d="M195 689v-689h-95v689h95z" />
    <glyph glyph-name="J" unicode="J" horiz-adv-x="305" 
d="M210 96q0 -102 -44.5 -153t-135.5 -80l-25 69q46 18 69 39t32 51t9 78v589h95v-593z" />
    <glyph glyph-name="K" unicode="K" horiz-adv-x="589" 
d="M195 689v-689h-95v689h95zM570 689l-261 -315l280 -374h-117l-272 368l262 321h108z" />
    <glyph glyph-name="L" unicode="L" horiz-adv-x="498" 
d="M195 689v-606h283l-11 -83h-367v689h95z" />
    <glyph glyph-name="M" unicode="M" horiz-adv-x="778" 
d="M716 0h-92l-24 311q-15 183 -17 281l-149 -514h-89l-157 515q0 -125 -13 -289l-23 -304h-90l57 689h128l145 -501l138 501h129z" />
    <glyph glyph-name="N" unicode="N" horiz-adv-x="683" 
d="M583 0h-127l-280 585q6 -69 9.5 -127.5t3.5 -141.5v-316h-89v689h124l283 -586q-3 26 -8 91t-5 119v376h89v-689z" />
    <glyph glyph-name="O" unicode="O" horiz-adv-x="692" 
d="M498.5 659.5q65.5 -41.5 102 -121.5t36.5 -194q0 -112 -36.5 -192t-102 -122t-152.5 -42t-152.5 41t-102 121t-36.5 193q0 111 36.5 192t102.5 123.5t152 42.5q87 0 152.5 -41.5zM206 555q-50 -68 -50 -212q0 -143 50.5 -210t139.5 -67q190 0 190 278q0 279 -190 279
q-90 0 -140 -68z" />
    <glyph glyph-name="P" unicode="P" horiz-adv-x="581" 
d="M479 635.5q70 -53.5 70 -159.5q0 -113 -73 -168t-194 -55h-87v-253h-95v689h181q128 0 198 -53.5zM404.5 360q43.5 32 43.5 115q0 74 -43.5 107t-124.5 33h-85v-287h83q83 0 126.5 32z" />
    <glyph glyph-name="Q" unicode="Q" horiz-adv-x="691" 
d="M579 22.5q45 -16.5 87 -45.5l-62 -80q-60 53 -114 73t-146 20q-86 0 -151 40.5t-101.5 120t-36.5 192.5q0 111 36.5 192t102.5 123.5t152 42.5q87 0 152.5 -41.5t102 -121.5t36.5 -194q0 -121 -40 -192.5t-118 -112.5q55 0 100 -16.5zM206.5 133q50.5 -67 139.5 -67
q190 0 190 278q0 279 -190 279q-90 0 -140 -68t-50 -212q0 -143 50.5 -210z" />
    <glyph glyph-name="R" unicode="R" horiz-adv-x="605" 
d="M302 292h-107v-292h-95v689h181q129 0 195.5 -49t66.5 -146q0 -72 -37 -117t-112 -68l186 -309h-113zM291 365q75 0 113 30.5t38 98.5q0 64 -38.5 92.5t-123.5 28.5h-85v-250h96z" />
    <glyph glyph-name="S" unicode="S" horiz-adv-x="545" 
d="M388 681.5q49 -19.5 95 -60.5l-52 -58q-39 31 -76.5 45.5t-80.5 14.5q-54 0 -89 -25t-35 -73q0 -30 12 -50.5t44.5 -37.5t94.5 -36q65 -20 108 -43t69.5 -63.5t26.5 -102.5q0 -60 -29.5 -106t-85 -72t-131.5 -26q-143 0 -234 89l52 58q42 -34 85 -51.5t96 -17.5
q64 0 106 31.5t42 91.5q0 34 -13 56.5t-44.5 40.5t-91.5 36q-106 32 -155 77t-49 122q0 52 27.5 93t77 64t112.5 23q69 0 118 -19.5z" />
    <glyph glyph-name="T" unicode="T" horiz-adv-x="517" 
d="M507 689l-10 -81h-191v-608h-95v608h-196v81h492z" />
    <glyph glyph-name="U" unicode="U" horiz-adv-x="662" 
d="M572 221q0 -69 -28.5 -121.5t-83 -82t-130.5 -29.5q-115 0 -177.5 63.5t-62.5 169.5v468h95v-461q0 -80 36 -120t109 -40q74 0 110 39.5t36 120.5v461h96v-468z" />
    <glyph glyph-name="V" unicode="V" horiz-adv-x="556" 
d="M550 689l-220 -689h-102l-222 689h102l173 -586l173 586h96z" />
    <glyph glyph-name="W" unicode="W" horiz-adv-x="826" 
d="M801 689l-140 -689h-122l-127 577l-128 -577h-119l-140 689h93l111 -606l133 606h101l136 -606l115 606h87z" />
    <glyph glyph-name="X" unicode="X" horiz-adv-x="540" 
d="M325 372l210 -372h-108l-159 305l-161 -305h-102l207 367l-189 322h108l139 -259l140 259h102z" />
    <glyph glyph-name="Y" unicode="Y" horiz-adv-x="550" 
d="M545 689l-222 -424v-265h-96v264l-222 425h105l168 -341l168 341h99z" />
    <glyph glyph-name="Z" unicode="Z" horiz-adv-x="522" 
d="M477 689v-77l-341 -531h341l-11 -81h-436v76l344 533h-308v80h411z" />
    <glyph glyph-name="bracketleft" unicode="[" horiz-adv-x="322" 
d="M272 816v-77h-120v-779h120v-76h-207v932h207z" />
    <glyph glyph-name="backslash" unicode="\" horiz-adv-x="520" 
d="M183 807l232 -892l-79 -19l-231 893z" />
    <glyph glyph-name="bracketright" unicode="]" horiz-adv-x="322" 
d="M257 816v-932h-207v76h120v779h-120v77h207z" />
    <glyph glyph-name="asciicircum" unicode="^" horiz-adv-x="540" 
d="M311 840l189 -313h-98l-133 233l-132 -233h-97l189 313h82z" />
    <glyph glyph-name="underscore" unicode="_" horiz-adv-x="520" 
d="M17 -142v79h486v-79h-486z" />
    <glyph glyph-name="grave" unicode="`" horiz-adv-x="300" 
d="M71 801l199 -114l-28 -49l-212 86z" />
    <glyph glyph-name="a" unicode="a" horiz-adv-x="544" 
d="M461 75.5q11 -15.5 33 -23.5l-21 -64q-41 5 -66 23t-37 56q-53 -79 -157 -79q-78 0 -123 44t-45 115q0 84 60.5 129t171.5 45h81v39q0 56 -27 80t-83 24q-58 0 -142 -28l-23 67q98 36 182 36q93 0 139 -45.5t46 -129.5v-241q0 -32 11 -47.5zM358 139v121h-69
q-146 0 -146 -108q0 -47 23 -71t68 -24q79 0 124 82z" />
    <glyph glyph-name="b" unicode="b" horiz-adv-x="594" 
d="M479 466.5q53 -72.5 53 -202.5q0 -82 -25 -144.5t-72 -97t-110 -34.5q-83 0 -140 70l-9 -58h-81v739l92 11v-289q57 78 149 78q90 0 143 -72.5zM398.5 110.5q34.5 49.5 34.5 153.5q0 107 -32 154.5t-91 47.5q-70 0 -123 -82v-252q21 -33 51.5 -52t64.5 -19
q61 0 95.5 49.5z" />
    <glyph glyph-name="c" unicode="c" horiz-adv-x="478" 
d="M373 525.5q39 -13.5 75 -43.5l-44 -58q-28 20 -54.5 29.5t-58.5 9.5q-64 0 -99.5 -51t-35.5 -151t35 -147.5t100 -47.5q31 0 57 9.5t58 30.5l42 -60q-72 -58 -161 -58q-107 0 -168.5 72t-61.5 199q0 84 28 147t79.5 98t122.5 35q47 0 86 -13.5z" />
    <glyph glyph-name="d" unicode="d" horiz-adv-x="598" 
d="M503 739v-739h-81l-9 73q-26 -40 -65 -62.5t-87 -22.5q-94 0 -146.5 74t-52.5 199q0 81 25 144t72 98.5t110 35.5q81 0 142 -65v276zM353 80.5q30 19.5 58 58.5v258q-26 34 -55.5 51.5t-66.5 17.5q-61 0 -94.5 -51t-33.5 -152q0 -102 31 -152t89 -50q42 0 72 19.5z" />
    <glyph glyph-name="e" unicode="e" horiz-adv-x="545" 
d="M491 232h-336q6 -87 44 -128t98 -41q38 0 70 11t67 35l40 -55q-84 -66 -184 -66q-110 0 -171.5 72t-61.5 198q0 82 26.5 145.5t76 99.5t116.5 36q105 0 161 -69t56 -191q0 -23 -2 -47zM402 306q0 78 -31 119t-93 41q-113 0 -123 -166h247v6z" />
    <glyph glyph-name="f" unicode="f" horiz-adv-x="335" 
d="M214 657.5q-18 -18.5 -18 -57.5v-73h128l-10 -71h-118v-456h-92v456h-94v71h94v72q0 68 43.5 109.5t121.5 41.5q36 0 64.5 -6.5t61.5 -20.5l-29 -67q-45 20 -92 20q-42 0 -60 -18.5z" />
    <glyph glyph-name="g" unicode="g" horiz-adv-x="520" 
d="M520 503q-30 -10 -66 -13t-88 -3q93 -42 93 -133q0 -79 -54 -129t-147 -50q-36 0 -67 10q-12 -8 -19 -21.5t-7 -27.5q0 -43 69 -43h84q53 0 94 -19t63.5 -52t22.5 -75q0 -77 -63 -118.5t-184 -41.5q-85 0 -134.5 17.5t-70.5 52.5t-21 90h83q0 -32 12 -50.5t43 -28
t88 -9.5q83 0 118.5 20.5t35.5 61.5q0 37 -28 56t-78 19h-83q-67 0 -101.5 28.5t-34.5 71.5q0 26 15 50t43 43q-46 24 -67.5 59.5t-21.5 86.5q0 53 26.5 95t73 65.5t103.5 23.5q62 -1 104 4.5t69.5 15t67.5 27.5zM171.5 440.5q-28.5 -32.5 -28.5 -85.5q0 -54 29 -86.5
t82 -32.5q54 0 82.5 31.5t28.5 88.5q0 117 -113 117q-52 0 -80.5 -32.5z" />
    <glyph glyph-name="h" unicode="h" horiz-adv-x="586" 
d="M455.5 496q40.5 -43 40.5 -118v-378h-92v365q0 56 -21.5 79t-62.5 23t-73 -24t-60 -68v-375h-92v738l92 10v-294q62 85 156 85q72 0 112.5 -43z" />
    <glyph glyph-name="i" unicode="i" horiz-adv-x="282" 
d="M187 527v-527h-92v527h92zM187 762q18 -18 18 -45t-18 -44.5t-47 -17.5q-28 0 -46 17.5t-18 44.5t18 45t46 18q29 0 47 -18z" />
    <glyph glyph-name="j" unicode="j" horiz-adv-x="280" 
d="M185 32q0 -73 -18 -117t-52.5 -71.5t-96.5 -55.5l-27 67q39 18 60 35.5t31.5 49t10.5 86.5v501h92v-495zM186 762q18 -18 18 -45t-18 -44.5t-47 -17.5q-28 0 -46 17.5t-18 44.5t18 45t46 18q29 0 47 -18z" />
    <glyph glyph-name="k" unicode="k" horiz-adv-x="512" 
d="M187 750v-750h-92v739zM490 527l-194 -233l216 -294h-110l-209 288l194 239h103z" />
    <glyph glyph-name="l" unicode="l" horiz-adv-x="293" 
d="M119.5 18.5q-29.5 30.5 -29.5 85.5v635l92 11v-644q0 -22 7.5 -32t25.5 -10q19 0 34 6l24 -64q-33 -18 -73 -18q-51 0 -80.5 30.5z" />
    <glyph glyph-name="m" unicode="m" horiz-adv-x="857" 
d="M728 495.5q39 -43.5 39 -117.5v-378h-92v365q0 102 -74 102q-39 0 -66 -22.5t-58 -70.5v-374h-92v365q0 102 -74 102q-40 0 -67 -23t-57 -70v-374h-92v527h79l8 -77q59 89 152 89q49 0 83.5 -25t49.5 -70q31 46 68.5 70.5t88.5 24.5q65 0 104 -43.5z" />
    <glyph glyph-name="n" unicode="n" horiz-adv-x="586" 
d="M455.5 496q40.5 -43 40.5 -118v-378h-92v365q0 56 -21 79t-62 23q-42 0 -74 -24t-60 -69v-374h-92v527h79l8 -78q28 42 69.5 66t91.5 24q72 0 112.5 -43z" />
    <glyph glyph-name="o" unicode="o" horiz-adv-x="584" 
d="M465.5 465q61.5 -74 61.5 -201q0 -82 -28 -144.5t-81 -97t-126 -34.5q-111 0 -173 74t-62 201q0 82 28 144.5t81 97t127 34.5q111 0 172.5 -74zM156 263q0 -201 136 -201t136 202q0 201 -135 201q-137 0 -137 -202z" />
    <glyph glyph-name="p" unicode="p" horiz-adv-x="594" 
d="M485 467q47 -72 47 -203q0 -124 -54 -200t-153 -76q-88 0 -138 60v-250l-92 -11v740h79l7 -71q29 40 70 61.5t86 21.5q101 0 148 -72zM433 264q0 202 -119 202q-39 0 -71 -23t-56 -59v-257q20 -31 50 -47.5t66 -16.5q130 0 130 201z" />
    <glyph glyph-name="q" unicode="q" horiz-adv-x="598" 
d="M503 527v-740l-92 11v272q-26 -39 -64.5 -60.5t-85.5 -21.5q-94 0 -146.5 74t-52.5 199q0 81 25 144t72 98.5t110 35.5q84 0 148 -71l7 59h79zM353 80.5q30 19.5 58 58.5v258q-26 34 -55.5 51.5t-66.5 17.5q-61 0 -94.5 -51t-33.5 -152q0 -102 31 -152t89 -50
q42 0 72 19.5z" />
    <glyph glyph-name="r" unicode="r" horiz-adv-x="386" 
d="M376 533l-17 -90q-24 6 -46 6q-49 0 -79 -36t-47 -112v-301h-92v527h79l9 -107q21 59 57 89t84 30q28 0 52 -6z" />
    <glyph glyph-name="s" unicode="s" horiz-adv-x="467" 
d="M335 524q43 -15 82 -45l-39 -58q-36 23 -68.5 34t-68.5 11q-45 0 -71 -18.5t-26 -50.5t24.5 -50t88.5 -35q88 -22 131.5 -60t43.5 -104q0 -78 -60.5 -119t-147.5 -41q-120 0 -199 69l49 56q67 -51 148 -51q52 0 82.5 21.5t30.5 58.5q0 27 -11 43.5t-38 29t-79 26.5
q-84 22 -121.5 59t-37.5 94q0 41 24.5 74.5t68 52t97.5 18.5t97 -15z" />
    <glyph glyph-name="t" unicode="t" horiz-adv-x="361" 
d="M361 24q-52 -36 -118 -36q-67 0 -104.5 38.5t-37.5 111.5v318h-92v71h92v119l92 11v-130h125l-10 -71h-115v-314q0 -41 14.5 -59.5t48.5 -18.5q31 0 70 21z" />
    <glyph glyph-name="u" unicode="u" horiz-adv-x="582" 
d="M487 0h-79l-7 82q-30 -49 -69 -71.5t-95 -22.5q-69 0 -108 42t-39 119v378h92v-368q0 -54 19 -76.5t62 -22.5q77 0 132 91v376h92v-527z" />
    <glyph glyph-name="v" unicode="v" horiz-adv-x="492" 
d="M482 527l-179 -527h-111l-182 527h100l138 -445l137 445h97z" />
    <glyph glyph-name="w" unicode="w" horiz-adv-x="717" 
d="M697 527l-120 -527h-125l-92 444l-95 -444h-122l-123 527h92l95 -463l104 463h103l99 -463l96 463h88z" />
    <glyph glyph-name="x" unicode="x" horiz-adv-x="485" 
d="M297 282l183 -282h-111l-129 223l-131 -223h-104l184 278l-163 249h108l110 -193l111 193h104z" />
    <glyph glyph-name="y" unicode="y" horiz-adv-x="492" 
d="M306 -3q-31 -92 -86.5 -145.5t-158.5 -64.5l-10 72q52 9 83 26t49.5 43.5t34.5 71.5h-31l-177 527h98l141 -460l138 460h95z" />
    <glyph glyph-name="z" unicode="z" horiz-adv-x="437" 
d="M404 527v-70l-275 -380h278l-11 -77h-371v69l274 380h-251v78h356z" />
    <glyph glyph-name="braceleft" unicode="{" horiz-adv-x="322" 
d="M277 765q-51 0 -73 -15.5t-22 -52.5v-239q0 -51 -18 -73.5t-57 -35.5q40 -14 57.5 -35t17.5 -72v-239q0 -37 22 -52.5t73 -15.5v-71q-100 0 -141 34.5t-41 114.5v222q0 42 -15.5 59t-54.5 17v76q39 0 54.5 18t15.5 60v222q0 80 41 114.5t141 34.5v-71z" />
    <glyph glyph-name="bar" unicode="|" horiz-adv-x="403" 
d="M243 807v-909h-83v909h83z" />
    <glyph glyph-name="braceright" unicode="}" horiz-adv-x="322" 
d="M186 801.5q41 -34.5 41 -114.5v-222q0 -42 15.5 -60t54.5 -18v-76q-39 0 -54.5 -17t-15.5 -59v-222q0 -80 -41 -114.5t-141 -34.5v71q51 0 73 15.5t22 52.5v239q0 51 17.5 72t57.5 35q-39 13 -57 35.5t-18 73.5v239q0 37 -22 52.5t-73 15.5v71q100 0 141 -34.5z" />
    <glyph glyph-name="asciitilde" unicode="~" horiz-adv-x="488" 
d="M268.5 259.5q-21.5 9.5 -51.5 28.5q-18 12 -30 18t-24 6q-39 0 -72 -54l-56 29q50 97 137 97q28 0 49 -9t49 -27q20 -13 32.5 -19t25.5 -6q21 0 39 13.5t31 34.5l55 -30q-47 -91 -134 -91q-29 0 -50.5 9.5z" />
    <glyph glyph-name="uni00A0" unicode="&#xa0;" horiz-adv-x="265" 
 />
    <glyph glyph-name="exclamdown" unicode="&#xa1;" horiz-adv-x="241" 
d="M170 474.5q20 -20.5 20 -49.5t-20 -49t-49 -20q-30 0 -50 20t-20 49t20 49.5t50 20.5q29 0 49 -20.5zM162 247l11 -449h-102l10 449h81z" />
    <glyph glyph-name="cent" unicode="&#xa2;" horiz-adv-x="478" 
d="M448 46q-56 -45 -119 -55v-145h-80v145q-90 12 -141 82.5t-51 185.5t51.5 189.5t141.5 87.5v148h79v-148q65 -9 119 -54l-44 -58q-28 20 -54.5 29.5t-58.5 9.5q-64 0 -99.5 -51t-35.5 -151t35 -147.5t100 -47.5q31 0 57 9.5t58 30.5z" />
    <glyph glyph-name="sterling" unicode="&#xa3;" horiz-adv-x="520" 
d="M200 125q-13 -28 -48 -48h320l-11 -77h-421v73q35 13 52 27.5t23.5 38t6.5 66.5v117h-66v60h66v111q0 83 50 134.5t139 51.5q55 0 99 -20.5t80 -62.5l-60 -46q-24 28 -51 41t-64 13q-49 0 -75.5 -28.5t-26.5 -81.5v-112h208v-60h-208v-118q0 -51 -13 -79z" />
    <glyph glyph-name="currency" unicode="&#xa4;" 
d="M455 218l76 -75l-55 -55l-78 76q-53 -32 -120 -32q-66 0 -118 35l-78 -79l-53 55l78 78q-36 53 -36 120q0 65 35 119l-77 80l55 55l78 -80q49 34 116 34q69 0 121 -33l79 79l53 -55l-76 -77q37 -52 37 -122q0 -69 -37 -123zM372.5 241q31.5 36 31.5 101t-31.5 101
t-91.5 36q-59 0 -90.5 -36.5t-31.5 -100.5q0 -65 31.5 -101t90.5 -36q60 0 91.5 36z" />
    <glyph glyph-name="yen" unicode="&#xa5;" horiz-adv-x="536" 
d="M531 669l-191 -323h113v-62h-138v-90h138v-61h-138v-133h-94v133h-139v61h139v90h-139v62h114l-191 323h102l164 -295l163 295h97z" />
    <glyph glyph-name="brokenbar" unicode="&#xa6;" horiz-adv-x="403" 
d="M243 807v-364h-83v364h83zM243 262v-364h-83v364h83z" />
    <glyph glyph-name="section" unicode="&#xa7;" horiz-adv-x="533" 
d="M441 75q0 -67 -54 -106.5t-141 -39.5q-97 0 -168 50l35 61q30 -20 62.5 -29.5t73.5 -9.5q44 0 72 17t28 48q0 24 -10 39t-35.5 28t-78.5 30q-83 27 -119 59t-36 89q0 36 20.5 67.5t56.5 53.5q-27 18 -40 42.5t-13 58.5q0 67 52 105.5t135 38.5q97 0 171 -54l-35 -58
q-33 21 -65 31t-72 10q-45 0 -70 -17.5t-25 -48.5q0 -24 9.5 -39.5t35.5 -29.5t77 -31q83 -28 119.5 -61t36.5 -86q0 -69 -76 -120q54 -37 54 -98zM178.5 269q19.5 -18 75.5 -36q43 -14 79 -30q20 18 31 38t11 39q0 24 -9 39.5t-31.5 28t-67.5 28.5q-35 13 -67 27
q-19 -19 -30 -40t-11 -40q0 -36 19.5 -54z" />
    <glyph glyph-name="dieresis" unicode="&#xa8;" horiz-adv-x="385" 
d="M128.5 751.5q16.5 -16.5 16.5 -40.5t-16.5 -40.5t-40.5 -16.5q-25 0 -41.5 16.5t-16.5 40.5t16.5 40.5t41.5 16.5q24 0 40.5 -16.5zM338.5 751.5q16.5 -16.5 16.5 -40.5t-16.5 -40.5t-41.5 -16.5q-24 0 -40.5 16.5t-16.5 40.5t16.5 40.5t40.5 16.5q25 0 41.5 -16.5z" />
    <glyph glyph-name="copyright" unicode="&#xa9;" horiz-adv-x="810" 
d="M563.5 707.5q71.5 -40.5 113 -112t41.5 -161.5t-41.5 -161.5t-113 -111.5t-157.5 -40t-158 40t-114 111.5t-42 161.5t42 161.5t114 112t158 40.5t157.5 -40.5zM276.5 663q-57.5 -33 -90.5 -93t-33 -136t33 -135t90.5 -92t129.5 -33q71 0 128.5 33t90.5 92t33 135t-33 136
t-90.5 93t-128.5 33q-72 0 -129.5 -33zM471 615q27 -10 54 -30l-35 -47q-38 27 -78 27q-41 0 -66 -32t-25 -98q0 -63 24.5 -95t66.5 -32q25 0 44.5 7.5t39.5 23.5l32 -48q-52 -46 -119 -46q-74 0 -119 50t-45 140q0 60 22 103t59 65t82 22q36 0 63 -10z" />
    <glyph glyph-name="ordfeminine" unicode="&#xaa;" horiz-adv-x="500" 
d="M313 525v24q0 39 -20 55t-63 16q-49 0 -113 -21l-22 62q78 28 150 28q157 0 157 -135v-170q0 -23 8 -34t25 -17l-19 -61q-35 4 -56.5 17.5t-32.5 41.5q-21 -30 -53.5 -45t-72.5 -15q-63 0 -99.5 33.5t-36.5 88.5q0 64 49.5 98t140.5 34h58zM313 390v80h-48
q-106 0 -106 -72q0 -29 17 -45t48 -16q56 0 89 53zM71 77h376v-77h-376v77z" />
    <glyph glyph-name="guillemotleft" unicode="&#xab;" horiz-adv-x="575" 
d="M230 535l55 -38l-135 -210l135 -210l-55 -38l-175 216v63zM465 535l55 -38l-135 -210l135 -210l-55 -38l-175 216v63z" />
    <glyph glyph-name="logicalnot" unicode="&#xac;" horiz-adv-x="500" 
d="M438 361v-220h-83v143h-293v77h376z" />
    <glyph glyph-name="uni00AD" unicode="&#xad;" horiz-adv-x="403" 
d="M60 274v78h283v-78h-283z" />
    <glyph glyph-name="registered" unicode="&#xae;" horiz-adv-x="641" 
d="M448.5 715.5q58.5 -34.5 92 -93.5t33.5 -129t-33.5 -128.5t-92 -92.5t-129.5 -34q-69 0 -127 34t-91.5 92.5t-33.5 128.5t33.5 129t91.5 93.5t127 34.5q71 0 129.5 -34.5zM422.5 313.5q45.5 26.5 71 73.5t25.5 106t-25.5 106.5t-71 74.5t-103.5 27q-56 0 -101 -27
t-70.5 -74.5t-25.5 -106.5t25.5 -106t70.5 -73.5t101 -26.5q58 0 103.5 26.5zM410 502.5q-18 -19.5 -47 -28.5l74 -115h-67l-61 106h-24v-106h-57v276h78q122 0 122 -84q0 -29 -18 -48.5zM285 509h30q54 0 54 42q0 21 -13.5 30.5t-42.5 9.5h-28v-82z" />
    <glyph glyph-name="macron" unicode="&#xaf;" horiz-adv-x="333" 
d="M303 667h-273v69h273v-69z" />
    <glyph glyph-name="degree" unicode="&#xb0;" horiz-adv-x="523" 
d="M138.5 400q-37.5 19 -60.5 55.5t-23 85.5t23 85.5t60.5 55.5t80.5 19t80.5 -19t60.5 -56t23 -86t-23 -85.5t-60.5 -55t-80.5 -18.5t-80.5 19zM281 468q25 25 25 72t-25 72.5t-62 25.5t-62 -25t-25 -72t25.5 -72.5t61.5 -25.5q37 0 62 25z" />
    <glyph glyph-name="plusminus" unicode="&#xb1;" horiz-adv-x="500" 
d="M62 0v77h376v-77h-376zM292 542v-150h146v-76h-146v-149h-84v149h-145v76h145v150h84z" />
    <glyph glyph-name="uni00B2" unicode="&#xb2;" horiz-adv-x="400" 
d="M296.5 712q37.5 -34 37.5 -86q0 -34 -16.5 -65.5t-53.5 -71.5t-109 -105h189l-8 -62h-269v58q84 81 120 119.5t51.5 65.5t15.5 55q0 30 -18 47t-47 17q-26 0 -45 -10t-40 -34l-49 38q55 68 140 68q64 0 101.5 -34z" />
    <glyph glyph-name="uni00B3" unicode="&#xb3;" horiz-adv-x="400" 
d="M297.5 716q36.5 -30 36.5 -75q0 -38 -23 -63t-63 -35q44 -4 72 -30t28 -72q0 -55 -42.5 -91.5t-114.5 -36.5q-87 0 -139 60l45 42q38 -41 90 -41q37 0 58.5 19t21.5 52q0 36 -20.5 51.5t-59.5 15.5h-34l9 56h23q32 0 52 16.5t20 46.5q0 26 -18 41t-48 15q-25 0 -46 -9
t-42 -28l-40 44q58 52 134 52q64 0 100.5 -30z" />
    <glyph glyph-name="acute" unicode="&#xb4;" horiz-adv-x="300" 
d="M229 801l41 -77l-212 -86l-28 49z" />
    <glyph glyph-name="uni00B5" unicode="&#xb5;" horiz-adv-x="588" 
d="M513 0l-86 -12q-11 26 -15.5 45.5t-8.5 51.5v1q-24 -42 -59.5 -70t-78.5 -28q-35 0 -57.5 11.5t-38.5 38.5q9 -28 13 -58t4 -76v-106l-91 -11v740h92v-371q0 -89 79 -89q80 0 129 96v364h92v-347q0 -100 26 -180z" />
    <glyph glyph-name="paragraph" unicode="&#xb6;" horiz-adv-x="734" 
d="M594 689v-891l-83 -13v831h-114v-818l-83 -13v497q-113 6 -168.5 61t-55.5 143q0 97 66 150t180 53h258z" />
    <glyph glyph-name="periodcentered" unicode="&#xb7;" horiz-adv-x="240" 
d="M169 360q20 -20 20 -49t-20 -49.5t-50 -20.5q-29 0 -49 20.5t-20 49.5t20 49t49 20q30 0 50 -20z" />
    <glyph glyph-name="cedilla" unicode="&#xb8;" horiz-adv-x="275" 
d="M152 -56q48 -4 70.5 -27.5t22.5 -57.5q0 -48 -35 -74t-89 -26q-28 0 -52 6.5t-39 17.5l25 52q30 -16 63 -16q23 0 36.5 9.5t13.5 30.5t-21 31.5t-68 10.5l14 115h59v-72z" />
    <glyph glyph-name="uni00B9" unicode="&#xb9;" horiz-adv-x="400" 
d="M274 739v-417h-77v338l-98 -57l-34 53l140 83h69z" />
    <glyph glyph-name="ordmasculine" unicode="&#xba;" horiz-adv-x="500" 
d="M393.5 633.5q50.5 -55.5 50.5 -153.5q0 -95 -51.5 -152t-142.5 -57q-92 0 -143 56t-51 153q0 95 52 152t143 57q92 0 142.5 -55.5zM151 480q0 -140 99 -140t99 140q0 72 -24.5 106t-73.5 34q-100 0 -100 -140zM62 0v77h376v-77h-376z" />
    <glyph glyph-name="guillemotright" unicode="&#xbb;" horiz-adv-x="566" 
d="M110 535l175 -217v-63l-175 -216l-55 38l135 210l-135 210zM336 535l175 -217v-63l-175 -216l-55 38l135 210l-135 210z" />
    <glyph glyph-name="onequarter" unicode="&#xbc;" horiz-adv-x="932" 
d="M274 689v-417h-77v338l-98 -57l-34 53l140 83h69zM640 750l59 -29l-406 -799l-60 29zM889 156v-60h-53v-96h-76v96h-186v54l128 274l66 -25l-113 -243h106l7 105h68v-105h53z" />
    <glyph glyph-name="onehalf" unicode="&#xbd;" horiz-adv-x="932" 
d="M274 689v-417h-77v338l-98 -57l-34 53l140 83h69zM640 750l59 -29l-406 -799l-60 29zM828.5 390q37.5 -34 37.5 -86q0 -34 -16.5 -65.5t-53.5 -71.5t-109 -105h189l-8 -62h-269v58q84 81 120 119.5t51.5 65.5t15.5 55q0 30 -18 47t-47 17q-26 0 -45 -10t-40 -34l-49 38
q55 68 140 68q64 0 101.5 -34z" />
    <glyph glyph-name="threequarters" unicode="&#xbe;" horiz-adv-x="932" 
d="M297.5 666q36.5 -30 36.5 -75q0 -38 -23 -63t-63 -35q44 -4 72 -30t28 -72q0 -55 -42.5 -91.5t-114.5 -36.5q-87 0 -139 60l45 42q38 -41 90 -41q37 0 58.5 19t21.5 52q0 36 -20.5 51.5t-59.5 15.5h-34l9 56h23q32 0 52 16.5t20 46.5q0 26 -18 41t-48 15q-25 0 -46 -9
t-42 -28l-40 44q58 52 134 52q64 0 100.5 -30zM640 750l59 -29l-406 -799l-60 29zM889 156v-60h-53v-96h-76v96h-186v54l128 274l66 -25l-113 -243h106l7 105h68v-105h53z" />
    <glyph glyph-name="questiondown" unicode="&#xbf;" horiz-adv-x="459" 
d="M204 376q-20 20 -20 49t20 49.5t50 20.5q29 0 49 -20.5t20 -49.5t-20 -49t-49 -20q-30 0 -50 20zM117.5 -193.5q-43.5 21.5 -65.5 57.5t-22 77q0 40 13.5 67.5t33.5 44.5t52 39q41 28 61.5 51.5t20.5 62.5v41h91v-46q0 -42 -14 -71t-34 -46.5t-53 -39.5
q-38 -24 -56.5 -44.5t-18.5 -52.5q0 -41 27 -63.5t74 -22.5q80 0 139 72l63 -49q-84 -99 -208 -99q-60 0 -103.5 21.5z" />
    <glyph glyph-name="Agrave" unicode="&#xc0;" horiz-adv-x="573" 
d="M467 0l-52 173h-261l-52 -173h-96l221 689h120l220 -689h-100zM177 250h215l-107 360zM196 911l201 -107l-24 -49l-216 79z" />
    <glyph glyph-name="Aacute" unicode="&#xc1;" horiz-adv-x="573" 
d="M467 0l-52 173h-261l-52 -173h-96l221 689h120l220 -689h-100zM177 250h215l-107 360zM367 911l40 -77l-216 -79l-24 49z" />
    <glyph glyph-name="Acircumflex" unicode="&#xc2;" horiz-adv-x="573" 
d="M467 0l-52 173h-261l-52 -173h-96l221 689h120l220 -689h-100zM177 250h215l-107 360zM160 759l-40 45l136 110h61l135 -110l-39 -45l-127 81z" />
    <glyph glyph-name="Atilde" unicode="&#xc3;" horiz-adv-x="573" 
d="M467 0l-52 173h-261l-52 -173h-96l221 689h120l220 -689h-100zM177 250h215l-107 360zM310.5 789q-15.5 7 -34.5 20q-15 11 -25.5 16t-21.5 5q-16 0 -28 -11t-25 -35l-56 28q19 40 46.5 64t62.5 24q21 0 36 -7.5t34 -20.5q3 -2 12.5 -8t17.5 -9t16 -3q15 0 27 10.5
t26 33.5l56 -28q-19 -42 -47 -64t-62 -22q-19 0 -34.5 7z" />
    <glyph glyph-name="Adieresis" unicode="&#xc4;" horiz-adv-x="573" 
d="M467 0l-52 173h-261l-52 -173h-96l221 689h120l220 -689h-100zM177 250h215l-107 360zM222.5 877.5q16.5 -16.5 16.5 -40.5t-16.5 -40.5t-40.5 -16.5q-25 0 -41.5 16.5t-16.5 40.5t16.5 40.5t41.5 16.5q24 0 40.5 -16.5zM432.5 877.5q16.5 -16.5 16.5 -40.5t-16.5 -40.5
t-41.5 -16.5q-24 0 -40.5 16.5t-16.5 40.5t16.5 40.5t40.5 16.5q25 0 41.5 -16.5z" />
    <glyph glyph-name="Aring" unicode="&#xc5;" horiz-adv-x="573" 
d="M467 0l-52 173h-261l-52 -173h-96l221 689h120l220 -689h-100zM177 250h215l-107 360zM369 931.5q32 -30.5 32 -75.5t-32 -75.5t-82 -30.5t-82 30.5t-32 75.5t32 75.5t82 30.5t82 -30.5zM248 897q-14 -15 -14 -41t14 -41t39 -15q24 0 38.5 15t14.5 41t-14 41t-39 15
t-39 -15z" />
    <glyph glyph-name="AE" unicode="&#xc6;" horiz-adv-x="816" 
d="M535 76h227v-76h-304l-40 173h-268l-65 -173h-97l274 689h459l-11 -76h-309l56 -226h255v-76h-236zM179 250h221l-84 363z" />
    <glyph glyph-name="Ccedilla" unicode="&#xc7;" 
d="M470.5 15.5q-41.5 -20.5 -94.5 -25.5v-46q48 -4 70.5 -27.5t22.5 -57.5q0 -48 -35 -74t-89 -26q-28 0 -52 6.5t-39 17.5l25 52q30 -16 63 -16q23 0 36.5 9.5t13.5 30.5t-21 31.5t-68 10.5l11 88q-77 7 -135.5 50.5t-91 121t-32.5 184.5q0 113 38 193.5t103 121.5t145 41
q62 0 104.5 -16t86.5 -52l-52 -61q-63 51 -133 51q-86 0 -138.5 -66t-52.5 -212q0 -142 52 -209.5t138 -67.5q44 0 77 15t70 42l47 -60q-28 -29 -69.5 -49.5z" />
    <glyph glyph-name="Egrave" unicode="&#xc8;" horiz-adv-x="535" 
d="M473 689l-11 -76h-267v-225h232v-76h-232v-236h286v-76h-381v689h373zM199 911l201 -107l-24 -49l-216 79z" />
    <glyph glyph-name="Eacute" unicode="&#xc9;" horiz-adv-x="535" 
d="M473 689l-11 -76h-267v-225h232v-76h-232v-236h286v-76h-381v689h373zM370 911l40 -77l-216 -79l-24 49z" />
    <glyph glyph-name="Ecircumflex" unicode="&#xca;" horiz-adv-x="535" 
d="M473 689l-11 -76h-267v-225h232v-76h-232v-236h286v-76h-381v689h373zM163 759l-40 45l136 110h61l135 -110l-39 -45l-127 81z" />
    <glyph glyph-name="Edieresis" unicode="&#xcb;" horiz-adv-x="535" 
d="M473 689l-11 -76h-267v-225h232v-76h-232v-236h286v-76h-381v689h373zM225.5 877.5q16.5 -16.5 16.5 -40.5t-16.5 -40.5t-40.5 -16.5q-25 0 -41.5 16.5t-16.5 40.5t16.5 40.5t41.5 16.5q24 0 40.5 -16.5zM435.5 877.5q16.5 -16.5 16.5 -40.5t-16.5 -40.5t-41.5 -16.5
q-24 0 -40.5 16.5t-16.5 40.5t16.5 40.5t40.5 16.5q25 0 41.5 -16.5z" />
    <glyph glyph-name="Igrave" unicode="&#xcc;" horiz-adv-x="295" 
d="M195 689v-689h-95v689h95zM56 911l201 -107l-24 -49l-216 79z" />
    <glyph glyph-name="Iacute" unicode="&#xcd;" horiz-adv-x="295" 
d="M195 689v-689h-95v689h95zM227 911l40 -77l-216 -79l-24 49z" />
    <glyph glyph-name="Icircumflex" unicode="&#xce;" horiz-adv-x="295" 
d="M195 689v-689h-95v689h95zM20 759l-40 45l136 110h61l135 -110l-39 -45l-127 81z" />
    <glyph glyph-name="Idieresis" unicode="&#xcf;" horiz-adv-x="295" 
d="M195 689v-689h-95v689h95zM82.5 877.5q16.5 -16.5 16.5 -40.5t-16.5 -40.5t-40.5 -16.5q-25 0 -41.5 16.5t-16.5 40.5t16.5 40.5t41.5 16.5q24 0 40.5 -16.5zM292.5 877.5q16.5 -16.5 16.5 -40.5t-16.5 -40.5t-41.5 -16.5q-24 0 -40.5 16.5t-16.5 40.5t16.5 40.5
t40.5 16.5q25 0 41.5 -16.5z" />
    <glyph glyph-name="Eth" unicode="&#xd0;" horiz-adv-x="656" 
d="M506.5 616.5q94.5 -72.5 94.5 -268.5q0 -191 -94.5 -269.5t-229.5 -78.5h-165v318h-92v70h92v301h144q156 0 250.5 -72.5zM440 134q60 59 60 214q0 109 -31 167.5t-79 78t-113 19.5h-70v-225h157v-70h-157v-243h77q96 0 156 59z" />
    <glyph glyph-name="Ntilde" unicode="&#xd1;" horiz-adv-x="683" 
d="M583 0h-127l-280 585q6 -69 9.5 -127.5t3.5 -141.5v-316h-89v689h124l283 -586q-3 26 -8 91t-5 119v376h89v-689zM376.5 789q-15.5 7 -34.5 20q-15 11 -25.5 16t-21.5 5q-16 0 -28 -11t-25 -35l-56 28q19 40 46.5 64t62.5 24q21 0 36 -7.5t34 -20.5q3 -2 12.5 -8t17.5 -9
t16 -3q15 0 27 10.5t26 33.5l56 -28q-19 -42 -47 -64t-62 -22q-19 0 -34.5 7z" />
    <glyph glyph-name="Ograve" unicode="&#xd2;" horiz-adv-x="692" 
d="M498.5 659.5q65.5 -41.5 102 -121.5t36.5 -194q0 -112 -36.5 -192t-102 -122t-152.5 -42t-152.5 41t-102 121t-36.5 193q0 111 36.5 192t102.5 123.5t152 42.5q87 0 152.5 -41.5zM206 555q-50 -68 -50 -212q0 -143 50.5 -210t139.5 -67q190 0 190 278q0 279 -190 279
q-90 0 -140 -68zM255 911l201 -107l-24 -49l-216 79z" />
    <glyph glyph-name="Oacute" unicode="&#xd3;" horiz-adv-x="692" 
d="M498.5 659.5q65.5 -41.5 102 -121.5t36.5 -194q0 -112 -36.5 -192t-102 -122t-152.5 -42t-152.5 41t-102 121t-36.5 193q0 111 36.5 192t102.5 123.5t152 42.5q87 0 152.5 -41.5zM206 555q-50 -68 -50 -212q0 -143 50.5 -210t139.5 -67q190 0 190 278q0 279 -190 279
q-90 0 -140 -68zM426 911l40 -77l-216 -79l-24 49z" />
    <glyph glyph-name="Ocircumflex" unicode="&#xd4;" horiz-adv-x="692" 
d="M498.5 659.5q65.5 -41.5 102 -121.5t36.5 -194q0 -112 -36.5 -192t-102 -122t-152.5 -42t-152.5 41t-102 121t-36.5 193q0 111 36.5 192t102.5 123.5t152 42.5q87 0 152.5 -41.5zM206 555q-50 -68 -50 -212q0 -143 50.5 -210t139.5 -67q190 0 190 278q0 279 -190 279
q-90 0 -140 -68zM219 759l-40 45l136 110h61l135 -110l-39 -45l-127 81z" />
    <glyph glyph-name="Otilde" unicode="&#xd5;" horiz-adv-x="692" 
d="M498.5 659.5q65.5 -41.5 102 -121.5t36.5 -194q0 -112 -36.5 -192t-102 -122t-152.5 -42t-152.5 41t-102 121t-36.5 193q0 111 36.5 192t102.5 123.5t152 42.5q87 0 152.5 -41.5zM206 555q-50 -68 -50 -212q0 -143 50.5 -210t139.5 -67q190 0 190 278q0 279 -190 279
q-90 0 -140 -68zM369.5 789q-15.5 7 -34.5 20q-15 11 -25.5 16t-21.5 5q-16 0 -28 -11t-25 -35l-56 28q19 40 46.5 64t62.5 24q21 0 36 -7.5t34 -20.5q3 -2 12.5 -8t17.5 -9t16 -3q15 0 27 10.5t26 33.5l56 -28q-19 -42 -47 -64t-62 -22q-19 0 -34.5 7z" />
    <glyph glyph-name="Odieresis" unicode="&#xd6;" horiz-adv-x="692" 
d="M498.5 659.5q65.5 -41.5 102 -121.5t36.5 -194q0 -112 -36.5 -192t-102 -122t-152.5 -42t-152.5 41t-102 121t-36.5 193q0 111 36.5 192t102.5 123.5t152 42.5q87 0 152.5 -41.5zM206 555q-50 -68 -50 -212q0 -143 50.5 -210t139.5 -67q190 0 190 278q0 279 -190 279
q-90 0 -140 -68zM281.5 877.5q16.5 -16.5 16.5 -40.5t-16.5 -40.5t-40.5 -16.5q-25 0 -41.5 16.5t-16.5 40.5t16.5 40.5t41.5 16.5q24 0 40.5 -16.5zM491.5 877.5q16.5 -16.5 16.5 -40.5t-16.5 -40.5t-41.5 -16.5q-24 0 -40.5 16.5t-16.5 40.5t16.5 40.5t40.5 16.5
q25 0 41.5 -16.5z" />
    <glyph glyph-name="multiply" unicode="&#xd7;" horiz-adv-x="500" 
d="M372 486l56 -57l-120 -120l120 -124l-56 -56l-120 124l-124 -124l-56 56l120 120l-120 124l56 57l120 -125z" />
    <glyph glyph-name="Oslash" unicode="&#xd8;" horiz-adv-x="692" 
d="M597.5 545.5q39.5 -82.5 39.5 -201.5q0 -112 -36.5 -192t-102 -122t-152.5 -42q-36 0 -67 7l-35 -122l-79 21l40 128q-71 40 -110.5 121.5t-39.5 199.5q0 111 36.5 192t102.5 123.5t152 42.5q37 0 66 -7l37 125l79 -21l-42 -131q72 -39 111.5 -121.5zM206 555
q-50 -68 -50 -212q0 -185 82 -246l158 521q-27 5 -50 5q-90 0 -140 -68zM536 344q0 99 -21 160t-63 90l-156 -523q25 -5 50 -5q190 0 190 278z" />
    <glyph glyph-name="Ugrave" unicode="&#xd9;" horiz-adv-x="662" 
d="M572 221q0 -69 -28.5 -121.5t-83 -82t-130.5 -29.5q-115 0 -177.5 63.5t-62.5 169.5v468h95v-461q0 -80 36 -120t109 -40q74 0 110 39.5t36 120.5v461h96v-468zM240 911l201 -107l-24 -49l-216 79z" />
    <glyph glyph-name="Uacute" unicode="&#xda;" horiz-adv-x="662" 
d="M572 221q0 -69 -28.5 -121.5t-83 -82t-130.5 -29.5q-115 0 -177.5 63.5t-62.5 169.5v468h95v-461q0 -80 36 -120t109 -40q74 0 110 39.5t36 120.5v461h96v-468zM411 911l40 -77l-216 -79l-24 49z" />
    <glyph glyph-name="Ucircumflex" unicode="&#xdb;" horiz-adv-x="662" 
d="M572 221q0 -69 -28.5 -121.5t-83 -82t-130.5 -29.5q-115 0 -177.5 63.5t-62.5 169.5v468h95v-461q0 -80 36 -120t109 -40q74 0 110 39.5t36 120.5v461h96v-468zM204 759l-40 45l136 110h61l135 -110l-39 -45l-127 81z" />
    <glyph glyph-name="Udieresis" unicode="&#xdc;" horiz-adv-x="662" 
d="M572 221q0 -69 -28.5 -121.5t-83 -82t-130.5 -29.5q-115 0 -177.5 63.5t-62.5 169.5v468h95v-461q0 -80 36 -120t109 -40q74 0 110 39.5t36 120.5v461h96v-468zM266.5 877.5q16.5 -16.5 16.5 -40.5t-16.5 -40.5t-40.5 -16.5q-25 0 -41.5 16.5t-16.5 40.5t16.5 40.5
t41.5 16.5q24 0 40.5 -16.5zM476.5 877.5q16.5 -16.5 16.5 -40.5t-16.5 -40.5t-41.5 -16.5q-24 0 -40.5 16.5t-16.5 40.5t16.5 40.5t40.5 16.5q25 0 41.5 -16.5z" />
    <glyph glyph-name="Yacute" unicode="&#xdd;" horiz-adv-x="550" 
d="M545 689l-222 -424v-265h-96v264l-222 425h105l168 -341l168 341h99zM355 911l40 -77l-216 -79l-24 49z" />
    <glyph glyph-name="Thorn" unicode="&#xde;" horiz-adv-x="581" 
d="M479 517q70 -54 70 -163q0 -116 -73 -171.5t-194 -55.5h-87v-127h-95v689h95v-118h86q128 0 198 -54zM405 235q43 33 43 118q0 77 -43.5 110.5t-124.5 33.5h-85v-295h83q84 0 127 33z" />
    <glyph glyph-name="germandbls" unicode="&#xdf;" horiz-adv-x="593" 
d="M391.5 731q40.5 -19 62.5 -51.5t22 -72.5q0 -41 -17 -65t-49 -50q-24 -20 -34.5 -33t-10.5 -32q0 -23 17 -40t52 -41q38 -26 61.5 -47t40.5 -55t17 -82q0 -52 -24.5 -91.5t-65.5 -61t-88 -21.5q-59 0 -102 23l27 64q26 -13 66 -13q42 0 67.5 26t25.5 75q0 45 -23.5 73
t-69.5 61q-43 31 -65.5 57t-22.5 66q0 33 14 52t43 43q27 22 40 40t13 47q0 37 -26.5 56.5t-66.5 19.5q-108 0 -108 -139v-539h-92v539q0 100 52.5 155.5t148.5 55.5q55 0 95.5 -19z" />
    <glyph glyph-name="agrave" unicode="&#xe0;" horiz-adv-x="544" 
d="M461 75.5q11 -15.5 33 -23.5l-21 -64q-41 5 -66 23t-37 56q-53 -79 -157 -79q-78 0 -123 44t-45 115q0 84 60.5 129t171.5 45h81v39q0 56 -27 80t-83 24q-58 0 -142 -28l-23 67q98 36 182 36q93 0 139 -45.5t46 -129.5v-241q0 -32 11 -47.5zM358 139v121h-69
q-146 0 -146 -108q0 -47 23 -71t68 -24q79 0 124 82zM192 801l199 -114l-28 -49l-212 86z" />
    <glyph glyph-name="aacute" unicode="&#xe1;" horiz-adv-x="544" 
d="M461 75.5q11 -15.5 33 -23.5l-21 -64q-41 5 -66 23t-37 56q-53 -79 -157 -79q-78 0 -123 44t-45 115q0 84 60.5 129t171.5 45h81v39q0 56 -27 80t-83 24q-58 0 -142 -28l-23 67q98 36 182 36q93 0 139 -45.5t46 -129.5v-241q0 -32 11 -47.5zM358 139v121h-69
q-146 0 -146 -108q0 -47 23 -71t68 -24q79 0 124 82zM340 801l41 -77l-212 -86l-28 49z" />
    <glyph glyph-name="acircumflex" unicode="&#xe2;" horiz-adv-x="544" 
d="M461 75.5q11 -15.5 33 -23.5l-21 -64q-41 5 -66 23t-37 56q-53 -79 -157 -79q-78 0 -123 44t-45 115q0 84 60.5 129t171.5 45h81v39q0 56 -27 80t-83 24q-58 0 -142 -28l-23 67q98 36 182 36q93 0 139 -45.5t46 -129.5v-241q0 -32 11 -47.5zM358 139v121h-69
q-146 0 -146 -108q0 -47 23 -71t68 -24q79 0 124 82zM134 634l-39 45l135 113h61l136 -113l-40 -45l-126 84z" />
    <glyph glyph-name="atilde" unicode="&#xe3;" horiz-adv-x="544" 
d="M461 75.5q11 -15.5 33 -23.5l-21 -64q-41 5 -66 23t-37 56q-53 -79 -157 -79q-78 0 -123 44t-45 115q0 84 60.5 129t171.5 45h81v39q0 56 -27 80t-83 24q-58 0 -142 -28l-23 67q98 36 182 36q93 0 139 -45.5t46 -129.5v-241q0 -32 11 -47.5zM358 139v121h-69
q-146 0 -146 -108q0 -47 23 -71t68 -24q79 0 124 82zM284.5 663q-15.5 7 -34.5 20q-15 11 -25.5 16t-21.5 5q-16 0 -28 -11t-25 -35l-56 28q19 40 46.5 64t62.5 24q21 0 36 -7.5t34 -20.5q3 -2 12.5 -8t17.5 -9t16 -3q15 0 27 10.5t26 33.5l56 -28q-19 -42 -47 -64t-62 -22
q-19 0 -34.5 7z" />
    <glyph glyph-name="adieresis" unicode="&#xe4;" horiz-adv-x="544" 
d="M461 75.5q11 -15.5 33 -23.5l-21 -64q-41 5 -66 23t-37 56q-53 -79 -157 -79q-78 0 -123 44t-45 115q0 84 60.5 129t171.5 45h81v39q0 56 -27 80t-83 24q-58 0 -142 -28l-23 67q98 36 182 36q93 0 139 -45.5t46 -129.5v-241q0 -32 11 -47.5zM358 139v121h-69
q-146 0 -146 -108q0 -47 23 -71t68 -24q79 0 124 82zM196.5 751.5q16.5 -16.5 16.5 -40.5t-16.5 -40.5t-40.5 -16.5q-25 0 -41.5 16.5t-16.5 40.5t16.5 40.5t41.5 16.5q24 0 40.5 -16.5zM406.5 751.5q16.5 -16.5 16.5 -40.5t-16.5 -40.5t-41.5 -16.5q-24 0 -40.5 16.5
t-16.5 40.5t16.5 40.5t40.5 16.5q25 0 41.5 -16.5z" />
    <glyph glyph-name="aring" unicode="&#xe5;" horiz-adv-x="544" 
d="M461 75.5q11 -15.5 33 -23.5l-21 -64q-41 5 -66 23t-37 56q-53 -79 -157 -79q-78 0 -123 44t-45 115q0 84 60.5 129t171.5 45h81v39q0 56 -27 80t-83 24q-58 0 -142 -28l-23 67q98 36 182 36q93 0 139 -45.5t46 -129.5v-241q0 -32 11 -47.5zM358 139v121h-69
q-146 0 -146 -108q0 -47 23 -71t68 -24q79 0 124 82zM343 805.5q32 -30.5 32 -75.5t-32 -75.5t-82 -30.5t-82 30.5t-32 75.5t32 75.5t82 30.5t82 -30.5zM222 771q-14 -15 -14 -41t14 -41t39 -15q24 0 38.5 15t14.5 41t-14 41t-39 15t-39 -15z" />
    <glyph glyph-name="ae" unicode="&#xe6;" horiz-adv-x="849" 
d="M795 232h-336q6 -87 44 -128t98 -41q38 0 70 11t67 35l40 -55q-84 -66 -184 -66q-63 0 -111.5 25t-78.5 72q-36 -52 -81 -74.5t-107 -22.5q-79 0 -125 44t-46 115q0 84 62 129t173 45h81v39q0 56 -27 80t-83 24q-58 0 -142 -28l-23 67q98 36 182 36q114 0 157 -84
q57 84 159 84t157.5 -69t55.5 -191q0 -23 -2 -47zM706 306q0 78 -31 119t-93 41q-113 0 -123 -166h247v6zM312.5 79q33.5 22 63.5 70q-15 48 -15 108v3h-69q-146 0 -146 -108q0 -47 23 -71t68 -24q42 0 75.5 22z" />
    <glyph glyph-name="ccedilla" unicode="&#xe7;" horiz-adv-x="478" 
d="M308 -11v-45q48 -4 70.5 -27.5t22.5 -57.5q0 -48 -35 -74t-89 -26q-28 0 -52 6.5t-39 17.5l25 52q30 -16 63 -16q23 0 36.5 9.5t13.5 30.5t-21 31.5t-68 10.5l11 90q-89 14 -139 84t-50 184q0 84 28 147t79.5 98t122.5 35q47 0 86 -13.5t75 -43.5l-44 -58
q-28 20 -54.5 29.5t-58.5 9.5q-64 0 -99.5 -51t-35.5 -151t35 -147.5t100 -47.5q31 0 57 9.5t58 30.5l42 -60q-63 -51 -140 -57z" />
    <glyph glyph-name="egrave" unicode="&#xe8;" horiz-adv-x="545" 
d="M491 232h-336q6 -87 44 -128t98 -41q38 0 70 11t67 35l40 -55q-84 -66 -184 -66q-110 0 -171.5 72t-61.5 198q0 82 26.5 145.5t76 99.5t116.5 36q105 0 161 -69t56 -191q0 -23 -2 -47zM402 306q0 78 -31 119t-93 41q-113 0 -123 -166h247v6zM210 801l199 -114l-28 -49
l-212 86z" />
    <glyph glyph-name="eacute" unicode="&#xe9;" horiz-adv-x="545" 
d="M491 232h-336q6 -87 44 -128t98 -41q38 0 70 11t67 35l40 -55q-84 -66 -184 -66q-110 0 -171.5 72t-61.5 198q0 82 26.5 145.5t76 99.5t116.5 36q105 0 161 -69t56 -191q0 -23 -2 -47zM402 306q0 78 -31 119t-93 41q-113 0 -123 -166h247v6zM358 801l41 -77l-212 -86
l-28 49z" />
    <glyph glyph-name="ecircumflex" unicode="&#xea;" horiz-adv-x="545" 
d="M491 232h-336q6 -87 44 -128t98 -41q38 0 70 11t67 35l40 -55q-84 -66 -184 -66q-110 0 -171.5 72t-61.5 198q0 82 26.5 145.5t76 99.5t116.5 36q105 0 161 -69t56 -191q0 -23 -2 -47zM402 306q0 78 -31 119t-93 41q-113 0 -123 -166h247v6zM152 634l-39 45l135 113h61
l136 -113l-40 -45l-126 84z" />
    <glyph glyph-name="edieresis" unicode="&#xeb;" horiz-adv-x="545" 
d="M491 232h-336q6 -87 44 -128t98 -41q38 0 70 11t67 35l40 -55q-84 -66 -184 -66q-110 0 -171.5 72t-61.5 198q0 82 26.5 145.5t76 99.5t116.5 36q105 0 161 -69t56 -191q0 -23 -2 -47zM402 306q0 78 -31 119t-93 41q-113 0 -123 -166h247v6zM214.5 751.5
q16.5 -16.5 16.5 -40.5t-16.5 -40.5t-40.5 -16.5q-25 0 -41.5 16.5t-16.5 40.5t16.5 40.5t41.5 16.5q24 0 40.5 -16.5zM424.5 751.5q16.5 -16.5 16.5 -40.5t-16.5 -40.5t-41.5 -16.5q-24 0 -40.5 16.5t-16.5 40.5t16.5 40.5t40.5 16.5q25 0 41.5 -16.5z" />
    <glyph glyph-name="igrave" unicode="&#xec;" horiz-adv-x="282" 
d="M187 527v-527h-92v527h92zM72 801l199 -114l-28 -49l-212 86z" />
    <glyph glyph-name="iacute" unicode="&#xed;" horiz-adv-x="282" 
d="M187 527v-527h-92v527h92zM220 801l41 -77l-212 -86l-28 49z" />
    <glyph glyph-name="icircumflex" unicode="&#xee;" horiz-adv-x="282" 
d="M187 527v-527h-92v527h92zM14 634l-39 45l135 113h61l136 -113l-40 -45l-126 84z" />
    <glyph glyph-name="idieresis" unicode="&#xef;" horiz-adv-x="282" 
d="M187 527v-527h-92v527h92zM76.5 751.5q16.5 -16.5 16.5 -40.5t-16.5 -40.5t-40.5 -16.5q-25 0 -41.5 16.5t-16.5 40.5t16.5 40.5t41.5 16.5q24 0 40.5 -16.5zM286.5 751.5q16.5 -16.5 16.5 -40.5t-16.5 -40.5t-41.5 -16.5q-24 0 -40.5 16.5t-16.5 40.5t16.5 40.5
t40.5 16.5q25 0 41.5 -16.5z" />
    <glyph glyph-name="eth" unicode="&#xf0;" horiz-adv-x="570" 
d="M470 500.5q38 -95.5 38 -235.5q0 -83 -29 -145.5t-81 -97t-120 -34.5q-62 0 -112.5 29t-79.5 85t-29 133q0 62 22.5 117t68 89t110.5 34q91 0 147 -67q-12 63 -40.5 111.5t-78.5 87.5l-72 -70l-63 32l74 75q-52 24 -113 36l20 70q85 -17 149 -48l70 74l54 -47l-63 -65
q90 -68 128 -163.5zM377.5 114q37.5 53 37.5 152q0 21 -2 59q-26 39 -60.5 58.5t-80.5 19.5q-121 0 -121 -164q0 -86 34 -132t92 -46q63 0 100.5 53z" />
    <glyph glyph-name="ntilde" unicode="&#xf1;" horiz-adv-x="586" 
d="M455.5 496q40.5 -43 40.5 -118v-378h-92v365q0 56 -21 79t-62 23q-42 0 -74 -24t-60 -69v-374h-92v527h79l8 -78q28 42 69.5 66t91.5 24q72 0 112.5 -43zM321.5 663q-15.5 7 -34.5 20q-15 11 -25.5 16t-21.5 5q-16 0 -28 -11t-25 -35l-56 28q19 40 46.5 64t62.5 24
q21 0 36 -7.5t34 -20.5q3 -2 12.5 -8t17.5 -9t16 -3q15 0 27 10.5t26 33.5l56 -28q-19 -42 -47 -64t-62 -22q-19 0 -34.5 7z" />
    <glyph glyph-name="ograve" unicode="&#xf2;" horiz-adv-x="584" 
d="M465.5 465q61.5 -74 61.5 -201q0 -82 -28 -144.5t-81 -97t-126 -34.5q-111 0 -173 74t-62 201q0 82 28 144.5t81 97t127 34.5q111 0 172.5 -74zM156 263q0 -201 136 -201t136 202q0 201 -135 201q-137 0 -137 -202zM223 801l199 -114l-28 -49l-212 86z" />
    <glyph glyph-name="oacute" unicode="&#xf3;" horiz-adv-x="584" 
d="M465.5 465q61.5 -74 61.5 -201q0 -82 -28 -144.5t-81 -97t-126 -34.5q-111 0 -173 74t-62 201q0 82 28 144.5t81 97t127 34.5q111 0 172.5 -74zM156 263q0 -201 136 -201t136 202q0 201 -135 201q-137 0 -137 -202zM371 801l41 -77l-212 -86l-28 49z" />
    <glyph glyph-name="ocircumflex" unicode="&#xf4;" horiz-adv-x="584" 
d="M465.5 465q61.5 -74 61.5 -201q0 -82 -28 -144.5t-81 -97t-126 -34.5q-111 0 -173 74t-62 201q0 82 28 144.5t81 97t127 34.5q111 0 172.5 -74zM156 263q0 -201 136 -201t136 202q0 201 -135 201q-137 0 -137 -202zM165 634l-39 45l135 113h61l136 -113l-40 -45l-126 84z
" />
    <glyph glyph-name="otilde" unicode="&#xf5;" horiz-adv-x="584" 
d="M465.5 465q61.5 -74 61.5 -201q0 -82 -28 -144.5t-81 -97t-126 -34.5q-111 0 -173 74t-62 201q0 82 28 144.5t81 97t127 34.5q111 0 172.5 -74zM156 263q0 -201 136 -201t136 202q0 201 -135 201q-137 0 -137 -202zM315.5 663q-15.5 7 -34.5 20q-15 11 -25.5 16t-21.5 5
q-16 0 -28 -11t-25 -35l-56 28q19 40 46.5 64t62.5 24q21 0 36 -7.5t34 -20.5q3 -2 12.5 -8t17.5 -9t16 -3q15 0 27 10.5t26 33.5l56 -28q-19 -42 -47 -64t-62 -22q-19 0 -34.5 7z" />
    <glyph glyph-name="odieresis" unicode="&#xf6;" horiz-adv-x="584" 
d="M465.5 465q61.5 -74 61.5 -201q0 -82 -28 -144.5t-81 -97t-126 -34.5q-111 0 -173 74t-62 201q0 82 28 144.5t81 97t127 34.5q111 0 172.5 -74zM156 263q0 -201 136 -201t136 202q0 201 -135 201q-137 0 -137 -202zM227.5 751.5q16.5 -16.5 16.5 -40.5t-16.5 -40.5
t-40.5 -16.5q-25 0 -41.5 16.5t-16.5 40.5t16.5 40.5t41.5 16.5q24 0 40.5 -16.5zM437.5 751.5q16.5 -16.5 16.5 -40.5t-16.5 -40.5t-41.5 -16.5q-24 0 -40.5 16.5t-16.5 40.5t16.5 40.5t40.5 16.5q25 0 41.5 -16.5z" />
    <glyph glyph-name="divide" unicode="&#xf7;" horiz-adv-x="500" 
d="M300 154q20 -20 20 -49t-20 -49.5t-50 -20.5q-29 0 -49 20.5t-20 49.5t20 49t49 20q30 0 50 -20zM300 611q20 -20 20 -49t-20 -49.5t-50 -20.5q-29 0 -49 20.5t-20 49.5t20 49t49 20q30 0 50 -20zM62 294v77h376v-77h-376z" />
    <glyph glyph-name="oslash" unicode="&#xf8;" horiz-adv-x="584" 
d="M498.5 412.5q28.5 -62.5 28.5 -148.5q0 -82 -28 -144.5t-81 -97t-126 -34.5q-24 0 -51 5l-39 -123l-75 22l42 127q-54 33 -83 96t-29 148q0 82 28 144.5t81 97t127 34.5q24 0 51 -5l39 122l75 -22l-42 -126q54 -33 82.5 -95.5zM156 263q0 -129 48 -174l124 373
q-17 3 -35 3q-137 0 -137 -202zM428 264q0 67 -11.5 109t-35.5 64l-123 -372q15 -3 34 -3q136 0 136 202z" />
    <glyph glyph-name="ugrave" unicode="&#xf9;" horiz-adv-x="582" 
d="M487 0h-79l-7 82q-30 -49 -69 -71.5t-95 -22.5q-69 0 -108 42t-39 119v378h92v-368q0 -54 19 -76.5t62 -22.5q77 0 132 91v376h92v-527zM220 801l199 -114l-28 -49l-212 86z" />
    <glyph glyph-name="uacute" unicode="&#xfa;" horiz-adv-x="582" 
d="M487 0h-79l-7 82q-30 -49 -69 -71.5t-95 -22.5q-69 0 -108 42t-39 119v378h92v-368q0 -54 19 -76.5t62 -22.5q77 0 132 91v376h92v-527zM368 801l41 -77l-212 -86l-28 49z" />
    <glyph glyph-name="ucircumflex" unicode="&#xfb;" horiz-adv-x="582" 
d="M487 0h-79l-7 82q-30 -49 -69 -71.5t-95 -22.5q-69 0 -108 42t-39 119v378h92v-368q0 -54 19 -76.5t62 -22.5q77 0 132 91v376h92v-527zM162 634l-39 45l135 113h61l136 -113l-40 -45l-126 84z" />
    <glyph glyph-name="udieresis" unicode="&#xfc;" horiz-adv-x="582" 
d="M487 0h-79l-7 82q-30 -49 -69 -71.5t-95 -22.5q-69 0 -108 42t-39 119v378h92v-368q0 -54 19 -76.5t62 -22.5q77 0 132 91v376h92v-527zM224.5 751.5q16.5 -16.5 16.5 -40.5t-16.5 -40.5t-40.5 -16.5q-25 0 -41.5 16.5t-16.5 40.5t16.5 40.5t41.5 16.5q24 0 40.5 -16.5z
M434.5 751.5q16.5 -16.5 16.5 -40.5t-16.5 -40.5t-41.5 -16.5q-24 0 -40.5 16.5t-16.5 40.5t16.5 40.5t40.5 16.5q25 0 41.5 -16.5z" />
    <glyph glyph-name="yacute" unicode="&#xfd;" horiz-adv-x="492" 
d="M306 -3q-31 -92 -86.5 -145.5t-158.5 -64.5l-10 72q52 9 83 26t49.5 43.5t34.5 71.5h-31l-177 527h98l141 -460l138 460h95zM325 801l41 -77l-212 -86l-28 49z" />
    <glyph glyph-name="thorn" unicode="&#xfe;" horiz-adv-x="594" 
d="M485 467q47 -72 47 -203q0 -124 -54 -200t-153 -76q-88 0 -138 60v-246l-92 -15v952l92 11v-287q28 37 67 56.5t83 19.5q101 0 148 -72zM433 264q0 202 -119 202q-39 0 -71 -23t-56 -59v-257q20 -31 50 -47.5t66 -16.5q130 0 130 201z" />
    <glyph glyph-name="ydieresis" unicode="&#xff;" horiz-adv-x="492" 
d="M306 -3q-31 -92 -86.5 -145.5t-158.5 -64.5l-10 72q52 9 83 26t49.5 43.5t34.5 71.5h-31l-177 527h98l141 -460l138 460h95zM181.5 751.5q16.5 -16.5 16.5 -40.5t-16.5 -40.5t-40.5 -16.5q-25 0 -41.5 16.5t-16.5 40.5t16.5 40.5t41.5 16.5q24 0 40.5 -16.5zM391.5 751.5
q16.5 -16.5 16.5 -40.5t-16.5 -40.5t-41.5 -16.5q-24 0 -40.5 16.5t-16.5 40.5t16.5 40.5t40.5 16.5q25 0 41.5 -16.5z" />
    <glyph glyph-name="Amacron" unicode="&#x100;" horiz-adv-x="573" 
d="M467 0l-52 173h-261l-52 -173h-96l221 689h120l220 -689h-100zM177 250h215l-107 360zM423 793h-273v69h273v-69z" />
    <glyph glyph-name="amacron" unicode="&#x101;" horiz-adv-x="544" 
d="M461 75.5q11 -15.5 33 -23.5l-21 -64q-41 5 -66 23t-37 56q-53 -79 -157 -79q-78 0 -123 44t-45 115q0 84 60.5 129t171.5 45h81v39q0 56 -27 80t-83 24q-58 0 -142 -28l-23 67q98 36 182 36q93 0 139 -45.5t46 -129.5v-241q0 -32 11 -47.5zM358 139v121h-69
q-146 0 -146 -108q0 -47 23 -71t68 -24q79 0 124 82zM397 667h-273v69h273v-69z" />
    <glyph glyph-name="Abreve" unicode="&#x102;" horiz-adv-x="573" 
d="M467 0l-52 173h-261l-52 -173h-96l221 689h120l220 -689h-100zM177 250h215l-107 360zM183 792q-42 34 -48 89l61 13q23 -66 89 -66q34 0 57.5 17.5t34.5 48.5l61 -13q-6 -55 -49 -89t-104 -34q-60 0 -102 34z" />
    <glyph glyph-name="abreve" unicode="&#x103;" horiz-adv-x="544" 
d="M461 75.5q11 -15.5 33 -23.5l-21 -64q-41 5 -66 23t-37 56q-53 -79 -157 -79q-78 0 -123 44t-45 115q0 84 60.5 129t171.5 45h81v39q0 56 -27 80t-83 24q-58 0 -142 -28l-23 67q98 36 182 36q93 0 139 -45.5t46 -129.5v-241q0 -32 11 -47.5zM358 139v121h-69
q-146 0 -146 -108q0 -47 23 -71t68 -24q79 0 124 82zM156.5 678.5q-41.5 35.5 -47.5 97.5l61 13q21 -76 89 -76q71 0 92 76l61 -13q-6 -62 -48.5 -97.5t-104.5 -35.5q-61 0 -102.5 35.5z" />
    <glyph glyph-name="Aogonek" unicode="&#x104;" horiz-adv-x="573" 
d="M430 -57.5q-26 -26.5 -26 -56.5q0 -48 56 -48q27 0 61 7l-9 -70q-35 -7 -63 -7q-57 0 -91 28.5t-34 72.5q0 48 34 84t104 63l-47 157h-261l-52 -173h-96l221 689h120l220 -689h-40q-71 -31 -97 -57.5zM177 250h215l-107 360z" />
    <glyph glyph-name="aogonek" unicode="&#x105;" horiz-adv-x="544" 
d="M376 -69.5q-26 -26.5 -26 -56.5q0 -48 56 -48q27 0 61 7l-9 -70q-35 -7 -63 -7q-57 0 -91 28.5t-34 72.5q0 49 35.5 85.5t108.5 63.5q-31 19 -44 61q-53 -79 -157 -79q-78 0 -123 44t-45 115q0 84 60.5 129t171.5 45h81v39q0 56 -27 80t-83 24q-58 0 -142 -28l-23 67
q98 36 182 36q93 0 139 -45.5t46 -129.5v-241q0 -32 11 -47.5t33 -23.5l-21 -64q-71 -31 -97 -57.5zM358 139v121h-69q-146 0 -146 -108q0 -47 23 -71t68 -24q79 0 124 82z" />
    <glyph glyph-name="Cacute" unicode="&#x106;" 
d="M445.5 685q42.5 -16 86.5 -52l-52 -61q-63 51 -133 51q-86 0 -138.5 -66t-52.5 -212q0 -142 52 -209.5t138 -67.5q44 0 77 15t70 42l47 -60q-32 -33 -82 -55t-115 -22q-84 0 -149.5 41.5t-102 122t-36.5 193.5t38 193.5t103 121.5t145 41q62 0 104.5 -16zM427 911l40 -77
l-216 -79l-24 49z" />
    <glyph glyph-name="cacute" unicode="&#x107;" horiz-adv-x="478" 
d="M373 525.5q39 -13.5 75 -43.5l-44 -58q-28 20 -54.5 29.5t-58.5 9.5q-64 0 -99.5 -51t-35.5 -151t35 -147.5t100 -47.5q31 0 57 9.5t58 30.5l42 -60q-72 -58 -161 -58q-107 0 -168.5 72t-61.5 199q0 84 28 147t79.5 98t122.5 35q47 0 86 -13.5zM368 801l41 -77l-212 -86
l-28 49z" />
    <glyph glyph-name="Ccircumflex" unicode="&#x108;" 
d="M445.5 685q42.5 -16 86.5 -52l-52 -61q-63 51 -133 51q-86 0 -138.5 -66t-52.5 -212q0 -142 52 -209.5t138 -67.5q44 0 77 15t70 42l47 -60q-32 -33 -82 -55t-115 -22q-84 0 -149.5 41.5t-102 122t-36.5 193.5t38 193.5t103 121.5t145 41q62 0 104.5 -16zM220 759l-40 45
l136 110h61l135 -110l-39 -45l-127 81z" />
    <glyph glyph-name="ccircumflex" unicode="&#x109;" horiz-adv-x="478" 
d="M373 525.5q39 -13.5 75 -43.5l-44 -58q-28 20 -54.5 29.5t-58.5 9.5q-64 0 -99.5 -51t-35.5 -151t35 -147.5t100 -47.5q31 0 57 9.5t58 30.5l42 -60q-72 -58 -161 -58q-107 0 -168.5 72t-61.5 199q0 84 28 147t79.5 98t122.5 35q47 0 86 -13.5zM162 634l-39 45l135 113
h61l136 -113l-40 -45l-126 84z" />
    <glyph glyph-name="Cdotaccent" unicode="&#x10a;" 
d="M445.5 685q42.5 -16 86.5 -52l-52 -61q-63 51 -133 51q-86 0 -138.5 -66t-52.5 -212q0 -142 52 -209.5t138 -67.5q44 0 77 15t70 42l47 -60q-32 -33 -82 -55t-115 -22q-84 0 -149.5 41.5t-102 122t-36.5 193.5t38 193.5t103 121.5t145 41q62 0 104.5 -16zM393 888
q18 -18 18 -45t-18 -44.5t-47 -17.5q-28 0 -46 17.5t-18 44.5t18 45t46 18q29 0 47 -18z" />
    <glyph glyph-name="cdotaccent" unicode="&#x10b;" horiz-adv-x="478" 
d="M373 525.5q39 -13.5 75 -43.5l-44 -58q-28 20 -54.5 29.5t-58.5 9.5q-64 0 -99.5 -51t-35.5 -151t35 -147.5t100 -47.5q31 0 57 9.5t58 30.5l42 -60q-72 -58 -161 -58q-107 0 -168.5 72t-61.5 199q0 84 28 147t79.5 98t122.5 35q47 0 86 -13.5zM335 762q18 -18 18 -45
t-18 -44.5t-47 -17.5q-28 0 -46 17.5t-18 44.5t18 45t46 18q29 0 47 -18z" />
    <glyph glyph-name="Ccaron" unicode="&#x10c;" 
d="M445.5 685q42.5 -16 86.5 -52l-52 -61q-63 51 -133 51q-86 0 -138.5 -66t-52.5 -212q0 -142 52 -209.5t138 -67.5q44 0 77 15t70 42l47 -60q-32 -33 -82 -55t-115 -22q-84 0 -149.5 41.5t-102 122t-36.5 193.5t38 193.5t103 121.5t145 41q62 0 104.5 -16zM474 909l39 -45
l-135 -110h-61l-136 110l40 45l126 -81z" />
    <glyph glyph-name="ccaron" unicode="&#x10d;" horiz-adv-x="478" 
d="M373 525.5q39 -13.5 75 -43.5l-44 -58q-28 20 -54.5 29.5t-58.5 9.5q-64 0 -99.5 -51t-35.5 -151t35 -147.5t100 -47.5q31 0 57 9.5t58 30.5l42 -60q-72 -58 -161 -58q-107 0 -168.5 72t-61.5 199q0 84 28 147t79.5 98t122.5 35q47 0 86 -13.5zM416 785l39 -45l-135 -113
h-61l-136 113l40 45l126 -84z" />
    <glyph glyph-name="Dcaron" unicode="&#x10e;" horiz-adv-x="644" 
d="M494.5 616.5q94.5 -72.5 94.5 -268.5q0 -191 -94.5 -269.5t-229.5 -78.5h-165v689h144q156 0 250.5 -72.5zM195 613v-538h77q96 0 156 59t60 214q0 109 -31 167.5t-79 78t-113 19.5h-70zM430 909l39 -45l-135 -110h-61l-136 110l40 45l126 -81z" />
    <glyph glyph-name="dcaron" unicode="&#x10f;" horiz-adv-x="598" 
d="M503 739v-739h-81l-9 73q-26 -40 -65 -62.5t-87 -22.5q-94 0 -146.5 74t-52.5 199q0 81 25 144t72 98.5t110 35.5q81 0 142 -65v276zM353 80.5q30 19.5 58 58.5v258q-26 34 -55.5 51.5t-66.5 17.5q-61 0 -94.5 -51t-33.5 -152q0 -102 31 -152t89 -50q42 0 72 19.5z
M601 555l50 184l-83 10l-20 -186z" />
    <glyph glyph-name="Dcroat" unicode="&#x110;" horiz-adv-x="656" 
d="M506.5 616.5q94.5 -72.5 94.5 -268.5q0 -191 -94.5 -269.5t-229.5 -78.5h-165v318h-92v70h92v301h144q156 0 250.5 -72.5zM440 134q60 59 60 214q0 109 -31 167.5t-79 78t-113 19.5h-70v-225h157v-70h-157v-243h77q96 0 156 59z" />
    <glyph glyph-name="dcroat" unicode="&#x111;" horiz-adv-x="604" 
d="M582 676v-70h-79v-606h-81l-9 73q-26 -40 -65 -62.5t-87 -22.5q-94 0 -146.5 74t-52.5 199q0 81 25 144t72 98.5t110 35.5q81 0 142 -65v132h-158v70h158v74l92 -11v-63h79zM353 80.5q30 19.5 58 58.5v258q-26 34 -55.5 51.5t-66.5 17.5q-61 0 -94.5 -51t-33.5 -152
q0 -102 31 -152t89 -50q42 0 72 19.5z" />
    <glyph glyph-name="Emacron" unicode="&#x112;" horiz-adv-x="535" 
d="M473 689l-11 -76h-267v-225h232v-76h-232v-236h286v-76h-381v689h373zM426 793h-273v69h273v-69z" />
    <glyph glyph-name="emacron" unicode="&#x113;" horiz-adv-x="545" 
d="M491 232h-336q6 -87 44 -128t98 -41q38 0 70 11t67 35l40 -55q-84 -66 -184 -66q-110 0 -171.5 72t-61.5 198q0 82 26.5 145.5t76 99.5t116.5 36q105 0 161 -69t56 -191q0 -23 -2 -47zM402 306q0 78 -31 119t-93 41q-113 0 -123 -166h247v6zM415 667h-273v69h273v-69z
" />
    <glyph glyph-name="Ebreve" unicode="&#x114;" horiz-adv-x="535" 
d="M473 689l-11 -76h-267v-225h232v-76h-232v-236h286v-76h-381v689h373zM186 792q-42 34 -48 89l61 13q23 -66 89 -66q34 0 57.5 17.5t34.5 48.5l61 -13q-6 -55 -49 -89t-104 -34q-60 0 -102 34z" />
    <glyph glyph-name="ebreve" unicode="&#x115;" horiz-adv-x="545" 
d="M491 232h-336q6 -87 44 -128t98 -41q38 0 70 11t67 35l40 -55q-84 -66 -184 -66q-110 0 -171.5 72t-61.5 198q0 82 26.5 145.5t76 99.5t116.5 36q105 0 161 -69t56 -191q0 -23 -2 -47zM402 306q0 78 -31 119t-93 41q-113 0 -123 -166h247v6zM174.5 678.5
q-41.5 35.5 -47.5 97.5l61 13q21 -76 89 -76q71 0 92 76l61 -13q-6 -62 -48.5 -97.5t-104.5 -35.5q-61 0 -102.5 35.5z" />
    <glyph glyph-name="Edotaccent" unicode="&#x116;" horiz-adv-x="535" 
d="M473 689l-11 -76h-267v-225h232v-76h-232v-236h286v-76h-381v689h373zM336 888q18 -18 18 -45t-18 -44.5t-47 -17.5q-28 0 -46 17.5t-18 44.5t18 45t46 18q29 0 47 -18z" />
    <glyph glyph-name="edotaccent" unicode="&#x117;" horiz-adv-x="545" 
d="M491 232h-336q6 -87 44 -128t98 -41q38 0 70 11t67 35l40 -55q-84 -66 -184 -66q-110 0 -171.5 72t-61.5 198q0 82 26.5 145.5t76 99.5t116.5 36q105 0 161 -69t56 -191q0 -23 -2 -47zM402 306q0 78 -31 119t-93 41q-113 0 -123 -166h247v6zM325 762q18 -18 18 -45
t-18 -44.5t-47 -17.5q-28 0 -46 17.5t-18 44.5t18 45t46 18q29 0 47 -18z" />
    <glyph glyph-name="Eogonek" unicode="&#x118;" horiz-adv-x="535" 
d="M481 76v-76h-40q-71 -31 -97 -57.5t-26 -56.5q0 -48 56 -48q27 0 61 7l-9 -70q-35 -7 -63 -7q-57 0 -91 28.5t-34 72.5q0 41 25 73t76 58h-239v689h373l-11 -76h-267v-225h232v-76h-232v-236h286z" />
    <glyph glyph-name="eogonek" unicode="&#x119;" horiz-adv-x="545" 
d="M491 232h-336q6 -87 44 -128t98 -41q38 0 70 11t67 35l40 -55q-44 -35 -93 -52q-66 -29 -90.5 -55t-24.5 -55q0 -48 56 -48q27 0 61 7l-9 -70q-35 -7 -63 -7q-57 0 -91 28.5t-34 72.5q0 72 83 114q-100 7 -156 78t-56 191q0 82 26.5 145.5t76 99.5t116.5 36
q105 0 161 -69t56 -191q0 -23 -2 -47zM402 306q0 78 -31 119t-93 41q-113 0 -123 -166h247v6z" />
    <glyph glyph-name="Ecaron" unicode="&#x11a;" horiz-adv-x="535" 
d="M473 689l-11 -76h-267v-225h232v-76h-232v-236h286v-76h-381v689h373zM417 909l39 -45l-135 -110h-61l-136 110l40 45l126 -81z" />
    <glyph glyph-name="ecaron" unicode="&#x11b;" horiz-adv-x="545" 
d="M491 232h-336q6 -87 44 -128t98 -41q38 0 70 11t67 35l40 -55q-84 -66 -184 -66q-110 0 -171.5 72t-61.5 198q0 82 26.5 145.5t76 99.5t116.5 36q105 0 161 -69t56 -191q0 -23 -2 -47zM402 306q0 78 -31 119t-93 41q-113 0 -123 -166h247v6zM406 785l39 -45l-135 -113
h-61l-136 113l40 45l126 -84z" />
    <glyph glyph-name="Gcircumflex" unicode="&#x11c;" horiz-adv-x="631" 
d="M466.5 682.5q47.5 -18.5 94.5 -57.5l-56 -58q-37 30 -71 43t-80 13q-53 0 -97.5 -28.5t-72.5 -91t-28 -158.5q0 -145 47.5 -212t140.5 -67q76 0 131 31v208h-122l-11 77h227v-333q-107 -61 -225 -61q-136 0 -212.5 91t-76.5 266q0 112 40.5 192.5t109 122t149.5 41.5
q65 0 112.5 -18.5zM228 759l-40 45l136 110h61l135 -110l-39 -45l-127 81z" />
    <glyph glyph-name="gcircumflex" unicode="&#x11d;" horiz-adv-x="520" 
d="M520 503q-30 -10 -66 -13t-88 -3q93 -42 93 -133q0 -79 -54 -129t-147 -50q-36 0 -67 10q-12 -8 -19 -21.5t-7 -27.5q0 -43 69 -43h84q53 0 94 -19t63.5 -52t22.5 -75q0 -77 -63 -118.5t-184 -41.5q-85 0 -134.5 17.5t-70.5 52.5t-21 90h83q0 -32 12 -50.5t43 -28
t88 -9.5q83 0 118.5 20.5t35.5 61.5q0 37 -28 56t-78 19h-83q-67 0 -101.5 28.5t-34.5 71.5q0 26 15 50t43 43q-46 24 -67.5 59.5t-21.5 86.5q0 53 26.5 95t73 65.5t103.5 23.5q62 -1 104 4.5t69.5 15t67.5 27.5zM171.5 440.5q-28.5 -32.5 -28.5 -85.5q0 -54 29 -86.5
t82 -32.5q54 0 82.5 31.5t28.5 88.5q0 117 -113 117q-52 0 -80.5 -32.5zM133 634l-39 45l135 113h61l136 -113l-40 -45l-126 84z" />
    <glyph glyph-name="Gbreve" unicode="&#x11e;" horiz-adv-x="631" 
d="M466.5 682.5q47.5 -18.5 94.5 -57.5l-56 -58q-37 30 -71 43t-80 13q-53 0 -97.5 -28.5t-72.5 -91t-28 -158.5q0 -145 47.5 -212t140.5 -67q76 0 131 31v208h-122l-11 77h227v-333q-107 -61 -225 -61q-136 0 -212.5 91t-76.5 266q0 112 40.5 192.5t109 122t149.5 41.5
q65 0 112.5 -18.5zM251 792q-42 34 -48 89l61 13q23 -66 89 -66q34 0 57.5 17.5t34.5 48.5l61 -13q-6 -55 -49 -89t-104 -34q-60 0 -102 34z" />
    <glyph glyph-name="gbreve" unicode="&#x11f;" horiz-adv-x="520" 
d="M520 503q-30 -10 -66 -13t-88 -3q93 -42 93 -133q0 -79 -54 -129t-147 -50q-36 0 -67 10q-12 -8 -19 -21.5t-7 -27.5q0 -43 69 -43h84q53 0 94 -19t63.5 -52t22.5 -75q0 -77 -63 -118.5t-184 -41.5q-85 0 -134.5 17.5t-70.5 52.5t-21 90h83q0 -32 12 -50.5t43 -28
t88 -9.5q83 0 118.5 20.5t35.5 61.5q0 37 -28 56t-78 19h-83q-67 0 -101.5 28.5t-34.5 71.5q0 26 15 50t43 43q-46 24 -67.5 59.5t-21.5 86.5q0 53 26.5 95t73 65.5t103.5 23.5q62 -1 104 4.5t69.5 15t67.5 27.5zM171.5 440.5q-28.5 -32.5 -28.5 -85.5q0 -54 29 -86.5
t82 -32.5q54 0 82.5 31.5t28.5 88.5q0 117 -113 117q-52 0 -80.5 -32.5zM155.5 678.5q-41.5 35.5 -47.5 97.5l61 13q21 -76 89 -76q71 0 92 76l61 -13q-6 -62 -48.5 -97.5t-104.5 -35.5q-61 0 -102.5 35.5z" />
    <glyph glyph-name="Gdotaccent" unicode="&#x120;" horiz-adv-x="631" 
d="M466.5 682.5q47.5 -18.5 94.5 -57.5l-56 -58q-37 30 -71 43t-80 13q-53 0 -97.5 -28.5t-72.5 -91t-28 -158.5q0 -145 47.5 -212t140.5 -67q76 0 131 31v208h-122l-11 77h227v-333q-107 -61 -225 -61q-136 0 -212.5 91t-76.5 266q0 112 40.5 192.5t109 122t149.5 41.5
q65 0 112.5 -18.5zM401 888q18 -18 18 -45t-18 -44.5t-47 -17.5q-28 0 -46 17.5t-18 44.5t18 45t46 18q29 0 47 -18z" />
    <glyph glyph-name="gdotaccent" unicode="&#x121;" horiz-adv-x="520" 
d="M520 503q-30 -10 -66 -13t-88 -3q93 -42 93 -133q0 -79 -54 -129t-147 -50q-36 0 -67 10q-12 -8 -19 -21.5t-7 -27.5q0 -43 69 -43h84q53 0 94 -19t63.5 -52t22.5 -75q0 -77 -63 -118.5t-184 -41.5q-85 0 -134.5 17.5t-70.5 52.5t-21 90h83q0 -32 12 -50.5t43 -28
t88 -9.5q83 0 118.5 20.5t35.5 61.5q0 37 -28 56t-78 19h-83q-67 0 -101.5 28.5t-34.5 71.5q0 26 15 50t43 43q-46 24 -67.5 59.5t-21.5 86.5q0 53 26.5 95t73 65.5t103.5 23.5q62 -1 104 4.5t69.5 15t67.5 27.5zM171.5 440.5q-28.5 -32.5 -28.5 -85.5q0 -54 29 -86.5
t82 -32.5q54 0 82.5 31.5t28.5 88.5q0 117 -113 117q-52 0 -80.5 -32.5zM306 762q18 -18 18 -45t-18 -44.5t-47 -17.5q-28 0 -46 17.5t-18 44.5t18 45t46 18q29 0 47 -18z" />
    <glyph glyph-name="Gcommaaccent" unicode="&#x122;" horiz-adv-x="631" 
d="M466.5 682.5q47.5 -18.5 94.5 -57.5l-56 -58q-37 30 -71 43t-80 13q-53 0 -97.5 -28.5t-72.5 -91t-28 -158.5q0 -145 47.5 -212t140.5 -67q76 0 131 31v208h-122l-11 77h227v-333q-107 -61 -225 -61q-136 0 -212.5 91t-76.5 266q0 112 40.5 192.5t109 122t149.5 41.5
q65 0 112.5 -18.5zM386.5 -93q16.5 -16 16.5 -40q0 -13 -5.5 -29t-20.5 -48l-41 -86h-53l29 116q-24 21 -24 47q0 24 17 40t41 16t40.5 -16z" />
    <glyph glyph-name="gcommaaccent" unicode="&#x123;" horiz-adv-x="520" 
d="M520 503q-30 -10 -66 -13t-88 -3q93 -42 93 -133q0 -79 -54 -129t-147 -50q-36 0 -67 10q-12 -8 -19 -21.5t-7 -27.5q0 -43 69 -43h84q53 0 94 -19t63.5 -52t22.5 -75q0 -77 -63 -118.5t-184 -41.5q-85 0 -134.5 17.5t-70.5 52.5t-21 90h83q0 -32 12 -50.5t43 -28
t88 -9.5q83 0 118.5 20.5t35.5 61.5q0 37 -28 56t-78 19h-83q-67 0 -101.5 28.5t-34.5 71.5q0 26 15 50t43 43q-46 24 -67.5 59.5t-21.5 86.5q0 53 26.5 95t73 65.5t103.5 23.5q62 -1 104 4.5t69.5 15t67.5 27.5zM171.5 440.5q-28.5 -32.5 -28.5 -85.5q0 -54 29 -86.5
t82 -32.5q54 0 82.5 31.5t28.5 88.5q0 117 -113 117q-52 0 -80.5 -32.5zM220.5 599q-16.5 16 -16.5 40q0 13 5.5 29t20.5 48l41 86h53l-29 -116q24 -21 24 -47q0 -24 -17 -40t-41 -16t-40.5 16z" />
    <glyph glyph-name="Hcircumflex" unicode="&#x124;" horiz-adv-x="680" 
d="M485 0v323h-290v-323h-95v689h95v-288h290v288h95v-689h-95zM213 759l-40 45l136 110h61l135 -110l-39 -45l-127 81z" />
    <glyph glyph-name="hcircumflex" unicode="&#x125;" horiz-adv-x="586" 
d="M455.5 496q40.5 -43 40.5 -118v-378h-92v365q0 56 -21.5 79t-62.5 23t-73 -24t-60 -68v-375h-92v738l92 10v-294q62 85 156 85q72 0 112.5 -43zM165 809l-40 45l136 110h61l135 -110l-39 -45l-127 81z" />
    <glyph glyph-name="Hbar" unicode="&#x126;" horiz-adv-x="688" 
d="M653 577v-69h-69v-508h-95v323h-290v-323h-95v508h-69v69h69v112h95v-112h290v112h95v-112h69zM489 401v107h-290v-107h290z" />
    <glyph glyph-name="hbar" unicode="&#x127;" horiz-adv-x="592" 
d="M461.5 496q40.5 -43 40.5 -118v-378h-92v365q0 56 -21.5 79t-62.5 23t-73 -24t-60 -68v-375h-92v606h-79v70h79v62l92 10v-72h148v-70h-148v-152q62 85 156 85q72 0 112.5 -43z" />
    <glyph glyph-name="Itilde" unicode="&#x128;" horiz-adv-x="295" 
d="M195 689v-689h-95v689h95zM170.5 789q-15.5 7 -34.5 20q-15 11 -25.5 16t-21.5 5q-16 0 -28 -11t-25 -35l-56 28q19 40 46.5 64t62.5 24q21 0 36 -7.5t34 -20.5q3 -2 12.5 -8t17.5 -9t16 -3q15 0 27 10.5t26 33.5l56 -28q-19 -42 -47 -64t-62 -22q-19 0 -34.5 7z" />
    <glyph glyph-name="itilde" unicode="&#x129;" horiz-adv-x="282" 
d="M187 527v-527h-92v527h92zM164.5 663q-15.5 7 -34.5 20q-15 11 -25.5 16t-21.5 5q-16 0 -28 -11t-25 -35l-56 28q19 40 46.5 64t62.5 24q21 0 36 -7.5t34 -20.5q3 -2 12.5 -8t17.5 -9t16 -3q15 0 27 10.5t26 33.5l56 -28q-19 -42 -47 -64t-62 -22q-19 0 -34.5 7z" />
    <glyph glyph-name="Imacron" unicode="&#x12a;" horiz-adv-x="295" 
d="M195 689v-689h-95v689h95zM283 793h-273v69h273v-69z" />
    <glyph glyph-name="imacron" unicode="&#x12b;" horiz-adv-x="282" 
d="M187 527v-527h-92v527h92zM277 667h-273v69h273v-69z" />
    <glyph glyph-name="Ibreve" unicode="&#x12c;" horiz-adv-x="295" 
d="M195 689v-689h-95v689h95zM43 792q-42 34 -48 89l61 13q23 -66 89 -66q34 0 57.5 17.5t34.5 48.5l61 -13q-6 -55 -49 -89t-104 -34q-60 0 -102 34z" />
    <glyph glyph-name="ibreve" unicode="&#x12d;" horiz-adv-x="282" 
d="M187 527v-527h-92v527h92zM36.5 678.5q-41.5 35.5 -47.5 97.5l61 13q21 -76 89 -76q71 0 92 76l61 -13q-6 -62 -48.5 -97.5t-104.5 -35.5q-61 0 -102.5 35.5z" />
    <glyph glyph-name="Iogonek" unicode="&#x12e;" horiz-adv-x="295" 
d="M98 -57.5q-26 -26.5 -26 -56.5q0 -48 56 -48q27 0 61 7l-9 -70q-35 -7 -63 -7q-57 0 -91 28.5t-34 72.5q0 84 108 134v686h95v-689q-71 -31 -97 -57.5z" />
    <glyph glyph-name="iogonek" unicode="&#x12f;" horiz-adv-x="282" 
d="M187 762q18 -18 18 -45t-18 -44.5t-47 -17.5q-28 0 -46 17.5t-18 44.5t18 45t46 18q29 0 47 -18zM95 527h92v-527q-71 -31 -97 -57.5t-26 -56.5q0 -48 56 -48q27 0 61 7l-9 -70q-35 -7 -63 -7q-57 0 -91 28.5t-34 72.5q0 43 27.5 76.5t83.5 59.5v522z" />
    <glyph glyph-name="Idotaccent" unicode="&#x130;" horiz-adv-x="295" 
d="M195 689v-689h-95v689h95zM193 888q18 -18 18 -45t-18 -44.5t-47 -17.5q-28 0 -46 17.5t-18 44.5t18 45t46 18q29 0 47 -18z" />
    <glyph glyph-name="dotlessi" unicode="&#x131;" horiz-adv-x="282" 
d="M187 527v-527h-92v527h92z" />
    <glyph glyph-name="IJ" unicode="&#x132;" horiz-adv-x="600" 
d="M195 689v-689h-95v689h95zM505 96q0 -102 -44.5 -153t-135.5 -80l-25 69q46 18 69 39t32 51t9 78v589h95v-593z" />
    <glyph glyph-name="ij" unicode="&#x133;" horiz-adv-x="562" 
d="M187 527v-527h-92v527h92zM187 762q18 -18 18 -45t-18 -44.5t-47 -17.5q-28 0 -46 17.5t-18 44.5t18 45t46 18q29 0 47 -18zM467 32q0 -73 -18 -117t-52.5 -71.5t-96.5 -55.5l-27 67q39 18 60 35.5t31.5 49t10.5 86.5v501h92v-495zM468 762q18 -18 18 -45t-18 -44.5
t-47 -17.5q-28 0 -46 17.5t-18 44.5t18 45t46 18q29 0 47 -18z" />
    <glyph glyph-name="Jcircumflex" unicode="&#x134;" horiz-adv-x="305" 
d="M210 96q0 -102 -44.5 -153t-135.5 -80l-25 69q46 18 69 39t32 51t9 78v589h95v-593zM36 759l-40 45l136 110h61l135 -110l-39 -45l-127 81z" />
    <glyph glyph-name="jcircumflex" unicode="&#x135;" horiz-adv-x="280" 
d="M185 32q0 -73 -18 -117t-52.5 -71.5t-96.5 -55.5l-27 67q39 18 60 35.5t31.5 49t10.5 86.5v501h92v-495zM13 634l-39 45l135 113h61l136 -113l-40 -45l-126 84z" />
    <glyph glyph-name="Kcommaaccent" unicode="&#x136;" horiz-adv-x="589" 
d="M195 689v-689h-95v689h95zM570 689l-261 -315l280 -374h-117l-272 368l262 321h108zM358.5 -93q16.5 -16 16.5 -40q0 -13 -5.5 -29t-20.5 -48l-41 -86h-53l29 116q-24 21 -24 47q0 24 17 40t41 16t40.5 -16z" />
    <glyph glyph-name="kcommaaccent" unicode="&#x137;" horiz-adv-x="512" 
d="M187 750v-750h-92v739zM490 527l-194 -233l216 -294h-110l-209 288l194 239h103zM298.5 -93q16.5 -16 16.5 -40q0 -13 -5.5 -29t-20.5 -48l-41 -86h-53l29 116q-24 21 -24 47q0 24 17 40t41 16t40.5 -16z" />
    <glyph glyph-name="kgreenlandic" unicode="&#x138;" horiz-adv-x="509" 
d="M187 527v-527h-92v527h92zM487 527l-194 -243l216 -284h-110l-209 278l194 249h103z" />
    <glyph glyph-name="Lacute" unicode="&#x139;" horiz-adv-x="498" 
d="M195 689v-606h283l-11 -83h-367v689h95zM228 911l40 -77l-216 -79l-24 49z" />
    <glyph glyph-name="lacute" unicode="&#x13a;" horiz-adv-x="293" 
d="M119.5 18.5q-29.5 30.5 -29.5 85.5v635l92 11v-644q0 -22 7.5 -32t25.5 -10q19 0 34 6l24 -64q-33 -18 -73 -18q-51 0 -80.5 30.5zM216 961l40 -77l-216 -79l-24 49z" />
    <glyph glyph-name="Lcommaaccent" unicode="&#x13b;" horiz-adv-x="498" 
d="M195 689v-606h283l-11 -83h-367v689h95zM327.5 -93q16.5 -16 16.5 -40q0 -13 -5.5 -29t-20.5 -48l-41 -86h-53l29 116q-24 21 -24 47q0 24 17 40t41 16t40.5 -16z" />
    <glyph glyph-name="lcommaaccent" unicode="&#x13c;" horiz-adv-x="293" 
d="M119.5 18.5q-29.5 30.5 -29.5 85.5v635l92 11v-644q0 -22 7.5 -32t25.5 -10q19 0 34 6l24 -64q-33 -18 -73 -18q-51 0 -80.5 30.5zM221.5 -93q16.5 -16 16.5 -40q0 -13 -5.5 -29t-20.5 -48l-41 -86h-53l29 116q-24 21 -24 47q0 24 17 40t41 16t40.5 -16z" />
    <glyph glyph-name="Lcaron" unicode="&#x13d;" horiz-adv-x="498" 
d="M195 689v-606h283l-11 -83h-367v689h95zM303 505l50 184l-83 10l-20 -186z" />
    <glyph glyph-name="lcaron" unicode="&#x13e;" horiz-adv-x="293" 
d="M119.5 18.5q-29.5 30.5 -29.5 85.5v635l92 11v-644q0 -22 7.5 -32t25.5 -10q19 0 34 6l24 -64q-33 -18 -73 -18q-51 0 -80.5 30.5zM281 555l50 184l-83 10l-20 -186z" />
    <glyph glyph-name="Ldot" unicode="&#x13f;" horiz-adv-x="498" 
d="M195 689v-606h283l-11 -83h-367v689h95zM437 432q18 -18 18 -45t-18 -44.5t-47 -17.5q-28 0 -46 17.5t-18 44.5t18 45t46 18q29 0 47 -18z" />
    <glyph glyph-name="ldot" unicode="&#x140;" horiz-adv-x="332" 
d="M119.5 18.5q-29.5 30.5 -29.5 85.5v635l92 11v-644q0 -22 7.5 -32t25.5 -10q19 0 34 6l24 -64q-33 -18 -73 -18q-51 0 -80.5 30.5zM344 422q18 -18 18 -45t-18 -44.5t-47 -17.5q-28 0 -46 17.5t-18 44.5t18 45t46 18q29 0 47 -18z" />
    <glyph glyph-name="Lslash" unicode="&#x141;" horiz-adv-x="514" 
d="M211 83h283l-11 -83h-367v257l-56 -35l-38 60l94 58v349h95v-290l160 99l38 -60l-198 -123v-232z" />
    <glyph glyph-name="lslash" unicode="&#x142;" horiz-adv-x="312" 
d="M255 70l24 -64q-33 -18 -73 -18q-51 0 -80.5 30.5t-29.5 85.5v196l-51 -31l-35 59l86 54v357l92 11v-313l91 55l33 -60l-124 -76v-250q0 -22 7.5 -32t25.5 -10q19 0 34 6z" />
    <glyph glyph-name="Nacute" unicode="&#x143;" horiz-adv-x="683" 
d="M583 0h-127l-280 585q6 -69 9.5 -127.5t3.5 -141.5v-316h-89v689h124l283 -586q-3 26 -8 91t-5 119v376h89v-689zM433 911l40 -77l-216 -79l-24 49z" />
    <glyph glyph-name="nacute" unicode="&#x144;" horiz-adv-x="586" 
d="M455.5 496q40.5 -43 40.5 -118v-378h-92v365q0 56 -21 79t-62 23q-42 0 -74 -24t-60 -69v-374h-92v527h79l8 -78q28 42 69.5 66t91.5 24q72 0 112.5 -43zM377 801l41 -77l-212 -86l-28 49z" />
    <glyph glyph-name="Ncommaaccent" unicode="&#x145;" horiz-adv-x="683" 
d="M583 0h-127l-280 585q6 -69 9.5 -127.5t3.5 -141.5v-316h-89v689h124l283 -586q-3 26 -8 91t-5 119v376h89v-689zM386.5 -93q16.5 -16 16.5 -40q0 -13 -5.5 -29t-20.5 -48l-41 -86h-53l29 116q-24 21 -24 47q0 24 17 40t41 16t40.5 -16z" />
    <glyph glyph-name="ncommaaccent" unicode="&#x146;" horiz-adv-x="586" 
d="M455.5 496q40.5 -43 40.5 -118v-378h-92v365q0 56 -21 79t-62 23q-42 0 -74 -24t-60 -69v-374h-92v527h79l8 -78q28 42 69.5 66t91.5 24q72 0 112.5 -43zM336.5 -93q16.5 -16 16.5 -40q0 -13 -5.5 -29t-20.5 -48l-41 -86h-53l29 116q-24 21 -24 47q0 24 17 40t41 16
t40.5 -16z" />
    <glyph glyph-name="Ncaron" unicode="&#x147;" horiz-adv-x="683" 
d="M583 0h-127l-280 585q6 -69 9.5 -127.5t3.5 -141.5v-316h-89v689h124l283 -586q-3 26 -8 91t-5 119v376h89v-689zM480 909l39 -45l-135 -110h-61l-136 110l40 45l126 -81z" />
    <glyph glyph-name="ncaron" unicode="&#x148;" horiz-adv-x="586" 
d="M455.5 496q40.5 -43 40.5 -118v-378h-92v365q0 56 -21 79t-62 23q-42 0 -74 -24t-60 -69v-374h-92v527h79l8 -78q28 42 69.5 66t91.5 24q72 0 112.5 -43zM425 785l39 -45l-135 -113h-61l-136 113l40 45l126 -84z" />
    <glyph glyph-name="napostrophe" unicode="&#x149;" horiz-adv-x="695" 
d="M143.5 737q16.5 -16 16.5 -40q0 -13 -5.5 -29t-20.5 -48l-41 -86h-53l29 116q-24 21 -24 47q0 24 17 40t41 16t40.5 -16zM564.5 496q40.5 -43 40.5 -118v-378h-92v365q0 56 -21 79t-62 23q-42 0 -74 -24t-60 -69v-374h-92v527h79l8 -78q28 42 69.5 66t91.5 24
q72 0 112.5 -43z" />
    <glyph glyph-name="Eng" unicode="&#x14a;" horiz-adv-x="683" 
d="M583 689v-746q0 -76 -40 -116t-111 -40q-65 0 -115 38l37 60q19 -11 34.5 -16.5t38.5 -5.5q61 0 61 74v63h-32l-280 585q6 -69 9.5 -127.5t3.5 -141.5v-316h-89v689h124l283 -586q-3 26 -8 91t-5 119v376h89z" />
    <glyph glyph-name="eng" unicode="&#x14b;" horiz-adv-x="586" 
d="M455.5 496q40.5 -43 40.5 -118v-435q0 -76 -40.5 -116t-110.5 -40q-65 0 -115 38l36 58q20 -12 35.5 -17t38.5 -5q64 0 64 74v430q0 56 -21 79t-62 23q-42 0 -74 -24t-60 -69v-374h-92v527h79l8 -78q28 42 69.5 66t91.5 24q72 0 112.5 -43z" />
    <glyph glyph-name="Omacron" unicode="&#x14c;" horiz-adv-x="692" 
d="M498.5 659.5q65.5 -41.5 102 -121.5t36.5 -194q0 -112 -36.5 -192t-102 -122t-152.5 -42t-152.5 41t-102 121t-36.5 193q0 111 36.5 192t102.5 123.5t152 42.5q87 0 152.5 -41.5zM206 555q-50 -68 -50 -212q0 -143 50.5 -210t139.5 -67q190 0 190 278q0 279 -190 279
q-90 0 -140 -68zM482 793h-273v69h273v-69z" />
    <glyph glyph-name="omacron" unicode="&#x14d;" horiz-adv-x="584" 
d="M465.5 465q61.5 -74 61.5 -201q0 -82 -28 -144.5t-81 -97t-126 -34.5q-111 0 -173 74t-62 201q0 82 28 144.5t81 97t127 34.5q111 0 172.5 -74zM156 263q0 -201 136 -201t136 202q0 201 -135 201q-137 0 -137 -202zM428 667h-273v69h273v-69z" />
    <glyph glyph-name="Obreve" unicode="&#x14e;" horiz-adv-x="692" 
d="M498.5 659.5q65.5 -41.5 102 -121.5t36.5 -194q0 -112 -36.5 -192t-102 -122t-152.5 -42t-152.5 41t-102 121t-36.5 193q0 111 36.5 192t102.5 123.5t152 42.5q87 0 152.5 -41.5zM206 555q-50 -68 -50 -212q0 -143 50.5 -210t139.5 -67q190 0 190 278q0 279 -190 279
q-90 0 -140 -68zM242 792q-42 34 -48 89l61 13q23 -66 89 -66q34 0 57.5 17.5t34.5 48.5l61 -13q-6 -55 -49 -89t-104 -34q-60 0 -102 34z" />
    <glyph glyph-name="obreve" unicode="&#x14f;" horiz-adv-x="584" 
d="M465.5 465q61.5 -74 61.5 -201q0 -82 -28 -144.5t-81 -97t-126 -34.5q-111 0 -173 74t-62 201q0 82 28 144.5t81 97t127 34.5q111 0 172.5 -74zM156 263q0 -201 136 -201t136 202q0 201 -135 201q-137 0 -137 -202zM187.5 678.5q-41.5 35.5 -47.5 97.5l61 13
q21 -76 89 -76q71 0 92 76l61 -13q-6 -62 -48.5 -97.5t-104.5 -35.5q-61 0 -102.5 35.5z" />
    <glyph glyph-name="Ohungarumlaut" unicode="&#x150;" horiz-adv-x="692" 
d="M498.5 659.5q65.5 -41.5 102 -121.5t36.5 -194q0 -112 -36.5 -192t-102 -122t-152.5 -42t-152.5 41t-102 121t-36.5 193q0 111 36.5 192t102.5 123.5t152 42.5q87 0 152.5 -41.5zM206 555q-50 -68 -50 -212q0 -143 50.5 -210t139.5 -67q190 0 190 278q0 279 -190 279
q-90 0 -140 -68zM309 958l78 -41l-96 -152l-58 25zM461 958l78 -41l-106 -157l-58 25z" />
    <glyph glyph-name="ohungarumlaut" unicode="&#x151;" horiz-adv-x="584" 
d="M465.5 465q61.5 -74 61.5 -201q0 -82 -28 -144.5t-81 -97t-126 -34.5q-111 0 -173 74t-62 201q0 82 28 144.5t81 97t127 34.5q111 0 172.5 -74zM156 263q0 -201 136 -201t136 202q0 201 -135 201q-137 0 -137 -202zM263 832l78 -41l-96 -152l-58 25zM415 832l78 -41
l-106 -157l-58 25z" />
    <glyph glyph-name="OE" unicode="&#x152;" horiz-adv-x="897" 
d="M843 0h-437q-34 -12 -73 -12q-80 0 -143 41t-99 121t-36 193q0 111 36 192t99 123.5t143 42.5q40 0 77 -12h425l-11 -76h-298q38 -38 61 -95.5t28 -129.5h174v-76h-173q-5 -74 -29.5 -134.5t-67.5 -101.5h324v-76zM205 133.5q49 -67.5 131 -67.5q84 0 132 67t48 211
q0 143 -47.5 211t-132.5 68q-83 0 -131.5 -68.5t-48.5 -211.5q0 -142 49 -209.5z" />
    <glyph glyph-name="oe" unicode="&#x153;" horiz-adv-x="916" 
d="M862 232h-336q6 -87 44 -128t98 -41q38 0 70 11t67 35l40 -55q-84 -66 -184 -66q-125 0 -185 109q-62 -109 -184 -109q-111 0 -173 74t-62 201q0 82 28 144.5t81 97t127 34.5q126 0 185 -106q59 106 174 106q102 0 157 -69t55 -191q0 -23 -2 -47zM773 306q0 78 -30.5 119
t-88.5 41q-118 0 -128 -166h247v6zM428 264q0 201 -135 201q-137 0 -137 -202q0 -201 136 -201t136 202z" />
    <glyph glyph-name="Racute" unicode="&#x154;" horiz-adv-x="605" 
d="M302 292h-107v-292h-95v689h181q129 0 195.5 -49t66.5 -146q0 -72 -37 -117t-112 -68l186 -309h-113zM291 365q75 0 113 30.5t38 98.5q0 64 -38.5 92.5t-123.5 28.5h-85v-250h96zM379 911l40 -77l-216 -79l-24 49z" />
    <glyph glyph-name="racute" unicode="&#x155;" horiz-adv-x="386" 
d="M376 533l-17 -90q-24 6 -46 6q-49 0 -79 -36t-47 -112v-301h-92v527h79l9 -107q21 59 57 89t84 30q28 0 52 -6zM317 801l41 -77l-212 -86l-28 49z" />
    <glyph glyph-name="Rcommaaccent" unicode="&#x156;" horiz-adv-x="605" 
d="M302 292h-107v-292h-95v689h181q129 0 195.5 -49t66.5 -146q0 -72 -37 -117t-112 -68l186 -309h-113zM291 365q75 0 113 30.5t38 98.5q0 64 -38.5 92.5t-123.5 28.5h-85v-250h96zM352.5 -93q16.5 -16 16.5 -40q0 -13 -5.5 -29t-20.5 -48l-41 -86h-53l29 116
q-24 21 -24 47q0 24 17 40t41 16t40.5 -16z" />
    <glyph glyph-name="rcommaaccent" unicode="&#x157;" horiz-adv-x="386" 
d="M376 533l-17 -90q-24 6 -46 6q-49 0 -79 -36t-47 -112v-301h-92v527h79l9 -107q21 59 57 89t84 30q28 0 52 -6zM184.5 -93q16.5 -16 16.5 -40q0 -13 -5.5 -29t-20.5 -48l-41 -86h-53l29 116q-24 21 -24 47q0 24 17 40t41 16t40.5 -16z" />
    <glyph glyph-name="Rcaron" unicode="&#x158;" horiz-adv-x="605" 
d="M302 292h-107v-292h-95v689h181q129 0 195.5 -49t66.5 -146q0 -72 -37 -117t-112 -68l186 -309h-113zM291 365q75 0 113 30.5t38 98.5q0 64 -38.5 92.5t-123.5 28.5h-85v-250h96zM426 909l39 -45l-135 -110h-61l-136 110l40 45l126 -81z" />
    <glyph glyph-name="rcaron" unicode="&#x159;" horiz-adv-x="386" 
d="M376 533l-17 -90q-24 6 -46 6q-49 0 -79 -36t-47 -112v-301h-92v527h79l9 -107q21 59 57 89t84 30q28 0 52 -6zM365 785l39 -45l-135 -113h-61l-136 113l40 45l126 -84z" />
    <glyph glyph-name="Sacute" unicode="&#x15a;" horiz-adv-x="545" 
d="M388 681.5q49 -19.5 95 -60.5l-52 -58q-39 31 -76.5 45.5t-80.5 14.5q-54 0 -89 -25t-35 -73q0 -30 12 -50.5t44.5 -37.5t94.5 -36q65 -20 108 -43t69.5 -63.5t26.5 -102.5q0 -60 -29.5 -106t-85 -72t-131.5 -26q-143 0 -234 89l52 58q42 -34 85 -51.5t96 -17.5
q64 0 106 31.5t42 91.5q0 34 -13 56.5t-44.5 40.5t-91.5 36q-106 32 -155 77t-49 122q0 52 27.5 93t77 64t112.5 23q69 0 118 -19.5zM356 911l40 -77l-216 -79l-24 49z" />
    <glyph glyph-name="sacute" unicode="&#x15b;" horiz-adv-x="467" 
d="M335 524q43 -15 82 -45l-39 -58q-36 23 -68.5 34t-68.5 11q-45 0 -71 -18.5t-26 -50.5t24.5 -50t88.5 -35q88 -22 131.5 -60t43.5 -104q0 -78 -60.5 -119t-147.5 -41q-120 0 -199 69l49 56q67 -51 148 -51q52 0 82.5 21.5t30.5 58.5q0 27 -11 43.5t-38 29t-79 26.5
q-84 22 -121.5 59t-37.5 94q0 41 24.5 74.5t68 52t97.5 18.5t97 -15zM324 801l41 -77l-212 -86l-28 49z" />
    <glyph glyph-name="Scircumflex" unicode="&#x15c;" horiz-adv-x="545" 
d="M388 681.5q49 -19.5 95 -60.5l-52 -58q-39 31 -76.5 45.5t-80.5 14.5q-54 0 -89 -25t-35 -73q0 -30 12 -50.5t44.5 -37.5t94.5 -36q65 -20 108 -43t69.5 -63.5t26.5 -102.5q0 -60 -29.5 -106t-85 -72t-131.5 -26q-143 0 -234 89l52 58q42 -34 85 -51.5t96 -17.5
q64 0 106 31.5t42 91.5q0 34 -13 56.5t-44.5 40.5t-91.5 36q-106 32 -155 77t-49 122q0 52 27.5 93t77 64t112.5 23q69 0 118 -19.5zM149 759l-40 45l136 110h61l135 -110l-39 -45l-127 81z" />
    <glyph glyph-name="scircumflex" unicode="&#x15d;" horiz-adv-x="467" 
d="M335 524q43 -15 82 -45l-39 -58q-36 23 -68.5 34t-68.5 11q-45 0 -71 -18.5t-26 -50.5t24.5 -50t88.5 -35q88 -22 131.5 -60t43.5 -104q0 -78 -60.5 -119t-147.5 -41q-120 0 -199 69l49 56q67 -51 148 -51q52 0 82.5 21.5t30.5 58.5q0 27 -11 43.5t-38 29t-79 26.5
q-84 22 -121.5 59t-37.5 94q0 41 24.5 74.5t68 52t97.5 18.5t97 -15zM118 634l-39 45l135 113h61l136 -113l-40 -45l-126 84z" />
    <glyph glyph-name="Scedilla" unicode="&#x15e;" horiz-adv-x="545" 
d="M450 53.5q-55 -54.5 -153 -63.5v-46q48 -4 70.5 -27.5t22.5 -57.5q0 -48 -35 -74t-89 -26q-28 0 -52 6.5t-39 17.5l25 52q30 -16 63 -16q23 0 36.5 9.5t13.5 30.5t-21 31.5t-68 10.5l11 88q-128 7 -210 88l52 58q42 -34 85 -51.5t96 -17.5q64 0 106 31.5t42 91.5
q0 34 -13 56.5t-44.5 40.5t-91.5 36q-106 32 -155 77t-49 122q0 52 27.5 93t77 64t112.5 23q69 0 118 -19.5t95 -60.5l-52 -58q-39 31 -76.5 45.5t-80.5 14.5q-54 0 -89 -25t-35 -73q0 -30 12 -50.5t44.5 -37.5t94.5 -36q65 -20 108 -43t69.5 -63.5t26.5 -102.5
q0 -84 -55 -138.5z" />
    <glyph glyph-name="scedilla" unicode="&#x15f;" horiz-adv-x="467" 
d="M383 38q-49 -40 -124 -48v-46q48 -4 70.5 -27.5t22.5 -57.5q0 -48 -35 -74t-89 -26q-28 0 -52 6.5t-39 17.5l25 52q30 -16 63 -16q23 0 36.5 9.5t13.5 30.5t-21 31.5t-68 10.5l11 88q-102 7 -172 68l49 56q67 -51 148 -51q52 0 82.5 21.5t30.5 58.5q0 27 -11 43.5t-38 29
t-79 26.5q-84 22 -121.5 59t-37.5 94q0 41 24.5 74.5t68 52t97.5 18.5t97 -15t82 -45l-39 -58q-36 23 -68.5 34t-68.5 11q-45 0 -71 -18.5t-26 -50.5t24.5 -50t88.5 -35q88 -22 131.5 -60t43.5 -104q0 -70 -49 -110z" />
    <glyph glyph-name="Scaron" unicode="&#x160;" horiz-adv-x="545" 
d="M388 681.5q49 -19.5 95 -60.5l-52 -58q-39 31 -76.5 45.5t-80.5 14.5q-54 0 -89 -25t-35 -73q0 -30 12 -50.5t44.5 -37.5t94.5 -36q65 -20 108 -43t69.5 -63.5t26.5 -102.5q0 -60 -29.5 -106t-85 -72t-131.5 -26q-143 0 -234 89l52 58q42 -34 85 -51.5t96 -17.5
q64 0 106 31.5t42 91.5q0 34 -13 56.5t-44.5 40.5t-91.5 36q-106 32 -155 77t-49 122q0 52 27.5 93t77 64t112.5 23q69 0 118 -19.5zM403 909l39 -45l-135 -110h-61l-136 110l40 45l126 -81z" />
    <glyph glyph-name="scaron" unicode="&#x161;" horiz-adv-x="467" 
d="M335 524q43 -15 82 -45l-39 -58q-36 23 -68.5 34t-68.5 11q-45 0 -71 -18.5t-26 -50.5t24.5 -50t88.5 -35q88 -22 131.5 -60t43.5 -104q0 -78 -60.5 -119t-147.5 -41q-120 0 -199 69l49 56q67 -51 148 -51q52 0 82.5 21.5t30.5 58.5q0 27 -11 43.5t-38 29t-79 26.5
q-84 22 -121.5 59t-37.5 94q0 41 24.5 74.5t68 52t97.5 18.5t97 -15zM372 785l39 -45l-135 -113h-61l-136 113l40 45l126 -84z" />
    <glyph glyph-name="uni0162" unicode="&#x162;" horiz-adv-x="517" 
d="M378 -84q24 -24 24 -57q0 -48 -36.5 -74t-91.5 -26t-87 24l25 52q16 -8 29 -12t30 -4q24 0 39 9.5t15 30.5t-21 31.5t-68 10.5l12 99h-37v608h-196v81h492l-10 -81h-191v-664q48 -4 72 -28z" />
    <glyph glyph-name="uni0163" unicode="&#x163;" horiz-adv-x="361" 
d="M328.5 -83.5q22.5 -23.5 22.5 -57.5q0 -48 -35 -74t-89 -26q-28 0 -52 6.5t-39 17.5l25 52q30 -16 63 -16q23 0 36.5 9.5t13.5 30.5t-21 31.5t-68 10.5l11 93q-45 11 -70 48t-25 96v318h-92v71h92v119l92 11v-130h125l-10 -71h-115v-314q0 -41 14.5 -59.5t48.5 -18.5
q31 0 70 21l35 -61q-47 -32 -103 -36v-44q48 -4 70.5 -27.5z" />
    <glyph glyph-name="Tcaron" unicode="&#x164;" horiz-adv-x="517" 
d="M507 689l-10 -81h-191v-608h-95v608h-196v81h492zM386 909l39 -45l-135 -110h-61l-136 110l40 45l126 -81z" />
    <glyph glyph-name="tcaron" unicode="&#x165;" horiz-adv-x="361" 
d="M327 748l-50 -184l-53 8l20 186zM361 24q-52 -36 -118 -36q-67 0 -104.5 38.5t-37.5 111.5v318h-92v71h92v119l92 11v-130h125l-10 -71h-115v-314q0 -41 14.5 -59.5t48.5 -18.5q31 0 70 21z" />
    <glyph glyph-name="Tbar" unicode="&#x166;" horiz-adv-x="517" 
d="M497 606h-191v-219h125v-70h-125v-319h-95v319h-123v70h123v219h-196v81h492z" />
    <glyph glyph-name="tbar" unicode="&#x167;" horiz-adv-x="361" 
d="M361 24q-52 -36 -118 -36q-67 0 -104.5 38.5t-37.5 111.5v148h-81v71h81v99h-92v71h92v119l92 11v-130h125l-10 -71h-115v-99h110v-71h-110v-144q0 -41 14.5 -59.5t48.5 -18.5q31 0 70 21z" />
    <glyph glyph-name="Utilde" unicode="&#x168;" horiz-adv-x="662" 
d="M572 221q0 -69 -28.5 -121.5t-83 -82t-130.5 -29.5q-115 0 -177.5 63.5t-62.5 169.5v468h95v-461q0 -80 36 -120t109 -40q74 0 110 39.5t36 120.5v461h96v-468zM354.5 789q-15.5 7 -34.5 20q-15 11 -25.5 16t-21.5 5q-16 0 -28 -11t-25 -35l-56 28q19 40 46.5 64t62.5 24
q21 0 36 -7.5t34 -20.5q3 -2 12.5 -8t17.5 -9t16 -3q15 0 27 10.5t26 33.5l56 -28q-19 -42 -47 -64t-62 -22q-19 0 -34.5 7z" />
    <glyph glyph-name="utilde" unicode="&#x169;" horiz-adv-x="582" 
d="M487 0h-79l-7 82q-30 -49 -69 -71.5t-95 -22.5q-69 0 -108 42t-39 119v378h92v-368q0 -54 19 -76.5t62 -22.5q77 0 132 91v376h92v-527zM312.5 663q-15.5 7 -34.5 20q-15 11 -25.5 16t-21.5 5q-16 0 -28 -11t-25 -35l-56 28q19 40 46.5 64t62.5 24q21 0 36 -7.5t34 -20.5
q3 -2 12.5 -8t17.5 -9t16 -3q15 0 27 10.5t26 33.5l56 -28q-19 -42 -47 -64t-62 -22q-19 0 -34.5 7z" />
    <glyph glyph-name="Umacron" unicode="&#x16a;" horiz-adv-x="662" 
d="M572 221q0 -69 -28.5 -121.5t-83 -82t-130.5 -29.5q-115 0 -177.5 63.5t-62.5 169.5v468h95v-461q0 -80 36 -120t109 -40q74 0 110 39.5t36 120.5v461h96v-468zM467 793h-273v69h273v-69z" />
    <glyph glyph-name="umacron" unicode="&#x16b;" horiz-adv-x="582" 
d="M487 0h-79l-7 82q-30 -49 -69 -71.5t-95 -22.5q-69 0 -108 42t-39 119v378h92v-368q0 -54 19 -76.5t62 -22.5q77 0 132 91v376h92v-527zM425 667h-273v69h273v-69z" />
    <glyph glyph-name="Ubreve" unicode="&#x16c;" horiz-adv-x="662" 
d="M572 221q0 -69 -28.5 -121.5t-83 -82t-130.5 -29.5q-115 0 -177.5 63.5t-62.5 169.5v468h95v-461q0 -80 36 -120t109 -40q74 0 110 39.5t36 120.5v461h96v-468zM227 792q-42 34 -48 89l61 13q23 -66 89 -66q34 0 57.5 17.5t34.5 48.5l61 -13q-6 -55 -49 -89t-104 -34
q-60 0 -102 34z" />
    <glyph glyph-name="ubreve" unicode="&#x16d;" horiz-adv-x="582" 
d="M487 0h-79l-7 82q-30 -49 -69 -71.5t-95 -22.5q-69 0 -108 42t-39 119v378h92v-368q0 -54 19 -76.5t62 -22.5q77 0 132 91v376h92v-527zM184.5 678.5q-41.5 35.5 -47.5 97.5l61 13q21 -76 89 -76q71 0 92 76l61 -13q-6 -62 -48.5 -97.5t-104.5 -35.5q-61 0 -102.5 35.5z
" />
    <glyph glyph-name="Uring" unicode="&#x16e;" horiz-adv-x="662" 
d="M572 221q0 -69 -28.5 -121.5t-83 -82t-130.5 -29.5q-115 0 -177.5 63.5t-62.5 169.5v468h95v-461q0 -80 36 -120t109 -40q74 0 110 39.5t36 120.5v461h96v-468zM413 931.5q32 -30.5 32 -75.5t-32 -75.5t-82 -30.5t-82 30.5t-32 75.5t32 75.5t82 30.5t82 -30.5zM292 897
q-14 -15 -14 -41t14 -41t39 -15q24 0 38.5 15t14.5 41t-14 41t-39 15t-39 -15z" />
    <glyph glyph-name="uring" unicode="&#x16f;" horiz-adv-x="582" 
d="M487 0h-79l-7 82q-30 -49 -69 -71.5t-95 -22.5q-69 0 -108 42t-39 119v378h92v-368q0 -54 19 -76.5t62 -22.5q77 0 132 91v376h92v-527zM371 805.5q32 -30.5 32 -75.5t-32 -75.5t-82 -30.5t-82 30.5t-32 75.5t32 75.5t82 30.5t82 -30.5zM250 771q-14 -15 -14 -41t14 -41
t39 -15q24 0 38.5 15t14.5 41t-14 41t-39 15t-39 -15z" />
    <glyph glyph-name="Uhungarumlaut" unicode="&#x170;" horiz-adv-x="662" 
d="M572 221q0 -69 -28.5 -121.5t-83 -82t-130.5 -29.5q-115 0 -177.5 63.5t-62.5 169.5v468h95v-461q0 -80 36 -120t109 -40q74 0 110 39.5t36 120.5v461h96v-468zM294 958l78 -41l-96 -152l-58 25zM446 958l78 -41l-106 -157l-58 25z" />
    <glyph glyph-name="uhungarumlaut" unicode="&#x171;" horiz-adv-x="582" 
d="M487 0h-79l-7 82q-30 -49 -69 -71.5t-95 -22.5q-69 0 -108 42t-39 119v378h92v-368q0 -54 19 -76.5t62 -22.5q77 0 132 91v376h92v-527zM260 832l78 -41l-96 -152l-58 25zM412 832l78 -41l-106 -157l-58 25z" />
    <glyph glyph-name="Uogonek" unicode="&#x172;" horiz-adv-x="662" 
d="M572 689v-468q0 -82 -40 -140.5t-114 -80.5q-71 -31 -97 -57.5t-26 -56.5q0 -48 56 -48q27 0 61 7l-9 -70q-35 -7 -63 -7q-57 0 -91 28.5t-34 72.5q0 77 95 120q-106 5 -163 68t-57 164v468h95v-461q0 -80 36 -120t109 -40q74 0 110 39.5t36 120.5v461h96z" />
    <glyph glyph-name="uogonek" unicode="&#x173;" horiz-adv-x="582" 
d="M390 -57.5q-26 -26.5 -26 -56.5q0 -48 56 -48q27 0 61 7l-9 -70q-35 -7 -63 -7q-57 0 -91 28.5t-34 72.5q0 45 30 80t93 61l-6 72q-30 -49 -69 -71.5t-95 -22.5q-69 0 -108 42t-39 119v378h92v-368q0 -54 19 -76.5t62 -22.5q77 0 132 91v376h92v-527q-71 -31 -97 -57.5z
" />
    <glyph glyph-name="Wcircumflex" unicode="&#x174;" horiz-adv-x="826" 
d="M801 689l-140 -689h-122l-127 577l-128 -577h-119l-140 689h93l111 -606l133 606h101l136 -606l115 606h87zM286 759l-40 45l136 110h61l135 -110l-39 -45l-127 81z" />
    <glyph glyph-name="wcircumflex" unicode="&#x175;" horiz-adv-x="717" 
d="M697 527l-120 -527h-125l-92 444l-95 -444h-122l-123 527h92l95 -463l104 463h103l99 -463l96 463h88zM232 634l-39 45l135 113h61l136 -113l-40 -45l-126 84z" />
    <glyph glyph-name="Ycircumflex" unicode="&#x176;" horiz-adv-x="550" 
d="M545 689l-222 -424v-265h-96v264l-222 425h105l168 -341l168 341h99zM148 759l-40 45l136 110h61l135 -110l-39 -45l-127 81z" />
    <glyph glyph-name="ycircumflex" unicode="&#x177;" horiz-adv-x="492" 
d="M306 -3q-31 -92 -86.5 -145.5t-158.5 -64.5l-10 72q52 9 83 26t49.5 43.5t34.5 71.5h-31l-177 527h98l141 -460l138 460h95zM119 634l-39 45l135 113h61l136 -113l-40 -45l-126 84z" />
    <glyph glyph-name="Ydieresis" unicode="&#x178;" horiz-adv-x="550" 
d="M545 689l-222 -424v-265h-96v264l-222 425h105l168 -341l168 341h99zM210.5 877.5q16.5 -16.5 16.5 -40.5t-16.5 -40.5t-40.5 -16.5q-25 0 -41.5 16.5t-16.5 40.5t16.5 40.5t41.5 16.5q24 0 40.5 -16.5zM420.5 877.5q16.5 -16.5 16.5 -40.5t-16.5 -40.5t-41.5 -16.5
q-24 0 -40.5 16.5t-16.5 40.5t16.5 40.5t40.5 16.5q25 0 41.5 -16.5z" />
    <glyph glyph-name="Zacute" unicode="&#x179;" horiz-adv-x="522" 
d="M477 689v-77l-341 -531h341l-11 -81h-436v76l344 533h-308v80h411zM352 911l40 -77l-216 -79l-24 49z" />
    <glyph glyph-name="zacute" unicode="&#x17a;" horiz-adv-x="437" 
d="M404 527v-70l-275 -380h278l-11 -77h-371v69l274 380h-251v78h356zM298 801l41 -77l-212 -86l-28 49z" />
    <glyph glyph-name="Zdotaccent" unicode="&#x17b;" horiz-adv-x="522" 
d="M477 689v-77l-341 -531h341l-11 -81h-436v76l344 533h-308v80h411zM318 888q18 -18 18 -45t-18 -44.5t-47 -17.5q-28 0 -46 17.5t-18 44.5t18 45t46 18q29 0 47 -18z" />
    <glyph glyph-name="zdotaccent" unicode="&#x17c;" horiz-adv-x="437" 
d="M404 527v-70l-275 -380h278l-11 -77h-371v69l274 380h-251v78h356zM265 762q18 -18 18 -45t-18 -44.5t-47 -17.5q-28 0 -46 17.5t-18 44.5t18 45t46 18q29 0 47 -18z" />
    <glyph glyph-name="Zcaron" unicode="&#x17d;" horiz-adv-x="522" 
d="M477 689v-77l-341 -531h341l-11 -81h-436v76l344 533h-308v80h411zM399 909l39 -45l-135 -110h-61l-136 110l40 45l126 -81z" />
    <glyph glyph-name="zcaron" unicode="&#x17e;" horiz-adv-x="437" 
d="M404 527v-70l-275 -380h278l-11 -77h-371v69l274 380h-251v78h356zM346 785l39 -45l-135 -113h-61l-136 113l40 45l126 -84z" />
    <glyph glyph-name="longs" unicode="&#x17f;" horiz-adv-x="335" 
d="M333.5 743.5q28.5 -6.5 61.5 -20.5l-29 -67q-45 20 -92 20q-42 0 -60 -18.5t-18 -57.5v-600h-92v456h-94v71h94v72q0 68 43.5 109.5t121.5 41.5q36 0 64.5 -6.5z" />
    <glyph glyph-name="uni0180" unicode="&#x180;" horiz-adv-x="600" 
d="M485 466.5q53 -72.5 53 -202.5q0 -82 -25 -144.5t-72 -97t-110 -34.5q-83 0 -140 70l-9 -58h-81v606h-79v70h79v63l92 11v-74h148v-70h-148v-145q57 78 149 78q90 0 143 -72.5zM404.5 110.5q34.5 49.5 34.5 153.5q0 107 -32 154.5t-91 47.5q-70 0 -123 -82v-252
q21 -33 51.5 -52t64.5 -19q61 0 95.5 49.5z" />
    <glyph glyph-name="uni0181" unicode="&#x181;" horiz-adv-x="691" 
d="M602 314q44 -38 44 -118q0 -196 -273 -196h-190v614h-32q-54 0 -54 -50q0 -17 4.5 -33.5t13.5 -39.5l-64 -32q-19 28 -30 53t-11 55q0 55 38 88.5t108 33.5h190q131 0 200.5 -43t69.5 -131q0 -60 -37.5 -100t-91.5 -51q71 -12 115 -50zM278 614v-217h104q60 0 98.5 29
t38.5 82q0 60 -40.5 83t-122.5 23h-78zM501.5 101q44.5 25 44.5 95q0 68 -43 98t-112 30h-113v-248h95q84 0 128.5 25z" />
    <glyph glyph-name="uni0182" unicode="&#x182;" horiz-adv-x="579" 
d="M479.5 377q69.5 -53 69.5 -157q0 -114 -71.5 -167t-195.5 -53h-182v689h375l-12 -78h-268v-181h91q124 0 193.5 -53zM407 107q41 31 41 111q0 74 -41 106t-120 32h-92v-280h95q76 0 117 31z" />
    <glyph glyph-name="uni0183" unicode="&#x183;" horiz-adv-x="594" 
d="M479 466.5q53 -72.5 53 -202.5q0 -82 -25 -144.5t-72 -97t-110 -34.5q-83 0 -140 70l-9 -58h-81v739h316l-12 -70h-212v-208q57 78 149 78q90 0 143 -72.5zM398.5 110.5q34.5 49.5 34.5 153.5q0 107 -32 154.5t-91 47.5q-70 0 -123 -82v-252q21 -33 51.5 -52t64.5 -19
q61 0 95.5 49.5z" />
    <glyph glyph-name="uni0184" unicode="&#x184;" horiz-adv-x="573" 
d="M478.5 382.5q69.5 -53.5 69.5 -159.5q0 -116 -71.5 -169.5t-195.5 -53.5h-182v524l-69 42q46 49 79 123h85v-253h91q124 0 193.5 -53.5zM406 107.5q41 31.5 41 113.5q0 76 -40.5 108.5t-120.5 32.5h-92v-286h95q76 0 117 31.5z" />
    <glyph glyph-name="uni0185" unicode="&#x185;" horiz-adv-x="520" 
d="M432 311q53 -46 53 -131q0 -89 -59.5 -134.5t-147.5 -45.5h-179v372l-69 42q47 48 79 113h82v-170h70q118 0 171 -46zM356.5 97q30.5 25 30.5 83q0 55 -28.5 81t-98.5 26h-69v-215h79q56 0 86.5 25z" />
    <glyph glyph-name="uni0186" unicode="&#x186;" 
d="M434 609q71 -92 71 -263q0 -114 -36.5 -194.5t-102 -122t-149.5 -41.5q-114 0 -197 77l49 59q37 -27 69 -41.5t76 -14.5q86 0 138 67.5t52 209.5q0 146 -47 212t-124 66q-84 0 -157 -50l-48 60q46 34 96.5 51t114.5 17q124 0 195 -92z" />
    <glyph glyph-name="uni0187" unicode="&#x187;" 
d="M706 794l-36 -59q-20 12 -35.5 17.5t-38.5 5.5q-64 0 -64 -74v-51l-44 -52q-72 42 -141 42q-86 0 -138.5 -66t-52.5 -212q0 -142 52 -209.5t138 -67.5q44 0 76 15t70 43l48 -61q-31 -33 -81.5 -55t-115.5 -22q-84 0 -149.5 41.5t-102 122t-36.5 193.5t38 193.5t103 121.5
t145 41q55 0 99 -18q1 71 40.5 110t110.5 39q65 0 115 -38z" />
    <glyph glyph-name="uni0188" unicode="&#x188;" horiz-adv-x="478" 
d="M622 712l-36 -59q-20 12 -35.5 17.5t-38.5 5.5q-64 0 -64 -74v-120l-38 -50q-27 15 -54 23t-65 8q-64 0 -99.5 -51t-35.5 -151t35 -147.5t100 -47.5q31 0 57 9.5t58 30.5l42 -60q-72 -58 -161 -58q-107 0 -168.5 72t-61.5 199q0 84 28 147t79.5 98t122.5 35q39 0 69 -12
v67q0 76 40 116t111 40q65 0 115 -38z" />
    <glyph glyph-name="uni0189" unicode="&#x189;" horiz-adv-x="656" 
d="M506.5 616.5q94.5 -72.5 94.5 -268.5q0 -191 -94.5 -269.5t-229.5 -78.5h-165v318h-92v70h92v301h144q156 0 250.5 -72.5zM440 134q60 59 60 214q0 109 -31 167.5t-79 78t-113 19.5h-70v-225h157v-70h-157v-243h77q96 0 156 59z" />
    <glyph glyph-name="uni018A" unicode="&#x18a;" horiz-adv-x="727" 
d="M577.5 616.5q94.5 -72.5 94.5 -268.5q0 -191 -94.5 -269.5t-229.5 -78.5h-165v614h-32q-54 0 -54 -50q0 -17 4.5 -33.5t13.5 -39.5l-64 -32q-19 28 -30 53t-11 55q0 55 38 88.5t108 33.5h171q156 0 250.5 -72.5zM511 134q60 59 60 214q0 109 -31 167.5t-79 78t-113 19.5
h-70v-538h77q96 0 156 59z" />
    <glyph glyph-name="uni018B" unicode="&#x18b;" horiz-adv-x="579" 
d="M479 0h-192q-118 0 -187.5 51t-69.5 161q0 106 70 162t193 56h91v181h-275v78h370v-689zM384 76v280h-92q-79 0 -120 -34t-41 -110q0 -78 40.5 -107t117.5 -29h95z" />
    <glyph glyph-name="uni018C" unicode="&#x18c;" horiz-adv-x="598" 
d="M503 0h-81l-9 73q-26 -40 -65 -62.5t-87 -22.5q-94 0 -146.5 74t-52.5 199q0 81 25 144t72 98.5t110 35.5q81 0 142 -65v195h-218v70h310v-739zM353 80.5q30 19.5 58 58.5v258q-26 34 -55.5 51.5t-66.5 17.5q-61 0 -94.5 -51t-33.5 -152q0 -102 31 -152t89 -50
q42 0 72 19.5z" />
    <glyph glyph-name="uni018D" unicode="&#x18d;" horiz-adv-x="579" 
d="M445.5 3.5q21.5 -32.5 21.5 -77.5q0 -38 -20.5 -70.5t-60.5 -52t-95 -19.5t-97 13.5t-81 40.5l47 57q31 -21 58.5 -30t61.5 -9q47 0 69.5 19.5t22.5 50.5q0 23 -10 39t-35 31t-76 37q-100 43 -147 99.5t-47 151.5q0 69 28 127.5t80.5 93t124.5 34.5q69 0 121.5 -30
t81.5 -87t29 -135t-40 -133.5t-111 -90.5q53 -27 74.5 -59.5zM170.5 198.5q14.5 -34.5 48.5 -60.5t95 -50q54 34 81.5 81.5t27.5 117.5q0 87 -33 132.5t-100 45.5q-65 0 -99.5 -46.5t-34.5 -134.5q0 -51 14.5 -85.5z" />
    <glyph glyph-name="uni018E" unicode="&#x18e;" horiz-adv-x="535" 
d="M60 689h375v-689h-381v76h286v236h-232v76h232v225h-280v76z" />
    <glyph glyph-name="uni018F" unicode="&#x18f;" horiz-adv-x="649" 
d="M520.5 614q73.5 -87 73.5 -258q0 -123 -35.5 -205.5t-97.5 -122.5t-143 -40q-133 0 -203 89.5t-70 257.5q0 24 3 51h447q-4 124 -51 180.5t-133 56.5q-93 0 -179 -65l-48 58q50 43 106 64t125 21q132 0 205.5 -87zM495 310h-356q4 -246 175 -246q168 0 181 246z" />
    <glyph glyph-name="uni0190" unicode="&#x190;" horiz-adv-x="521" 
d="M494 616l-52 -57q-72 64 -156 64q-60 0 -89.5 -29.5t-29.5 -76.5q0 -53 35.5 -83.5t95.5 -30.5h66l-13 -78h-52q-75 0 -113.5 -32.5t-38.5 -93.5t39 -96t110 -35q95 0 159 67l56 -54q-42 -46 -98.5 -69.5t-121.5 -23.5q-71 0 -127 26.5t-87.5 74t-31.5 109.5q0 76 45 120
t113 51q-63 14 -99 53.5t-36 102.5q0 50 24.5 90t72 63t114.5 23q124 0 215 -85z" />
    <glyph glyph-name="uni0191" unicode="&#x191;" horiz-adv-x="491" 
d="M195 613v-235h225v-75h-225v-360q0 -76 -40 -116t-111 -40q-65 0 -115 38l37 60q19 -11 34.5 -16.5t38.5 -5.5q61 0 61 74v752h366l-11 -76h-260z" />
    <glyph glyph-name="florin" unicode="&#x192;" horiz-adv-x="341" 
d="M220 657.5q-18 -18.5 -18 -57.5v-73h128l-10 -71h-118v-424q0 -73 -18 -117t-52.5 -71.5t-96.5 -55.5l-27 67q39 18 60 35.5t31.5 49t10.5 86.5v430h-84v71h84v72q0 68 43.5 109.5t121.5 41.5q36 0 64.5 -6.5t61.5 -20.5l-29 -67q-45 20 -92 20q-42 0 -60 -18.5z" />
    <glyph glyph-name="uni0193" unicode="&#x193;" horiz-adv-x="589" 
d="M735 794l-36 -59q-20 12 -35.5 17.5t-38.5 5.5q-64 0 -64 -74v-59l-49 -52q-39 25 -77 37.5t-81 12.5q-53 0 -97.5 -28.5t-72.5 -91t-28 -158.5q0 -145 47.5 -212t140.5 -67q77 0 131 32v207h-122l-11 77h227v-333q-50 -30 -106.5 -45.5t-125.5 -15.5q-131 0 -206.5 91
t-75.5 266q0 111 40.5 192t106.5 122.5t140 41.5q77 0 127 -27v2q0 75 39.5 115.5t111.5 40.5q65 0 115 -38z" />
    <glyph glyph-name="uni0194" unicode="&#x194;" horiz-adv-x="554" 
d="M335 69q35 -65 49 -102.5t14 -77.5q0 -49 -30.5 -75.5t-89.5 -26.5t-89.5 26.5t-30.5 74.5q0 34 14.5 73t48.5 108l-215 620h102l171 -554l173 554h96zM278 7q-32 -76 -32 -111q0 -36 32 -36t32 36q0 35 -32 111z" />
    <glyph glyph-name="uni0195" unicode="&#x195;" horiz-adv-x="885" 
d="M815 255q0 -90 -33.5 -150t-86 -88.5t-112.5 -28.5q-77 0 -128 46t-51 129v202q0 56 -21.5 79t-62.5 23t-73 -24t-60 -68v-375h-92v738l92 10v-294q62 85 156 85q72 0 112.5 -43t40.5 -118v-207q0 -55 23.5 -82t67.5 -27q54 0 94.5 47t40.5 154q0 129 -26 264h93
q26 -141 26 -272z" />
    <glyph glyph-name="uni0196" unicode="&#x196;" horiz-adv-x="366" 
d="M356 26q-50 -38 -115 -38q-71 0 -111 40t-40 116v545h95v-551q0 -74 61 -74q23 0 38.5 5.5t34.5 16.5z" />
    <glyph glyph-name="uni0197" unicode="&#x197;" horiz-adv-x="313" 
d="M298 396v-74h-94v-322h-95v322h-94v74h94v293h95v-293h94z" />
    <glyph glyph-name="uni0198" unicode="&#x198;" horiz-adv-x="617" 
d="M200 368l169 242q34 49 66.5 70t81.5 21q32 0 55.5 -9t44.5 -26l-34 -61q-14 9 -27 14t-33 5q-25 0 -43 -11t-42 -47l-130 -192l281 -374h-117zM195 689v-689h-95v689h95z" />
    <glyph glyph-name="uni0199" unicode="&#x199;" horiz-adv-x="512" 
d="M205 657.5q-18 -18.5 -18 -57.5v-600h-92v599q0 68 43.5 109.5t121.5 41.5q36 0 64.5 -6.5t61.5 -20.5l-29 -67q-45 20 -92 20q-42 0 -60 -18.5zM296 294l216 -294h-110l-209 288l194 239h103z" />
    <glyph glyph-name="uni019A" unicode="&#x19a;" horiz-adv-x="313" 
d="M203 337v-231q0 -21 7.5 -31.5t25.5 -10.5q19 0 34 6l24 -64q-33 -18 -73 -18q-51 0 -80.5 30.5t-29.5 85.5v233h-96v70h96v332l92 11v-343h95v-70h-95z" />
    <glyph glyph-name="uni019B" unicode="&#x19b;" horiz-adv-x="490" 
d="M387 250.5q26 -82.5 52.5 -132.5t65.5 -96l-86 -34q-39 53 -66.5 105t-52.5 132.5t-52 207.5l-139 -445l-89 22l165 487h48q-13 64 -34 103l-65 -63l-63 32l81 83q-31 20 -84 29l14 71q81 -16 124 -45l65 69l54 -47l-69 -71q22 -30 39 -74.5t33 -110.5q33 -140 59 -222.5
z" />
    <glyph glyph-name="uni019C" unicode="&#x19c;" horiz-adv-x="933" 
d="M833 689v-689h-82l-8 79q-33 -46 -72.5 -68.5t-88.5 -22.5q-54 0 -92 26t-58 73q-39 -51 -81 -75t-93 -24q-79 0 -123.5 55.5t-44.5 145.5v500h95v-498q0 -60 23.5 -92.5t66.5 -32.5t73.5 21t66.5 72q-1 10 -1 30v500h95v-498q0 -60 23.5 -92.5t66.5 -32.5t73.5 21
t65.5 72v530h95z" />
    <glyph glyph-name="uni019D" unicode="&#x19d;" horiz-adv-x="683" 
d="M583 689v-689h-127l-280 585q6 -69 9.5 -127.5t3.5 -141.5v-375q0 -75 -40 -114.5t-108 -39.5q-65 0 -115 38l36 59q20 -12 35.5 -17.5t38.5 -5.5q64 0 64 74v754h124l283 -586q-3 26 -8 91t-5 119v376h89z" />
    <glyph glyph-name="uni019E" unicode="&#x19e;" horiz-adv-x="586" 
d="M455.5 496q40.5 -43 40.5 -118v-591l-92 11v567q0 56 -21 79t-62 23q-42 0 -74 -24t-60 -69v-374h-92v527h79l8 -78q28 42 69.5 66t91.5 24q72 0 112.5 -43z" />
    <glyph glyph-name="uni019F" unicode="&#x19f;" horiz-adv-x="692" 
d="M498.5 659.5q65.5 -41.5 102 -121.5t36.5 -194q0 -112 -36.5 -192t-102 -122t-152.5 -42t-152.5 41t-102 121t-36.5 193q0 111 36.5 192t102.5 123.5t152 42.5q87 0 152.5 -41.5zM212 565q-51 -58 -59 -179h386q-7 122 -57.5 179.5t-135.5 57.5q-83 0 -134 -58z
M483.5 126.5q50.5 60.5 55.5 189.5h-386q5 -128 56.5 -189t136.5 -61q87 0 137.5 60.5z" />
    <glyph glyph-name="Ohorn" unicode="&#x1a0;" horiz-adv-x="703" 
d="M574 587q63 -93 63 -243q0 -112 -36.5 -192t-102 -122t-152.5 -42t-152.5 41t-102 121t-36.5 193q0 111 36.5 192t102.5 123.5t152 42.5q113 0 185 -66q55 7 55 51q0 23 -3.5 38.5t-10.5 33.5l72 15q19 -33 19 -82q0 -87 -89 -104zM536 344q0 279 -190 279
q-90 0 -140 -68t-50 -212q0 -143 50.5 -210t139.5 -67q190 0 190 278z" />
    <glyph glyph-name="ohorn" unicode="&#x1a1;" horiz-adv-x="595" 
d="M495 420q32 -66 32 -156q0 -82 -28 -144.5t-81 -97t-126 -34.5q-111 0 -173 74t-62 201q0 82 28 144.5t81 97t127 34.5q105 0 166 -67q28 4 41 15.5t13 32.5q0 23 -3.5 38.5t-10.5 33.5l72 15q19 -33 19 -82q0 -90 -95 -105zM428 264q0 201 -135 201q-137 0 -137 -202
q0 -201 136 -201t136 202z" />
    <glyph glyph-name="uni01A2" unicode="&#x1a2;" horiz-adv-x="926" 
d="M784.5 662q41.5 -41 41.5 -119v-745h-95v748q0 83 -75 83q-27 0 -49 -6t-47 -20q37 -46 57 -111.5t20 -147.5q0 -112 -36.5 -192t-102 -122t-152.5 -42t-152.5 41t-102 121t-36.5 193q0 111 36.5 192t102.5 123.5t152 42.5q94 0 164 -50q39 27 74.5 39.5t78.5 12.5
q80 0 121.5 -41zM536 344q0 279 -190 279q-90 0 -140 -68t-50 -212q0 -143 50.5 -210t139.5 -67q190 0 190 278z" />
    <glyph glyph-name="uni01A3" unicode="&#x1a3;" horiz-adv-x="792" 
d="M657.5 498q39.5 -41 39.5 -119v-592l-92 11v584q0 42 -18.5 62.5t-53.5 20.5q-30 0 -61 -11q55 -74 55 -190q0 -82 -28 -144.5t-81 -97t-126 -34.5q-111 0 -173 74t-62 201q0 82 28 144.5t81 97t127 34.5q71 0 125 -34q60 34 124 34q76 0 115.5 -41zM428 264
q0 201 -135 201q-137 0 -137 -202q0 -201 136 -201t136 202z" />
    <glyph glyph-name="uni01A4" unicode="&#x1a4;" horiz-adv-x="664" 
d="M562 635.5q70 -53.5 70 -159.5q0 -113 -73 -168t-194 -55h-87v-253h-95v614h-32q-54 0 -54 -50q0 -17 4.5 -33.5t13.5 -39.5l-64 -32q-19 28 -30 53t-11 55q0 55 38 88.5t108 33.5h208q128 0 198 -53.5zM487.5 360q43.5 32 43.5 115q0 74 -43.5 107t-124.5 33h-85v-287
h83q83 0 126.5 32z" />
    <glyph glyph-name="uni01A5" unicode="&#x1a5;" horiz-adv-x="594" 
d="M485 467q47 -72 47 -203q0 -124 -54 -200t-153 -76q-88 0 -138 60v-250l-92 -11v812q0 68 43.5 109.5t121.5 41.5q36 0 64.5 -6.5t61.5 -20.5l-29 -67q-45 20 -92 20q-42 0 -60 -18.5t-18 -57.5v-142q29 40 67.5 60.5t82.5 20.5q101 0 148 -72zM433 264q0 202 -119 202
q-39 0 -71 -23t-56 -59v-257q20 -31 50 -47.5t66 -16.5q130 0 130 201z" />
    <glyph glyph-name="uni01A6" unicode="&#x1a6;" horiz-adv-x="605" 
d="M302 170h-107v-170h-95v689h95v-122h86q129 0 195.5 -49t66.5 -146q0 -72 -37 -117t-112 -68l186 -309h-113zM291 243q75 0 113 30.5t38 98.5q0 64 -38.5 92.5t-123.5 28.5h-85v-250h96z" />
    <glyph glyph-name="uni01A7" unicode="&#x1a7;" horiz-adv-x="537" 
d="M433.5 653.5q58.5 -47.5 58.5 -125.5t-49.5 -123t-154.5 -78q-85 -26 -117 -58.5t-32 -83.5q0 -57 40 -88t100 -31q98 0 181 68l52 -57q-92 -89 -236 -89q-71 0 -124.5 25.5t-82.5 70.5t-29 101q0 88 53 134.5t151 76.5q61 19 93 37t44 40t12 55q0 49 -31.5 72t-85.5 23
q-46 0 -84.5 -14t-77.5 -45l-52 57q48 40 100 60t118 20q95 0 153.5 -47.5z" />
    <glyph glyph-name="uni01A8" unicode="&#x1a8;" horiz-adv-x="457" 
d="M369.5 499q49.5 -40 49.5 -102q0 -59 -37 -94t-122 -58q-51 -14 -78 -27.5t-37.5 -30.5t-10.5 -44q0 -38 28 -59.5t73 -21.5q79 0 150 50l47 -55q-79 -69 -199 -69q-51 0 -96 17.5t-73.5 53.5t-28.5 87q0 67 43 103.5t132 58.5q65 16 88.5 36.5t23.5 55.5q0 30 -24 48
t-68 18q-38 0 -71 -10.5t-71 -33.5l-38 57q84 60 187 60q83 0 132.5 -40z" />
    <glyph glyph-name="uni01A9" unicode="&#x1a9;" horiz-adv-x="503" 
d="M463 689v-78h-316l200 -239v-62l-200 -232h316v-78h-423v78l222 261l-222 272v78h423z" />
    <glyph glyph-name="uni01AA" unicode="&#x1aa;" horiz-adv-x="308" 
d="M387 -175q-50 -38 -115 -38q-70 0 -110.5 40t-40.5 116v543q-27 -10 -56 -10q-56 0 -93 37t-37 99t39 100t98 38q64 0 102.5 -36.5t38.5 -109.5v-669q0 -74 64 -74q23 0 38.5 5t35.5 17zM121 555v57q0 33 -12.5 49.5t-34.5 16.5q-23 0 -35 -17t-12 -47q0 -66 54 -66
q19 0 40 7z" />
    <glyph glyph-name="uni01AB" unicode="&#x1ab;" horiz-adv-x="361" 
d="M361 24v-81q0 -76 -40 -116t-111 -40q-65 0 -115 38l36 59q20 -12 35.5 -17.5t38.5 -5.5q67 0 67 74v60q-17 -7 -39 -7q-59 0 -95.5 39t-36.5 111v318h-92v71h92v119l92 11v-130h125l-10 -71h-115v-318q0 -41 14.5 -59.5t48.5 -18.5q35 0 77 14z" />
    <glyph glyph-name="uni01AC" unicode="&#x1ac;" horiz-adv-x="555" 
d="M535 608h-191v-608h-95v608h-96q-27 0 -40.5 -12.5t-13.5 -33.5q0 -17 5 -31.5t15 -36.5l-71 -36q-38 58 -38 107q0 56 39 90t110 34h386z" />
    <glyph glyph-name="uni01AD" unicode="&#x1ad;" horiz-adv-x="361" 
d="M326 87l35 -63q-52 -36 -118 -36q-67 0 -104.5 38.5t-37.5 111.5v318h-92v71h92v67q0 76 39.5 116t108.5 40q62 0 112 -38l-36 -59q-20 12 -35 17.5t-36 5.5q-28 0 -44.5 -18t-16.5 -56v-75h125l-10 -71h-115v-314q0 -41 14.5 -59.5t48.5 -18.5q33 0 70 23z" />
    <glyph glyph-name="uni01AE" unicode="&#x1ae;" horiz-adv-x="517" 
d="M367 -137q23 0 38.5 5.5t34.5 16.5l37 -60q-50 -38 -115 -38q-71 0 -111 40t-40 116v665h-196v81h492l-10 -81h-191v-671q0 -74 61 -74z" />
    <glyph glyph-name="Uhorn" unicode="&#x1af;" horiz-adv-x="676" 
d="M696 691q0 -51 -31.5 -78.5t-92.5 -29.5v-362q0 -69 -28.5 -121.5t-83 -82t-130.5 -29.5q-115 0 -177.5 63.5t-62.5 169.5v468h95v-461q0 -80 36 -120t109 -40q74 0 110 39.5t36 120.5v461h96v-53q47 9 47 50q0 23 -3.5 38.5t-10.5 33.5l72 15q19 -33 19 -82z" />
    <glyph glyph-name="uhorn" unicode="&#x1b0;" horiz-adv-x="601" 
d="M611 525q0 -51 -31.5 -78.5t-92.5 -29.5v-417h-79l-7 82q-30 -49 -69 -71.5t-95 -22.5q-69 0 -108 42t-39 119v378h92v-368q0 -54 19 -76.5t62 -22.5q77 0 132 91v376h92v-54q47 9 47 47q0 23 -3.5 38.5t-10.5 33.5l72 15q19 -33 19 -82z" />
    <glyph glyph-name="uni01B1" unicode="&#x1b1;" horiz-adv-x="692" 
d="M192 27.5q-66 39.5 -101.5 113.5t-35.5 174q0 109 34 176t95 120h-107v78h202v-78q-64 -51 -93.5 -118.5t-29.5 -177.5q0 -124 50 -186.5t140 -62.5q89 0 139.5 63t50.5 187q0 106 -31 174t-91 121v78h202v-78h-107q59 -44 93.5 -112.5t34.5 -182.5q0 -97 -37 -171.5
t-103 -115.5t-151 -41q-88 0 -154 39.5z" />
    <glyph glyph-name="uni01B2" unicode="&#x1b2;" horiz-adv-x="662" 
d="M541.5 669.5q30.5 -31.5 30.5 -95.5v-273q0 -95 -32 -165.5t-91 -109t-137 -38.5q-68 0 -118 29t-77 79.5t-27 114.5v478h95v-473q0 -71 33 -109.5t94 -38.5q80 0 122 61t42 179v265q0 28 -8.5 39.5t-29.5 11.5q-20 0 -37 -7l-24 66q33 18 76 18q58 0 88.5 -31.5z" />
    <glyph glyph-name="uni01B3" unicode="&#x1b3;" horiz-adv-x="586" 
d="M227 264l-222 425h105l168 -341l110 239q28 61 61.5 87.5t86.5 26.5q31 0 56 -10.5t49 -29.5l-36 -54q-29 22 -63 22q-24 0 -40 -14.5t-35 -53.5l-144 -296v-265h-96v264z" />
    <glyph glyph-name="uni01B4" unicode="&#x1b4;" horiz-adv-x="496" 
d="M51 -141q52 9 83 26t49.5 43.5t34.5 71.5h-31l-177 527h98l141 -460l105 397q16 60 42.5 85t74.5 25q37 0 70 -18l-24 -62q-15 6 -34 6q-17 0 -26.5 -9.5t-16.5 -34.5l-130 -450q-28 -97 -86 -152.5t-163 -66.5z" />
    <glyph glyph-name="uni01B5" unicode="&#x1b5;" horiz-adv-x="522" 
d="M477 689v-77l-148 -228h105v-74h-153l-149 -229h345l-11 -81h-436v76l153 234h-89v74h137l147 225h-312v80h411z" />
    <glyph glyph-name="uni01B6" unicode="&#x1b6;" horiz-adv-x="437" 
d="M126 77h281l-11 -77h-371v69l117 160h-81v70h132l109 150h-254v78h356v-70l-116 -158h84v-70h-135z" />
    <glyph glyph-name="uni01B7" unicode="&#x1b7;" horiz-adv-x="516" 
d="M411.5 345q59.5 -52 59.5 -147q0 -61 -29.5 -109t-85 -74.5t-130.5 -26.5q-72 0 -124.5 22t-91.5 68l55 54q32 -35 69.5 -50.5t88.5 -15.5q72 0 110.5 35.5t38.5 98.5q0 68 -38 98t-119 30h-88v67l208 216h-294v78h406v-77l-213 -215h1q117 0 176.5 -52z" />
    <glyph glyph-name="uni01B8" unicode="&#x1b8;" horiz-adv-x="516" 
d="M506 78q-39 -46 -92.5 -68t-130.5 -22q-70 0 -124.5 26t-84 72t-29.5 105q0 93 61.5 149.5t174.5 56.5h1l-213 215v77h406v-78h-294l208 -216v-67h-88q-157 0 -157 -135q0 -58 37.5 -92.5t104.5 -34.5q56 0 94 15.5t71 50.5z" />
    <glyph glyph-name="uni01B9" unicode="&#x1b9;" horiz-adv-x="481" 
d="M481 -123q-42 -45 -93 -67.5t-121 -22.5q-69 0 -123 26.5t-84 73.5t-30 107q0 100 62 156t173 56h3l-214 251v70h396v-76h-289l203 -246v-67h-79q-82 0 -119 -34.5t-37 -107.5q0 -63 36.5 -98.5t103.5 -35.5q49 0 86 15t74 49z" />
    <glyph glyph-name="uni01BA" unicode="&#x1ba;" horiz-adv-x="470" 
d="M61 -152.5q-33 34.5 -33 77.5q0 50 40 78t126 38q81 10 116.5 30t35.5 65q0 34 -22 51t-62 17h-151v67l193 180h-279v76h391v-70l-204 -185h55q83 0 130.5 -35.5t47.5 -101.5q0 -73 -54 -113.5t-147 -51.5q-50 -6 -75.5 -12.5t-36 -16t-10.5 -24.5q0 -19 18 -36t55 -36
l-34 -60q-67 28 -100 62.5z" />
    <glyph glyph-name="uni01BB" unicode="&#x1bb;" horiz-adv-x="495" 
d="M445 77l-11 -77h-395v73q117 122 168 179h-134v74h196q36 48 50 85.5t14 80.5q0 52 -30 81.5t-80 29.5q-41 0 -72 -17t-66 -56l-60 48q41 51 91 76t112 25q60 0 105.5 -24t70.5 -65.5t25 -93.5q0 -44 -14 -85t-45 -85h71v-74h-129q-50 -57 -168 -175h301z" />
    <glyph glyph-name="uni01BC" unicode="&#x1bc;" horiz-adv-x="511" 
d="M430 617h-270v-210q54 29 117 29q86 0 137.5 -57.5t51.5 -159.5q0 -68 -29 -120.5t-83 -81.5t-125 -29q-118 0 -203 85l54 53q65 -63 148 -63q67 0 104.5 40.5t37.5 117.5q0 76 -32.5 110t-88.5 34q-27 0 -50 -5.5t-55 -17.5h-72v347h371z" />
    <glyph glyph-name="uni01BD" unicode="&#x1bd;" horiz-adv-x="452" 
d="M365 451h-208v-125q20 10 40 15t51 5q46 0 83.5 -21.5t59 -61t21.5 -91.5q0 -54 -25.5 -96t-72 -65t-108.5 -23q-57 0 -98 18t-78 53l50 55q33 -26 59 -36.5t66 -10.5q48 0 78 27.5t30 79.5q0 50 -25 73.5t-66 23.5q-28 0 -46.5 -4.5t-44.5 -16.5h-65v277h315z" />
    <glyph glyph-name="uni01BE" unicode="&#x1be;" horiz-adv-x="513" 
d="M404.5 364q51.5 -54 51.5 -152q0 -64 -28 -114.5t-79.5 -79.5t-119.5 -29q-59 0 -106.5 20.5t-92.5 64.5l50 52q36 -32 71 -47.5t76 -15.5q66 0 98.5 40t32.5 111t-30.5 108t-94.5 53l-71 16v154h-78v70h78v123l92 10v-133h108v-70h-108v-108l24 -3q75 -16 126.5 -70z
" />
    <glyph glyph-name="uni01BF" unicode="&#x1bf;" horiz-adv-x="589" 
d="M483 489.5q49 -49.5 49 -135.5q0 -79 -33.5 -137t-91.5 -100.5t-149 -89.5l-71 -37v-192l-92 -11v740h79l8 -76q35 43 76.5 65.5t99.5 22.5q76 0 125 -49.5zM388 207.5q45 57.5 45 144.5q0 56 -24.5 84.5t-71.5 28.5q-83 0 -150 -80v-319l59 32q97 52 142 109.5z" />
    <glyph glyph-name="uni01C0" unicode="&#x1c0;" horiz-adv-x="286" 
d="M186 749v-749h-86v739z" />
    <glyph glyph-name="uni01C1" unicode="&#x1c1;" horiz-adv-x="458" 
d="M186 749v-749h-86v739zM358 749v-749h-86v739z" />
    <glyph glyph-name="uni01C2" unicode="&#x1c2;" horiz-adv-x="313" 
d="M298 408h-98v-86h98v-63h-98v-259h-86v259h-99v63h99v86h-99v63h99v268l86 10v-278h98v-63z" />
    <glyph glyph-name="uni01C3" unicode="&#x1c3;" horiz-adv-x="339" 
d="M212 749v-539h-86v529zM219 107q20 -20 20 -49t-20 -49.5t-50 -20.5q-29 0 -49 20.5t-20 49.5t20 49t49 20q30 0 50 -20z" />
    <glyph glyph-name="uni01C4" unicode="&#x1c4;" horiz-adv-x="1141" 
d="M494.5 616.5q94.5 -72.5 94.5 -268.5q0 -191 -94.5 -269.5t-229.5 -78.5h-165v689h144q156 0 250.5 -72.5zM195 613v-538h77q96 0 156 59t60 214q0 109 -31 167.5t-79 78t-113 19.5h-70zM1096 689v-77l-341 -531h341l-11 -81h-436v76l344 533h-308v80h411zM1018 909
l39 -45l-135 -110h-61l-136 110l40 45l126 -81z" />
    <glyph glyph-name="uni01C5" unicode="&#x1c5;" horiz-adv-x="1071" 
d="M494.5 616.5q94.5 -72.5 94.5 -268.5q0 -191 -94.5 -269.5t-229.5 -78.5h-165v689h144q156 0 250.5 -72.5zM195 613v-538h77q96 0 156 59t60 214q0 109 -31 167.5t-79 78t-113 19.5h-70zM1038 527v-70l-275 -380h278l-11 -77h-371v69l274 380h-251v78h356zM980 785
l39 -45l-135 -113h-61l-136 113l40 45l126 -84z" />
    <glyph glyph-name="uni01C6" unicode="&#x1c6;" horiz-adv-x="1035" 
d="M503 739v-739h-81l-9 73q-26 -40 -65 -62.5t-87 -22.5q-94 0 -146.5 74t-52.5 199q0 81 25 144t72 98.5t110 35.5q81 0 142 -65v276zM353 80.5q30 19.5 58 58.5v258q-26 34 -55.5 51.5t-66.5 17.5q-61 0 -94.5 -51t-33.5 -152q0 -102 31 -152t89 -50q42 0 72 19.5z
M1002 527v-70l-275 -380h278l-11 -77h-371v69l274 380h-251v78h356zM944 785l39 -45l-135 -113h-61l-136 113l40 45l126 -84z" />
    <glyph glyph-name="uni01C7" unicode="&#x1c7;" horiz-adv-x="784" 
d="M195 689v-606h283l-11 -83h-367v689h95zM689 96q0 -102 -44.5 -153t-135.5 -80l-25 69q46 18 69 39t32 51t9 78v589h95v-593z" />
    <glyph glyph-name="uni01C8" unicode="&#x1c8;" horiz-adv-x="763" 
d="M195 689v-606h283l-11 -83h-367v689h95zM668 32q0 -73 -18 -117t-52.5 -71.5t-96.5 -55.5l-27 67q39 18 60 35.5t31.5 49t10.5 86.5v501h92v-495zM669 762q18 -18 18 -45t-18 -44.5t-47 -17.5q-28 0 -46 17.5t-18 44.5t18 45t46 18q29 0 47 -18z" />
    <glyph glyph-name="uni01C9" unicode="&#x1c9;" horiz-adv-x="573" 
d="M119.5 18.5q-29.5 30.5 -29.5 85.5v635l92 11v-644q0 -22 7.5 -32t25.5 -10q19 0 34 6l24 -64q-33 -18 -73 -18q-51 0 -80.5 30.5zM478 32q0 -73 -18 -117t-52.5 -71.5t-96.5 -55.5l-27 67q39 18 60 35.5t31.5 49t10.5 86.5v501h92v-495zM479 762q18 -18 18 -45
t-18 -44.5t-47 -17.5q-28 0 -46 17.5t-18 44.5t18 45t46 18q29 0 47 -18z" />
    <glyph glyph-name="uni01CA" unicode="&#x1ca;" horiz-adv-x="988" 
d="M583 0h-127l-280 585q6 -69 9.5 -127.5t3.5 -141.5v-316h-89v689h124l283 -586q-3 26 -8 91t-5 119v376h89v-689zM893 96q0 -102 -44.5 -153t-135.5 -80l-25 69q46 18 69 39t32 51t9 78v589h95v-593z" />
    <glyph glyph-name="uni01CB" unicode="&#x1cb;" horiz-adv-x="963" 
d="M583 0h-127l-280 585q6 -69 9.5 -127.5t3.5 -141.5v-316h-89v689h124l283 -586q-3 26 -8 91t-5 119v376h89v-689zM868 32q0 -73 -18 -117t-52.5 -71.5t-96.5 -55.5l-27 67q39 18 60 35.5t31.5 49t10.5 86.5v501h92v-495zM869 762q18 -18 18 -45t-18 -44.5t-47 -17.5
q-28 0 -46 17.5t-18 44.5t18 45t46 18q29 0 47 -18z" />
    <glyph glyph-name="uni01CC" unicode="&#x1cc;" horiz-adv-x="866" 
d="M455.5 496q40.5 -43 40.5 -118v-378h-92v365q0 56 -21 79t-62 23q-42 0 -74 -24t-60 -69v-374h-92v527h79l8 -78q28 42 69.5 66t91.5 24q72 0 112.5 -43zM771 32q0 -73 -18 -117t-52.5 -71.5t-96.5 -55.5l-27 67q39 18 60 35.5t31.5 49t10.5 86.5v501h92v-495zM772 762
q18 -18 18 -45t-18 -44.5t-47 -17.5q-28 0 -46 17.5t-18 44.5t18 45t46 18q29 0 47 -18z" />
    <glyph glyph-name="uni01CD" unicode="&#x1cd;" horiz-adv-x="573" 
d="M467 0l-52 173h-261l-52 -173h-96l221 689h120l220 -689h-100zM177 250h215l-107 360zM414 909l39 -45l-135 -110h-61l-136 110l40 45l126 -81z" />
    <glyph glyph-name="uni01CE" unicode="&#x1ce;" horiz-adv-x="544" 
d="M461 75.5q11 -15.5 33 -23.5l-21 -64q-41 5 -66 23t-37 56q-53 -79 -157 -79q-78 0 -123 44t-45 115q0 84 60.5 129t171.5 45h81v39q0 56 -27 80t-83 24q-58 0 -142 -28l-23 67q98 36 182 36q93 0 139 -45.5t46 -129.5v-241q0 -32 11 -47.5zM358 139v121h-69
q-146 0 -146 -108q0 -47 23 -71t68 -24q79 0 124 82zM388 785l39 -45l-135 -113h-61l-136 113l40 45l126 -84z" />
    <glyph glyph-name="uni01CF" unicode="&#x1cf;" horiz-adv-x="295" 
d="M195 689v-689h-95v689h95zM274 909l39 -45l-135 -110h-61l-136 110l40 45l126 -81z" />
    <glyph glyph-name="uni01D0" unicode="&#x1d0;" horiz-adv-x="282" 
d="M187 527v-527h-92v527h92zM268 785l39 -45l-135 -113h-61l-136 113l40 45l126 -84z" />
    <glyph glyph-name="uni01D1" unicode="&#x1d1;" horiz-adv-x="692" 
d="M498.5 659.5q65.5 -41.5 102 -121.5t36.5 -194q0 -112 -36.5 -192t-102 -122t-152.5 -42t-152.5 41t-102 121t-36.5 193q0 111 36.5 192t102.5 123.5t152 42.5q87 0 152.5 -41.5zM206 555q-50 -68 -50 -212q0 -143 50.5 -210t139.5 -67q190 0 190 278q0 279 -190 279
q-90 0 -140 -68zM473 909l39 -45l-135 -110h-61l-136 110l40 45l126 -81z" />
    <glyph glyph-name="uni01D2" unicode="&#x1d2;" horiz-adv-x="584" 
d="M465.5 465q61.5 -74 61.5 -201q0 -82 -28 -144.5t-81 -97t-126 -34.5q-111 0 -173 74t-62 201q0 82 28 144.5t81 97t127 34.5q111 0 172.5 -74zM156 263q0 -201 136 -201t136 202q0 201 -135 201q-137 0 -137 -202zM419 785l39 -45l-135 -113h-61l-136 113l40 45l126 -84
z" />
    <glyph glyph-name="uni01D3" unicode="&#x1d3;" horiz-adv-x="662" 
d="M572 221q0 -69 -28.5 -121.5t-83 -82t-130.5 -29.5q-115 0 -177.5 63.5t-62.5 169.5v468h95v-461q0 -80 36 -120t109 -40q74 0 110 39.5t36 120.5v461h96v-468zM458 909l39 -45l-135 -110h-61l-136 110l40 45l126 -81z" />
    <glyph glyph-name="uni01D4" unicode="&#x1d4;" horiz-adv-x="582" 
d="M487 0h-79l-7 82q-30 -49 -69 -71.5t-95 -22.5q-69 0 -108 42t-39 119v378h92v-368q0 -54 19 -76.5t62 -22.5q77 0 132 91v376h92v-527zM416 785l39 -45l-135 -113h-61l-136 113l40 45l126 -84z" />
    <glyph glyph-name="uni01D5" unicode="&#x1d5;" horiz-adv-x="662" 
d="M572 221q0 -69 -28.5 -121.5t-83 -82t-130.5 -29.5q-115 0 -177.5 63.5t-62.5 169.5v468h95v-461q0 -80 36 -120t109 -40q74 0 110 39.5t36 120.5v461h96v-468zM266.5 843.5q16.5 -16.5 16.5 -40.5t-16.5 -40.5t-40.5 -16.5q-25 0 -41.5 16.5t-16.5 40.5t16.5 40.5
t41.5 16.5q24 0 40.5 -16.5zM476.5 843.5q16.5 -16.5 16.5 -40.5t-16.5 -40.5t-41.5 -16.5q-24 0 -40.5 16.5t-16.5 40.5t16.5 40.5t40.5 16.5q25 0 41.5 -16.5zM469 903h-273v69h273v-69z" />
    <glyph glyph-name="uni01D6" unicode="&#x1d6;" horiz-adv-x="582" 
d="M487 0h-79l-7 82q-30 -49 -69 -71.5t-95 -22.5q-69 0 -108 42t-39 119v378h92v-368q0 -54 19 -76.5t62 -22.5q77 0 132 91v376h92v-527zM224.5 721.5q16.5 -16.5 16.5 -40.5t-16.5 -40.5t-40.5 -16.5q-25 0 -41.5 16.5t-16.5 40.5t16.5 40.5t41.5 16.5q24 0 40.5 -16.5z
M434.5 721.5q16.5 -16.5 16.5 -40.5t-16.5 -40.5t-41.5 -16.5q-24 0 -40.5 16.5t-16.5 40.5t16.5 40.5t40.5 16.5q25 0 41.5 -16.5zM425 791h-273v69h273v-69z" />
    <glyph glyph-name="uni01D7" unicode="&#x1d7;" horiz-adv-x="662" 
d="M572 221q0 -69 -28.5 -121.5t-83 -82t-130.5 -29.5q-115 0 -177.5 63.5t-62.5 169.5v468h95v-461q0 -80 36 -120t109 -40q74 0 110 39.5t36 120.5v461h96v-468zM413 1015l56 -54l-136 -126l-38 35zM266.5 843.5q16.5 -16.5 16.5 -40.5t-16.5 -40.5t-40.5 -16.5
q-25 0 -41.5 16.5t-16.5 40.5t16.5 40.5t41.5 16.5q24 0 40.5 -16.5zM476.5 843.5q16.5 -16.5 16.5 -40.5t-16.5 -40.5t-41.5 -16.5q-24 0 -40.5 16.5t-16.5 40.5t16.5 40.5t40.5 16.5q25 0 41.5 -16.5z" />
    <glyph glyph-name="uni01D8" unicode="&#x1d8;" horiz-adv-x="582" 
d="M487 0h-79l-7 82q-30 -49 -69 -71.5t-95 -22.5q-69 0 -108 42t-39 119v378h92v-368q0 -54 19 -76.5t62 -22.5q77 0 132 91v376h92v-527zM371 893l56 -54l-136 -126l-38 35zM224.5 721.5q16.5 -16.5 16.5 -40.5t-16.5 -40.5t-40.5 -16.5q-25 0 -41.5 16.5t-16.5 40.5
t16.5 40.5t41.5 16.5q24 0 40.5 -16.5zM434.5 721.5q16.5 -16.5 16.5 -40.5t-16.5 -40.5t-41.5 -16.5q-24 0 -40.5 16.5t-16.5 40.5t16.5 40.5t40.5 16.5q25 0 41.5 -16.5z" />
    <glyph glyph-name="uni01D9" unicode="&#x1d9;" horiz-adv-x="662" 
d="M572 221q0 -69 -28.5 -121.5t-83 -82t-130.5 -29.5q-115 0 -177.5 63.5t-62.5 169.5v468h95v-461q0 -80 36 -120t109 -40q74 0 110 39.5t36 120.5v461h96v-468zM455 1021l39 -45l-135 -110h-61l-136 110l40 45l126 -81zM266.5 843.5q16.5 -16.5 16.5 -40.5t-16.5 -40.5
t-40.5 -16.5q-25 0 -41.5 16.5t-16.5 40.5t16.5 40.5t41.5 16.5q24 0 40.5 -16.5zM476.5 843.5q16.5 -16.5 16.5 -40.5t-16.5 -40.5t-41.5 -16.5q-24 0 -40.5 16.5t-16.5 40.5t16.5 40.5t40.5 16.5q25 0 41.5 -16.5z" />
    <glyph glyph-name="uni01DA" unicode="&#x1da;" horiz-adv-x="582" 
d="M487 0h-79l-7 82q-30 -49 -69 -71.5t-95 -22.5q-69 0 -108 42t-39 119v378h92v-368q0 -54 19 -76.5t62 -22.5q77 0 132 91v376h92v-527zM416 899l39 -45l-135 -110h-61l-136 110l40 45l126 -81zM225.5 721.5q16.5 -16.5 16.5 -40.5t-16.5 -40.5t-40.5 -16.5
q-25 0 -41.5 16.5t-16.5 40.5t16.5 40.5t41.5 16.5q24 0 40.5 -16.5zM435.5 721.5q16.5 -16.5 16.5 -40.5t-16.5 -40.5t-41.5 -16.5q-24 0 -40.5 16.5t-16.5 40.5t16.5 40.5t40.5 16.5q25 0 41.5 -16.5z" />
    <glyph glyph-name="uni01DB" unicode="&#x1db;" horiz-adv-x="662" 
d="M572 221q0 -69 -28.5 -121.5t-83 -82t-130.5 -29.5q-115 0 -177.5 63.5t-62.5 169.5v468h95v-461q0 -80 36 -120t109 -40q74 0 110 39.5t36 120.5v461h96v-468zM251 1015l118 -145l-38 -35l-136 126zM266.5 843.5q16.5 -16.5 16.5 -40.5t-16.5 -40.5t-40.5 -16.5
q-25 0 -41.5 16.5t-16.5 40.5t16.5 40.5t41.5 16.5q24 0 40.5 -16.5zM476.5 843.5q16.5 -16.5 16.5 -40.5t-16.5 -40.5t-41.5 -16.5q-24 0 -40.5 16.5t-16.5 40.5t16.5 40.5t40.5 16.5q25 0 41.5 -16.5z" />
    <glyph glyph-name="uni01DC" unicode="&#x1dc;" horiz-adv-x="582" 
d="M487 0h-79l-7 82q-30 -49 -69 -71.5t-95 -22.5q-69 0 -108 42t-39 119v378h92v-368q0 -54 19 -76.5t62 -22.5q77 0 132 91v376h92v-527zM209 893l118 -145l-38 -35l-136 126zM224.5 721.5q16.5 -16.5 16.5 -40.5t-16.5 -40.5t-40.5 -16.5q-25 0 -41.5 16.5t-16.5 40.5
t16.5 40.5t41.5 16.5q24 0 40.5 -16.5zM434.5 721.5q16.5 -16.5 16.5 -40.5t-16.5 -40.5t-41.5 -16.5q-24 0 -40.5 16.5t-16.5 40.5t16.5 40.5t40.5 16.5q25 0 41.5 -16.5z" />
    <glyph glyph-name="uni01DD" unicode="&#x1dd;" horiz-adv-x="554" 
d="M440 466.5q57 -72.5 57 -202.5q0 -84 -27.5 -146.5t-78.5 -96t-120 -33.5q-101 0 -160 69.5t-59 190.5q0 33 2 47h345q-5 88 -38 128.5t-94 40.5q-38 0 -70.5 -11t-64.5 -38l-42 61q78 63 179 63q114 0 171 -72.5zM363.5 100q32.5 39 36.5 127h-258v-8q0 -75 34.5 -116.5
t94.5 -41.5t92.5 39z" />
    <glyph glyph-name="uni01DE" unicode="&#x1de;" horiz-adv-x="573" 
d="M467 0l-52 173h-261l-52 -173h-96l221 689h120l220 -689h-100zM177 250h215l-107 360zM222.5 843.5q16.5 -16.5 16.5 -40.5t-16.5 -40.5t-40.5 -16.5q-25 0 -41.5 16.5t-16.5 40.5t16.5 40.5t41.5 16.5q24 0 40.5 -16.5zM432.5 843.5q16.5 -16.5 16.5 -40.5t-16.5 -40.5
t-41.5 -16.5q-24 0 -40.5 16.5t-16.5 40.5t16.5 40.5t40.5 16.5q25 0 41.5 -16.5zM425 903h-273v69h273v-69z" />
    <glyph glyph-name="uni01DF" unicode="&#x1df;" horiz-adv-x="544" 
d="M461 75.5q11 -15.5 33 -23.5l-21 -64q-41 5 -66 23t-37 56q-53 -79 -157 -79q-78 0 -123 44t-45 115q0 84 60.5 129t171.5 45h81v39q0 56 -27 80t-83 24q-58 0 -142 -28l-23 67q98 36 182 36q93 0 139 -45.5t46 -129.5v-241q0 -32 11 -47.5zM358 139v121h-69
q-146 0 -146 -108q0 -47 23 -71t68 -24q79 0 124 82zM196.5 721.5q16.5 -16.5 16.5 -40.5t-16.5 -40.5t-40.5 -16.5q-25 0 -41.5 16.5t-16.5 40.5t16.5 40.5t41.5 16.5q24 0 40.5 -16.5zM406.5 721.5q16.5 -16.5 16.5 -40.5t-16.5 -40.5t-41.5 -16.5q-24 0 -40.5 16.5
t-16.5 40.5t16.5 40.5t40.5 16.5q25 0 41.5 -16.5zM397 791h-273v69h273v-69z" />
    <glyph glyph-name="uni01E0" unicode="&#x1e0;" horiz-adv-x="573" 
d="M467 0l-52 173h-261l-52 -173h-96l221 689h120l220 -689h-100zM177 250h215l-107 360zM336 848q18 -18 18 -45t-18 -44.5t-47 -17.5q-28 0 -46 17.5t-18 44.5t18 45t46 18q29 0 47 -18zM428 904h-273v69h273v-69z" />
    <glyph glyph-name="uni01E1" unicode="&#x1e1;" horiz-adv-x="544" 
d="M461 75.5q11 -15.5 33 -23.5l-21 -64q-41 5 -66 23t-37 56q-53 -79 -157 -79q-78 0 -123 44t-45 115q0 84 60.5 129t171.5 45h81v39q0 56 -27 80t-83 24q-58 0 -142 -28l-23 67q98 36 182 36q93 0 139 -45.5t46 -129.5v-241q0 -32 11 -47.5zM358 139v121h-69
q-146 0 -146 -108q0 -47 23 -71t68 -24q79 0 124 82zM306 712q18 -18 18 -45t-18 -44.5t-47 -17.5q-28 0 -46 17.5t-18 44.5t18 45t46 18q29 0 47 -18zM398 768h-273v69h273v-69z" />
    <glyph glyph-name="uni01E2" unicode="&#x1e2;" horiz-adv-x="816" 
d="M535 76h227v-76h-304l-40 173h-268l-65 -173h-97l274 689h459l-11 -76h-309l56 -226h255v-76h-236zM179 250h221l-84 363zM610 793h-273v69h273v-69z" />
    <glyph glyph-name="uni01E3" unicode="&#x1e3;" horiz-adv-x="849" 
d="M795 232h-336q6 -87 44 -128t98 -41q38 0 70 11t67 35l40 -55q-84 -66 -184 -66q-63 0 -111.5 25t-78.5 72q-36 -52 -81 -74.5t-107 -22.5q-79 0 -125 44t-46 115q0 84 62 129t173 45h81v39q0 56 -27 80t-83 24q-58 0 -142 -28l-23 67q98 36 182 36q114 0 157 -84
q57 84 159 84t157.5 -69t55.5 -191q0 -23 -2 -47zM706 306q0 78 -31 119t-93 41q-113 0 -123 -166h247v6zM312.5 79q33.5 22 63.5 70q-15 48 -15 108v3h-69q-146 0 -146 -108q0 -47 23 -71t68 -24q42 0 75.5 22zM563 667h-273v69h273v-69z" />
    <glyph glyph-name="uni01E4" unicode="&#x1e4;" horiz-adv-x="641" 
d="M636 169h-67v-120q-104 -61 -227 -61q-135 0 -211 91t-76 266q0 112 41 192.5t109 122t147 41.5q67 0 114.5 -18.5t94.5 -57.5l-56 -58q-37 30 -71 43t-80 13q-53 0 -97.5 -28.5t-72.5 -91t-28 -158.5q0 -145 47.5 -212t140.5 -67q74 0 131 29v74h-122v78h122v58h-122
l-11 77h227v-135h67v-78z" />
    <glyph glyph-name="uni01E5" unicode="&#x1e5;" horiz-adv-x="520" 
d="M548 -86h-53q-13 -61 -74.5 -94t-169.5 -33q-85 0 -134.5 17.5t-70.5 52.5t-21 90h83q0 -32 12 -50.5t43 -28t88 -9.5q71 0 109.5 13.5t49.5 41.5h-145v63h142q-23 44 -108 44h-83q-67 0 -101.5 26.5t-34.5 68.5q0 26 15 50t43 43q-46 24 -67.5 59.5t-21.5 86.5
q0 53 26.5 95t73 65.5t103.5 23.5q62 -1 104 4.5t69.5 15t67.5 27.5l27 -83q-30 -10 -66 -13t-88 -3q93 -42 93 -133q0 -79 -54 -129t-147 -50q-36 0 -67 10q-12 -8 -19 -21.5t-7 -27.5q0 -43 69 -43h84q70 0 118 -32t59 -84h53v-63zM171.5 440.5q-28.5 -32.5 -28.5 -85.5
q0 -54 29 -86.5t82 -32.5q54 0 82.5 31.5t28.5 88.5q0 117 -113 117q-52 0 -80.5 -32.5z" />
    <glyph glyph-name="Gcaron" unicode="&#x1e6;" horiz-adv-x="631" 
d="M466.5 682.5q47.5 -18.5 94.5 -57.5l-56 -58q-37 30 -71 43t-80 13q-53 0 -97.5 -28.5t-72.5 -91t-28 -158.5q0 -145 47.5 -212t140.5 -67q76 0 131 31v208h-122l-11 77h227v-333q-107 -61 -225 -61q-136 0 -212.5 91t-76.5 266q0 112 40.5 192.5t109 122t149.5 41.5
q65 0 112.5 -18.5zM482 909l39 -45l-135 -110h-61l-136 110l40 45l126 -81z" />
    <glyph glyph-name="gcaron" unicode="&#x1e7;" horiz-adv-x="520" 
d="M520 503q-30 -10 -66 -13t-88 -3q93 -42 93 -133q0 -79 -54 -129t-147 -50q-36 0 -67 10q-12 -8 -19 -21.5t-7 -27.5q0 -43 69 -43h84q53 0 94 -19t63.5 -52t22.5 -75q0 -77 -63 -118.5t-184 -41.5q-85 0 -134.5 17.5t-70.5 52.5t-21 90h83q0 -32 12 -50.5t43 -28
t88 -9.5q83 0 118.5 20.5t35.5 61.5q0 37 -28 56t-78 19h-83q-67 0 -101.5 28.5t-34.5 71.5q0 26 15 50t43 43q-46 24 -67.5 59.5t-21.5 86.5q0 53 26.5 95t73 65.5t103.5 23.5q62 -1 104 4.5t69.5 15t67.5 27.5zM171.5 440.5q-28.5 -32.5 -28.5 -85.5q0 -54 29 -86.5
t82 -32.5q54 0 82.5 31.5t28.5 88.5q0 117 -113 117q-52 0 -80.5 -32.5zM387 785l39 -45l-135 -113h-61l-136 113l40 45l126 -84z" />
    <glyph glyph-name="uni01E8" unicode="&#x1e8;" horiz-adv-x="589" 
d="M195 689v-689h-95v689h95zM570 689l-261 -315l280 -374h-117l-272 368l262 321h108zM455 909l39 -45l-135 -110h-61l-136 110l40 45l126 -81z" />
    <glyph glyph-name="uni01E9" unicode="&#x1e9;" horiz-adv-x="512" 
d="M187 750v-750h-92v739zM490 527l-194 -233l216 -294h-110l-209 288l194 239h103zM407 959l39 -45l-135 -110h-61l-136 110l40 45l126 -81z" />
    <glyph glyph-name="uni01EA" unicode="&#x1ea;" horiz-adv-x="692" 
d="M583 118q-54 -89 -148 -117v-1q-71 -31 -97 -57.5t-26 -56.5q0 -48 56 -48q27 0 61 7l-9 -70q-35 -7 -63 -7q-57 0 -91 28.5t-34 72.5q0 73 82 121q-78 7 -136.5 50t-90.5 120t-32 183q0 111 36.5 192t102.5 123.5t152 42.5q87 0 152.5 -41.5t102 -121.5t36.5 -194
q0 -137 -54 -226zM536 344q0 279 -190 279q-90 0 -140 -68t-50 -212q0 -143 50.5 -210t139.5 -67q190 0 190 278z" />
    <glyph glyph-name="uni01EB" unicode="&#x1eb;" horiz-adv-x="584" 
d="M271 -58q-25 -26 -25 -56q0 -48 56 -48q27 0 61 7l-9 -70q-35 -7 -63 -7q-57 0 -91 28.5t-34 72.5q0 75 84 122q-92 13 -142.5 85.5t-50.5 186.5q0 82 28 144.5t81 97t127 34.5q111 0 172.5 -74t61.5 -201q0 -102 -42.5 -172.5t-119.5 -93.5q-69 -30 -94 -56zM292 62
q136 0 136 202q0 201 -135 201q-137 0 -137 -202q0 -201 136 -201z" />
    <glyph glyph-name="uni01EC" unicode="&#x1ec;" horiz-adv-x="692" 
d="M482 862v-69h-273v69h273zM583 118q-54 -89 -148 -117v-1q-71 -31 -97 -57.5t-26 -56.5q0 -48 56 -48q27 0 61 7l-9 -70q-35 -7 -63 -7q-57 0 -91 28.5t-34 72.5q0 73 82 121q-78 7 -136.5 50t-90.5 120t-32 183q0 111 36.5 192t102.5 123.5t152 42.5q87 0 152.5 -41.5
t102 -121.5t36.5 -194q0 -137 -54 -226zM536 344q0 279 -190 279q-90 0 -140 -68t-50 -212q0 -143 50.5 -210t139.5 -67q190 0 190 278z" />
    <glyph glyph-name="uni01ED" unicode="&#x1ed;" horiz-adv-x="584" 
d="M428 736v-69h-273v69h273zM271 -58q-25 -26 -25 -56q0 -48 56 -48q27 0 61 7l-9 -70q-35 -7 -63 -7q-57 0 -91 28.5t-34 72.5q0 75 84 122q-92 13 -142.5 85.5t-50.5 186.5q0 82 28 144.5t81 97t127 34.5q111 0 172.5 -74t61.5 -201q0 -102 -42.5 -172.5t-119.5 -93.5
q-69 -30 -94 -56zM292 62q136 0 136 202q0 201 -135 201q-137 0 -137 -202q0 -201 136 -201z" />
    <glyph glyph-name="uni01EE" unicode="&#x1ee;" horiz-adv-x="516" 
d="M411.5 345q59.5 -52 59.5 -147q0 -61 -29.5 -109t-85 -74.5t-130.5 -26.5q-72 0 -124.5 22t-91.5 68l55 54q32 -35 69.5 -50.5t88.5 -15.5q72 0 110.5 35.5t38.5 98.5q0 68 -38 98t-119 30h-88v67l208 216h-294v78h406v-77l-213 -215h1q117 0 176.5 -52zM371 909l39 -45
l-135 -110h-61l-136 110l40 45l126 -81z" />
    <glyph glyph-name="uni01EF" unicode="&#x1ef;" horiz-adv-x="481" 
d="M390.5 155.5q60.5 -50.5 60.5 -148.5q0 -65 -30 -115t-84 -77.5t-126 -27.5q-69 0 -120 22.5t-91 67.5l54 50q35 -34 71.5 -49.5t83.5 -15.5q70 0 106.5 37.5t36.5 109.5q0 70 -36 99.5t-120 29.5h-79v67l205 246h-291v76h396v-70l-214 -251h3q114 0 174.5 -50.5z
M356 785l39 -45l-135 -113h-61l-136 113l40 45l126 -84z" />
    <glyph glyph-name="uni01F0" unicode="&#x1f0;" horiz-adv-x="280" 
d="M185 32q0 -73 -18 -117t-52.5 -71.5t-96.5 -55.5l-27 67q39 18 60 35.5t31.5 49t10.5 86.5v501h92v-495zM267 785l39 -45l-135 -113h-61l-136 113l40 45l126 -84z" />
    <glyph glyph-name="uni01F1" unicode="&#x1f1;" horiz-adv-x="1141" 
d="M494.5 616.5q94.5 -72.5 94.5 -268.5q0 -191 -94.5 -269.5t-229.5 -78.5h-165v689h144q156 0 250.5 -72.5zM195 613v-538h77q96 0 156 59t60 214q0 109 -31 167.5t-79 78t-113 19.5h-70zM1096 689v-77l-341 -531h341l-11 -81h-436v76l344 533h-308v80h411z" />
    <glyph glyph-name="uni01F2" unicode="&#x1f2;" horiz-adv-x="1071" 
d="M494.5 616.5q94.5 -72.5 94.5 -268.5q0 -191 -94.5 -269.5t-229.5 -78.5h-165v689h144q156 0 250.5 -72.5zM195 613v-538h77q96 0 156 59t60 214q0 109 -31 167.5t-79 78t-113 19.5h-70zM1038 527v-70l-275 -380h278l-11 -77h-371v69l274 380h-251v78h356z" />
    <glyph glyph-name="uni01F3" unicode="&#x1f3;" horiz-adv-x="1035" 
d="M503 739v-739h-81l-9 73q-26 -40 -65 -62.5t-87 -22.5q-94 0 -146.5 74t-52.5 199q0 81 25 144t72 98.5t110 35.5q81 0 142 -65v276zM353 80.5q30 19.5 58 58.5v258q-26 34 -55.5 51.5t-66.5 17.5q-61 0 -94.5 -51t-33.5 -152q0 -102 31 -152t89 -50q42 0 72 19.5z
M1002 527v-70l-275 -380h278l-11 -77h-371v69l274 380h-251v78h356z" />
    <glyph glyph-name="uni01F4" unicode="&#x1f4;" horiz-adv-x="631" 
d="M466.5 682.5q47.5 -18.5 94.5 -57.5l-56 -58q-37 30 -71 43t-80 13q-53 0 -97.5 -28.5t-72.5 -91t-28 -158.5q0 -145 47.5 -212t140.5 -67q76 0 131 31v208h-122l-11 77h227v-333q-107 -61 -225 -61q-136 0 -212.5 91t-76.5 266q0 112 40.5 192.5t109 122t149.5 41.5
q65 0 112.5 -18.5zM435 911l40 -77l-216 -79l-24 49z" />
    <glyph glyph-name="uni01F5" unicode="&#x1f5;" horiz-adv-x="520" 
d="M520 503q-30 -10 -66 -13t-88 -3q93 -42 93 -133q0 -79 -54 -129t-147 -50q-36 0 -67 10q-12 -8 -19 -21.5t-7 -27.5q0 -43 69 -43h84q53 0 94 -19t63.5 -52t22.5 -75q0 -77 -63 -118.5t-184 -41.5q-85 0 -134.5 17.5t-70.5 52.5t-21 90h83q0 -32 12 -50.5t43 -28
t88 -9.5q83 0 118.5 20.5t35.5 61.5q0 37 -28 56t-78 19h-83q-67 0 -101.5 28.5t-34.5 71.5q0 26 15 50t43 43q-46 24 -67.5 59.5t-21.5 86.5q0 53 26.5 95t73 65.5t103.5 23.5q62 -1 104 4.5t69.5 15t67.5 27.5zM171.5 440.5q-28.5 -32.5 -28.5 -85.5q0 -54 29 -86.5
t82 -32.5q54 0 82.5 31.5t28.5 88.5q0 117 -113 117q-52 0 -80.5 -32.5zM339 801l41 -77l-212 -86l-28 49z" />
    <glyph glyph-name="uni01F6" unicode="&#x1f6;" horiz-adv-x="969" 
d="M899 255q0 -90 -33.5 -150t-86 -88.5t-112.5 -28.5q-50 0 -91.5 20.5t-66 60t-24.5 94.5v160h-290v-323h-95v689h95v-288h290v288h95v-518q0 -55 23.5 -82t67.5 -27q54 0 94.5 47t40.5 154q0 129 -26 264h93q26 -141 26 -272z" />
    <glyph glyph-name="uni01F7" unicode="&#x1f7;" horiz-adv-x="581" 
d="M452 678.5q44 -22.5 70.5 -65.5t26.5 -103q0 -71 -35 -122.5t-92.5 -86t-139.5 -66.5l-87 -34v-201h-95v689h95v-52q67 64 160 64q53 0 97 -22.5zM448 511q0 55 -29 83.5t-82 28.5q-83 0 -142 -60v-284l83 34q170 69 170 198z" />
    <glyph glyph-name="uni01F8" unicode="&#x1f8;" horiz-adv-x="683" 
d="M583 0h-127l-280 585q6 -69 9.5 -127.5t3.5 -141.5v-316h-89v689h124l283 -586q-3 26 -8 91t-5 119v376h89v-689zM262 911l201 -107l-24 -49l-216 79z" />
    <glyph glyph-name="uni01F9" unicode="&#x1f9;" horiz-adv-x="586" 
d="M455.5 496q40.5 -43 40.5 -118v-378h-92v365q0 56 -21 79t-62 23q-42 0 -74 -24t-60 -69v-374h-92v527h79l8 -78q28 42 69.5 66t91.5 24q72 0 112.5 -43zM229 801l199 -114l-28 -49l-212 86z" />
    <glyph glyph-name="Aringacute" unicode="&#x1fa;" horiz-adv-x="573" 
d="M467 0l-52 173h-261l-52 -173h-96l221 689h120l220 -689h-100zM177 250h215l-107 360zM368 911.5q32 -30.5 32 -75.5t-32 -75.5t-82 -30.5t-82 30.5t-32 75.5t32 75.5t82 30.5t82 -30.5zM247 877q-14 -15 -14 -41t14 -41t39 -15q24 0 38.5 15t14.5 41t-14 41t-39 15
t-39 -15zM368 1104l40 -77l-216 -79l-24 49z" />
    <glyph glyph-name="aringacute" unicode="&#x1fb;" horiz-adv-x="544" 
d="M381 881l-216 -79l-24 49l200 107zM179 765.5q32 30.5 82 30.5t82 -30.5t32 -75.5t-32 -75.5t-82 -30.5t-82 30.5t-32 75.5t32 75.5zM300 731q-14 15 -39 15t-39 -15t-14 -41t14 -41t39 -15q24 0 38.5 15t14.5 41t-14 41zM461 75.5q11 -15.5 33 -23.5l-21 -64
q-41 5 -66 23t-37 56q-53 -79 -157 -79q-78 0 -123 44t-45 115q0 84 60.5 129t171.5 45h81v39q0 56 -27 80t-83 24q-58 0 -142 -28l-23 67q98 36 182 36q93 0 139 -45.5t46 -129.5v-241q0 -32 11 -47.5zM358 139v121h-69q-146 0 -146 -108q0 -47 23 -71t68 -24q79 0 124 82z
" />
    <glyph glyph-name="AEacute" unicode="&#x1fc;" horiz-adv-x="816" 
d="M535 76h227v-76h-304l-40 173h-268l-65 -173h-97l274 689h459l-11 -76h-309l56 -226h255v-76h-236zM179 250h221l-84 363zM554 911l40 -77l-216 -79l-24 49z" />
    <glyph glyph-name="aeacute" unicode="&#x1fd;" horiz-adv-x="849" 
d="M795 232h-336q6 -87 44 -128t98 -41q38 0 70 11t67 35l40 -55q-84 -66 -184 -66q-63 0 -111.5 25t-78.5 72q-36 -52 -81 -74.5t-107 -22.5q-79 0 -125 44t-46 115q0 84 62 129t173 45h81v39q0 56 -27 80t-83 24q-58 0 -142 -28l-23 67q98 36 182 36q114 0 157 -84
q57 84 159 84t157.5 -69t55.5 -191q0 -23 -2 -47zM706 306q0 78 -31 119t-93 41q-113 0 -123 -166h247v6zM312.5 79q33.5 22 63.5 70q-15 48 -15 108v3h-69q-146 0 -146 -108q0 -47 23 -71t68 -24q42 0 75.5 22zM506 801l41 -77l-212 -86l-28 49z" />
    <glyph glyph-name="Oslashacute" unicode="&#x1fe;" horiz-adv-x="692" 
d="M597.5 545.5q39.5 -82.5 39.5 -201.5q0 -112 -36.5 -192t-102 -122t-152.5 -42q-36 0 -67 7l-35 -122l-79 21l40 128q-71 40 -110.5 121.5t-39.5 199.5q0 111 36.5 192t102.5 123.5t152 42.5q37 0 66 -7l37 125l79 -21l-42 -131q72 -39 111.5 -121.5zM206 555
q-50 -68 -50 -212q0 -185 82 -246l158 521q-27 5 -50 5q-90 0 -140 -68zM536 344q0 99 -21 160t-63 90l-156 -523q25 -5 50 -5q190 0 190 278zM421 926l40 -77l-216 -79l-24 49z" />
    <glyph glyph-name="oslashacute" unicode="&#x1ff;" horiz-adv-x="584" 
d="M498.5 412.5q28.5 -62.5 28.5 -148.5q0 -82 -28 -144.5t-81 -97t-126 -34.5q-24 0 -51 5l-39 -123l-75 22l42 127q-54 33 -83 96t-29 148q0 82 28 144.5t81 97t127 34.5q24 0 51 -5l39 122l75 -22l-42 -126q54 -33 82.5 -95.5zM156 263q0 -129 48 -174l124 373
q-17 3 -35 3q-137 0 -137 -202zM428 264q0 67 -11.5 109t-35.5 64l-123 -372q15 -3 34 -3q136 0 136 202zM371 801l41 -77l-212 -86l-28 49z" />
    <glyph glyph-name="uni0200" unicode="&#x200;" horiz-adv-x="573" 
d="M467 0l-52 173h-261l-52 -173h-96l221 689h120l220 -689h-100zM177 250h215l-107 360zM165 958l86 -173l-58 -25l-106 157zM317 958l76 -168l-58 -25l-96 152z" />
    <glyph glyph-name="uni0201" unicode="&#x201;" horiz-adv-x="544" 
d="M461 75.5q11 -15.5 33 -23.5l-21 -64q-41 5 -66 23t-37 56q-53 -79 -157 -79q-78 0 -123 44t-45 115q0 84 60.5 129t171.5 45h81v39q0 56 -27 80t-83 24q-58 0 -142 -28l-23 67q98 36 182 36q93 0 139 -45.5t46 -129.5v-241q0 -32 11 -47.5zM358 139v121h-69
q-146 0 -146 -108q0 -47 23 -71t68 -24q79 0 124 82zM146 832l86 -173l-58 -25l-106 157zM298 832l76 -168l-58 -25l-96 152z" />
    <glyph glyph-name="uni0202" unicode="&#x202;" horiz-adv-x="573" 
d="M467 0l-52 173h-261l-52 -173h-96l221 689h120l220 -689h-100zM177 250h215l-107 360zM389.5 886.5q42.5 -35.5 48.5 -97.5l-61 -13q-21 76 -92 76q-68 0 -89 -76l-61 13q6 62 47.5 97.5t102.5 35.5q62 0 104.5 -35.5z" />
    <glyph glyph-name="uni0203" unicode="&#x203;" horiz-adv-x="544" 
d="M461 75.5q11 -15.5 33 -23.5l-21 -64q-41 5 -66 23t-37 56q-53 -79 -157 -79q-78 0 -123 44t-45 115q0 84 60.5 129t171.5 45h81v39q0 56 -27 80t-83 24q-58 0 -142 -28l-23 67q98 36 182 36q93 0 139 -45.5t46 -129.5v-241q0 -32 11 -47.5zM358 139v121h-69
q-146 0 -146 -108q0 -47 23 -71t68 -24q79 0 124 82zM363.5 724.5q42.5 -35.5 48.5 -97.5l-61 -13q-21 76 -92 76q-68 0 -89 -76l-61 13q6 62 47.5 97.5t102.5 35.5q62 0 104.5 -35.5z" />
    <glyph glyph-name="uni0204" unicode="&#x204;" horiz-adv-x="535" 
d="M473 689l-11 -76h-267v-225h232v-76h-232v-236h286v-76h-381v689h373zM168 958l86 -173l-58 -25l-106 157zM320 958l76 -168l-58 -25l-96 152z" />
    <glyph glyph-name="uni0205" unicode="&#x205;" horiz-adv-x="545" 
d="M491 232h-336q6 -87 44 -128t98 -41q38 0 70 11t67 35l40 -55q-84 -66 -184 -66q-110 0 -171.5 72t-61.5 198q0 82 26.5 145.5t76 99.5t116.5 36q105 0 161 -69t56 -191q0 -23 -2 -47zM402 306q0 78 -31 119t-93 41q-113 0 -123 -166h247v6zM164 832l86 -173l-58 -25
l-106 157zM316 832l76 -168l-58 -25l-96 152z" />
    <glyph glyph-name="uni0206" unicode="&#x206;" horiz-adv-x="535" 
d="M473 689l-11 -76h-267v-225h232v-76h-232v-236h286v-76h-381v689h373zM392.5 886.5q42.5 -35.5 48.5 -97.5l-61 -13q-21 76 -92 76q-68 0 -89 -76l-61 13q6 62 47.5 97.5t102.5 35.5q62 0 104.5 -35.5z" />
    <glyph glyph-name="uni0207" unicode="&#x207;" horiz-adv-x="545" 
d="M491 232h-336q6 -87 44 -128t98 -41q38 0 70 11t67 35l40 -55q-84 -66 -184 -66q-110 0 -171.5 72t-61.5 198q0 82 26.5 145.5t76 99.5t116.5 36q105 0 161 -69t56 -191q0 -23 -2 -47zM402 306q0 78 -31 119t-93 41q-113 0 -123 -166h247v6zM381.5 724.5
q42.5 -35.5 48.5 -97.5l-61 -13q-21 76 -92 76q-68 0 -89 -76l-61 13q6 62 47.5 97.5t102.5 35.5q62 0 104.5 -35.5z" />
    <glyph glyph-name="uni0208" unicode="&#x208;" horiz-adv-x="295" 
d="M195 689v-689h-95v689h95zM25 958l86 -173l-58 -25l-106 157zM177 958l76 -168l-58 -25l-96 152z" />
    <glyph glyph-name="uni0209" unicode="&#x209;" horiz-adv-x="282" 
d="M187 527v-527h-92v527h92zM26 832l86 -173l-58 -25l-106 157zM178 832l76 -168l-58 -25l-96 152z" />
    <glyph glyph-name="uni020A" unicode="&#x20a;" horiz-adv-x="295" 
d="M195 689v-689h-95v689h95zM249.5 886.5q42.5 -35.5 48.5 -97.5l-61 -13q-21 76 -92 76q-68 0 -89 -76l-61 13q6 62 47.5 97.5t102.5 35.5q62 0 104.5 -35.5z" />
    <glyph glyph-name="uni020B" unicode="&#x20b;" horiz-adv-x="282" 
d="M187 527v-527h-92v527h92zM243.5 724.5q42.5 -35.5 48.5 -97.5l-61 -13q-21 76 -92 76q-68 0 -89 -76l-61 13q6 62 47.5 97.5t102.5 35.5q62 0 104.5 -35.5z" />
    <glyph glyph-name="uni020C" unicode="&#x20c;" horiz-adv-x="692" 
d="M498.5 659.5q65.5 -41.5 102 -121.5t36.5 -194q0 -112 -36.5 -192t-102 -122t-152.5 -42t-152.5 41t-102 121t-36.5 193q0 111 36.5 192t102.5 123.5t152 42.5q87 0 152.5 -41.5zM206 555q-50 -68 -50 -212q0 -143 50.5 -210t139.5 -67q190 0 190 278q0 279 -190 279
q-90 0 -140 -68zM224 958l86 -173l-58 -25l-106 157zM376 958l76 -168l-58 -25l-96 152z" />
    <glyph glyph-name="uni020D" unicode="&#x20d;" horiz-adv-x="584" 
d="M465.5 465q61.5 -74 61.5 -201q0 -82 -28 -144.5t-81 -97t-126 -34.5q-111 0 -173 74t-62 201q0 82 28 144.5t81 97t127 34.5q111 0 172.5 -74zM156 263q0 -201 136 -201t136 202q0 201 -135 201q-137 0 -137 -202zM177 832l86 -173l-58 -25l-106 157zM329 832l76 -168
l-58 -25l-96 152z" />
    <glyph glyph-name="uni020E" unicode="&#x20e;" horiz-adv-x="692" 
d="M498.5 659.5q65.5 -41.5 102 -121.5t36.5 -194q0 -112 -36.5 -192t-102 -122t-152.5 -42t-152.5 41t-102 121t-36.5 193q0 111 36.5 192t102.5 123.5t152 42.5q87 0 152.5 -41.5zM206 555q-50 -68 -50 -212q0 -143 50.5 -210t139.5 -67q190 0 190 278q0 279 -190 279
q-90 0 -140 -68zM448.5 886.5q42.5 -35.5 48.5 -97.5l-61 -13q-21 76 -92 76q-68 0 -89 -76l-61 13q6 62 47.5 97.5t102.5 35.5q62 0 104.5 -35.5z" />
    <glyph glyph-name="uni020F" unicode="&#x20f;" horiz-adv-x="584" 
d="M465.5 465q61.5 -74 61.5 -201q0 -82 -28 -144.5t-81 -97t-126 -34.5q-111 0 -173 74t-62 201q0 82 28 144.5t81 97t127 34.5q111 0 172.5 -74zM156 263q0 -201 136 -201t136 202q0 201 -135 201q-137 0 -137 -202zM394.5 724.5q42.5 -35.5 48.5 -97.5l-61 -13
q-21 76 -92 76q-68 0 -89 -76l-61 13q6 62 47.5 97.5t102.5 35.5q62 0 104.5 -35.5z" />
    <glyph glyph-name="uni0210" unicode="&#x210;" horiz-adv-x="605" 
d="M302 292h-107v-292h-95v689h181q129 0 195.5 -49t66.5 -146q0 -72 -37 -117t-112 -68l186 -309h-113zM291 365q75 0 113 30.5t38 98.5q0 64 -38.5 92.5t-123.5 28.5h-85v-250h96zM177 958l86 -173l-58 -25l-106 157zM329 958l76 -168l-58 -25l-96 152z" />
    <glyph glyph-name="uni0211" unicode="&#x211;" horiz-adv-x="386" 
d="M376 533l-17 -90q-24 6 -46 6q-49 0 -79 -36t-47 -112v-301h-92v527h79l9 -107q21 59 57 89t84 30q28 0 52 -6zM123 832l86 -173l-58 -25l-106 157zM275 832l76 -168l-58 -25l-96 152z" />
    <glyph glyph-name="uni0212" unicode="&#x212;" horiz-adv-x="605" 
d="M302 292h-107v-292h-95v689h181q129 0 195.5 -49t66.5 -146q0 -72 -37 -117t-112 -68l186 -309h-113zM291 365q75 0 113 30.5t38 98.5q0 64 -38.5 92.5t-123.5 28.5h-85v-250h96zM401.5 886.5q42.5 -35.5 48.5 -97.5l-61 -13q-21 76 -92 76q-68 0 -89 -76l-61 13
q6 62 47.5 97.5t102.5 35.5q62 0 104.5 -35.5z" />
    <glyph glyph-name="uni0213" unicode="&#x213;" horiz-adv-x="386" 
d="M376 533l-17 -90q-24 6 -46 6q-49 0 -79 -36t-47 -112v-301h-92v527h79l9 -107q21 59 57 89t84 30q28 0 52 -6zM340.5 724.5q42.5 -35.5 48.5 -97.5l-61 -13q-21 76 -92 76q-68 0 -89 -76l-61 13q6 62 47.5 97.5t102.5 35.5q62 0 104.5 -35.5z" />
    <glyph glyph-name="uni0214" unicode="&#x214;" horiz-adv-x="662" 
d="M572 221q0 -69 -28.5 -121.5t-83 -82t-130.5 -29.5q-115 0 -177.5 63.5t-62.5 169.5v468h95v-461q0 -80 36 -120t109 -40q74 0 110 39.5t36 120.5v461h96v-468zM209 958l86 -173l-58 -25l-106 157zM361 958l76 -168l-58 -25l-96 152z" />
    <glyph glyph-name="uni0215" unicode="&#x215;" horiz-adv-x="582" 
d="M487 0h-79l-7 82q-30 -49 -69 -71.5t-95 -22.5q-69 0 -108 42t-39 119v378h92v-368q0 -54 19 -76.5t62 -22.5q77 0 132 91v376h92v-527zM174 832l86 -173l-58 -25l-106 157zM326 832l76 -168l-58 -25l-96 152z" />
    <glyph glyph-name="uni0216" unicode="&#x216;" horiz-adv-x="662" 
d="M572 221q0 -69 -28.5 -121.5t-83 -82t-130.5 -29.5q-115 0 -177.5 63.5t-62.5 169.5v468h95v-461q0 -80 36 -120t109 -40q74 0 110 39.5t36 120.5v461h96v-468zM433.5 886.5q42.5 -35.5 48.5 -97.5l-61 -13q-21 76 -92 76q-68 0 -89 -76l-61 13q6 62 47.5 97.5
t102.5 35.5q62 0 104.5 -35.5z" />
    <glyph glyph-name="uni0217" unicode="&#x217;" horiz-adv-x="582" 
d="M487 0h-79l-7 82q-30 -49 -69 -71.5t-95 -22.5q-69 0 -108 42t-39 119v378h92v-368q0 -54 19 -76.5t62 -22.5q77 0 132 91v376h92v-527zM391.5 724.5q42.5 -35.5 48.5 -97.5l-61 -13q-21 76 -92 76q-68 0 -89 -76l-61 13q6 62 47.5 97.5t102.5 35.5q62 0 104.5 -35.5z
" />
    <glyph glyph-name="Scommaaccent" unicode="&#x218;" horiz-adv-x="545" 
d="M388 681.5q49 -19.5 95 -60.5l-52 -58q-39 31 -76.5 45.5t-80.5 14.5q-54 0 -89 -25t-35 -73q0 -30 12 -50.5t44.5 -37.5t94.5 -36q65 -20 108 -43t69.5 -63.5t26.5 -102.5q0 -60 -29.5 -106t-85 -72t-131.5 -26q-143 0 -234 89l52 58q42 -34 85 -51.5t96 -17.5
q64 0 106 31.5t42 91.5q0 34 -13 56.5t-44.5 40.5t-91.5 36q-106 32 -155 77t-49 122q0 52 27.5 93t77 64t112.5 23q69 0 118 -19.5zM310.5 -93q16.5 -16 16.5 -40q0 -13 -5.5 -29t-20.5 -48l-41 -86h-53l29 116q-24 21 -24 47q0 24 17 40t41 16t40.5 -16z" />
    <glyph glyph-name="scommaaccent" unicode="&#x219;" horiz-adv-x="467" 
d="M335 524q43 -15 82 -45l-39 -58q-36 23 -68.5 34t-68.5 11q-45 0 -71 -18.5t-26 -50.5t24.5 -50t88.5 -35q88 -22 131.5 -60t43.5 -104q0 -78 -60.5 -119t-147.5 -41q-120 0 -199 69l49 56q67 -51 148 -51q52 0 82.5 21.5t30.5 58.5q0 27 -11 43.5t-38 29t-79 26.5
q-84 22 -121.5 59t-37.5 94q0 41 24.5 74.5t68 52t97.5 18.5t97 -15zM278.5 -93q16.5 -16 16.5 -40q0 -13 -5.5 -29t-20.5 -48l-41 -86h-53l29 116q-24 21 -24 47q0 24 17 40t41 16t40.5 -16z" />
    <glyph glyph-name="uni021A" unicode="&#x21a;" horiz-adv-x="517" 
d="M507 689l-10 -81h-191v-608h-95v608h-196v81h492zM302.5 -93q16.5 -16 16.5 -40q0 -13 -5.5 -29t-20.5 -48l-41 -86h-53l29 116q-24 21 -24 47q0 24 17 40t41 16t40.5 -16z" />
    <glyph glyph-name="uni021B" unicode="&#x21b;" horiz-adv-x="361" 
d="M361 24q-52 -36 -118 -36q-67 0 -104.5 38.5t-37.5 111.5v318h-92v71h92v119l92 11v-130h125l-10 -71h-115v-314q0 -41 14.5 -59.5t48.5 -18.5q31 0 70 21zM277.5 -93q16.5 -16 16.5 -40q0 -13 -5.5 -29t-20.5 -48l-41 -86h-53l29 116q-24 21 -24 47q0 24 17 40t41 16
t40.5 -16z" />
    <glyph glyph-name="uni021C" unicode="&#x21c;" horiz-adv-x="504" 
d="M382 650q54 -51 54 -131q0 -66 -36 -106t-99 -54q69 -7 113.5 -47.5t44.5 -115.5q0 -106 -96 -184t-296 -114l-9 80q167 35 233 89t66 130q0 118 -152 118h-66l13 78h54q60 0 95.5 31.5t35.5 87.5q0 50 -29 80.5t-88 30.5q-82 0 -160 -64l-50 57q96 85 218 85
q100 0 154 -51z" />
    <glyph glyph-name="uni021D" unicode="&#x21d;" horiz-adv-x="480" 
d="M339.5 500.5q55.5 -38.5 55.5 -108.5q0 -48 -25 -76.5t-81 -43.5q63 -1 98.5 -32t35.5 -82q0 -87 -93.5 -154.5t-263.5 -105.5l-13 67q141 42 206 86t65 104q0 41 -24.5 57.5t-73.5 16.5h-100l6 72h59q49 0 79 20.5t30 65.5q0 43 -29 61.5t-76 18.5q-41 0 -72 -10.5
t-64 -31.5l-44 54q80 60 189 60q80 0 135.5 -38.5z" />
    <glyph glyph-name="uni021E" unicode="&#x21e;" horiz-adv-x="680" 
d="M485 0v323h-290v-323h-95v689h95v-288h290v288h95v-689h-95zM467 909l39 -45l-135 -110h-61l-136 110l40 45l126 -81z" />
    <glyph glyph-name="uni021F" unicode="&#x21f;" horiz-adv-x="586" 
d="M455.5 496q40.5 -43 40.5 -118v-378h-92v365q0 56 -21.5 79t-62.5 23t-73 -24t-60 -68v-375h-92v738l92 10v-294q62 85 156 85q72 0 112.5 -43zM419 959l39 -45l-135 -110h-61l-136 110l40 45l126 -81z" />
    <glyph glyph-name="uni0220" unicode="&#x220;" horiz-adv-x="672" 
d="M532.5 647.5q46.5 -53.5 46.5 -140.5v-709h-95v690q0 68 -26.5 101.5t-83.5 33.5q-55 0 -93.5 -22.5t-85.5 -70.5v-530h-95v689h82l8 -83q44 46 93 70.5t111 24.5q92 0 138.5 -53.5z" />
    <glyph glyph-name="uni0221" unicode="&#x221;" horiz-adv-x="738" 
d="M728 195.5q30 -28.5 30 -74.5q0 -61 -47 -97t-124 -36q-34 0 -62 8l-32 -71l-59 25l34 73q-33 25 -47 63q-25 -46 -66.5 -72t-93.5 -26q-94 0 -146.5 74t-52.5 199q0 81 25 144t72 98.5t110 35.5q81 0 142 -65v276l92 -11v-599q0 -24 4 -37l1 3q25 60 58 89t83 29
q49 0 79 -28.5zM353 80.5q30 19.5 58 59.5v10v247q-26 34 -55.5 51.5t-66.5 17.5q-61 0 -94.5 -51t-33.5 -152q0 -102 31 -152t89 -50q42 0 72 19.5zM655 80q22 14 22 41q0 36 -36 36q-24 0 -41.5 -19t-41.5 -71q8 -1 29 -1q46 0 68 14z" />
    <glyph glyph-name="uni0222" unicode="&#x222;" horiz-adv-x="652" 
d="M562.5 320q34.5 -47 34.5 -111q0 -58 -32.5 -108.5t-94 -81.5t-144.5 -31t-144.5 30t-94 80.5t-32.5 109.5q0 61 35 108t99 72q-45 25 -67 65.5t-22 92.5v143h95v-138q0 -130 132 -130q69 0 100.5 37t31.5 93v138h96v-143q0 -50 -24 -90t-69 -66q66 -23 100.5 -70z
M454 101.5q42 35.5 42 107.5q0 65 -42 99.5t-128 34.5q-85 0 -127.5 -35t-42.5 -100q0 -70 43 -106t127 -36q86 0 128 35.5z" />
    <glyph glyph-name="uni0223" unicode="&#x223;" horiz-adv-x="578" 
d="M488.5 337q32.5 -49 32.5 -122q0 -61 -28 -113t-80.5 -83t-123.5 -31q-70 0 -123 30t-81 82t-28 114q0 70 33 119.5t93 72.5q-43 22 -65.5 58.5t-22.5 82.5v192h92v-192q0 -52 25.5 -81t77.5 -29t77.5 29t25.5 81v192h92v-192q0 -45 -24 -81t-66 -58q61 -22 93.5 -71z
M389.5 99q32.5 37 32.5 116q0 151 -133 151q-66 0 -99.5 -38.5t-33.5 -113.5q0 -152 133 -152q68 0 100.5 37z" />
    <glyph glyph-name="uni0224" unicode="&#x224;" horiz-adv-x="522" 
d="M477 612l-341 -531h335v-138q0 -76 -40 -116t-111 -40q-65 0 -115 38l36 61q20 -12 36 -17.5t40 -5.5q62 0 62 74v63h-349v76l344 533h-308v80h411v-77z" />
    <glyph glyph-name="uni0225" unicode="&#x225;" horiz-adv-x="434" 
d="M404 457l-275 -380h273v-134q0 -76 -40.5 -116t-110.5 -40q-65 0 -115 38l36 58q20 -12 35.5 -17t38.5 -5q67 0 67 74v65h-288v69l274 380h-251v78h356v-70z" />
    <glyph glyph-name="uni0226" unicode="&#x226;" horiz-adv-x="573" 
d="M467 0l-52 173h-261l-52 -173h-96l221 689h120l220 -689h-100zM177 250h215l-107 360zM333 888q18 -18 18 -45t-18 -44.5t-47 -17.5q-28 0 -46 17.5t-18 44.5t18 45t46 18q29 0 47 -18z" />
    <glyph glyph-name="uni0227" unicode="&#x227;" horiz-adv-x="544" 
d="M461 75.5q11 -15.5 33 -23.5l-21 -64q-41 5 -66 23t-37 56q-53 -79 -157 -79q-78 0 -123 44t-45 115q0 84 60.5 129t171.5 45h81v39q0 56 -27 80t-83 24q-58 0 -142 -28l-23 67q98 36 182 36q93 0 139 -45.5t46 -129.5v-241q0 -32 11 -47.5zM358 139v121h-69
q-146 0 -146 -108q0 -47 23 -71t68 -24q79 0 124 82zM307 762q18 -18 18 -45t-18 -44.5t-47 -17.5q-28 0 -46 17.5t-18 44.5t18 45t46 18q29 0 47 -18z" />
    <glyph glyph-name="uni0228" unicode="&#x228;" horiz-adv-x="535" 
d="M321 0v-56q48 -4 70.5 -27.5t22.5 -57.5q0 -48 -35 -74t-89 -26q-28 0 -52 6.5t-39 17.5l25 52q30 -16 63 -16q23 0 36.5 9.5t13.5 30.5t-21 31.5t-68 10.5l12 99h-160v689h373l-11 -76h-267v-225h232v-76h-232v-236h286v-76h-160z" />
    <glyph glyph-name="uni0229" unicode="&#x229;" horiz-adv-x="545" 
d="M491 232h-336q6 -87 44 -128t98 -41q38 0 70 11t67 35l40 -55q-71 -57 -157 -65v-45q48 -4 70.5 -27.5t22.5 -57.5q0 -48 -35 -74t-89 -26q-28 0 -52 6.5t-39 17.5l25 52q30 -16 63 -16q23 0 36.5 9.5t13.5 30.5t-21 31.5t-68 10.5l11 89q-94 11 -146 82t-52 186
q0 82 26.5 145.5t76 99.5t116.5 36q105 0 161 -69t56 -191q0 -23 -2 -47zM402 306q0 78 -31 119t-93 41q-113 0 -123 -166h247v6z" />
    <glyph glyph-name="uni022A" unicode="&#x22a;" horiz-adv-x="692" 
d="M498.5 659.5q65.5 -41.5 102 -121.5t36.5 -194q0 -112 -36.5 -192t-102 -122t-152.5 -42t-152.5 41t-102 121t-36.5 193q0 111 36.5 192t102.5 123.5t152 42.5q87 0 152.5 -41.5zM206 555q-50 -68 -50 -212q0 -143 50.5 -210t139.5 -67q190 0 190 278q0 279 -190 279
q-90 0 -140 -68zM281.5 843.5q16.5 -16.5 16.5 -40.5t-16.5 -40.5t-40.5 -16.5q-25 0 -41.5 16.5t-16.5 40.5t16.5 40.5t41.5 16.5q24 0 40.5 -16.5zM491.5 843.5q16.5 -16.5 16.5 -40.5t-16.5 -40.5t-41.5 -16.5q-24 0 -40.5 16.5t-16.5 40.5t16.5 40.5t40.5 16.5
q25 0 41.5 -16.5zM484 903h-273v69h273v-69z" />
    <glyph glyph-name="uni022B" unicode="&#x22b;" horiz-adv-x="584" 
d="M465.5 465q61.5 -74 61.5 -201q0 -82 -28 -144.5t-81 -97t-126 -34.5q-111 0 -173 74t-62 201q0 82 28 144.5t81 97t127 34.5q111 0 172.5 -74zM156 263q0 -201 136 -201t136 202q0 201 -135 201q-137 0 -137 -202zM227.5 721.5q16.5 -16.5 16.5 -40.5t-16.5 -40.5
t-40.5 -16.5q-25 0 -41.5 16.5t-16.5 40.5t16.5 40.5t41.5 16.5q24 0 40.5 -16.5zM437.5 721.5q16.5 -16.5 16.5 -40.5t-16.5 -40.5t-41.5 -16.5q-24 0 -40.5 16.5t-16.5 40.5t16.5 40.5t40.5 16.5q25 0 41.5 -16.5zM428 791h-273v69h273v-69z" />
    <glyph glyph-name="uni022C" unicode="&#x22c;" horiz-adv-x="692" 
d="M498.5 659.5q65.5 -41.5 102 -121.5t36.5 -194q0 -112 -36.5 -192t-102 -122t-152.5 -42t-152.5 41t-102 121t-36.5 193q0 111 36.5 192t102.5 123.5t152 42.5q87 0 152.5 -41.5zM206 555q-50 -68 -50 -212q0 -143 50.5 -210t139.5 -67q190 0 190 278q0 279 -190 279
q-90 0 -140 -68zM369.5 765q-15.5 7 -34.5 20q-15 11 -25.5 16t-21.5 5q-16 0 -28 -11t-25 -35l-56 28q19 40 46.5 64t62.5 24q21 0 36 -7.5t34 -20.5q3 -2 12.5 -8t17.5 -9t16 -3q15 0 27 10.5t26 33.5l56 -28q-19 -42 -47 -64t-62 -22q-19 0 -34.5 7zM482 911h-273v69h273
v-69z" />
    <glyph glyph-name="uni022D" unicode="&#x22d;" horiz-adv-x="584" 
d="M465.5 465q61.5 -74 61.5 -201q0 -82 -28 -144.5t-81 -97t-126 -34.5q-111 0 -173 74t-62 201q0 82 28 144.5t81 97t127 34.5q111 0 172.5 -74zM156 263q0 -201 136 -201t136 202q0 201 -135 201q-137 0 -137 -202zM315.5 603q-15.5 7 -34.5 20q-15 11 -25.5 16t-21.5 5
q-16 0 -28 -11t-25 -35l-56 28q19 40 46.5 64t62.5 24q21 0 36 -7.5t34 -20.5q3 -2 12.5 -8t17.5 -9t16 -3q15 0 27 10.5t26 33.5l56 -28q-19 -42 -47 -64t-62 -22q-19 0 -34.5 7zM428 749h-273v69h273v-69z" />
    <glyph glyph-name="uni022E" unicode="&#x22e;" horiz-adv-x="692" 
d="M498.5 659.5q65.5 -41.5 102 -121.5t36.5 -194q0 -112 -36.5 -192t-102 -122t-152.5 -42t-152.5 41t-102 121t-36.5 193q0 111 36.5 192t102.5 123.5t152 42.5q87 0 152.5 -41.5zM206 555q-50 -68 -50 -212q0 -143 50.5 -210t139.5 -67q190 0 190 278q0 279 -190 279
q-90 0 -140 -68zM392 888q18 -18 18 -45t-18 -44.5t-47 -17.5q-28 0 -46 17.5t-18 44.5t18 45t46 18q29 0 47 -18z" />
    <glyph glyph-name="uni022F" unicode="&#x22f;" horiz-adv-x="584" 
d="M465.5 465q61.5 -74 61.5 -201q0 -82 -28 -144.5t-81 -97t-126 -34.5q-111 0 -173 74t-62 201q0 82 28 144.5t81 97t127 34.5q111 0 172.5 -74zM156 263q0 -201 136 -201t136 202q0 201 -135 201q-137 0 -137 -202zM338 762q18 -18 18 -45t-18 -44.5t-47 -17.5
q-28 0 -46 17.5t-18 44.5t18 45t46 18q29 0 47 -18z" />
    <glyph glyph-name="uni0230" unicode="&#x230;" horiz-adv-x="692" 
d="M498.5 659.5q65.5 -41.5 102 -121.5t36.5 -194q0 -112 -36.5 -192t-102 -122t-152.5 -42t-152.5 41t-102 121t-36.5 193q0 111 36.5 192t102.5 123.5t152 42.5q87 0 152.5 -41.5zM206 555q-50 -68 -50 -212q0 -143 50.5 -210t139.5 -67q190 0 190 278q0 279 -190 279
q-90 0 -140 -68zM395 848q18 -18 18 -45t-18 -44.5t-47 -17.5q-28 0 -46 17.5t-18 44.5t18 45t46 18q29 0 47 -18zM487 904h-273v69h273v-69z" />
    <glyph glyph-name="uni0231" unicode="&#x231;" horiz-adv-x="584" 
d="M465.5 465q61.5 -74 61.5 -201q0 -82 -28 -144.5t-81 -97t-126 -34.5q-111 0 -173 74t-62 201q0 82 28 144.5t81 97t127 34.5q111 0 172.5 -74zM156 263q0 -201 136 -201t136 202q0 201 -135 201q-137 0 -137 -202zM337 712q18 -18 18 -45t-18 -44.5t-47 -17.5
q-28 0 -46 17.5t-18 44.5t18 45t46 18q29 0 47 -18zM429 768h-273v69h273v-69z" />
    <glyph glyph-name="uni0232" unicode="&#x232;" horiz-adv-x="550" 
d="M545 689l-222 -424v-265h-96v264l-222 425h105l168 -341l168 341h99zM411 793h-273v69h273v-69z" />
    <glyph glyph-name="uni0233" unicode="&#x233;" horiz-adv-x="492" 
d="M306 -3q-31 -92 -86.5 -145.5t-158.5 -64.5l-10 72q52 9 83 26t49.5 43.5t34.5 71.5h-31l-177 527h98l141 -460l138 460h95zM382 667h-273v69h273v-69z" />
    <glyph glyph-name="uni0234" unicode="&#x234;" horiz-adv-x="417" 
d="M407 195.5q30 -28.5 30 -74.5q0 -61 -47 -97t-124 -36q-34 0 -62 8l-32 -71l-59 25l34 73q-57 43 -57 127v589l92 11v-610q0 -24 4 -37l1 3q25 60 58 89t83 29q49 0 79 -28.5zM334 80q22 14 22 41q0 36 -36 36q-24 0 -41.5 -19t-41.5 -71q8 -1 29 -1q46 0 68 14z" />
    <glyph glyph-name="uni0235" unicode="&#x235;" horiz-adv-x="731" 
d="M721 195.5q30 -28.5 30 -74.5q0 -61 -47 -97t-124 -36q-34 0 -62 8l-32 -71l-59 25l34 73q-57 43 -57 127v215q0 56 -21 79t-62 23q-42 0 -74 -24t-60 -69v-374h-92v527h79l8 -78q28 42 69.5 66t91.5 24q72 0 112.5 -43t40.5 -118v-238q0 -24 4 -37l1 3q25 60 58 89
t83 29q49 0 79 -28.5zM648 80q22 14 22 41q0 36 -36 36q-24 0 -41.5 -19t-41.5 -71q8 -1 29 -1q46 0 68 14z" />
    <glyph glyph-name="uni0236" unicode="&#x236;" horiz-adv-x="428" 
d="M418 195.5q30 -28.5 30 -74.5q0 -61 -47 -97t-124 -36q-34 0 -63 7l-31 -70l-59 25l33 70q-56 41 -56 130v306h-92v71h92v119l92 11v-130h125l-10 -71h-115v-316q0 -24 4 -37l1 3q25 60 58 89t83 29q49 0 79 -28.5zM345 80q22 14 22 41q0 36 -36 36q-24 0 -41.5 -19
t-41.5 -71q8 -1 29 -1q46 0 68 14z" />
    <glyph glyph-name="uni0237" unicode="&#x237;" horiz-adv-x="280" 
d="M185 32q0 -73 -18 -117t-52.5 -71.5t-96.5 -55.5l-27 67q39 18 60 35.5t31.5 49t10.5 86.5v501h92v-495z" />
    <glyph glyph-name="uni0238" unicode="&#x238;" horiz-adv-x="870" 
d="M720.5 506.5q41.5 -32.5 64.5 -94.5t23 -148q0 -82 -24.5 -144.5t-69.5 -97t-103 -34.5q-80 0 -129 83l-10 -71h-70l-9 73q-26 -40 -63 -62.5t-79 -22.5q-58 0 -101 34t-65.5 95.5t-22.5 143.5q0 80 24 143.5t68.5 99t102.5 35.5q39 0 73 -19.5t61 -56.5v276l92 11v-289
q28 39 61.5 58.5t79.5 19.5q55 0 96.5 -32.5zM334.5 80.5q28.5 19.5 56.5 58.5v250q-51 77 -116 77q-52 0 -83 -51.5t-31 -151.5q0 -101 29.5 -151.5t80.5 -50.5q35 0 63.5 19.5zM677 111.5q32 50.5 32 152.5q0 202 -109 202q-39 0 -65.5 -21t-51.5 -57v-241q27 -46 50 -66
t63 -20q49 0 81 50.5z" />
    <glyph glyph-name="uni0239" unicode="&#x239;" horiz-adv-x="870" 
d="M762 466q46 -73 46 -202q0 -81 -23 -143.5t-67.5 -97.5t-106.5 -35q-37 0 -68.5 17t-59.5 58v-265l-92 -11v283q-26 -39 -62.5 -60.5t-77.5 -21.5q-58 0 -101 34t-65.5 95.5t-22.5 143.5q0 80 25 143.5t70.5 99t106.5 35.5q39 0 73.5 -20t59.5 -59l7 67h66l7 -71
q29 40 67 61.5t79 21.5q93 0 139 -73zM334.5 80.5q28.5 19.5 56.5 58.5v243q-25 43 -53 63.5t-62 20.5q-52 0 -83.5 -52t-31.5 -151q0 -101 29.5 -151.5t80.5 -50.5q35 0 63.5 19.5zM677.5 113q31.5 50 31.5 151t-28 151.5t-79 50.5q-66 0 -119 -82v-244q20 -38 47.5 -57.5
t58.5 -19.5q57 0 88.5 50z" />
    <glyph glyph-name="uni023A" unicode="&#x23a;" horiz-adv-x="573" 
d="M470 0l-52 173h-139l-65 -243l-45 11l62 232h-80l-52 -173h-93l221 689h120l11 -36l26 97l45 -11l-44 -167l182 -572h-97zM173 247h77l69 259l-34 114zM298 247h98l-52 174z" />
    <glyph glyph-name="uni023B" unicode="&#x23b;" 
d="M540 65q-32 -33 -82 -55t-115 -22q-40 0 -76 9l-18 -67l-45 11l19 72q-79 36 -123.5 121t-44.5 211q0 113 38 193.5t103 121.5t145 41q32 0 64 -5l14 54l45 -11l-15 -56q39 -14 83 -50l-52 -61q-26 21 -52 33l-140 -528q27 -9 58 -9q44 0 77 15t70 42zM246 98l138 522
q-18 3 -37 3q-86 0 -138.5 -66t-52.5 -212q0 -183 90 -247z" />
    <glyph glyph-name="uni023C" unicode="&#x23c;" horiz-adv-x="478" 
d="M348 75.5q26 9.5 58 30.5l42 -60q-72 -58 -161 -58q-35 0 -62 7l-18 -65l-43 11l19 69q-60 29 -93 93t-33 156q0 84 28 147t79.5 98t122.5 35q20 0 40 -3l16 59l43 -11l-16 -57q44 -16 78 -45l-44 -58q-29 21 -54 29l-104 -380q20 -7 45 -7q31 0 57 9.5zM206 96l101 366
q-5 1 -16 1q-64 0 -99.5 -51t-35.5 -151q0 -118 50 -165z" />
    <glyph glyph-name="uni023D" unicode="&#x23d;" horiz-adv-x="504" 
d="M201 83h283l-11 -83h-367v324h-91v78h91v287h95v-287h97v-78h-97v-241z" />
    <glyph glyph-name="uni023E" unicode="&#x23e;" horiz-adv-x="517" 
d="M497 608h-101l-91 -235v-373h-93v134l-79 -204l-44 17l123 317v344h-197v81h362l26 67l44 -17l-19 -50h79zM305 504l41 104h-41v-104z" />
    <glyph glyph-name="uni023F" unicode="&#x23f;" horiz-adv-x="470" 
d="M435 -183q-39 -30 -97 -30q-33 0 -58 13.5t-43.5 35t-44.5 59.5q-36 53 -71.5 92t-90.5 70l38 56q38 -25 76 -38t83 -13q51 0 79.5 19.5t28.5 57.5q0 28 -11 45.5t-37.5 30t-79.5 26.5q-84 22 -121.5 59.5t-37.5 94.5q0 41 24.5 74t68 51.5t97.5 18.5t97 -15t82 -45
l-39 -58q-36 23 -68.5 34t-68.5 11q-45 0 -71 -18.5t-26 -50.5t24.5 -50t88.5 -35q88 -22 131.5 -60t43.5 -104q0 -52 -29 -88t-73 -54t-88 -18q-15 0 -33 3q29 -26 57 -69q22 -33 38 -46.5t42 -13.5q30 0 58 15z" />
    <glyph glyph-name="uni0240" unicode="&#x240;" horiz-adv-x="405" 
d="M298 -201q-25 12 -43 30t-42 50q-27 36 -49 58t-56.5 40t-82.5 23v69l274 380h-251v78h356v-70l-290 -400q54 -15 87 -44.5t67 -77.5q28 -38 48.5 -55.5t49.5 -17.5q30 0 58 15l31 -60q-39 -30 -97 -30q-35 0 -60 12z" />
    <glyph glyph-name="uni0241" unicode="&#x241;" horiz-adv-x="466" 
d="M150 319l72 19q62 17 93 50.5t31 98.5q0 63 -33 99.5t-93 36.5q-44 0 -82 -16t-76 -48l-52 57q49 43 100.5 64t113.5 21q67 0 117.5 -26.5t77.5 -74t27 -108.5q0 -95 -48.5 -141.5t-130.5 -71.5l-22 -6v-273h-95v319z" />
    <glyph glyph-name="uni0242" unicode="&#x242;" horiz-adv-x="441" 
d="M120 197l72 19q53 14 81.5 45t28.5 84q0 51 -29.5 83.5t-81.5 32.5q-42 0 -71.5 -13t-63.5 -40l-51 56q42 38 85.5 56.5t103.5 18.5q62 0 109 -25.5t72.5 -69t25.5 -97.5q0 -81 -46 -127t-118 -63l-25 -6v-151h-92v197z" />
    <glyph glyph-name="uni0243" unicode="&#x243;" horiz-adv-x="620" 
d="M531 314q44 -38 44 -118q0 -196 -273 -196h-190v168h-92v70h92v451h163q131 0 200.5 -43t69.5 -131q0 -60 -37.5 -100t-91.5 -51q71 -12 115 -50zM207 614v-217h104q60 0 98.5 29t38.5 82q0 60 -40.5 83t-122.5 23h-78zM430.5 101q44.5 25 44.5 95q0 68 -43 98t-112 30
h-113v-86h157v-70h-157v-92h95q84 0 128.5 25z" />
    <glyph glyph-name="uni0244" unicode="&#x244;" horiz-adv-x="690" 
d="M655 508h-69v-287q0 -69 -28.5 -121.5t-83 -82t-130.5 -29.5q-115 0 -177.5 63.5t-62.5 169.5v287h-69v69h69v112h95v-112h291v112h96v-112h69v-69zM490 508h-291v-280q0 -80 36 -120t109 -40q74 0 110 39.5t36 120.5v280z" />
    <glyph glyph-name="uni0245" unicode="&#x245;" horiz-adv-x="573" 
d="M347 689l220 -689h-100l-182 610l-183 -610h-96l221 689h120z" />
    <glyph glyph-name="uni0246" unicode="&#x246;" horiz-adv-x="535" 
d="M481 76v-76h-248l-19 -70l-45 11l16 59h-85v689h268l16 61l45 -11l-13 -50h57l-11 -76h-66l-60 -225h91v-76h-111l-63 -236h228zM195 613v-225h93l60 225h-153zM195 76h10l63 236h-73v-236z" />
    <glyph glyph-name="uni0247" unicode="&#x247;" horiz-adv-x="545" 
d="M280 232l-43 -157q27 -12 60 -12q38 0 70 11t67 35l40 -55q-84 -66 -184 -66q-43 0 -74 10l-19 -68l-43 11l20 74q-57 31 -87 93.5t-30 149.5q0 82 26.5 145.5t76 99.5t116.5 36q21 0 41 -3l16 59l43 -11l-16 -59q65 -25 99 -88t34 -158q0 -23 -2 -47h-211zM155 300h97
l45 165q-6 1 -19 1q-113 0 -123 -166zM340 452l-42 -152h104v6q0 111 -62 146zM234 232h-79q6 -85 44 -128z" />
    <glyph glyph-name="uni0248" unicode="&#x248;" horiz-adv-x="313" 
d="M303 304h-93v-208q0 -102 -44.5 -153t-135.5 -80l-25 69q46 18 69 39t32 51t9 78v204h-95v78h95v307h95v-307h93v-78z" />
    <glyph glyph-name="uni0249" unicode="&#x249;" horiz-adv-x="313" 
d="M298 217h-96v-185q0 -73 -18 -117t-52.5 -71.5t-96.5 -55.5l-27 67q39 18 60 35.5t31.5 49t10.5 86.5v191h-95v70h95v240h92v-240h96v-70zM203 762q18 -18 18 -45t-18 -44.5t-47 -17.5q-28 0 -46 17.5t-18 44.5t18 45t46 18q29 0 47 -18z" />
    <glyph glyph-name="uni024A" unicode="&#x24a;" horiz-adv-x="669" 
d="M740 -175q-50 -38 -115 -38q-71 0 -111 40t-40 116v103q-63 -58 -150 -58q-76 0 -136.5 38t-96.5 114.5t-36 187.5q0 117 35.5 201t97.5 128t141 44q86 0 149 -58l7 46h84v-752q0 -74 61 -74q23 0 38.5 5.5t34.5 16.5zM410.5 81q33.5 15 63.5 45v442q-57 55 -134 55
q-86 0 -135 -72t-49 -223q0 -137 48.5 -199.5t128.5 -62.5q44 0 77.5 15z" />
    <glyph glyph-name="uni024B" unicode="&#x24b;" horiz-adv-x="598" 
d="M594 -195q-33 -18 -73 -18q-50 0 -80 30.5t-30 85.5v167q-26 -39 -64.5 -60.5t-85.5 -21.5q-94 0 -146.5 74t-52.5 199q0 81 25 144t72 98.5t110 35.5q84 0 148 -71l7 59h79v-624q0 -22 7.5 -32t25.5 -10q14 0 34 6zM353 80.5q30 19.5 58 58.5v258q-26 34 -55.5 51.5
t-66.5 17.5q-61 0 -94.5 -51t-33.5 -152q0 -102 31 -152t89 -50q42 0 72 19.5z" />
    <glyph glyph-name="uni024C" unicode="&#x24c;" horiz-adv-x="616" 
d="M478 0l-165 292h-107v-292h-95v292h-91v73h91v324h181q129 0 195.5 -49t66.5 -146q0 -72 -37 -117t-112 -68l186 -309h-113zM415 395.5q38 30.5 38 98.5q0 64 -38.5 92.5t-123.5 28.5h-85v-250h96q75 0 113 30.5z" />
    <glyph glyph-name="uni024D" unicode="&#x24d;" horiz-adv-x="400" 
d="M390 533l-17 -90q-24 6 -46 6q-46 0 -75.5 -32t-46.5 -100h93v-70h-97v-247h-92v247h-94v70h94v210h79l9 -107q21 59 57 89t84 30q28 0 52 -6z" />
    <glyph glyph-name="uni024E" unicode="&#x24e;" horiz-adv-x="550" 
d="M500 604h45v-69h-81l-141 -270v-265h-96v264l-142 271h-75v69h39l-44 85h105l42 -85h252l42 85h99zM278 348l92 187h-184z" />
    <glyph glyph-name="uni024F" unicode="&#x24f;" horiz-adv-x="502" 
d="M441 387h43v-66h-65l-108 -324q-31 -92 -86.5 -145.5t-158.5 -64.5l-10 72q52 9 83 26t49.5 43.5t34.5 71.5h-31l-108 321h-67v66h45l-47 140h98l43 -140h194l42 140h95zM254 67l76 254h-154z" />
    <glyph glyph-name="uni0250" unicode="&#x250;" horiz-adv-x="544" 
d="M438 91l23 -67q-97 -36 -182 -36q-93 0 -139 45.5t-46 129.5v241q0 32 -11 47.5t-33 23.5l21 64q41 -5 66 -23t37 -56q53 79 157 79q78 0 123 -44t45 -115q0 -84 -60.5 -129t-171.5 -45h-81v-39q0 -56 27 -80t83 -24q58 0 142 28zM186 388v-121h69q146 0 146 108
q0 47 -23 71t-68 24q-79 0 -124 -82z" />
    <glyph glyph-name="uni0251" unicode="&#x251;" horiz-adv-x="599" 
d="M508 85.5q10 -16.5 36 -28.5l-29 -69q-45 11 -68 31t-33 51q-27 -39 -67.5 -60.5t-85.5 -21.5q-95 0 -149.5 74.5t-54.5 198.5q0 81 25.5 144t74 98.5t113.5 35.5q48 0 82 -19t61 -53l6 60h79v-388q0 -37 10 -53.5zM348 80.5q30 19.5 58 58.5v258q-26 34 -55.5 51.5
t-66.5 17.5q-61 0 -94.5 -51t-33.5 -152q0 -102 30.5 -152t88.5 -50q43 0 73 19.5z" />
    <glyph glyph-name="uni0252" unicode="&#x252;" horiz-adv-x="599" 
d="M487.5 464.5q54.5 -74.5 54.5 -198.5q0 -81 -25.5 -144t-74 -98.5t-113.5 -35.5q-48 0 -82 19t-61 53l-6 -60h-79v388q0 37 -10 53.5t-36 28.5l29 69q45 -11 68 -31t33 -51q27 39 67.5 60.5t85.5 21.5q95 0 149.5 -74.5zM409.5 112q33.5 51 33.5 152q0 102 -30.5 152
t-88.5 50q-43 0 -73 -19.5t-58 -58.5v-258q26 -34 55.5 -51.5t66.5 -17.5q61 0 94.5 51z" />
    <glyph glyph-name="uni0253" unicode="&#x253;" horiz-adv-x="594" 
d="M479 466.5q53 -72.5 53 -202.5q0 -82 -25 -144.5t-72 -97t-110 -34.5q-83 0 -140 70l-9 -58h-81v599q0 68 43.5 109.5t121.5 41.5q36 0 64.5 -6.5t61.5 -20.5l-29 -67q-45 20 -92 20q-42 0 -60 -18.5t-18 -57.5v-139q57 78 149 78q90 0 143 -72.5zM398.5 110.5
q34.5 49.5 34.5 153.5q0 107 -32 154.5t-91 47.5q-70 0 -123 -82v-252q21 -33 51.5 -52t64.5 -19q61 0 95.5 49.5z" />
    <glyph glyph-name="uni0254" unicode="&#x254;" horiz-adv-x="484" 
d="M30 46l43 58q31 -22 57 -31.5t62 -10.5q136 0 136 202q0 102 -33 151.5t-99 49.5q-32 0 -60 -9.5t-59 -30.5l-42 57q68 57 162 57q110 0 170 -74t60 -201q0 -82 -28 -144.5t-81 -97t-126 -34.5q-93 0 -162 58z" />
    <glyph glyph-name="uni0255" unicode="&#x255;" horiz-adv-x="488" 
d="M430.5 205q32.5 -29 32.5 -79q0 -64 -49 -101t-127 -37q-39 0 -71 10l-33 -73l-59 25l33 75q-48 33 -74 93t-26 141q0 84 28 147t79.5 98t122.5 35q47 0 86 -13.5t75 -43.5l-45 -60q-27 21 -53 31t-59 10q-64 0 -99.5 -51t-35.5 -151q0 -106 41 -155v1q28 67 60.5 97
t87.5 30q53 0 85.5 -29zM360 81q22 15 22 45q0 20 -10.5 30.5t-30.5 10.5q-29 0 -47.5 -19t-43.5 -74q20 -8 47 -8q41 0 63 15z" />
    <glyph glyph-name="uni0256" unicode="&#x256;" horiz-adv-x="598" 
d="M677 -175q-50 -38 -115 -38q-70 0 -110.5 40t-40.5 116v127q-26 -39 -64.5 -60.5t-85.5 -21.5q-94 0 -146.5 74t-52.5 199q0 81 25 144t72 98.5t110 35.5q81 0 142 -65v276l92 -11v-804q0 -74 64 -74q23 0 38.5 5t35.5 17zM353 80.5q30 19.5 58 58.5v258
q-26 34 -55.5 51.5t-66.5 17.5q-61 0 -94.5 -51t-33.5 -152q0 -102 31 -152t89 -50q42 0 72 19.5z" />
    <glyph glyph-name="uni0257" unicode="&#x257;" horiz-adv-x="598" 
d="M677 712l-36 -59q-20 12 -35.5 17.5t-38.5 5.5q-64 0 -64 -74v-602h-81l-9 73q-26 -40 -65 -62.5t-87 -22.5q-94 0 -146.5 74t-52.5 199q0 81 25 144t72 98.5t110 35.5q81 0 142 -65v120q0 76 40 116t111 40q65 0 115 -38zM353 80.5q30 19.5 58 58.5v258
q-26 34 -55.5 51.5t-66.5 17.5q-61 0 -94.5 -51t-33.5 -152q0 -102 31 -152t89 -50q42 0 72 19.5z" />
    <glyph glyph-name="uni0258" unicode="&#x258;" horiz-adv-x="545" 
d="M433 464q55 -75 55 -206q0 -126 -62 -198t-171 -72q-100 0 -184 66l40 55q35 -25 68.5 -35.5t78.5 -10.5q59 0 93 40.5t39 128.5h-336q-2 24 -2 47q0 122 57 191t161 69q108 0 163 -75zM143 300h247q-4 90 -32 128t-90 38q-61 0 -93 -41.5t-32 -118.5v-6z" />
    <glyph glyph-name="uni0259" unicode="&#x259;" horiz-adv-x="554" 
d="M440 466.5q57 -72.5 57 -202.5q0 -84 -27.5 -146.5t-78.5 -96t-120 -33.5q-101 0 -160 69.5t-59 190.5q0 33 2 47h345q-5 88 -38 128.5t-94 40.5q-38 0 -70.5 -11t-64.5 -38l-42 61q78 63 179 63q114 0 171 -72.5zM363.5 100q32.5 39 36.5 127h-258v-8q0 -75 34.5 -116.5
t94.5 -41.5t92.5 39z" />
    <glyph glyph-name="uni025A" unicode="&#x25a;" horiz-adv-x="774" 
d="M794 351q-50 -38 -118 -38q-67 0 -104 35t-37 97v8l-66 -35q28 -62 28 -154q0 -84 -27.5 -146.5t-78.5 -96t-120 -33.5q-101 0 -160 69.5t-59 190.5q0 33 2 47h345q-5 88 -38 128.5t-94 40.5q-38 0 -70.5 -11t-64.5 -38l-42 61q78 63 179 63q106 0 164 -64l100 52h87v-70
q0 -70 64 -70q23 0 38.5 5.5t35.5 17.5zM363.5 100q32.5 39 36.5 127h-258v-8q0 -75 34.5 -116.5t94.5 -41.5t92.5 39z" />
    <glyph glyph-name="uni025B" unicode="&#x25b;" horiz-adv-x="468" 
d="M358 526.5q41 -12.5 76 -36.5l-44 -55q-28 17 -55.5 24.5t-62.5 7.5q-48 0 -73.5 -20.5t-25.5 -58.5q0 -35 28 -56t76 -21h61l-11 -72h-56q-62 0 -88.5 -20.5t-26.5 -67.5q0 -40 29.5 -64.5t83.5 -24.5q40 0 74 11.5t67 34.5l43 -58q-37 -30 -86 -46t-103 -16
q-94 0 -150.5 42t-56.5 117q0 117 132 134q-111 22 -111 114q0 66 50.5 105t134.5 39q54 0 95 -12.5z" />
    <glyph glyph-name="uni025C" unicode="&#x25c;" horiz-adv-x="500" 
d="M318.5 522.5q43.5 -16.5 70 -48.5t26.5 -77q0 -44 -25.5 -72t-80.5 -43q66 -11 100 -41t34 -86q0 -82 -63.5 -124.5t-161.5 -42.5q-119 0 -203 66l48 57q35 -25 70.5 -37t81.5 -12q129 0 129 94q0 46 -36.5 64.5t-101.5 18.5h-70l6 72h54q56 0 90 20t34 62q0 39 -29 56.5
t-76 17.5q-41 0 -72.5 -10.5t-63.5 -32.5l-44 55q40 30 86 45t104 15q50 0 93.5 -16.5z" />
    <glyph glyph-name="uni025D" unicode="&#x25d;" horiz-adv-x="709" 
d="M729 351q-50 -38 -118 -38q-67 0 -104 35t-37 97v8l-57 -31q2 -16 2 -25q0 -44 -25.5 -72t-80.5 -43q66 -11 100 -41t34 -86q0 -82 -63.5 -124.5t-161.5 -42.5q-119 0 -203 66l48 57q35 -25 70.5 -37t81.5 -12q129 0 129 94q0 46 -36.5 64.5t-101.5 18.5h-70l6 72h54
q56 0 90 20t34 62q0 39 -29 56.5t-76 17.5q-41 0 -72.5 -10.5t-63.5 -32.5l-44 55q40 30 86 45t104 15q47 0 88.5 -15t68.5 -42l86 45h87v-70q0 -70 64 -70q23 0 38.5 5.5t35.5 17.5z" />
    <glyph glyph-name="uni025E" unicode="&#x25e;" horiz-adv-x="569" 
d="M117.5 61q-60.5 73 -60.5 202q0 82 28 144.5t81.5 97t128.5 34.5q81 0 135 -39.5t54 -105.5q0 -42 -25.5 -69.5t-80.5 -42.5q66 -11 100 -41t34 -86q0 -76 -60 -121.5t-154 -45.5q-120 0 -180.5 73zM382 84.5q33 22.5 33 71.5q0 83 -130 83h-39l6 72h23q49 0 82 20t33 62
q0 35 -25.5 54.5t-69.5 19.5q-140 0 -140 -204q0 -104 33 -152.5t107 -48.5q54 0 87 22.5z" />
    <glyph glyph-name="uni025F" unicode="&#x25f;" horiz-adv-x="313" 
d="M298 217h-96v-185q0 -73 -18 -117t-52.5 -71.5t-96.5 -55.5l-27 67q39 18 60 35.5t31.5 49t10.5 86.5v191h-95v70h95v240h92v-240h96v-70z" />
    <glyph glyph-name="uni0260" unicode="&#x260;" horiz-adv-x="598" 
d="M677 712l-36 -59q-20 12 -35.5 17.5t-38.5 5.5q-64 0 -64 -74v-599q0 -106 -56 -161t-167 -55q-99 0 -165 44l31 62q62 -32 129 -32q74 0 105 31.5t31 102.5v95q-26 -39 -64.5 -60.5t-85.5 -21.5q-94 0 -146.5 72.5t-52.5 190.5q0 76 25 137t72 96t110 35q81 0 142 -65
v120q0 76 40 116t111 40q65 0 115 -38zM353 100.5q30 19.5 58 58.5v238q-26 34 -55.5 51.5t-66.5 17.5q-60 0 -94 -49.5t-34 -143.5q0 -95 31 -143.5t89 -48.5q42 0 72 19.5z" />
    <glyph glyph-name="uni0261" unicode="&#x261;" horiz-adv-x="598" 
d="M503 527v-524q0 -106 -56 -161t-167 -55q-99 0 -165 44l31 62q62 -32 129 -32q74 0 105 31.5t31 102.5v95q-26 -39 -64.5 -60.5t-85.5 -21.5q-94 0 -146.5 72.5t-52.5 190.5q0 76 25 137t72 96t110 35q84 0 149 -72l6 60h79zM353 100.5q30 19.5 58 58.5v238
q-26 34 -55.5 51.5t-66.5 17.5q-60 0 -94 -49.5t-34 -143.5q0 -95 31 -143.5t89 -48.5q42 0 72 19.5z" />
    <glyph glyph-name="uni0262" unicode="&#x262;" 
d="M402.5 523q41.5 -16 82.5 -48l-51 -58q-32 24 -61.5 35t-67.5 11q-64 0 -107 -49.5t-43 -147.5q0 -107 35 -155.5t102 -48.5q57 0 104 22v142h-96l-10 71h196v-255q-91 -53 -195 -53q-111 0 -172.5 70.5t-61.5 206.5q0 82 33.5 144t90 95.5t123.5 33.5q57 0 98.5 -16z
" />
    <glyph glyph-name="uni0263" unicode="&#x263;" horiz-adv-x="492" 
d="M298 64q34 -59 49 -98t15 -80q0 -46 -30 -72.5t-84 -26.5q-55 0 -84.5 26t-29.5 72q0 35 15 75t49 102l-188 465h98l140 -403l139 403h95zM272.5 -60.5q-7.5 23.5 -24.5 60.5q-18 -41 -25 -63t-7 -46q0 -17 8 -26t24 -9t24 9t8 26q0 25 -7.5 48.5z" />
    <glyph glyph-name="uni0264" unicode="&#x264;" horiz-adv-x="523" 
d="M488.5 532q17.5 -7 34.5 -21l-30 -52q-10 6 -17.5 8.5t-19.5 2.5q-13 0 -20.5 -8.5t-21.5 -35.5l-103 -199q33 -52 45.5 -81t12.5 -63q0 -43 -28 -69t-80 -26q-51 0 -79.5 26t-28.5 68q0 31 12.5 60.5t45.5 84.5l-102 199q-13 26 -21.5 35t-20.5 9t-19.5 -2.5t-17.5 -8.5
l-30 52q33 28 75 28t68 -24t49 -77l69 -153l71 153q25 55 49.5 78t66.5 23q23 0 40.5 -7zM283.5 122q-6.5 16 -22.5 47q-3 -5 -12 -23.5t-13 -31.5t-4 -25q0 -32 29 -32t29 32q0 17 -6.5 33z" />
    <glyph glyph-name="uni0265" unicode="&#x265;" horiz-adv-x="586" 
d="M491 527v-740l-92 11v275q-62 -85 -156 -85q-72 0 -112.5 43t-40.5 118v378h92v-365q0 -56 21.5 -79t62.5 -23t73 24t60 68v375h92z" />
    <glyph glyph-name="uni0266" unicode="&#x266;" horiz-adv-x="586" 
d="M455.5 496q40.5 -43 40.5 -118v-378h-92v365q0 56 -21.5 79t-62.5 23t-73 -24t-60 -68v-375h-92v599q0 68 43.5 109.5t121.5 41.5q36 0 64.5 -6.5t61.5 -20.5l-29 -67q-45 20 -92 20q-42 0 -60 -18.5t-18 -57.5v-146q62 85 156 85q72 0 112.5 -43z" />
    <glyph glyph-name="uni0267" unicode="&#x267;" horiz-adv-x="586" 
d="M455.5 496q40.5 -43 40.5 -118v-435q0 -76 -40.5 -116t-110.5 -40q-65 0 -115 38l36 58q20 -12 35.5 -17t38.5 -5q64 0 64 74v430q0 56 -21.5 79t-62.5 23t-73 -24t-60 -68v-375h-92v599q0 68 43.5 109.5t121.5 41.5q36 0 64.5 -6.5t61.5 -20.5l-29 -67q-45 20 -92 20
q-42 0 -60 -18.5t-18 -57.5v-146q62 85 156 85q72 0 112.5 -43z" />
    <glyph glyph-name="uni0268" unicode="&#x268;" horiz-adv-x="313" 
d="M109 672.5q-18 17.5 -18 44.5t18 45t46 18q29 0 47 -18t18 -45t-18 -44.5t-47 -17.5q-28 0 -46 17.5zM298 317v-70h-96v-247h-92v247h-95v70h95v210h92v-210h96z" />
    <glyph glyph-name="uni0269" unicode="&#x269;" horiz-adv-x="293" 
d="M119.5 18.5q-29.5 30.5 -29.5 85.5v423h92v-421q0 -22 7.5 -32t25.5 -10q19 0 34 6l24 -64q-33 -18 -73 -18q-51 0 -80.5 30.5z" />
    <glyph glyph-name="uni026A" unicode="&#x26a;" horiz-adv-x="333" 
d="M308 455h-96v-383h96v-72h-283v72h95v383h-95v72h283v-72z" />
    <glyph glyph-name="uni026B" unicode="&#x26b;" horiz-adv-x="388" 
d="M240 301v-195q0 -21 7.5 -31.5t25.5 -10.5q19 0 34 6l24 -64q-33 -18 -73 -18q-51 0 -80.5 30.5t-29.5 85.5v244q-21 12 -35 12q-39 0 -72 -54l-56 29q50 97 137 97q14 0 26 -3v310l92 11v-367q22 -12 38 -12q21 0 39 13.5t31 34.5l55 -30q-47 -91 -134 -91q-16 0 -29 3z
" />
    <glyph glyph-name="uni026C" unicode="&#x26c;" horiz-adv-x="363" 
d="M328 6q-33 -18 -73 -18q-51 0 -80.5 30.5t-29.5 85.5v150q-68 2 -104 31.5t-36 79.5q0 46 32 73.5t77 27.5q10 0 31 -3v276l92 11v-434q28 1 76 11l11 -56q-43 -11 -87 -14v-151q0 -21 7.5 -31.5t25.5 -10.5q19 0 34 6zM145 316v88q-10 3 -25 3q-20 0 -31 -10.5
t-11 -31.5q0 -49 67 -49z" />
    <glyph glyph-name="uni026D" unicode="&#x26d;" horiz-adv-x="282" 
d="M361 -175q-50 -38 -115 -38q-70 0 -110.5 40t-40.5 116v796l92 11v-815q0 -74 64 -74q23 0 38.5 5t35.5 17z" />
    <glyph glyph-name="uni026E" unicode="&#x26e;" horiz-adv-x="661" 
d="M570.5 155q60.5 -51 60.5 -151q0 -64 -30 -113t-84 -76.5t-126 -27.5q-66 0 -116 21t-89 62l51 51q35 -31 70.5 -45t80.5 -14q70 0 107 37t37 107q0 72 -36 102t-120 30h-79v67l205 246h-320v-345q0 -22 7.5 -32t25.5 -10q19 0 34 6l24 -64q-33 -18 -73 -18
q-51 0 -80.5 30.5t-29.5 85.5v635l92 11v-223h425v-70l-214 -251h3q114 0 174.5 -51z" />
    <glyph glyph-name="uni026F" unicode="&#x26f;" horiz-adv-x="857" 
d="M762 527v-527h-79l-8 77q-59 -89 -152 -89q-49 0 -83.5 25t-49.5 70q-31 -46 -68.5 -70.5t-88.5 -24.5q-65 0 -104 43.5t-39 117.5v378h92v-365q0 -102 74 -102q39 0 66 22.5t58 70.5v374h92v-365q0 -102 74 -102q40 0 67 23t57 70v374h92z" />
    <glyph glyph-name="uni0270" unicode="&#x270;" horiz-adv-x="857" 
d="M762 527v-740l-92 11v272q-59 -82 -147 -82q-49 0 -83.5 25t-49.5 70q-31 -46 -68.5 -70.5t-88.5 -24.5q-65 0 -104 43.5t-39 117.5v378h92v-365q0 -102 74 -102q39 0 66 22.5t58 70.5v374h92v-365q0 -102 74 -102q40 0 67 23t57 70v374h92z" />
    <glyph glyph-name="uni0271" unicode="&#x271;" horiz-adv-x="857" 
d="M728 495.5q39 -43.5 39 -117.5v-435q0 -76 -40.5 -116t-110.5 -40q-65 0 -115 38l36 58q20 -12 35.5 -17t38.5 -5q64 0 64 74v430q0 102 -74 102q-39 0 -66 -22.5t-58 -70.5v-374h-92v365q0 102 -74 102q-40 0 -67 -23t-57 -70v-374h-92v527h79l8 -77q59 89 152 89
q49 0 83.5 -25t49.5 -70q31 46 68.5 70.5t88.5 24.5q65 0 104 -43.5z" />
    <glyph glyph-name="uni0272" unicode="&#x272;" horiz-adv-x="586" 
d="M455.5 496q40.5 -43 40.5 -118v-378h-92v365q0 56 -21 79t-62 23q-42 0 -74 -24t-60 -69v-431q0 -76 -40.5 -116t-110.5 -40q-65 0 -115 38l36 58q20 -12 35.5 -17t38.5 -5q64 0 64 74v592h79l8 -78q28 42 69.5 66t91.5 24q72 0 112.5 -43z" />
    <glyph glyph-name="uni0273" unicode="&#x273;" horiz-adv-x="586" 
d="M670 -175q-50 -38 -115 -38q-70 0 -110.5 40t-40.5 116v422q0 56 -21 79t-62 23q-42 0 -74 -24t-60 -69v-374h-92v527h79l8 -78q28 42 69.5 66t91.5 24q72 0 112.5 -43t40.5 -118v-443q0 -74 64 -74q23 0 38.5 5t35.5 17z" />
    <glyph glyph-name="uni0274" unicode="&#x274;" horiz-adv-x="595" 
d="M500 0h-118l-213 435q11 -104 11 -226v-209h-85v527h118l213 -437q-11 68 -11 150v287h85v-527z" />
    <glyph glyph-name="uni0275" unicode="&#x275;" horiz-adv-x="584" 
d="M465.5 465q61.5 -74 61.5 -201q0 -82 -28 -144.5t-81 -97t-126 -34.5q-111 0 -173 74t-62 201q0 82 28 144.5t81 97t127 34.5q111 0 172.5 -74zM156 303h273q-13 163 -136 163q-124 0 -137 -163zM429 233h-274q10 -172 137 -172t137 172z" />
    <glyph glyph-name="uni0276" unicode="&#x276;" horiz-adv-x="753" 
d="M723 0h-357q-39 -12 -74 -12q-111 0 -173 74t-62 201q0 82 28 144.5t81 97t127 34.5q26 0 43 -2.5t38 -9.5h344l-10 -71h-252q28 -26 46 -66t24 -87h152v-71h-151q-9 -103 -76 -161h272v-71zM191 112q35 -50 102 -50q61 0 99 50.5t38 150.5q0 101 -37.5 151.5t-99.5 50.5
q-137 0 -137 -202q0 -101 35 -151z" />
    <glyph glyph-name="uni0277" unicode="&#x277;" horiz-adv-x="762" 
d="M561.5 500.5q72.5 -38.5 108 -106t35.5 -155.5q0 -126 -52 -188.5t-134 -62.5q-56 0 -92 29.5t-45 87.5q-13 -61 -48.5 -89t-97.5 -28q-79 0 -129 61.5t-50 189.5q0 88 36 155.5t109 106t180 38.5t179.5 -38.5zM612 240q0 108 -54 167t-176 59q-123 0 -177.5 -59.5
t-54.5 -168.5q0 -91 25 -133.5t75 -42.5q42 0 64.5 25t22.5 94v124l88 12v-136q0 -119 84 -119q103 0 103 178z" />
    <glyph glyph-name="uni0278" unicode="&#x278;" horiz-adv-x="628" 
d="M522 77.5q-60 -68.5 -162 -74.5v-205l-92 -11v217q-106 7 -164 75.5t-58 183.5q0 119 60 187.5t162 73.5v214l92 10v-225q107 -7 164.5 -75t57.5 -183q0 -119 -60 -187.5zM176.5 129q31.5 -48 94.5 -53v377q-65 -7 -95.5 -54.5t-30.5 -135.5q0 -86 31.5 -134zM483 265
q0 84 -32 132.5t-94 53.5v-376q126 15 126 190z" />
    <glyph glyph-name="uni0279" unicode="&#x279;" horiz-adv-x="386" 
d="M291 527v-527h-79l-9 107q-21 -59 -57 -89t-84 -30q-28 0 -52 6l17 90q24 -6 46 -6q49 0 79 36t47 112v301h92z" />
    <glyph glyph-name="uni027A" unicode="&#x27a;" horiz-adv-x="386" 
d="M291 739v-739h-79l-9 107q-21 -59 -57 -89t-84 -30q-28 0 -52 6l17 90q24 -6 46 -6q49 0 79 36t47 112v524z" />
    <glyph glyph-name="uni027B" unicode="&#x27b;" horiz-adv-x="386" 
d="M465 -175q-50 -38 -115 -38q-70 0 -110.5 40t-40.5 116v154q-21 -54 -56 -81.5t-81 -27.5q-28 0 -52 6l17 90q24 -6 46 -6q49 0 79 36t47 112v301h92v-592q0 -74 64 -74q23 0 38.5 5t35.5 17z" />
    <glyph glyph-name="uni027C" unicode="&#x27c;" horiz-adv-x="386" 
d="M376 533l-17 -90q-24 6 -46 6q-49 0 -79 -36t-47 -112v-503l-92 -11v740h79l9 -107q21 59 57 89t84 30q28 0 52 -6z" />
    <glyph glyph-name="uni027D" unicode="&#x27d;" horiz-adv-x="386" 
d="M289.5 -134q15.5 5 35.5 17l36 -58q-50 -38 -115 -38q-70 0 -110.5 40t-40.5 116v584h79l9 -107q21 59 57 89t84 30q28 0 52 -6l-17 -90q-24 6 -46 6q-49 0 -79 -36t-47 -112v-366q0 -74 64 -74q23 0 38.5 5z" />
    <glyph glyph-name="uni027E" unicode="&#x27e;" horiz-adv-x="368" 
d="M356 503l-36 -58q-20 12 -35.5 17t-38.5 5q-64 0 -64 -74v-393h-92v385q0 76 40.5 116t110.5 40q65 0 115 -38z" />
    <glyph glyph-name="uni027F" unicode="&#x27f;" horiz-adv-x="368" 
d="M237.5 501q40.5 -40 40.5 -116v-385h-92v393q0 74 -64 74q-23 0 -38.5 -5t-35.5 -17l-36 58q50 38 115 38q70 0 110.5 -40z" />
    <glyph glyph-name="uni0280" unicode="&#x280;" horiz-adv-x="527" 
d="M388 0l-128 202h-12h-61v-202h-92v527h143q107 0 163.5 -41t56.5 -120q0 -52 -29 -91t-82 -58l145 -217h-104zM187 272h67q54 0 81 22t27 72q0 47 -31 68.5t-94 21.5h-50v-184z" />
    <glyph glyph-name="uni0281" unicode="&#x281;" horiz-adv-x="527" 
d="M430 257q28 -37 28 -91q0 -82 -56.5 -124t-163.5 -42h-143v527h92v-202h61h12l128 202h104l-144 -216q54 -17 82 -54zM331.5 93.5q30.5 22.5 30.5 72.5q0 89 -108 89h-67v-184h50q64 0 94.5 22.5z" />
    <glyph glyph-name="uni0282" unicode="&#x282;" horiz-adv-x="467" 
d="M114 10v-75q0 -74 67 -74q23 0 38.5 5.5t35.5 17.5l36 -59q-50 -38 -115 -38q-71 0 -111 40t-40 116v114l43 49q67 -44 154 -44q51 0 82 21t31 56q0 28 -11 45.5t-37.5 30t-79.5 26.5q-84 22 -121.5 59.5t-37.5 94.5q0 41 24.5 74t68 51.5t97.5 18.5t97 -15t82 -45
l-40 -61q-35 25 -67.5 36.5t-68.5 11.5q-45 0 -71 -18.5t-26 -50.5t24.5 -50t88.5 -35q88 -22 131.5 -60t43.5 -104q0 -53 -28.5 -89t-75.5 -53.5t-101 -17.5q-65 0 -113 22z" />
    <glyph glyph-name="uni0283" unicode="&#x283;" horiz-adv-x="282" 
d="M361 712l-36 -59q-20 12 -35.5 17.5t-38.5 5.5q-64 0 -64 -74v-659q0 -76 -40.5 -116t-110.5 -40q-65 0 -115 38l36 58q20 -12 35.5 -17t38.5 -5q64 0 64 74v659q0 76 40 116t111 40q65 0 115 -38z" />
    <glyph glyph-name="uni0284" unicode="&#x284;" horiz-adv-x="313" 
d="M298 70v-70h-97q-4 -60 -23 -98.5t-52.5 -63.5t-90.5 -50l-27 67q36 17 56.5 33t32 42t13.5 70h-95v70h95v524q0 76 40 116t111 40q65 0 115 -38l-36 -59q-20 12 -35.5 17.5t-38.5 5.5q-64 0 -64 -74v-532h96z" />
    <glyph glyph-name="uni0285" unicode="&#x285;" horiz-adv-x="440" 
d="M440 26q-50 -38 -115 -38q-70 0 -110.5 40t-40.5 116v247q0 74 -64 74q-23 0 -38.5 -5.5t-35.5 -17.5l-36 59q50 38 115 38q71 0 111 -40t40 -116v-247q0 -74 64 -74q23 0 38.5 5t35.5 17z" />
    <glyph glyph-name="uni0286" unicode="&#x286;" horiz-adv-x="304" 
d="M209 602v-75l1 -536q56 -14 112 -39l-22 -50q-7 3 -35 13.5t-59 18.5q-11 -73 -54.5 -110t-112.5 -37q-59 0 -94 29.5t-35 77.5q0 56 40 87.5t108 31.5q35 0 59 -3v584q0 76 40 116t111 40q65 0 115 -38l-36 -59q-20 12 -35.5 17.5t-38.5 5.5q-64 0 -64 -74zM96.5 -126
q18.5 24 20.5 77q-30 4 -58 4q-77 0 -77 -57q0 -48 56 -48q40 0 58.5 24z" />
    <glyph glyph-name="uni0287" unicode="&#x287;" horiz-adv-x="361" 
d="M352 0h-92v-119l-92 -11v130h-125l10 71h115v314q0 41 -14.5 59.5t-48.5 18.5q-31 0 -70 -21l-35 61q53 36 118 36q67 0 104.5 -38.5t37.5 -111.5v-318h92v-71z" />
    <glyph glyph-name="uni0288" unicode="&#x288;" horiz-adv-x="361" 
d="M367 -175q-50 -38 -115 -38q-70 0 -110.5 40t-40.5 116v513h-92v71h92v119l92 11v-130h125l-10 -71h-115v-521q0 -74 64 -74q23 0 38.5 5t35.5 17z" />
    <glyph glyph-name="uni0289" unicode="&#x289;" horiz-adv-x="607" 
d="M582 317h-85v-317h-79l-7 82q-30 -49 -69 -71.5t-95 -22.5q-69 0 -108 42t-39 119v168h-85v70h85v140h92v-140h213v140h92v-140h85v-70zM405 317h-213v-158q0 -54 19 -76.5t62 -22.5q77 0 132 91v166z" />
    <glyph glyph-name="uni028A" unicode="&#x28a;" horiz-adv-x="583" 
d="M167 20.5q-53 32.5 -81.5 89.5t-28.5 129q0 134 90 216h-77v72h161v-70q-36 -42 -56.5 -90.5t-20.5 -126.5q0 -88 35 -133.5t102 -45.5q66 0 102 46t36 134q0 77 -20.5 125.5t-57.5 90.5v70h161v-72h-76q90 -82 90 -216q0 -71 -29 -128t-82 -90t-124 -33t-124 32.5z" />
    <glyph glyph-name="uni028B" unicode="&#x28b;" horiz-adv-x="581" 
d="M141 33.5q-51 45.5 -51 129.5v364h92v-356q0 -109 91 -109q58 0 97 46.5t39 154.5v158q0 22 -7.5 32t-25.5 10q-19 0 -34 -6l-24 64q33 18 71 18q52 0 82 -31t30 -91v-152q0 -95 -31.5 -157t-84 -91t-116.5 -29q-77 0 -128 45.5z" />
    <glyph glyph-name="uni028C" unicode="&#x28c;" horiz-adv-x="492" 
d="M10 0l179 527h111l182 -527h-100l-138 445l-137 -445h-97z" />
    <glyph glyph-name="uni028D" unicode="&#x28d;" horiz-adv-x="717" 
d="M20 0l120 527h125l92 -444l95 444h122l123 -527h-92l-95 463l-104 -463h-103l-99 463l-96 -463h-88z" />
    <glyph glyph-name="uni028E" unicode="&#x28e;" horiz-adv-x="492" 
d="M186 530q23 68 52 113.5t75.5 73t117.5 35.5l10 -70q-53 -9 -84 -26.5t-49.5 -47t-34.5 -81.5h32l177 -527h-98l-141 460l-138 -460h-95z" />
    <glyph glyph-name="uni028F" unicode="&#x28f;" horiz-adv-x="458" 
d="M458 527l-183 -329v-198h-92v197l-183 330h98l133 -263l132 263h95z" />
    <glyph glyph-name="uni0290" unicode="&#x290;" horiz-adv-x="437" 
d="M581 -175q-50 -38 -115 -38q-70 0 -109 40t-39 116v57h-293v69l274 380h-251v78h356v-70l-275 -380h278v-142q0 -74 64 -74q23 0 38.5 5t35.5 17z" />
    <glyph glyph-name="uni0291" unicode="&#x291;" horiz-adv-x="452" 
d="M288 0q-5 -41 -5 -122h-68q0 71 5 122h-195v69l274 380h-251v78h356v-70l-275 -380h103q13 70 48.5 103.5t88.5 33.5q45 0 74 -25t29 -69q0 -118 -184 -120zM374.5 87.5q20.5 8.5 20.5 32.5q0 33 -32 33q-21 0 -37 -16.5t-24 -59.5q52 2 72.5 10.5z" />
    <glyph glyph-name="uni0292" unicode="&#x292;" horiz-adv-x="481" 
d="M390.5 155.5q60.5 -50.5 60.5 -148.5q0 -65 -30 -115t-84 -77.5t-126 -27.5q-69 0 -120 22.5t-91 67.5l54 50q35 -34 71.5 -49.5t83.5 -15.5q70 0 106.5 37.5t36.5 109.5q0 70 -36 99.5t-120 29.5h-79v67l205 246h-291v76h396v-70l-214 -251h3q114 0 174.5 -50.5z" />
    <glyph glyph-name="uni0293" unicode="&#x293;" horiz-adv-x="481" 
d="M408 -126q-43 -54 -125 -75l24 -53l-64 -25l-30 67q-11 -1 -33 -1q-109 0 -161.5 34t-52.5 98q0 49 33 80t85 31q59 0 95.5 -35.5t72.5 -125.5q53 12 76.5 46.5t23.5 90.5q0 72 -36 102t-120 30h-79v67l205 246h-291v76h396v-70l-214 -251h3q114 0 174.5 -51t60.5 -149
q0 -78 -43 -132zM76 -124q31 -14 104 -14q-26 60 -45 80.5t-46 20.5q-21 0 -32.5 -11t-11.5 -31q0 -31 31 -45z" />
    <glyph glyph-name="uni0294" unicode="&#x294;" horiz-adv-x="441" 
d="M132 348l61 18q61 18 93 53.5t32 105.5q0 71 -32.5 111t-98.5 40q-41 0 -76 -15.5t-71 -47.5l-50 52q45 44 93 64.5t108 20.5q69 0 120 -28.5t78 -79t27 -115.5q0 -99 -50 -149t-128 -72l-14 -4v-302h-92v348z" />
    <glyph glyph-name="uni0295" unicode="&#x295;" horiz-adv-x="442" 
d="M218 0v302l-14 4q-79 22 -129 72t-50 148q0 66 28.5 116.5t80.5 79t121 28.5q59 0 106 -21t91 -64l-50 -52q-36 32 -69.5 47.5t-74.5 15.5q-65 0 -100 -40t-35 -111q0 -70 32.5 -105.5t93.5 -53.5l61 -18v-348h-92z" />
    <glyph glyph-name="uni0296" unicode="&#x296;" horiz-adv-x="513" 
d="M254 748v-311l24 -3q75 -16 126.5 -70t51.5 -152q0 -64 -28 -114.5t-79.5 -79.5t-119.5 -29q-59 0 -106.5 20.5t-92.5 64.5l50 52q36 -32 71 -47.5t76 -15.5q66 0 98.5 40t32.5 111t-30.5 108t-94.5 53l-71 16v347z" />
    <glyph glyph-name="uni0297" unicode="&#x297;" horiz-adv-x="495" 
d="M392.5 525.5q36.5 -13.5 72.5 -43.5l-42 -58q-29 20 -54.5 29.5t-56.5 9.5q-68 0 -103.5 -72t-35.5 -230q0 -157 35 -225.5t103 -68.5q29 0 54.5 10t56.5 31l43 -61q-72 -58 -156 -58q-112 0 -173.5 93t-61.5 277q0 185 62 282.5t177 97.5q43 0 79.5 -13.5z" />
    <glyph glyph-name="uni0298" unicode="&#x298;" horiz-adv-x="792" 
d="M573 659q77 -42 120.5 -122.5t43.5 -191.5q0 -110 -43.5 -191t-121 -123.5t-176.5 -42.5t-176.5 42t-121 122.5t-43.5 191.5q0 109 44 189.5t121 124t176 43.5q100 0 177 -42zM212.5 555.5q-68.5 -71.5 -68.5 -211.5q0 -141 69 -211.5t183 -70.5q116 0 184 70t68 213
q0 140 -67.5 211t-184.5 71q-115 0 -183.5 -71.5zM443 390q18 -18 18 -45t-18 -44.5t-47 -17.5q-28 0 -46 17.5t-18 44.5t18 45t46 18q29 0 47 -18z" />
    <glyph glyph-name="uni0299" unicode="&#x299;" horiz-adv-x="564" 
d="M507 162q0 -83 -60.5 -122.5t-161.5 -39.5h-190v520q93 19 173 19q98 0 155 -37t57 -106q0 -45 -27 -73t-80 -37q134 -13 134 -124zM187 462v-149h99q48 0 74 18t26 61q0 40 -29 58t-88 18q-42 0 -82 -6zM377 92q33 20 33 72q0 43 -28 62t-95 19h-100v-173h98q59 0 92 20
z" />
    <glyph glyph-name="uni029A" unicode="&#x29a;" horiz-adv-x="569" 
d="M117 33.5q-60 45.5 -60 121.5q0 56 34 86t100 41q-55 15 -80.5 42.5t-25.5 69.5q0 66 54 105.5t135 39.5q75 0 128.5 -34.5t81.5 -97t28 -144.5q0 -129 -60.5 -202t-180.5 -73q-94 0 -154 45.5zM381 110.5q33 48.5 33 152.5q0 204 -140 204q-44 0 -69.5 -19.5
t-25.5 -54.5q0 -42 33 -62t82 -20h23l6 -72h-39q-130 0 -130 -83q0 -49 33 -71.5t87 -22.5q74 0 107 48.5z" />
    <glyph glyph-name="uni029B" unicode="&#x29b;" 
d="M659 712l-36 -59q-20 12 -35.5 17.5t-38.5 5.5q-64 0 -64 -74v-127l-46 -52q-33 20 -63.5 30t-69.5 10q-66 0 -108.5 -49t-42.5 -148q0 -107 35 -155.5t102 -48.5q57 0 104 22v142h-96l-10 71h196v-255q-91 -53 -195 -53q-111 0 -172.5 70.5t-61.5 206.5q0 82 33.5 144
t90 95.5t123.5 33.5q48 0 89 -19v74q0 76 40 116t111 40q65 0 115 -38z" />
    <glyph glyph-name="uni029C" unicode="&#x29c;" horiz-adv-x="593" 
d="M406 0v232h-219v-232h-92v527h92v-221h219v221h92v-527h-92z" />
    <glyph glyph-name="uni029D" unicode="&#x29d;" horiz-adv-x="307" 
d="M300 -98q-7 3 -35 13.5t-59 18.5q-12 -73 -55 -110t-112 -37q-59 0 -94 29.5t-35 77.5q0 56 40 87.5t108 31.5q36 0 60 -3v517h92v-536q56 -14 112 -39zM96.5 -126q18.5 24 20.5 76q-25 5 -58 5q-77 0 -77 -57q0 -48 56 -48q40 0 58.5 24zM210 762q18 -18 18 -45
t-18 -44.5t-47 -17.5q-28 0 -46 17.5t-18 44.5t18 45t46 18q29 0 47 -18z" />
    <glyph glyph-name="uni029E" unicode="&#x29e;" horiz-adv-x="512" 
d="M22 0l194 233l-216 294h110l209 -288l-194 -239h-103zM325 -202v729h92v-740z" />
    <glyph glyph-name="uni029F" unicode="&#x29f;" horiz-adv-x="436" 
d="M187 527v-449h234l-11 -78h-315v527h92z" />
    <glyph glyph-name="uni02A0" unicode="&#x2a0;" horiz-adv-x="598" 
d="M677 712l-36 -59q-20 12 -35.5 17.5t-38.5 5.5q-64 0 -64 -74v-815l-92 11v272q-26 -39 -64.5 -60.5t-85.5 -21.5q-94 0 -146.5 74t-52.5 199q0 81 25 144t72 98.5t110 35.5q83 0 142 -69v124q0 76 40 116t111 40q65 0 115 -38zM353 80.5q30 19.5 58 58.5v258
q-26 34 -55.5 51.5t-66.5 17.5q-61 0 -94.5 -51t-33.5 -152q0 -102 31 -152t89 -50q42 0 72 19.5z" />
    <glyph glyph-name="uni02A1" unicode="&#x2a1;" horiz-adv-x="441" 
d="M224 302v-87h108v-70h-108v-145h-92v145h-68v70h68v133l61 18q61 18 93 53.5t32 105.5q0 71 -32.5 111t-98.5 40q-41 0 -76 -15.5t-71 -47.5l-50 52q45 44 93 64.5t108 20.5q69 0 120 -28.5t78 -79t27 -115.5q0 -99 -50 -149t-128 -72z" />
    <glyph glyph-name="uni02A2" unicode="&#x2a2;" horiz-adv-x="442" 
d="M158 636q-35 -40 -35 -111q0 -70 32.5 -105.5t93.5 -53.5l61 -18v-133h68v-70h-68v-145h-92v145h-108v70h108v87l-14 4q-79 22 -129 72t-50 148q0 66 28.5 116.5t80.5 79t121 28.5q59 0 106 -21t91 -64l-50 -52q-36 32 -69.5 47.5t-74.5 15.5q-65 0 -100 -40z" />
    <glyph glyph-name="uni02A3" unicode="&#x2a3;" horiz-adv-x="915" 
d="M885 77l-11 -77h-452l-9 73q-26 -40 -65 -62.5t-87 -22.5q-94 0 -146.5 74t-52.5 199q0 81 25 144t72 98.5t110 35.5q81 0 142 -65v276l92 -11v-212h379v-70l-280 -380h283zM353 80.5q30 19.5 58 58.5v258q-26 34 -55.5 51.5t-66.5 17.5q-61 0 -94.5 -51t-33.5 -152
q0 -102 31 -152t89 -50q42 0 72 19.5zM503 449v-380l279 380h-279z" />
    <glyph glyph-name="uni02A4" unicode="&#x2a4;" horiz-adv-x="952" 
d="M861.5 155.5q60.5 -50.5 60.5 -148.5q0 -65 -30 -115t-84 -77.5t-126 -27.5q-69 0 -120 22.5t-91 67.5l54 50q35 -34 71.5 -49.5t83.5 -15.5q70 0 106.5 37.5t36.5 109.5q0 70 -36 99.5t-120 29.5h-79v67l205 246h-290v-451h-81l-9 73q-26 -40 -65 -62.5t-87 -22.5
q-94 0 -146.5 74t-52.5 199q0 81 25 144t72 98.5t110 35.5q81 0 142 -65v276l92 -11v-212h395v-70l-214 -251h3q114 0 174.5 -50.5zM353 80.5q30 19.5 58 58.5v258q-26 34 -55.5 51.5t-66.5 17.5q-61 0 -94.5 -51t-33.5 -152q0 -102 31 -152t89 -50q42 0 72 19.5z" />
    <glyph glyph-name="uni02A5" unicode="&#x2a5;" horiz-adv-x="929" 
d="M765 0q-5 -41 -5 -122h-68q0 71 5 122h-275l-9 73q-26 -40 -65 -62.5t-87 -22.5q-94 0 -146.5 74t-52.5 199q0 81 25 144t72 98.5t110 35.5q81 0 142 -65v276l92 -11v-212h378v-70l-275 -380h103q13 70 48.5 103.5t88.5 33.5q45 0 74 -25.5t29 -69.5q0 -117 -184 -119z
M353 80.5q30 19.5 58 58.5v258q-26 34 -55.5 51.5t-66.5 17.5q-61 0 -94.5 -51t-33.5 -152q0 -102 31 -152t89 -50q42 0 72 19.5zM503 449v-379l273 379h-273zM851.5 87.5q20.5 8.5 20.5 32.5q0 33 -32 33q-21 0 -37 -16.5t-24 -59.5q52 2 72.5 10.5z" />
    <glyph glyph-name="uni02A6" unicode="&#x2a6;" horiz-adv-x="693" 
d="M621.5 249.5q36.5 -37.5 36.5 -93.5q0 -81 -75 -124.5t-204 -43.5q-278 0 -278 210v258h-92v71h92v119l92 11v-130h105l-10 -71h-95v-254q0 -72 41.5 -105t146.5 -33q92 0 136 21.5t44 63.5q0 21 -7.5 36t-30.5 28.5t-68 27.5q-61 19 -94 40.5t-45 48t-12 64.5
q0 41 24 74t65 52t91 19q90 0 169 -60l-39 -58q-37 24 -66.5 34.5t-62.5 10.5q-37 0 -61 -19t-24 -50q0 -30 21.5 -48.5t81.5 -36.5q82 -25 118.5 -62.5z" />
    <glyph glyph-name="uni02A7" unicode="&#x2a7;" horiz-adv-x="574" 
d="M653 712l-36 -59q-20 12 -35.5 17.5t-38.5 5.5q-64 0 -64 -74v-659q0 -76 -40.5 -116t-110.5 -40q-65 0 -115 38l36 58q20 -12 35.5 -17t38.5 -5q64 0 64 74v74q-56 -21 -114 -21q-87 0 -129.5 39.5t-42.5 120.5v308h-92v71h92v119l92 11v-130h194v67q0 76 40 116t111 40
q65 0 115 -38zM387 76v380h-194v-304q0 -47 19.5 -67.5t63.5 -20.5q51 0 111 12z" />
    <glyph glyph-name="uni02A8" unicode="&#x2a8;" horiz-adv-x="765" 
d="M708 205q32 -29 32 -78q0 -65 -49 -102t-127 -37q-94 0 -152 53q-44 -28 -80.5 -40.5t-78.5 -12.5q-74 0 -113 38.5t-39 111.5v318h-92v71h92v119l92 11v-130h125l-10 -71h-115v-314q0 -41 16 -59.5t57 -18.5q23 0 46.5 6t58.5 24q-37 65 -37 165q0 84 28 147t79.5 98
t122.5 35q47 0 86 -13.5t75 -43.5l-45 -60q-27 21 -53 31t-59 10q-64 0 -99.5 -51t-35.5 -151q0 -66 16 -110q46 42 87.5 62.5t86.5 20.5q53 0 85 -29zM637 81q22 15 22 45q0 41 -42 41q-26 0 -55.5 -15.5t-78.5 -53.5q34 -32 91 -32q41 0 63 15z" />
    <glyph glyph-name="uni02A9" unicode="&#x2a9;" horiz-adv-x="874" 
d="M743.5 496q40.5 -43 40.5 -118v-435q0 -76 -40.5 -116t-110.5 -40q-65 0 -115 38l36 58q20 -12 35.5 -17t38.5 -5q64 0 64 74v430q0 56 -21 79t-62 23q-42 0 -74 -24t-60 -69v-374h-92v456h-187v-456h-92v456h-94v71h94v72q0 68 43.5 109.5t121.5 41.5q36 0 64.5 -6.5
t61.5 -20.5l-29 -67q-45 20 -92 20q-42 0 -60 -18.5t-18 -57.5v-73h266l8 -78q28 42 69.5 66t91.5 24q72 0 112.5 -43z" />
    <glyph glyph-name="uni02AA" unicode="&#x2aa;" horiz-adv-x="663" 
d="M156 42q-66 54 -66 153v544l92 11v-557q0 -68 39.5 -98.5t127.5 -30.5q95 0 138.5 21t43.5 64q0 21 -7.5 36t-30.5 28.5t-68 27.5q-61 19 -94 40.5t-45 48t-12 64.5q0 41 24 74t65 52t91 19q90 0 169 -60l-39 -58q-37 24 -66.5 34.5t-62.5 10.5q-37 0 -61 -19t-24 -50
q0 -30 21.5 -48.5t81.5 -36.5q82 -25 118.5 -62.5t36.5 -93.5q0 -82 -73.5 -125t-205.5 -43q-127 0 -193 54z" />
    <glyph glyph-name="uni02AB" unicode="&#x2ab;" horiz-adv-x="660" 
d="M619 0h-358q-31 -12 -61 -12q-51 0 -80.5 30.5t-29.5 85.5v635l92 11v-644q0 -22 7.5 -32t25.5 -10q19 0 34 6l273 379h-251v78h356v-70l-281 -380h284z" />
    <glyph glyph-name="uni02AC" unicode="&#x2ac;" horiz-adv-x="467" 
d="M437 665l-68 -265h-87l-47 194l-47 -194h-91l-67 265h80l37 -200l51 200h78l47 -201l40 201h74zM437 265l-68 -265h-87l-47 194l-47 -194h-91l-67 265h80l37 -200l51 200h78l47 -201l40 201h74z" />
    <glyph glyph-name="uni02AD" unicode="&#x2ad;" horiz-adv-x="340" 
d="M30 400v149h280v-149h-63v90h-154v-90h-63zM30 0v149h280v-149h-63v90h-154v-90h-63z" />
    <glyph glyph-name="uni02AE" unicode="&#x2ae;" horiz-adv-x="682" 
d="M587 527v-740l-92 11v275q-62 -85 -156 -85q-72 0 -112.5 43t-40.5 118v244q0 74 -64 74q-23 0 -38.5 -5t-35.5 -17l-36 58q50 38 115 38q70 0 110.5 -40t40.5 -116v-223q0 -56 21.5 -79t62.5 -23t73 24t60 68v375h92z" />
    <glyph glyph-name="uni02AF" unicode="&#x2af;" horiz-adv-x="682" 
d="M761 -175q-50 -38 -115 -38q-70 0 -110.5 40t-40.5 116v130q-62 -85 -156 -85q-72 0 -112.5 43t-40.5 118v244q0 74 -64 74q-23 0 -38.5 -5t-35.5 -17l-36 58q50 38 115 38q70 0 110.5 -40t40.5 -116v-223q0 -56 21.5 -79t62.5 -23t73 24t60 68v375h92v-592q0 -74 64 -74
q23 0 38.5 5t35.5 17z" />
    <glyph glyph-name="uni02B0" unicode="&#x2b0;" horiz-adv-x="309" 
d="M257 652q22 -21 22 -59v-193h-77v179q0 20 -7.5 27.5t-21.5 7.5q-18 0 -31.5 -7.5t-34.5 -24.5v-182h-77v372l77 9v-148q19 21 40.5 30.5t49.5 9.5q38 0 60 -21z" />
    <glyph glyph-name="uni02B1" unicode="&#x2b1;" horiz-adv-x="309" 
d="M257 652q22 -21 22 -59v-193h-77v179q0 20 -7.5 27.5t-21.5 7.5q-18 0 -31.5 -7.5t-34.5 -24.5v-182h-77v293q0 38 28.5 62t79.5 24q19 0 41.5 -4.5t39.5 -11.5l-23 -51q-27 8 -48 8q-22 0 -31.5 -6.5t-9.5 -27.5v-53q19 21 40.5 30.5t49.5 9.5q38 0 60 -21z" />
    <glyph glyph-name="uni02B2" unicode="&#x2b2;" horiz-adv-x="203" 
d="M160 791.5q13 -12.5 13 -31.5t-13 -31.5t-34 -12.5t-34.5 13t-13.5 31t13.5 31t34.5 13t34 -12.5zM165 425q0 -58 -28 -87t-84 -47l-23 52q33 18 45.5 33.5t12.5 48.5v240h77v-240z" />
    <glyph glyph-name="uni02B4" unicode="&#x2b4;" horiz-adv-x="242" 
d="M212 666v-266h-59l-13 56q-10 -30 -29.5 -46.5t-47.5 -16.5q-21 0 -33 5l13 72q11 -4 27 -4q26 0 40.5 19t24.5 57v124h77z" />
    <glyph glyph-name="uni02B7" unicode="&#x2b7;" horiz-adv-x="467" 
d="M437 665l-68 -265h-87l-47 194l-47 -194h-91l-67 265h80l37 -200l51 200h78l47 -201l40 201h74z" />
    <glyph glyph-name="uni02B8" unicode="&#x2b8;" horiz-adv-x="344" 
d="M215 399q-19 -52 -54 -77t-98 -33l-9 54q42 8 61 20t33 37h-27l-91 265h83l57 -215l66 215h78z" />
    <glyph glyph-name="uni02B9" unicode="&#x2b9;" horiz-adv-x="304" 
d="M60 427l85 262h99l-115 -262h-69z" />
    <glyph glyph-name="uni02BA" unicode="&#x2ba;" horiz-adv-x="454" 
d="M60 427l85 262h99l-115 -262h-69zM210 427l85 262h99l-115 -262h-69z" />
    <glyph glyph-name="uni02BB" unicode="&#x2bb;" horiz-adv-x="204" 
d="M49 605.5q-19 18.5 -19 44.5q0 12 3.5 24.5t13.5 33.5l67 142h60l-40 -150q26 -20 26 -50q0 -26 -19.5 -44.5t-45.5 -18.5q-27 0 -46 18.5z" />
    <glyph glyph-name="uni02BC" unicode="&#x2bc;" horiz-adv-x="228" 
d="M165 734.5q19 -18.5 19 -44.5q0 -12 -3.5 -24.5t-13.5 -33.5l-67 -142h-60l40 150q-26 20 -26 50q0 26 19.5 44.5t45.5 18.5q27 0 46 -18.5z" />
    <glyph glyph-name="uni02BF" unicode="&#x2bf;" horiz-adv-x="174" 
d="M144 674q-25 0 -39 15t-14 41t14 41t39 15v50q-50 0 -82 -30.5t-32 -75.5t32 -75.5t82 -30.5v50z" />
    <glyph glyph-name="uni02C0" unicode="&#x2c0;" horiz-adv-x="262" 
d="M82 705q39 5 55 13.5t16 29.5q0 18 -12 27t-32 9q-28 0 -57 -13l-22 51q41 24 94 24q51 0 79.5 -24.5t28.5 -66.5q0 -37 -21 -58.5t-60 -27.5v-58h-69v94z" />
    <glyph glyph-name="circumflex" unicode="&#x2c6;" horiz-adv-x="392" 
d="M69 634l-39 45l135 113h61l136 -113l-40 -45l-126 84z" />
    <glyph glyph-name="caron" unicode="&#x2c7;" horiz-adv-x="392" 
d="M323 785l39 -45l-135 -113h-61l-136 113l40 45l126 -84z" />
    <glyph glyph-name="uni02C8" unicode="&#x2c8;" horiz-adv-x="147" 
d="M30 626v232h87v-232h-87z" />
    <glyph glyph-name="uni02CA" unicode="&#x2ca;" horiz-adv-x="300" 
d="M229 801l41 -77l-212 -86l-28 49z" />
    <glyph glyph-name="uni02CB" unicode="&#x2cb;" horiz-adv-x="300" 
d="M71 801l199 -114l-28 -49l-212 86z" />
    <glyph glyph-name="uni02CC" unicode="&#x2cc;" horiz-adv-x="147" 
d="M30 -304v232h87v-232h-87z" />
    <glyph glyph-name="uni02CE" unicode="&#x2ce;" horiz-adv-x="300" 
d="M69 -49l201 -107l-24 -49l-216 79z" />
    <glyph glyph-name="uni02CF" unicode="&#x2cf;" horiz-adv-x="300" 
d="M230 -49l40 -77l-216 -79l-24 49z" />
    <glyph glyph-name="uni02D0" unicode="&#x2d0;" horiz-adv-x="247" 
d="M110 333l-60 154h146l-61 -154h-25zM110 154h25l61 -154h-146z" />
    <glyph glyph-name="uni02D1" unicode="&#x2d1;" horiz-adv-x="247" 
d="M110 333l-60 154h146l-61 -154h-25z" />
    <glyph glyph-name="uni02D4" unicode="&#x2d4;" horiz-adv-x="424" 
d="M362 249v-59h-300v59h118v160h63v-160h119z" />
    <glyph glyph-name="uni02D6" unicode="&#x2d6;" horiz-adv-x="461" 
d="M268 467v-135h131v-68h-131v-134h-76v134h-130v68h130v135h76z" />
    <glyph glyph-name="uni02D7" unicode="&#x2d7;" horiz-adv-x="462" 
d="M62 265v69h338v-69h-338z" />
    <glyph glyph-name="breve" unicode="&#x2d8;" horiz-adv-x="363" 
d="M77.5 678.5q-41.5 35.5 -47.5 97.5l61 13q21 -76 89 -76q71 0 92 76l61 -13q-6 -62 -48.5 -97.5t-104.5 -35.5q-61 0 -102.5 35.5z" />
    <glyph glyph-name="dotaccent" unicode="&#x2d9;" horiz-adv-x="189" 
d="M141 762q18 -18 18 -45t-18 -44.5t-47 -17.5q-28 0 -46 17.5t-18 44.5t18 45t46 18q29 0 47 -18z" />
    </font>
</defs>
</svg>
