<?xml version="1.0" standalone="no"?>
<!DOCTYPE svg PUBLIC "-//W3C//DTD SVG 1.1//EN" "http://www.w3.org/Graphics/SVG/1.1/DTD/svg11.dtd" >
<svg xmlns="http://www.w3.org/2000/svg" xmlns:xlink="http://www.w3.org/1999/xlink" version="1.1">
<metadata>
Created by FontForge 20170731 at Fri Dec  2 11:32:35 2016
 By Aleksey,,,
Digitized data copyright 2012-2016, The Mozilla Foundation and Telefonica S.A.
</metadata>
<defs>
<font id="FiraSans-SemiBold" horiz-adv-x="560" >
  <font-face 
    font-family="Fira Sans SemiBold"
    font-weight="600"
    font-stretch="normal"
    units-per-em="1000"
    panose-1="2 11 6 3 5 0 0 2 0 4"
    ascent="800"
    descent="-200"
    x-height="530"
    cap-height="692"
    bbox="-777 -354 1360 1170"
    underline-thickness="50"
    underline-position="-150"
    unicode-range="U+000D-FEFF"
  />
<missing-glyph horiz-adv-x="666" 
d="M543 1050v-1400h-420v1400h420zM489 998h-311v-1296h311v1296zM409.5 419q25.5 -32 25.5 -83q0 -53 -22.5 -82t-72.5 -36v-45q0 -11 -7.5 -17.5t-17.5 -6.5t-17.5 6.5t-7.5 17.5v84q53 3 72 19.5t19 57.5q0 33 -13 51t-48 18q-29 0 -52 -11q-8 -3 -13 -3q-11 0 -17.5 6.5
t-6.5 16.5q0 19 29.5 29t63.5 10q60 0 85.5 -32zM340 110q10 -10 10 -25q0 -16 -10 -26.5t-25 -10.5t-25 10.5t-10 26.5q0 15 10 25t25 10t25 -10z" />
    <glyph glyph-name="fi" unicode="fi" horiz-adv-x="593" 
d="M467 718l-42 -93q-53 25 -113 25q-48 0 -66 -17t-18 -56v-47h295v-530h-142v430h-153v-430h-142v430h-82v100h82v51q0 79 52.5 127.5t159.5 48.5q89 0 169 -39z" />
    <glyph glyph-name="fl" unicode="fl" horiz-adv-x="622" 
d="M618 2q-43 -18 -96 -18q-63 0 -97.5 36.5t-34.5 105.5v514q-45 12 -87 12t-58.5 -16.5t-16.5 -54.5v-51h108l-16 -100h-92v-430h-142v430h-82v100h82v53q0 77 51 125.5t148 48.5q56 0 116 -19l131 14v-613q0 -42 29 -42q16 0 28 6z" />
    <glyph glyph-name=".notdef" horiz-adv-x="666" 
d="M543 1050v-1400h-420v1400h420zM489 998h-311v-1296h311v1296zM409.5 419q25.5 -32 25.5 -83q0 -53 -22.5 -82t-72.5 -36v-45q0 -11 -7.5 -17.5t-17.5 -6.5t-17.5 6.5t-7.5 17.5v84q53 3 72 19.5t19 57.5q0 33 -13 51t-48 18q-29 0 -52 -11q-8 -3 -13 -3q-11 0 -17.5 6.5
t-6.5 16.5q0 19 29.5 29t63.5 10q60 0 85.5 -32zM340 110q10 -10 10 -25q0 -16 -10 -26.5t-25 -10.5t-25 10.5t-10 26.5q0 15 10 25t25 10t25 -10z" />
    <glyph glyph-name=".null" horiz-adv-x="0" 
 />
    <glyph glyph-name="nonmarkingreturn" unicode="&#xd;" horiz-adv-x="244" 
 />
    <glyph glyph-name="space" unicode=" " horiz-adv-x="244" 
 />
    <glyph glyph-name="exclam" unicode="!" horiz-adv-x="241" 
d="M195 692l-17 -443h-116l-19 443h152zM181 130q25 -25 25 -60t-25 -60.5t-61 -25.5q-35 0 -60 25.5t-25 60.5t25 60t60 25q36 0 61 -25z" />
    <glyph glyph-name="quotedbl" unicode="&#x22;" horiz-adv-x="430" 
d="M69 417l-18 275h132l-18 -275h-96zM265 417l-18 275h132l-18 -275h-96z" />
    <glyph glyph-name="numbersign" unicode="#" horiz-adv-x="547" 
d="M532 442h-71l-26 -198h60v-96h-72l-20 -148h-118l20 148h-114l-20 -148h-118l20 148h-58v96h70l26 198h-59v96h72l18 136h118l-18 -136h114l18 136h118l-18 -136h58v-96zM317 244l26 198h-114l-26 -198h114z" />
    <glyph glyph-name="dollar" unicode="$" horiz-adv-x="545" 
d="M467.5 66q-48.5 -54 -134.5 -70v-156h-106v150q-131 10 -214 93l74 80q73 -67 168 -67q52 0 83.5 24t31.5 67q0 27 -11 45t-38 32t-79 30q-108 34 -154.5 81t-46.5 122q0 74 51 124t135 61v147h106v-148q93 -14 164 -80l-68 -79q-64 57 -146 57q-44 0 -70.5 -18.5
t-26.5 -53.5q0 -24 11 -39t38.5 -29t83.5 -31q100 -31 148.5 -78t48.5 -134q0 -76 -48.5 -130z" />
    <glyph glyph-name="percent" unicode="%" horiz-adv-x="851" 
d="M613 718l90 -57l-464 -699l-89 57zM296.5 665.5q39.5 -21.5 62 -62t22.5 -93.5t-22.5 -93.5t-62 -62t-89.5 -21.5q-49 0 -88.5 21.5t-62.5 62t-23 93.5t23 93.5t62.5 62t88.5 21.5q50 0 89.5 -21.5zM138 510q0 -39 15.5 -64.5t53.5 -25.5q68 0 68 90t-68 90
q-69 0 -69 -90zM733.5 316.5q39.5 -21.5 62 -62t22.5 -93.5t-22.5 -93t-62.5 -62t-89 -22t-89 22t-63 62t-23 93t23 93.5t63 62t89 21.5q50 0 89.5 -21.5zM575 161q0 -39 15.5 -64.5t53.5 -25.5q68 0 68 90t-68 90q-69 0 -69 -90z" />
    <glyph glyph-name="ampersand" unicode="&#x26;" horiz-adv-x="753" 
d="M420 687.5q47 -20.5 72 -56.5t25 -81q0 -58 -35 -102.5t-100 -85.5l146 -136q32 68 50 150l121 -36q-37 -110 -91 -189l119 -106l-118 -61l-83 80q-90 -80 -219 -80q-71 0 -126 24t-85.5 67.5t-30.5 101.5q0 61 33 106t103 90q-53 51 -74.5 87.5t-21.5 83.5q0 45 23 82
t69.5 59.5t112.5 22.5q63 0 110 -20.5zM260.5 595q-18.5 -19 -18.5 -50q0 -28 14 -51.5t48 -56.5q39 25 58 50.5t19 57.5t-18.5 50.5t-50.5 18.5q-33 0 -51.5 -19zM229.5 244q-16.5 -27 -16.5 -60q0 -45 32 -71t85 -26q69 0 123 46l-171 163q-36 -25 -52.5 -52z" />
    <glyph glyph-name="quotesingle" unicode="'" horiz-adv-x="234" 
d="M69 417l-18 275h132l-18 -275h-96z" />
    <glyph glyph-name="parenleft" unicode="(" horiz-adv-x="324" 
d="M306 794q-72 -104 -105 -204.5t-33 -239.5t33 -239.5t105 -204.5l-91 -61q-65 90 -103 154.5t-63.5 152t-25.5 198.5t25.5 198.5t63.5 152t103 154.5z" />
    <glyph glyph-name="parenright" unicode=")" horiz-adv-x="324" 
d="M212 700.5q38 -64.5 63.5 -152t25.5 -198.5t-25.5 -198.5t-63.5 -152t-103 -154.5l-90 61q72 104 105 204.5t33 239.5t-33 239.5t-105 204.5l90 61q65 -90 103 -154.5z" />
    <glyph glyph-name="asterisk" unicode="*" horiz-adv-x="447" 
d="M436 542l-144 -26l102 -105l-101 -74l-70 128l-68 -129l-101 74l100 105l-143 26l38 116l131 -62l-19 146h125l-19 -148l130 65z" />
    <glyph glyph-name="plus" unicode="+" horiz-adv-x="523" 
d="M321 542v-155h150v-111h-150v-154h-120v154h-149v111h149v155h120z" />
    <glyph glyph-name="comma" unicode="," horiz-adv-x="240" 
d="M180.5 130.5q24.5 -24.5 24.5 -60.5q0 -20 -6.5 -41.5t-21.5 -56.5l-65 -146h-83l42 174q-17 11 -27 29.5t-10 40.5q0 36 24.5 60.5t60.5 24.5q37 0 61.5 -24.5z" />
    <glyph glyph-name="hyphen" unicode="-" horiz-adv-x="406" 
d="M48 257v112h310v-112h-310z" />
    <glyph glyph-name="period" unicode="." horiz-adv-x="240" 
d="M180 130q25 -25 25 -60t-25 -60.5t-61 -25.5q-35 0 -60 25.5t-25 60.5t25 60t60 25q36 0 61 -25z" />
    <glyph glyph-name="slash" unicode="/" horiz-adv-x="520" 
d="M316 814l123 -28l-234 -896l-124 29z" />
    <glyph glyph-name="zero" unicode="0" horiz-adv-x="579" 
d="M474 596.5q63 -90.5 63 -260.5t-63.5 -261t-184.5 -91t-184 91t-63 261t63 260.5t184 90.5q122 0 185 -90.5zM231 557.5q-22 -23.5 -32.5 -77t-10.5 -144.5t10.5 -144.5t32.5 -77t58 -23.5t58 23t33 76.5t11 145.5q0 93 -11 146.5t-33 76t-58 22.5t-58 -23.5z" />
    <glyph glyph-name="one" unicode="1" horiz-adv-x="456" 
d="M367 674v-674h-139v534l-148 -91l-62 96l224 135h125z" />
    <glyph glyph-name="two" unicode="2" horiz-adv-x="512" 
d="M357 661.5q51 -25.5 77.5 -69t26.5 -96.5q0 -55 -23.5 -106t-80 -115t-164.5 -165h283l-16 -110h-429v103q126 126 182 188t79 105t23 88q0 43 -25 68t-67 25q-37 0 -66 -16.5t-61 -54.5l-85 68q86 113 225 113q70 0 121 -25.5z" />
    <glyph glyph-name="three" unicode="3" horiz-adv-x="515" 
d="M353.5 664.5q49.5 -22.5 75 -61.5t25.5 -87q0 -61 -35 -101.5t-97 -57.5q68 -7 111 -49t43 -117q0 -58 -29.5 -105t-86.5 -74.5t-135 -27.5q-143 0 -224 100l77 74q34 -34 67 -49t72 -15q52 0 82.5 28t30.5 78q0 54 -29 78t-87 24h-55l17 100h37q47 0 75 25t28 70
q0 39 -25.5 61t-69.5 22q-38 0 -70 -14t-63 -44l-71 77q93 88 218 88q69 0 118.5 -22.5z" />
    <glyph glyph-name="four" unicode="4" horiz-adv-x="557" 
d="M534 258v-108h-79v-150h-138l-1 150h-285v96l194 443l120 -45l-167 -386h140l15 165h122v-165h79z" />
    <glyph glyph-name="five" unicode="5" horiz-adv-x="527" 
d="M446 571h-249v-155q49 23 102 23q56 0 99.5 -26t68.5 -75.5t25 -116.5q0 -70 -32 -123.5t-90.5 -83.5t-135.5 -30q-130 0 -218 98l80 75q56 -64 134 -64q55 0 85.5 33t30.5 95q0 119 -102 119q-22 0 -41.5 -5.5t-42.5 -18.5h-99v358h402z" />
    <glyph glyph-name="six" unicode="6" horiz-adv-x="556" 
d="M434.5 425q43.5 -26 68.5 -75.5t25 -119.5t-29.5 -126t-83.5 -88t-124 -32q-127 0 -188 86.5t-61 239.5q0 113 34.5 198.5t98.5 132t151 46.5t150 -43l-52 -87q-46 27 -95 27q-61 0 -98 -53t-42 -149q60 69 147 69q55 0 98.5 -26zM361.5 125q23.5 37 23.5 103t-21.5 94.5
t-64.5 28.5q-61 0 -110 -62q2 -108 25.5 -154.5t77.5 -46.5q46 0 69.5 37z" />
    <glyph glyph-name="seven" unicode="7" horiz-adv-x="462" 
d="M441 674v-98l-248 -591l-129 43l230 538h-278v108h425z" />
    <glyph glyph-name="eight" unicode="8" horiz-adv-x="574" 
d="M506.5 285.5q33.5 -44.5 33.5 -103.5q0 -55 -31 -100.5t-89 -71.5t-136 -26q-76 0 -133 26t-87.5 70.5t-30.5 98.5q0 114 127 170q-100 57 -100 159q0 54 30 94.5t81.5 62.5t115.5 22q98 0 162.5 -46t64.5 -127q0 -94 -110 -152q69 -32 102.5 -76.5zM222 568.5
q-24 -21.5 -24 -62.5q0 -37 22 -59.5t70 -41.5l20 -7q36 23 51 48.5t15 60.5q0 38 -23 60.5t-65 22.5t-66 -21.5zM368.5 114q28.5 26 28.5 69t-25 68t-89 48l-32 11q-75 -39 -75 -125q0 -45 30 -71t82 -26t80.5 26z" />
    <glyph glyph-name="nine" unicode="9" horiz-adv-x="552" 
d="M453.5 616q62.5 -71 62.5 -190q0 -137 -42.5 -225.5t-130.5 -142t-232 -85.5l-30 101q132 33 199.5 85.5t83.5 145.5q-54 -69 -142 -69q-53 0 -96.5 27t-69 77t-25.5 117q0 69 32 121t87 80.5t123 28.5q118 0 180.5 -71zM371 402q1 99 -21.5 140.5t-76.5 41.5
q-47 0 -73.5 -31.5t-26.5 -91.5q0 -64 24.5 -93.5t65.5 -29.5q64 0 108 64z" />
    <glyph glyph-name="colon" unicode=":" horiz-adv-x="240" 
d="M180 130q25 -25 25 -60t-25 -60.5t-61 -25.5q-35 0 -60 25.5t-25 60.5t25 60t60 25q36 0 61 -25zM180 481q25 -25 25 -60t-25 -60.5t-61 -25.5q-35 0 -60 25.5t-25 60.5t25 60t60 25q36 0 61 -25z" />
    <glyph glyph-name="semicolon" unicode=";" horiz-adv-x="240" 
d="M180.5 130.5q24.5 -24.5 24.5 -60.5q0 -20 -6.5 -41.5t-21.5 -56.5l-65 -146h-83l42 174q-17 11 -27 29.5t-10 40.5q0 36 24.5 60.5t60.5 24.5q37 0 61.5 -24.5zM180 481q25 -25 25 -60t-25 -60.5t-61 -25.5q-35 0 -60 25.5t-25 60.5t25 60t60 25q36 0 61 -25z" />
    <glyph glyph-name="less" unicode="&#x3c;" horiz-adv-x="514" 
d="M430 570l46 -103l-319 -134l319 -132l-46 -105l-392 173v128z" />
    <glyph glyph-name="equal" unicode="=" horiz-adv-x="514" 
d="M52 379v111h411v-111h-411zM52 173v111h411v-111h-411z" />
    <glyph glyph-name="greater" unicode="&#x3e;" horiz-adv-x="514" 
d="M84 570l392 -173v-128l-392 -173l-46 105l319 132l-319 134z" />
    <glyph glyph-name="question" unicode="?" horiz-adv-x="476" 
d="M362 685.5q48 -22.5 72 -60t24 -81.5q0 -41 -14 -70t-34 -46.5t-53 -40.5q-40 -27 -59.5 -49.5t-19.5 -58.5v-30h-131v35q0 46 14.5 78t35 51t51.5 40q32 21 46.5 37t14.5 41q0 31 -20.5 47.5t-56.5 16.5q-68 0 -122 -63l-92 71q44 51 100 78t128 27q68 0 116 -22.5z
M275 130q25 -25 25 -60t-25 -60.5t-61 -25.5t-60.5 25t-24.5 61q0 35 24.5 60t60.5 25t61 -25z" />
    <glyph glyph-name="at" unicode="@" horiz-adv-x="1020" 
d="M696 456v-249q0 -61 12 -85.5t40 -24.5q42 0 65.5 50t23.5 165q0 137 -78.5 213.5t-232.5 76.5q-106 0 -183.5 -45.5t-118 -127t-40.5 -187.5q0 -108 39.5 -188t116.5 -123.5t187 -43.5q50 0 101.5 10t93.5 25l35 -100q-112 -42 -231 -42q-141 0 -248.5 56.5t-166 161
t-58.5 243.5q0 133 60.5 239.5t168.5 167t244 60.5t236 -54.5t152.5 -144.5t52.5 -195q0 -89 -26 -159t-74 -110t-114 -40q-55 0 -88.5 30.5t-42.5 71.5q-20 -44 -56 -71t-88 -27q-88 0 -134 61t-46 162q0 125 61 196.5t168 71.5q88 0 169 -44zM575 160v238q-27 11 -52 11
q-47 0 -71.5 -42t-24.5 -135q0 -70 16.5 -101t52.5 -31q54 0 79 60z" />
    <glyph glyph-name="A" unicode="A" horiz-adv-x="586" 
d="M439 0l-39 155h-217l-39 -155h-153l213 692h179l212 -692h-156zM211 264h161l-81 319z" />
    <glyph glyph-name="B" unicode="B" horiz-adv-x="615" 
d="M540.5 315.5q43.5 -37.5 43.5 -114.5q0 -109 -78 -155t-217 -46h-216v692h189q142 0 217 -42t75 -135q0 -61 -36.5 -98.5t-90.5 -50.5q70 -13 113.5 -50.5zM220 586v-175h72q54 0 83 22.5t29 68.5t-31 65t-97 19h-56zM395 129.5q36 20.5 36 77.5q0 104 -128 104h-83v-202
h70q69 0 105 20.5z" />
    <glyph glyph-name="C" unicode="C" horiz-adv-x="571" 
d="M459 689.5q48 -18.5 94 -56.5l-73 -85q-60 49 -126 49q-74 0 -117.5 -60.5t-43.5 -189.5q0 -126 43.5 -186.5t118.5 -60.5q39 0 71 14.5t67 41.5l68 -85q-37 -38 -91.5 -62.5t-120.5 -24.5q-93 0 -163 42t-109 123.5t-39 197.5q0 113 40 194.5t110 124t158 42.5
q65 0 113 -18.5z" />
    <glyph glyph-name="D" unicode="D" horiz-adv-x="650" 
d="M513.5 618.5q97.5 -73.5 97.5 -269.5q0 -192 -95.5 -270.5t-244.5 -78.5h-198v692h181q162 0 259.5 -73.5zM220 584v-476h60q85 0 131.5 52.5t46.5 188.5q0 94 -23.5 146t-62.5 70.5t-95 18.5h-57z" />
    <glyph glyph-name="E" unicode="E" horiz-adv-x="528" 
d="M486 692l-16 -107h-250v-180h218v-106h-218v-191h268v-108h-415v692h413z" />
    <glyph glyph-name="F" unicode="F" horiz-adv-x="488" 
d="M73 0v692h402l-16 -107h-239v-196h208v-107h-208v-282h-147z" />
    <glyph glyph-name="G" unicode="G" horiz-adv-x="641" 
d="M486.5 686.5q54.5 -21.5 101.5 -61.5l-77 -80q-37 28 -69.5 41t-73.5 13q-79 0 -127.5 -62.5t-48.5 -190.5q0 -135 37.5 -193.5t116.5 -58.5q57 0 103 25v169h-97l-15 107h255v-341q-54 -33 -116.5 -51.5t-126.5 -18.5q-153 0 -232 92t-79 271q0 113 43 195t116.5 124
t164.5 42q70 0 124.5 -21.5z" />
    <glyph glyph-name="H" unicode="H" horiz-adv-x="669" 
d="M449 0v303h-229v-303h-147v692h147v-273h229v273h147v-692h-147z" />
    <glyph glyph-name="I" unicode="I" horiz-adv-x="294" 
d="M220 692v-692h-147v692h147z" />
    <glyph glyph-name="J" unicode="J" horiz-adv-x="314" 
d="M245 103q0 -80 -27.5 -132t-73.5 -81.5t-112 -51.5l-39 105q44 17 66.5 39t30.5 51t8 75v584h147v-589z" />
    <glyph glyph-name="K" unicode="K" horiz-adv-x="622" 
d="M220 692v-692h-147v692h147zM613 692l-231 -312l249 -380h-172l-233 369l230 323h157z" />
    <glyph glyph-name="L" unicode="L" horiz-adv-x="509" 
d="M220 692v-574h274l-16 -118h-405v692h147z" />
    <glyph glyph-name="M" unicode="M" horiz-adv-x="784" 
d="M744 0h-144l-15 281q-7 126 -7 214q0 47 1 68l-117 -489h-139l-125 490q4 -61 4 -137q0 -81 -4 -149l-15 -278h-143l54 692h187l114 -477l107 477h189z" />
    <glyph glyph-name="N" unicode="N" horiz-adv-x="668" 
d="M595 0h-189l-220 549q9 -71 14.5 -133.5t5.5 -146.5v-269h-133v692h185l224 -550q-20 134 -20 246v304h133v-692z" />
    <glyph glyph-name="O" unicode="O" horiz-adv-x="691" 
d="M510 665.5q69 -42.5 106 -123.5t37 -196q0 -113 -37 -194.5t-106 -124.5t-164 -43t-164.5 42.5t-106.5 124t-37 195.5q0 112 37.5 193.5t107 125t163.5 43.5q95 0 164 -42.5zM231.5 538q-38.5 -60 -38.5 -192t39 -192t114 -60q76 0 114 59.5t38 192.5t-38 192.5
t-114 59.5t-114.5 -60z" />
    <glyph glyph-name="P" unicode="P" horiz-adv-x="595" 
d="M496.5 636q74.5 -56 74.5 -167q0 -116 -74 -174.5t-198 -58.5h-79v-236h-147v692h214q135 0 209.5 -56zM385 373q34 29 34 96q0 117 -134 117h-65v-242h67q64 0 98 29z" />
    <glyph glyph-name="Q" unicode="Q" horiz-adv-x="691" 
d="M601 27q48 -16 90 -46l-89 -117q-59 61 -117.5 92t-147.5 31q-91 0 -158.5 42t-104 122.5t-36.5 194.5q0 112 37.5 193.5t107 125t163.5 43.5q95 0 164 -42.5t106 -123.5t37 -196q0 -117 -44 -189.5t-118 -113.5q62 0 110 -16zM232 154q39 -60 114 -60q76 0 114 59.5
t38 192.5t-38 192.5t-114 59.5t-114.5 -60t-38.5 -192t39 -192z" />
    <glyph glyph-name="R" unicode="R" horiz-adv-x="614" 
d="M295 271h-75v-271h-147v692h216q139 0 209 -51.5t70 -155.5q0 -68 -33.5 -112t-103.5 -75l179 -298h-167zM220 375h77q59 0 89 26.5t30 83.5q0 53 -31.5 77.5t-98.5 24.5h-66v-212z" />
    <glyph glyph-name="S" unicode="S" horiz-adv-x="565" 
d="M414.5 686.5q55.5 -21.5 102.5 -65.5l-70 -81q-37 30 -74 44t-79 14q-46 0 -73.5 -19.5t-27.5 -55.5q0 -25 11.5 -41t40.5 -30t87 -32q103 -33 154 -81.5t51 -138.5q0 -64 -32 -112.5t-93 -76t-143 -27.5t-146 26t-110 71l75 83q40 -34 83 -51.5t94 -17.5q54 0 86.5 25
t32.5 70q0 28 -11.5 46.5t-39.5 33.5t-81 31q-113 35 -161.5 84t-48.5 128q0 58 31 102.5t86 68.5t125 24q75 0 130.5 -21.5z" />
    <glyph glyph-name="T" unicode="T" horiz-adv-x="534" 
d="M532 692l-16 -115h-175v-577h-147v577h-184v115h522z" />
    <glyph glyph-name="U" unicode="U" horiz-adv-x="654" 
d="M590 228q0 -71 -30 -126t-89.5 -86.5t-144.5 -31.5q-128 0 -195.5 66.5t-67.5 177.5v464h147v-457q0 -70 28 -104.5t88 -34.5t88.5 34.5t28.5 104.5v457h147v-464z" />
    <glyph glyph-name="V" unicode="V" horiz-adv-x="567" 
d="M575 692l-199 -692h-179l-206 692h157l141 -570l136 570h150z" />
    <glyph glyph-name="W" unicode="W" horiz-adv-x="842" 
d="M828 692l-121 -692h-191l-96 541l-101 -541h-186l-120 692h147l79 -578l105 578h155l101 -578l89 578h139z" />
    <glyph glyph-name="X" unicode="X" horiz-adv-x="571" 
d="M371 373l202 -373h-162l-129 274l-127 -274h-157l197 368l-181 324h161l109 -231l114 231h156z" />
    <glyph glyph-name="Y" unicode="Y" horiz-adv-x="583" 
d="M587 692l-222 -431v-261h-147v260l-222 432h161l138 -314l137 314h155z" />
    <glyph glyph-name="Z" unicode="Z" horiz-adv-x="539" 
d="M503 692v-113l-310 -460h315l-16 -119h-471v111l316 465h-284v116h450z" />
    <glyph glyph-name="bracketleft" unicode="[" horiz-adv-x="323" 
d="M292 821v-108h-116v-727h116v-107h-251v942h251z" />
    <glyph glyph-name="backslash" unicode="\" horiz-adv-x="520" 
d="M204 814l235 -895l-124 -29l-234 896z" />
    <glyph glyph-name="bracketright" unicode="]" horiz-adv-x="323" 
d="M282 821v-942h-251v107h116v728h-116v107h251z" />
    <glyph glyph-name="asciicircum" unicode="^" horiz-adv-x="554" 
d="M342 843l189 -316h-141l-114 207l-110 -207h-143l189 316h130z" />
    <glyph glyph-name="underscore" unicode="_" horiz-adv-x="520" 
d="M11 -164v113h498v-113h-498z" />
    <glyph glyph-name="grave" unicode="`" horiz-adv-x="330" 
d="M87 827l213 -128l-40 -73l-230 92z" />
    <glyph glyph-name="a" unicode="a" horiz-adv-x="547" 
d="M484 101.5q9 -14.5 30 -21.5l-30 -94q-47 4 -76.5 22t-45.5 56q-52 -80 -159 -80q-79 0 -125.5 45.5t-46.5 118.5q0 87 63 133t181 46h61v26q0 49 -22 68t-73 19q-56 0 -140 -28l-32 95q99 39 196 39q108 0 159 -46.5t51 -138.5v-214q0 -31 9 -45.5zM336 145v101h-47
q-115 0 -115 -86q0 -35 17.5 -54.5t50.5 -19.5q60 0 94 59z" />
    <glyph glyph-name="b" unicode="b" horiz-adv-x="596" 
d="M501.5 472q51.5 -74 51.5 -207q0 -82 -25.5 -145.5t-73 -99.5t-111.5 -36q-87 0 -139 68l-8 -52h-126v741l142 16v-284q25 34 63 53.5t82 19.5q93 0 144.5 -74zM405 265q0 97 -24.5 136.5t-70.5 39.5q-57 0 -98 -68v-227q35 -57 91 -57q102 0 102 176z" />
    <glyph glyph-name="c" unicode="c" horiz-adv-x="478" 
d="M386.5 530.5q42.5 -15.5 80.5 -48.5l-62 -84q-26 20 -50.5 29t-53.5 9q-113 0 -113 -174q0 -88 29 -126t83 -38q28 0 51 8.5t54 28.5l62 -89q-76 -62 -174 -62q-78 0 -135.5 34t-88.5 96.5t-31 146.5t31 148.5t88.5 100.5t133.5 36q53 0 95.5 -15.5z" />
    <glyph glyph-name="d" unicode="d" horiz-adv-x="599" 
d="M529 741v-741h-125l-8 65q-56 -81 -152 -81q-98 0 -149.5 75.5t-51.5 205.5q0 82 26.5 145.5t75.5 99.5t113 36q74 0 129 -53v264zM341 105.5q24 15.5 46 48.5v237q-21 25 -42.5 37.5t-49.5 12.5q-49 0 -76.5 -43t-27.5 -133q0 -95 24.5 -135t70.5 -40q31 0 55 15.5z" />
    <glyph glyph-name="e" unicode="e" horiz-adv-x="551" 
d="M515 222h-331q7 -72 39 -102t87 -30q34 0 64 11t65 35l59 -80q-89 -72 -201 -72q-125 0 -192 75t-67 203q0 81 28.5 145.5t83 101.5t129.5 37q113 0 176 -71t63 -198q0 -10 -3 -55zM377 317q0 132 -95 132q-44 0 -68.5 -32.5t-29.5 -105.5h193v6z" />
    <glyph glyph-name="f" unicode="f" horiz-adv-x="351" 
d="M245.5 634q-15.5 -17 -15.5 -55v-49h126l-16 -100h-110v-430h-142v430h-84v100h84v53q0 77 50.5 125.5t143.5 48.5q74 0 140 -32l-39 -94q-43 20 -86 20q-36 0 -51.5 -17z" />
    <glyph glyph-name="g" unicode="g" horiz-adv-x="544" 
d="M544 501q-52 -20 -153 -20q50 -22 74 -54.5t24 -81.5q0 -51 -26.5 -91.5t-76 -63.5t-115.5 -23q-35 0 -62 7q-20 -13 -20 -35q0 -16 12.5 -25.5t48.5 -9.5h81q59 0 103.5 -19.5t69 -54t24.5 -78.5q0 -81 -69.5 -126.5t-200.5 -45.5q-94 0 -148.5 19.5t-76.5 56.5t-22 93
h127q0 -26 10 -41.5t36.5 -23t76.5 -7.5q69 0 96.5 17t27.5 48q0 28 -21 43t-62 15h-78q-79 0 -118 29.5t-39 74.5q0 28 16.5 54.5t45.5 44.5q-49 27 -71.5 63.5t-22.5 87.5q0 58 28.5 101.5t80 67t117.5 23.5q82 -2 135 14t113 50zM200.5 425.5q-23.5 -25.5 -23.5 -69.5
q0 -45 23.5 -71t64.5 -26q43 0 65 25t22 74q0 93 -88 93q-40 0 -63.5 -25.5z" />
    <glyph glyph-name="h" unicode="h" horiz-adv-x="579" 
d="M474.5 503.5q39.5 -42.5 39.5 -117.5v-386h-142v362q0 43 -15 60.5t-43 17.5q-56 0 -102 -73v-367h-142v741l142 15v-286q32 38 69.5 57t84.5 19q69 0 108.5 -42.5z" />
    <glyph glyph-name="i" unicode="i" horiz-adv-x="282" 
d="M212 530v-530h-142v530h142zM202.5 779.5q24.5 -23.5 24.5 -59.5t-24.5 -59.5t-62.5 -23.5t-62 23.5t-24 59.5t24 59.5t62 23.5t62.5 -23.5z" />
    <glyph glyph-name="j" unicode="j" horiz-adv-x="281" 
d="M211 53q0 -80 -24.5 -131.5t-67.5 -83t-110 -57.5l-47 103q39 18 61 35.5t34 47t12 77.5v486h142v-477zM201.5 779.5q24.5 -23.5 24.5 -59.5t-24.5 -59.5t-62.5 -23.5t-62 23.5t-24 59.5t24 59.5t62 23.5t62.5 -23.5z" />
    <glyph glyph-name="k" unicode="k" horiz-adv-x="542" 
d="M212 757v-757h-142v741zM534 530l-169 -233l184 -297h-161l-171 290l170 240h147z" />
    <glyph glyph-name="l" unicode="l" horiz-adv-x="296" 
d="M101 21.5q-36 37.5 -36 106.5v613l142 16v-625q0 -35 29 -35q16 0 28 6l29 -101q-41 -18 -91 -18q-65 0 -101 37.5z" />
    <glyph glyph-name="m" unicode="m" horiz-adv-x="848" 
d="M744.5 503q38.5 -43 38.5 -117v-386h-142v362q0 78 -52 78q-28 0 -49 -18t-43 -56v-366h-142v362q0 78 -52 78q-28 0 -49 -18.5t-42 -55.5v-366h-142v530h123l11 -66q30 40 67.5 61t86.5 21q45 0 78 -22.5t48 -63.5q33 43 71.5 64.5t87.5 21.5q63 0 101.5 -43z" />
    <glyph glyph-name="n" unicode="n" horiz-adv-x="579" 
d="M475 503.5q39 -42.5 39 -117.5v-386h-142v362q0 43 -14.5 60.5t-43.5 17.5q-30 0 -54.5 -18.5t-47.5 -55.5v-366h-142v530h123l11 -67q33 41 72.5 62t89.5 21q70 0 109 -42.5z" />
    <glyph glyph-name="o" unicode="o" horiz-adv-x="584" 
d="M479 471.5q67 -74.5 67 -206.5q0 -84 -30.5 -147.5t-88 -98.5t-135.5 -35q-119 0 -186.5 74.5t-67.5 206.5q0 84 30.5 147.5t88 98.5t136.5 35q119 0 186 -74.5zM212.5 397.5q-26.5 -42.5 -26.5 -132.5t26.5 -132.5t79.5 -42.5t79.5 42.5t26.5 132.5t-26 132.5t-79 42.5
q-54 0 -80.5 -42.5z" />
    <glyph glyph-name="p" unicode="p" horiz-adv-x="596" 
d="M504.5 472.5q48.5 -73.5 48.5 -206.5q0 -81 -25 -145t-72.5 -100.5t-112.5 -36.5q-81 0 -131 57v-245l-142 -16v750h125l7 -62q30 39 70.5 58.5t83.5 19.5q100 0 148.5 -73.5zM405 265q0 96 -23 136t-70 40q-30 0 -55.5 -18.5t-44.5 -49.5v-231q34 -52 89 -52
q104 0 104 175z" />
    <glyph glyph-name="q" unicode="q" horiz-adv-x="599" 
d="M529 530v-750l-142 16v258q-55 -70 -143 -70q-98 0 -149.5 75.5t-51.5 205.5q0 82 26.5 145.5t75 99.5t113.5 36q81 0 140 -65l8 49h123zM341 105.5q24 15.5 46 48.5v237q-21 25 -42 37.5t-49 12.5q-49 0 -77 -43t-28 -133q0 -95 24.5 -135t70.5 -40q31 0 55 15.5z" />
    <glyph glyph-name="r" unicode="r" horiz-adv-x="397" 
d="M397 537l-24 -137q-28 7 -47 7q-47 0 -73 -33t-41 -100v-274h-142v530h123l13 -103q19 56 55.5 87t82.5 31q24 0 53 -8z" />
    <glyph glyph-name="s" unicode="s" horiz-adv-x="479" 
d="M438 482l-54 -81q-67 42 -132 42q-35 0 -54 -13t-19 -35q0 -16 8.5 -27t32 -21t70.5 -24q84 -23 125 -61.5t41 -105.5q0 -53 -30.5 -92t-82.5 -59.5t-116 -20.5q-67 0 -122 20.5t-94 56.5l70 78q67 -52 142 -52q40 0 63.5 15.5t23.5 42.5q0 21 -9 33t-33 22.5t-75 24.5
q-80 22 -118.5 62.5t-38.5 100.5q0 45 26 81t73.5 56.5t110.5 20.5q112 0 192 -64z" />
    <glyph glyph-name="t" unicode="t" horiz-adv-x="380" 
d="M387 25q-29 -20 -65.5 -30.5t-72.5 -10.5q-82 1 -124 47t-42 135v264h-79v100h79v116l142 17v-133h122l-14 -100h-108v-261q0 -38 13 -55t40 -17t60 18z" />
    <glyph glyph-name="u" unicode="u" horiz-adv-x="574" 
d="M504 0h-123l-7 71q-28 -44 -68 -65.5t-93 -21.5q-72 0 -110 43.5t-38 121.5v381h142v-363q0 -42 14 -59.5t44 -17.5q57 0 97 69v371h142v-530z" />
    <glyph glyph-name="v" unicode="v" horiz-adv-x="508" 
d="M510 530l-170 -530h-169l-173 530h154l105 -419l107 419h146z" />
    <glyph glyph-name="w" unicode="w" horiz-adv-x="741" 
d="M733 530l-113 -530h-173l-76 403l-76 -403h-171l-116 530h143l65 -425l88 425h142l79 -425l72 425h136z" />
    <glyph glyph-name="x" unicode="x" horiz-adv-x="505" 
d="M338 284l174 -284h-163l-101 205l-99 -205h-156l174 279l-156 251h160l83 -176l81 176h152z" />
    <glyph glyph-name="y" unicode="y" horiz-adv-x="512" 
d="M343 -1q-32 -101 -100.5 -156t-185.5 -63l-15 102q76 10 111.5 36t58.5 82h-49l-165 530h151l106 -438l112 438h147z" />
    <glyph glyph-name="z" unicode="z" horiz-adv-x="454" 
d="M428 530v-101l-249 -319h254l-14 -110h-403v102l249 319h-228v109h391z" />
    <glyph glyph-name="braceleft" unicode="{" horiz-adv-x="323" 
d="M293 738q-46 0 -63.5 -13.5t-17.5 -47.5v-199q0 -60 -23.5 -88t-73.5 -41q50 -12 74 -39.5t24 -87.5v-199q0 -34 17.5 -47.5t62.5 -13.5v-101q-83 0 -129.5 17.5t-65.5 52.5t-19 91v189q0 45 -14 62.5t-52 17.5v117q38 0 52 18t14 63v189q0 57 19 91.5t65.5 52
t129.5 17.5v-101z" />
    <glyph glyph-name="bar" unicode="|" horiz-adv-x="383" 
d="M257 809v-913h-131v913h131z" />
    <glyph glyph-name="braceright" unicode="}" horiz-adv-x="323" 
d="M160.5 821.5q46.5 -17.5 65 -52t18.5 -91.5v-189q0 -45 14 -63t52 -18v-117q-38 0 -52 -17.5t-14 -62.5v-189q0 -56 -18.5 -91t-65 -52.5t-129.5 -17.5v101q45 0 62.5 13.5t17.5 47.5v199q0 60 24 87.5t73 39.5q-50 13 -73.5 41t-23.5 88v199q0 34 -17.5 47.5t-62.5 13.5
v101q83 0 129.5 -17.5z" />
    <glyph glyph-name="asciitilde" unicode="~" horiz-adv-x="508" 
d="M277 245.5q-24 9.5 -52 27.5q-19 12 -31.5 18t-25.5 6q-23 0 -38 -13.5t-32 -38.5l-77 39q26 53 62.5 86.5t92.5 33.5q32 0 55.5 -10t50.5 -27q20 -12 33 -18t27 -6q22 0 37 12t32 36l76 -38q-25 -52 -61.5 -84.5t-91.5 -32.5q-33 0 -57 9.5z" />
    <glyph glyph-name="uni00A0" unicode="&#xa0;" horiz-adv-x="244" 
 />
    <glyph glyph-name="exclamdown" unicode="&#xa1;" horiz-adv-x="241" 
d="M181 480.5q25 -25.5 25 -60.5t-25 -60t-60 -25q-36 0 -61 25t-25 60t25 60.5t61 25.5q35 0 60 -25.5zM179 238l18 -446h-152l18 446h116z" />
    <glyph glyph-name="cent" unicode="&#xa2;" horiz-adv-x="478" 
d="M467 46q-58 -47 -125 -58v-147h-106v148q-93 17 -145.5 89t-52.5 183t53.5 186.5t145.5 93.5v149h105v-148q69 -11 125 -60l-62 -84q-26 20 -50.5 29t-53.5 9q-113 0 -113 -174q0 -88 29 -126t83 -38q28 0 51 8.5t54 28.5z" />
    <glyph glyph-name="sterling" unicode="&#xa3;" horiz-adv-x="535" 
d="M240 157.5q-13 -27.5 -50 -47.5h310l-16 -110h-453v104q36 11 54 26.5t23.5 37t5.5 58.5v88h-68v76h68v95q0 90 53.5 146t153.5 56q65 0 113 -23.5t85 -71.5l-88 -65q-21 28 -43.5 40t-53.5 12q-40 0 -60.5 -24.5t-20.5 -70.5v-94h191v-76h-191v-82q0 -47 -13 -74.5z" />
    <glyph glyph-name="currency" unicode="&#xa4;" 
d="M465 221l75 -74l-66 -67l-77 76q-52 -30 -118 -30q-65 0 -116 31l-78 -77l-65 67l77 76q-34 53 -34 118t33 118l-76 78l66 66l78 -78q51 31 115 31q66 0 119 -31l77 78l65 -66l-75 -76q34 -53 34 -120t-34 -120zM358.5 255.5q26.5 30.5 26.5 86.5q0 55 -26.5 85.5
t-77.5 30.5q-50 0 -76.5 -30.5t-26.5 -85.5q0 -56 26.5 -86.5t76.5 -30.5q51 0 77.5 30.5z" />
    <glyph glyph-name="yen" unicode="&#xa5;" horiz-adv-x="561" 
d="M565 674l-180 -323h101v-78h-134v-76h134v-77h-134v-120h-142v120h-134v77h134v76h-134v78h100l-180 323h152l136 -284l134 284h147z" />
    <glyph glyph-name="brokenbar" unicode="&#xa6;" horiz-adv-x="383" 
d="M257 809v-366h-131v366h131zM257 262v-366h-131v366h131z" />
    <glyph glyph-name="section" unicode="&#xa7;" horiz-adv-x="546" 
d="M453 135.5q13 -24.5 13 -60.5q0 -46 -27 -81t-75.5 -54.5t-112.5 -19.5q-110 0 -186 53l47 85q61 -38 133 -38q39 0 62 13t23 36q0 19 -8.5 31t-34 23.5t-78.5 28.5q-78 24 -115 57t-37 92q0 38 21.5 69t57.5 53q-28 21 -41 46.5t-13 60.5q0 70 57 113t151 43
q53 0 101 -14.5t86 -40.5l-48 -82q-64 37 -133 37q-38 0 -58 -13t-20 -37q0 -19 8.5 -30.5t33 -23.5t75.5 -28q79 -26 116.5 -59.5t37.5 -91.5q0 -38 -21 -69t-57 -54q29 -20 42 -44.5zM334 219q29 34 29 65q0 28 -20 44.5t-80 37.5l-54 19q-26 -30 -26 -64q0 -28 17 -44
t65 -32q30 -10 69 -26z" />
    <glyph glyph-name="dieresis" unicode="&#xa8;" horiz-adv-x="437" 
d="M157.5 770.5q21.5 -21.5 21.5 -52.5t-21.5 -52.5t-53.5 -21.5q-31 0 -53 21.5t-22 52.5t22 52.5t53 21.5q32 0 53.5 -21.5zM384 770.5q22 -21.5 22 -52.5t-22 -52.5t-54 -21.5q-31 0 -52.5 21.5t-21.5 52.5t21.5 52.5t52.5 21.5q32 0 54 -21.5z" />
    <glyph glyph-name="copyright" unicode="&#xa9;" horiz-adv-x="810" 
d="M573 720q76 -42 120 -117.5t44 -169.5t-44 -169.5t-120 -117.5t-167 -42t-167.5 42t-121 117.5t-44.5 169.5t44.5 169.5t121 117.5t167.5 42t167 -42zM278.5 656.5q-56.5 -32.5 -88.5 -90.5t-32 -133t32 -133t88.5 -90t127.5 -32t127 32t88 90t32 133t-32 133t-88.5 90.5
t-126.5 32.5q-71 0 -127.5 -32.5zM535 581l-45 -58q-18 14 -35 19.5t-37 5.5q-36 0 -57.5 -27.5t-21.5 -86.5q0 -58 20.5 -86t56.5 -28q24 0 43.5 7.5t38.5 22.5l41 -61q-56 -51 -130 -51q-80 0 -127 51t-47 145q0 60 22.5 104t62 67.5t88.5 23.5q73 0 127 -48z" />
    <glyph glyph-name="ordfeminine" unicode="&#xaa;" horiz-adv-x="500" 
d="M293 527v14q0 33 -16 45.5t-55 12.5q-48 0 -111 -21l-30 84q40 15 82 22.5t79 7.5q92 0 134.5 -35.5t42.5 -107.5v-149q0 -22 6.5 -32.5t22.5 -15.5l-26 -84q-39 3 -64 16t-40 40q-21 -30 -54.5 -44t-73.5 -14q-63 0 -101 35t-38 91q0 65 51.5 100t148.5 35h42zM293 389
v68h-29q-81 0 -81 -56q0 -21 12 -32t35 -11q40 0 63 31zM57 111h401v-111h-401v111z" />
    <glyph glyph-name="guillemotleft" unicode="&#xab;" horiz-adv-x="615" 
d="M227 551l87 -58l-131 -208l131 -208l-87 -58l-186 220v91zM487 551l87 -58l-131 -208l131 -208l-87 -58l-186 220v91z" />
    <glyph glyph-name="logicalnot" unicode="&#xac;" horiz-adv-x="524" 
d="M472 383v-263h-119v151h-301v112h420z" />
    <glyph glyph-name="uni00AD" unicode="&#xad;" horiz-adv-x="406" 
d="M48 257v112h310v-112h-310z" />
    <glyph glyph-name="registered" unicode="&#xae;" horiz-adv-x="638" 
d="M456.5 721.5q61.5 -35.5 97 -97.5t35.5 -138t-35.5 -137t-97 -96t-137.5 -35t-137.5 35t-96.5 96t-35 137t35.5 138t97 97.5t136.5 35.5q76 0 137.5 -35.5zM421.5 306.5q44.5 25.5 69.5 72t25 107.5t-25 108.5t-70 73.5t-102 26t-101.5 -26t-70 -73.5t-25.5 -108.5
q0 -60 25.5 -107t70 -72.5t101.5 -25.5q58 0 102.5 25.5zM415 500q-16 -20 -44 -30l74 -117h-78l-59 104h-22v-104h-68v281h83q65 0 97.5 -21.5t32.5 -65.5q0 -27 -16 -47zM286 511h29q46 0 46 38q0 34 -47 34h-28v-72z" />
    <glyph glyph-name="macron" unicode="&#xaf;" horiz-adv-x="358" 
d="M328 658h-298v100h298v-100z" />
    <glyph glyph-name="degree" unicode="&#xb0;" horiz-adv-x="521" 
d="M133.5 392.5q-40.5 20.5 -65.5 59t-25 89.5t25 89t65 58t85 20t85 -20t65 -58.5t25 -89.5t-25 -89t-65.5 -58.5t-84.5 -20.5t-84.5 20.5zM271.5 479.5q20.5 22.5 20.5 60.5q0 39 -20.5 61.5t-53.5 22.5t-53.5 -22t-20.5 -61t20.5 -61.5t53.5 -22.5t53.5 22.5z" />
    <glyph glyph-name="plusminus" unicode="&#xb1;" horiz-adv-x="524" 
d="M57 0v111h411v-111h-411zM322 603v-155h150v-111h-150v-154h-120v154h-149v111h149v155h120z" />
    <glyph glyph-name="uni00B2" unicode="&#xb2;" horiz-adv-x="400" 
d="M308.5 714.5q40.5 -35.5 40.5 -88.5q0 -32 -14.5 -61t-51 -66.5t-105.5 -94.5h180l-11 -83h-290v76q78 72 114.5 109.5t51 62t14.5 48.5t-14.5 37.5t-39.5 13.5q-23 0 -41.5 -10t-37.5 -32l-63 49q27 35 66 55t88 20q73 0 113.5 -35.5z" />
    <glyph glyph-name="uni00B3" unicode="&#xb3;" horiz-adv-x="400" 
d="M308.5 719.5q39.5 -30.5 39.5 -78.5q0 -36 -23.5 -61.5t-68.5 -36.5q49 -4 78 -29.5t29 -72.5q0 -56 -45.5 -93.5t-126.5 -37.5q-97 0 -154 65l60 57q39 -40 87 -40q30 0 48 14.5t18 41.5q0 29 -17.5 42t-52.5 13h-36l12 74h25q29 0 45 13t16 36q0 21 -15 32.5t-41 11.5
q-47 0 -85 -35l-55 57q64 58 152 58q71 0 110.5 -30.5z" />
    <glyph glyph-name="acute" unicode="&#xb4;" horiz-adv-x="330" 
d="M244 827l56 -109l-230 -92l-40 73z" />
    <glyph glyph-name="uni00B5" unicode="&#xb5;" horiz-adv-x="584" 
d="M401 -16q-10 21 -14 37.5t-10 51.5q-22 -38 -51 -60t-64 -22q-30 0 -52 10t-39 34q18 -35 26 -66t8 -78v-95l-135 -15v749h142v-366q0 -67 57 -67q58 0 96 72v361h142v-348q0 -104 24 -182z" />
    <glyph glyph-name="paragraph" unicode="&#xb6;" horiz-adv-x="775" 
d="M653 692v-896l-125 -17v812h-97v-795l-125 -17v489q-116 4 -175.5 61.5t-59.5 150.5q0 100 68.5 156t190.5 56h323z" />
    <glyph glyph-name="periodcentered" unicode="&#xb7;" horiz-adv-x="240" 
d="M180 369q25 -25 25 -60t-25 -60.5t-61 -25.5q-35 0 -60 25.5t-25 60.5t25 60t60 25q36 0 61 -25z" />
    <glyph glyph-name="cedilla" unicode="&#xb8;" horiz-adv-x="310" 
d="M179 -50q51 -5 76 -30.5t25 -65.5q0 -50 -39.5 -80.5t-103.5 -30.5q-33 0 -60.5 8t-46.5 21l33 68q31 -17 64 -17q48 0 48 32q0 19 -21.5 27.5t-70.5 8.5l16 125h80v-66z" />
    <glyph glyph-name="uni00B9" unicode="&#xb9;" horiz-adv-x="400" 
d="M293 741v-420h-106v317l-94 -56l-47 72l150 87h97z" />
    <glyph glyph-name="ordmasculine" unicode="&#xba;" horiz-adv-x="500" 
d="M403.5 636q55.5 -56 55.5 -157q0 -98 -56 -155.5t-153 -57.5q-98 0 -153.5 56t-55.5 158q0 97 56.5 154.5t153.5 57.5t152.5 -56zM193.5 569.5q-18.5 -28.5 -18.5 -89.5q0 -63 18.5 -91.5t56.5 -28.5q39 0 57 28.5t18 90.5q0 63 -18 91t-56 28q-39 0 -57.5 -28.5zM45 0
v111h411v-111h-411z" />
    <glyph glyph-name="guillemotright" unicode="&#xbb;" horiz-adv-x="611" 
d="M128 551l186 -221v-91l-186 -220l-87 58l130 208l-130 208zM384 551l186 -221v-91l-186 -220l-87 58l130 208l-130 208z" />
    <glyph glyph-name="onequarter" unicode="&#xbc;" horiz-adv-x="960" 
d="M293 692v-420h-106v317l-94 -56l-47 72l150 87h97zM643 757l84 -42l-410 -799l-84 42zM930 167v-80h-48v-87h-103v87h-190v72l123 270l91 -33l-103 -229h81l17 97h84v-97h48z" />
    <glyph glyph-name="onehalf" unicode="&#xbd;" horiz-adv-x="960" 
d="M293 692v-420h-106v317l-94 -56l-47 72l150 87h97zM643 757l84 -42l-410 -799l-84 42zM868.5 393.5q40.5 -35.5 40.5 -88.5q0 -32 -14.5 -61t-51 -66.5t-105.5 -94.5h180l-11 -83h-290v76q78 72 114.5 109.5t51 62t14.5 48.5t-14.5 37.5t-39.5 13.5q-23 0 -41.5 -10
t-37.5 -32l-63 49q27 35 66 55t88 20q73 0 113.5 -35.5z" />
    <glyph glyph-name="threequarters" unicode="&#xbe;" horiz-adv-x="960" 
d="M308.5 670.5q39.5 -30.5 39.5 -78.5q0 -36 -23.5 -61.5t-68.5 -36.5q49 -4 78 -29.5t29 -72.5q0 -56 -45.5 -93.5t-126.5 -37.5q-97 0 -154 65l60 57q39 -40 87 -40q30 0 48 14.5t18 41.5q0 29 -17.5 42t-52.5 13h-36l12 74h25q29 0 45 13t16 36q0 21 -15 32.5t-41 11.5
q-47 0 -85 -35l-55 57q64 58 152 58q71 0 110.5 -30.5zM643 757l84 -42l-410 -799l-84 42zM930 167v-80h-48v-87h-103v87h-190v72l123 270l91 -33l-103 -229h81l17 97h84v-97h48z" />
    <glyph glyph-name="questiondown" unicode="&#xbf;" horiz-adv-x="476" 
d="M201 360q-25 25 -25 60t25 60.5t61 25.5t60.5 -25t24.5 -61q0 -35 -24.5 -60t-60.5 -25t-61 25zM114 -198.5q-48 22.5 -72 60t-24 82.5q0 41 14 70t34.5 47t53.5 40q40 27 59 48.5t19 56.5v33h131v-38q0 -46 -14.5 -77.5t-34.5 -50t-52 -39.5t-46.5 -37t-14.5 -41
q0 -31 20.5 -47.5t56.5 -16.5q67 0 122 64l92 -72q-44 -51 -100 -78t-128 -27q-68 0 -116 22.5z" />
    <glyph glyph-name="Agrave" unicode="&#xc0;" horiz-adv-x="586" 
d="M439 0l-39 155h-217l-39 -155h-153l213 692h179l212 -692h-156zM211 264h161l-81 319zM208 945l216 -120l-36 -73l-234 85z" />
    <glyph glyph-name="Aacute" unicode="&#xc1;" horiz-adv-x="586" 
d="M439 0l-39 155h-217l-39 -155h-153l213 692h179l212 -692h-156zM211 264h161l-81 319zM375 945l54 -108l-234 -85l-36 73z" />
    <glyph glyph-name="Acircumflex" unicode="&#xc2;" horiz-adv-x="586" 
d="M439 0l-39 155h-217l-39 -155h-153l213 692h179l212 -692h-156zM211 264h161l-81 319zM163 756l-53 60l140 124h88l140 -124l-52 -60l-132 83z" />
    <glyph glyph-name="Atilde" unicode="&#xc3;" horiz-adv-x="586" 
d="M439 0l-39 155h-217l-39 -155h-153l213 692h179l212 -692h-156zM211 264h161l-81 319zM315.5 773q-15.5 7 -36.5 20q-13 10 -22.5 14.5t-19.5 4.5q-16 0 -28 -11t-25 -34l-73 36q20 49 52 80t72 31q23 0 39 -7.5t36 -20.5q13 -9 22 -13.5t19 -4.5q16 0 27.5 10.5
t25.5 33.5l73 -36q-20 -51 -52 -80.5t-73 -29.5q-21 0 -36.5 7z" />
    <glyph glyph-name="Adieresis" unicode="&#xc4;" horiz-adv-x="586" 
d="M439 0l-39 155h-217l-39 -155h-153l213 692h179l212 -692h-156zM211 264h161l-81 319zM232.5 896.5q21.5 -21.5 21.5 -52.5t-21.5 -52.5t-53.5 -21.5q-31 0 -53 21.5t-22 52.5t22 52.5t53 21.5q32 0 53.5 -21.5zM459 896.5q22 -21.5 22 -52.5t-22 -52.5t-54 -21.5
q-31 0 -52.5 21.5t-21.5 52.5t21.5 52.5t52.5 21.5q32 0 54 -21.5z" />
    <glyph glyph-name="Aring" unicode="&#xc5;" horiz-adv-x="586" 
d="M439 0l-39 155h-217l-39 -155h-153l213 692h179l212 -692h-156zM211 264h161l-81 319zM390 949.5q37 -36.5 37 -88.5q0 -53 -37 -89.5t-96 -36.5t-96 36.5t-37 89.5q0 52 37 88.5t96 36.5t96 -36.5zM260 898.5q-13 -13.5 -13 -37.5q0 -25 12.5 -38.5t34.5 -13.5
t34.5 13.5t12.5 38.5q0 24 -13 37.5t-34 13.5t-34 -13.5z" />
    <glyph glyph-name="AE" unicode="&#xc6;" horiz-adv-x="838" 
d="M570 108h230v-108h-352l-29 155h-229l-54 -155h-156l272 692h510l-16 -107h-279l39 -182h247v-106h-224zM227 264h171l-60 319z" />
    <glyph glyph-name="Ccedilla" unicode="&#xc7;" horiz-adv-x="571" 
d="M483.5 15q-45.5 -23 -101.5 -29v-36q51 -5 76 -30.5t25 -65.5q0 -50 -39.5 -80.5t-103.5 -30.5q-33 0 -60.5 8t-46.5 21l33 68q31 -17 64 -17q48 0 48 32q0 19 -21.5 27.5t-70.5 8.5l12 96q-121 17 -190.5 110t-69.5 250q0 113 40 194.5t110 124t158 42.5q65 0 113 -18.5
t94 -56.5l-73 -85q-60 49 -126 49q-74 0 -117.5 -60.5t-43.5 -189.5q0 -126 43.5 -186.5t118.5 -60.5q39 0 71 14.5t67 41.5l68 -85q-32 -33 -77.5 -56z" />
    <glyph glyph-name="Egrave" unicode="&#xc8;" horiz-adv-x="528" 
d="M486 692l-16 -107h-250v-180h218v-106h-218v-191h268v-108h-415v692h413zM196 945l216 -120l-36 -73l-234 85z" />
    <glyph glyph-name="Eacute" unicode="&#xc9;" horiz-adv-x="528" 
d="M486 692l-16 -107h-250v-180h218v-106h-218v-191h268v-108h-415v692h413zM363 945l54 -108l-234 -85l-36 73z" />
    <glyph glyph-name="Ecircumflex" unicode="&#xca;" horiz-adv-x="528" 
d="M486 692l-16 -107h-250v-180h218v-106h-218v-191h268v-108h-415v692h413zM151 756l-53 60l140 124h88l140 -124l-52 -60l-132 83z" />
    <glyph glyph-name="Edieresis" unicode="&#xcb;" horiz-adv-x="528" 
d="M486 692l-16 -107h-250v-180h218v-106h-218v-191h268v-108h-415v692h413zM220.5 896.5q21.5 -21.5 21.5 -52.5t-21.5 -52.5t-53.5 -21.5q-31 0 -53 21.5t-22 52.5t22 52.5t53 21.5q32 0 53.5 -21.5zM447 896.5q22 -21.5 22 -52.5t-22 -52.5t-54 -21.5q-31 0 -52.5 21.5
t-21.5 52.5t21.5 52.5t52.5 21.5q32 0 54 -21.5z" />
    <glyph glyph-name="Igrave" unicode="&#xcc;" horiz-adv-x="294" 
d="M220 692v-692h-147v692h147zM61 945l216 -120l-36 -73l-234 85z" />
    <glyph glyph-name="Iacute" unicode="&#xcd;" horiz-adv-x="294" 
d="M220 692v-692h-147v692h147zM228 945l54 -108l-234 -85l-36 73z" />
    <glyph glyph-name="Icircumflex" unicode="&#xce;" horiz-adv-x="294" 
d="M220 692v-692h-147v692h147zM16 756l-53 60l140 124h88l140 -124l-52 -60l-132 83z" />
    <glyph glyph-name="Idieresis" unicode="&#xcf;" horiz-adv-x="294" 
d="M220 692v-692h-147v692h147zM85.5 896.5q21.5 -21.5 21.5 -52.5t-21.5 -52.5t-53.5 -21.5q-31 0 -53 21.5t-22 52.5t22 52.5t53 21.5q32 0 53.5 -21.5zM312 896.5q22 -21.5 22 -52.5t-22 -52.5t-54 -21.5q-31 0 -52.5 21.5t-21.5 52.5t21.5 52.5t52.5 21.5q32 0 54 -21.5
z" />
    <glyph glyph-name="Eth" unicode="&#xd0;" horiz-adv-x="663" 
d="M526.5 618.5q97.5 -73.5 97.5 -269.5q0 -192 -95.5 -270.5t-244.5 -78.5h-198v307h-71v92h71v293h181q162 0 259.5 -73.5zM424.5 160.5q46.5 52.5 46.5 188.5q0 94 -23.5 146t-62.5 70.5t-95 18.5h-57v-185h141v-92h-141v-199h60q85 0 131.5 52.5z" />
    <glyph glyph-name="Ntilde" unicode="&#xd1;" horiz-adv-x="668" 
d="M595 0h-189l-220 549q9 -71 14.5 -133.5t5.5 -146.5v-269h-133v692h185l224 -550q-20 134 -20 246v304h133v-692zM361.5 773q-15.5 7 -36.5 20q-13 10 -22.5 14.5t-19.5 4.5q-16 0 -28 -11t-25 -34l-73 36q20 49 52 80t72 31q23 0 39 -7.5t36 -20.5q13 -9 22 -13.5
t19 -4.5q16 0 27.5 10.5t25.5 33.5l73 -36q-20 -51 -52 -80.5t-73 -29.5q-21 0 -36.5 7z" />
    <glyph glyph-name="Ograve" unicode="&#xd2;" horiz-adv-x="691" 
d="M510 665.5q69 -42.5 106 -123.5t37 -196q0 -113 -37 -194.5t-106 -124.5t-164 -43t-164.5 42.5t-106.5 124t-37 195.5q0 112 37.5 193.5t107 125t163.5 43.5q95 0 164 -42.5zM231.5 538q-38.5 -60 -38.5 -192t39 -192t114 -60q76 0 114 59.5t38 192.5t-38 192.5
t-114 59.5t-114.5 -60zM260 945l216 -120l-36 -73l-234 85z" />
    <glyph glyph-name="Oacute" unicode="&#xd3;" horiz-adv-x="691" 
d="M510 665.5q69 -42.5 106 -123.5t37 -196q0 -113 -37 -194.5t-106 -124.5t-164 -43t-164.5 42.5t-106.5 124t-37 195.5q0 112 37.5 193.5t107 125t163.5 43.5q95 0 164 -42.5zM231.5 538q-38.5 -60 -38.5 -192t39 -192t114 -60q76 0 114 59.5t38 192.5t-38 192.5
t-114 59.5t-114.5 -60zM427 945l54 -108l-234 -85l-36 73z" />
    <glyph glyph-name="Ocircumflex" unicode="&#xd4;" horiz-adv-x="691" 
d="M510 665.5q69 -42.5 106 -123.5t37 -196q0 -113 -37 -194.5t-106 -124.5t-164 -43t-164.5 42.5t-106.5 124t-37 195.5q0 112 37.5 193.5t107 125t163.5 43.5q95 0 164 -42.5zM231.5 538q-38.5 -60 -38.5 -192t39 -192t114 -60q76 0 114 59.5t38 192.5t-38 192.5
t-114 59.5t-114.5 -60zM215 756l-53 60l140 124h88l140 -124l-52 -60l-132 83z" />
    <glyph glyph-name="Otilde" unicode="&#xd5;" horiz-adv-x="691" 
d="M510 665.5q69 -42.5 106 -123.5t37 -196q0 -113 -37 -194.5t-106 -124.5t-164 -43t-164.5 42.5t-106.5 124t-37 195.5q0 112 37.5 193.5t107 125t163.5 43.5q95 0 164 -42.5zM231.5 538q-38.5 -60 -38.5 -192t39 -192t114 -60q76 0 114 59.5t38 192.5t-38 192.5
t-114 59.5t-114.5 -60zM367.5 773q-15.5 7 -36.5 20q-13 10 -22.5 14.5t-19.5 4.5q-16 0 -28 -11t-25 -34l-73 36q20 49 52 80t72 31q23 0 39 -7.5t36 -20.5q13 -9 22 -13.5t19 -4.5q16 0 27.5 10.5t25.5 33.5l73 -36q-20 -51 -52 -80.5t-73 -29.5q-21 0 -36.5 7z" />
    <glyph glyph-name="Odieresis" unicode="&#xd6;" horiz-adv-x="691" 
d="M510 665.5q69 -42.5 106 -123.5t37 -196q0 -113 -37 -194.5t-106 -124.5t-164 -43t-164.5 42.5t-106.5 124t-37 195.5q0 112 37.5 193.5t107 125t163.5 43.5q95 0 164 -42.5zM231.5 538q-38.5 -60 -38.5 -192t39 -192t114 -60q76 0 114 59.5t38 192.5t-38 192.5
t-114 59.5t-114.5 -60zM284.5 896.5q21.5 -21.5 21.5 -52.5t-21.5 -52.5t-53.5 -21.5q-31 0 -53 21.5t-22 52.5t22 52.5t53 21.5q32 0 53.5 -21.5zM511 896.5q22 -21.5 22 -52.5t-22 -52.5t-54 -21.5q-31 0 -52.5 21.5t-21.5 52.5t21.5 52.5t52.5 21.5q32 0 54 -21.5z" />
    <glyph glyph-name="multiply" unicode="&#xd7;" horiz-adv-x="514" 
d="M375 504l79 -80l-117 -115l117 -120l-79 -80l-116 122l-120 -122l-79 80l116 115l-116 120l79 80l116 -122z" />
    <glyph glyph-name="Oslash" unicode="&#xd8;" horiz-adv-x="691" 
d="M615.5 543.5q37.5 -81.5 37.5 -197.5q0 -113 -37 -194.5t-106 -124.5t-164 -43q-31 0 -54 4l-36 -121l-113 30l40 129q-70 42 -107.5 123.5t-37.5 196.5q0 112 37.5 193.5t107 125t163.5 43.5q30 0 53 -4l37 122l112 -30l-41 -129q71 -42 108.5 -123.5zM231.5 538
q-38.5 -60 -38.5 -192q0 -155 48 -212l139 462q-22 2 -34 2q-76 0 -114.5 -60zM460 153.5q38 59.5 38 192.5q0 159 -49 214l-139 -463q18 -3 36 -3q76 0 114 59.5z" />
    <glyph glyph-name="Ugrave" unicode="&#xd9;" horiz-adv-x="654" 
d="M590 228q0 -71 -30 -126t-89.5 -86.5t-144.5 -31.5q-128 0 -195.5 66.5t-67.5 177.5v464h147v-457q0 -70 28 -104.5t88 -34.5t88.5 34.5t28.5 104.5v457h147v-464zM241 945l216 -120l-36 -73l-234 85z" />
    <glyph glyph-name="Uacute" unicode="&#xda;" horiz-adv-x="654" 
d="M590 228q0 -71 -30 -126t-89.5 -86.5t-144.5 -31.5q-128 0 -195.5 66.5t-67.5 177.5v464h147v-457q0 -70 28 -104.5t88 -34.5t88.5 34.5t28.5 104.5v457h147v-464zM408 945l54 -108l-234 -85l-36 73z" />
    <glyph glyph-name="Ucircumflex" unicode="&#xdb;" horiz-adv-x="654" 
d="M590 228q0 -71 -30 -126t-89.5 -86.5t-144.5 -31.5q-128 0 -195.5 66.5t-67.5 177.5v464h147v-457q0 -70 28 -104.5t88 -34.5t88.5 34.5t28.5 104.5v457h147v-464zM196 756l-53 60l140 124h88l140 -124l-52 -60l-132 83z" />
    <glyph glyph-name="Udieresis" unicode="&#xdc;" horiz-adv-x="654" 
d="M590 228q0 -71 -30 -126t-89.5 -86.5t-144.5 -31.5q-128 0 -195.5 66.5t-67.5 177.5v464h147v-457q0 -70 28 -104.5t88 -34.5t88.5 34.5t28.5 104.5v457h147v-464zM265.5 896.5q21.5 -21.5 21.5 -52.5t-21.5 -52.5t-53.5 -21.5q-31 0 -53 21.5t-22 52.5t22 52.5t53 21.5
q32 0 53.5 -21.5zM492 896.5q22 -21.5 22 -52.5t-22 -52.5t-54 -21.5q-31 0 -52.5 21.5t-21.5 52.5t21.5 52.5t52.5 21.5q32 0 54 -21.5z" />
    <glyph glyph-name="Yacute" unicode="&#xdd;" horiz-adv-x="583" 
d="M587 692l-222 -431v-261h-147v260l-222 432h161l138 -314l137 314h155zM373 945l54 -108l-234 -85l-36 73z" />
    <glyph glyph-name="Thorn" unicode="&#xde;" horiz-adv-x="595" 
d="M496.5 524.5q74.5 -56.5 74.5 -168.5q0 -120 -74 -179.5t-198 -59.5h-79v-117h-147v692h147v-111h67q135 0 209.5 -56.5zM385.5 254.5q33.5 29.5 33.5 100.5q0 120 -134 120h-65v-250h67q65 0 98.5 29.5z" />
    <glyph glyph-name="germandbls" unicode="&#xdf;" horiz-adv-x="603" 
d="M404.5 737q45.5 -20 69.5 -54t24 -74q0 -38 -15.5 -62.5t-45.5 -51.5q-22 -20 -32 -33.5t-10 -31.5q0 -21 15 -36.5t49 -39.5q37 -26 61 -48t41.5 -57t17.5 -84q0 -55 -26 -96t-70.5 -63t-99.5 -22q-62 0 -114 26l42 97q21 -12 55 -12q31 0 49 18.5t18 53.5
q0 37 -19.5 61t-58.5 52q-42 31 -63.5 58t-21.5 71q0 36 13 57.5t37 44.5q21 20 32 37.5t11 44.5q0 29 -18.5 45.5t-49.5 16.5q-83 0 -83 -117v-538h-142v535q0 104 59 163t168 59q62 0 107.5 -20z" />
    <glyph glyph-name="agrave" unicode="&#xe0;" horiz-adv-x="547" 
d="M484 101.5q9 -14.5 30 -21.5l-30 -94q-47 4 -76.5 22t-45.5 56q-52 -80 -159 -80q-79 0 -125.5 45.5t-46.5 118.5q0 87 63 133t181 46h61v26q0 49 -22 68t-73 19q-56 0 -140 -28l-32 95q99 39 196 39q108 0 159 -46.5t51 -138.5v-214q0 -31 9 -45.5zM336 145v101h-47
q-115 0 -115 -86q0 -35 17.5 -54.5t50.5 -19.5q60 0 94 59zM201 827l213 -128l-40 -73l-230 92z" />
    <glyph glyph-name="aacute" unicode="&#xe1;" horiz-adv-x="547" 
d="M484 101.5q9 -14.5 30 -21.5l-30 -94q-47 4 -76.5 22t-45.5 56q-52 -80 -159 -80q-79 0 -125.5 45.5t-46.5 118.5q0 87 63 133t181 46h61v26q0 49 -22 68t-73 19q-56 0 -140 -28l-32 95q99 39 196 39q108 0 159 -46.5t51 -138.5v-214q0 -31 9 -45.5zM336 145v101h-47
q-115 0 -115 -86q0 -35 17.5 -54.5t50.5 -19.5q60 0 94 59zM343 827l56 -109l-230 -92l-40 73z" />
    <glyph glyph-name="acircumflex" unicode="&#xe2;" horiz-adv-x="547" 
d="M484 101.5q9 -14.5 30 -21.5l-30 -94q-47 4 -76.5 22t-45.5 56q-52 -80 -159 -80q-79 0 -125.5 45.5t-46.5 118.5q0 87 63 133t181 46h61v26q0 49 -22 68t-73 19q-56 0 -140 -28l-32 95q99 39 196 39q108 0 159 -46.5t51 -138.5v-214q0 -31 9 -45.5zM336 145v101h-47
q-115 0 -115 -86q0 -35 17.5 -54.5t50.5 -19.5q60 0 94 59zM137 624l-52 60l140 131h88l140 -131l-53 -60l-131 89z" />
    <glyph glyph-name="atilde" unicode="&#xe3;" horiz-adv-x="547" 
d="M484 101.5q9 -14.5 30 -21.5l-30 -94q-47 4 -76.5 22t-45.5 56q-52 -80 -159 -80q-79 0 -125.5 45.5t-46.5 118.5q0 87 63 133t181 46h61v26q0 49 -22 68t-73 19q-56 0 -140 -28l-32 95q99 39 196 39q108 0 159 -46.5t51 -138.5v-214q0 -31 9 -45.5zM336 145v101h-47
q-115 0 -115 -86q0 -35 17.5 -54.5t50.5 -19.5q60 0 94 59zM290.5 647q-15.5 7 -36.5 20q-13 10 -22.5 14.5t-19.5 4.5q-16 0 -28 -11t-25 -34l-73 36q20 49 52 80t72 31q23 0 39 -7.5t36 -20.5q13 -9 22 -13.5t19 -4.5q16 0 27.5 10.5t25.5 33.5l73 -36q-20 -51 -52 -80.5
t-73 -29.5q-21 0 -36.5 7z" />
    <glyph glyph-name="adieresis" unicode="&#xe4;" horiz-adv-x="547" 
d="M484 101.5q9 -14.5 30 -21.5l-30 -94q-47 4 -76.5 22t-45.5 56q-52 -80 -159 -80q-79 0 -125.5 45.5t-46.5 118.5q0 87 63 133t181 46h61v26q0 49 -22 68t-73 19q-56 0 -140 -28l-32 95q99 39 196 39q108 0 159 -46.5t51 -138.5v-214q0 -31 9 -45.5zM336 145v101h-47
q-115 0 -115 -86q0 -35 17.5 -54.5t50.5 -19.5q60 0 94 59zM208.5 770.5q21.5 -21.5 21.5 -52.5t-21.5 -52.5t-53.5 -21.5q-31 0 -53 21.5t-22 52.5t22 52.5t53 21.5q32 0 53.5 -21.5zM435 770.5q22 -21.5 22 -52.5t-22 -52.5t-54 -21.5q-31 0 -52.5 21.5t-21.5 52.5
t21.5 52.5t52.5 21.5q32 0 54 -21.5z" />
    <glyph glyph-name="aring" unicode="&#xe5;" horiz-adv-x="547" 
d="M484 101.5q9 -14.5 30 -21.5l-30 -94q-47 4 -76.5 22t-45.5 56q-52 -80 -159 -80q-79 0 -125.5 45.5t-46.5 118.5q0 87 63 133t181 46h61v26q0 49 -22 68t-73 19q-56 0 -140 -28l-32 95q99 39 196 39q108 0 159 -46.5t51 -138.5v-214q0 -31 9 -45.5zM336 145v101h-47
q-115 0 -115 -86q0 -35 17.5 -54.5t50.5 -19.5q60 0 94 59zM365 823.5q37 -36.5 37 -88.5q0 -53 -37 -89.5t-96 -36.5t-96 36.5t-37 89.5q0 52 37 88.5t96 36.5t96 -36.5zM235 772.5q-13 -13.5 -13 -37.5q0 -25 12.5 -38.5t34.5 -13.5t34.5 13.5t12.5 38.5q0 24 -13 37.5
t-34 13.5t-34 -13.5z" />
    <glyph glyph-name="ae" unicode="&#xe6;" horiz-adv-x="854" 
d="M818 222h-331q7 -72 39 -102t87 -30q34 0 64 11t65 35l59 -80q-89 -72 -201 -72q-68 0 -120 24t-85 68q-35 -50 -82 -71t-107 -21q-81 0 -128 45.5t-47 118.5q0 87 64.5 133t184.5 46h61v25q0 49 -21.5 68t-72.5 19q-58 0 -140 -28l-33 96q99 39 196 39q111 0 161 -70
q62 70 161 70q69 0 121 -32t80 -93t28 -144q0 -10 -3 -55zM681 317q-2 132 -96 132q-44 0 -68.5 -32.5t-29.5 -105.5h194v6zM306.5 104q25.5 18 48.5 54q-10 37 -12 82v3h-47q-58 0 -86.5 -20.5t-28.5 -64.5q0 -34 17.5 -53t50.5 -19q32 0 57.5 18z" />
    <glyph glyph-name="ccedilla" unicode="&#xe7;" horiz-adv-x="478" 
d="M320 -15v-35q51 -5 76 -30.5t25 -65.5q0 -50 -39.5 -80.5t-103.5 -30.5q-33 0 -60.5 8t-46.5 21l33 68q31 -17 64 -17q48 0 48 32q0 19 -21.5 27.5t-70.5 8.5l13 98q-94 17 -146.5 89t-52.5 183q0 84 31 148.5t88.5 100.5t133.5 36q53 0 95.5 -15.5t80.5 -48.5l-62 -84
q-26 20 -50.5 29t-53.5 9q-113 0 -113 -174q0 -88 29 -126t83 -38q28 0 51 8.5t54 28.5l62 -89q-67 -54 -147 -61z" />
    <glyph glyph-name="egrave" unicode="&#xe8;" horiz-adv-x="551" 
d="M515 222h-331q7 -72 39 -102t87 -30q34 0 64 11t65 35l59 -80q-89 -72 -201 -72q-125 0 -192 75t-67 203q0 81 28.5 145.5t83 101.5t129.5 37q113 0 176 -71t63 -198q0 -10 -3 -55zM377 317q0 132 -95 132q-44 0 -68.5 -32.5t-29.5 -105.5h193v6zM214 827l213 -128
l-40 -73l-230 92z" />
    <glyph glyph-name="eacute" unicode="&#xe9;" horiz-adv-x="551" 
d="M515 222h-331q7 -72 39 -102t87 -30q34 0 64 11t65 35l59 -80q-89 -72 -201 -72q-125 0 -192 75t-67 203q0 81 28.5 145.5t83 101.5t129.5 37q113 0 176 -71t63 -198q0 -10 -3 -55zM377 317q0 132 -95 132q-44 0 -68.5 -32.5t-29.5 -105.5h193v6zM356 827l56 -109
l-230 -92l-40 73z" />
    <glyph glyph-name="ecircumflex" unicode="&#xea;" horiz-adv-x="551" 
d="M515 222h-331q7 -72 39 -102t87 -30q34 0 64 11t65 35l59 -80q-89 -72 -201 -72q-125 0 -192 75t-67 203q0 81 28.5 145.5t83 101.5t129.5 37q113 0 176 -71t63 -198q0 -10 -3 -55zM377 317q0 132 -95 132q-44 0 -68.5 -32.5t-29.5 -105.5h193v6zM150 624l-52 60l140 131
h88l140 -131l-53 -60l-131 89z" />
    <glyph glyph-name="edieresis" unicode="&#xeb;" horiz-adv-x="551" 
d="M515 222h-331q7 -72 39 -102t87 -30q34 0 64 11t65 35l59 -80q-89 -72 -201 -72q-125 0 -192 75t-67 203q0 81 28.5 145.5t83 101.5t129.5 37q113 0 176 -71t63 -198q0 -10 -3 -55zM377 317q0 132 -95 132q-44 0 -68.5 -32.5t-29.5 -105.5h193v6zM221.5 770.5
q21.5 -21.5 21.5 -52.5t-21.5 -52.5t-53.5 -21.5q-31 0 -53 21.5t-22 52.5t22 52.5t53 21.5q32 0 53.5 -21.5zM448 770.5q22 -21.5 22 -52.5t-22 -52.5t-54 -21.5q-31 0 -52.5 21.5t-21.5 52.5t21.5 52.5t52.5 21.5q32 0 54 -21.5z" />
    <glyph glyph-name="igrave" unicode="&#xec;" horiz-adv-x="282" 
d="M212 530v-530h-142v530h142zM73 827l213 -128l-40 -73l-230 92z" />
    <glyph glyph-name="iacute" unicode="&#xed;" horiz-adv-x="282" 
d="M212 530v-530h-142v530h142zM215 827l56 -109l-230 -92l-40 73z" />
    <glyph glyph-name="icircumflex" unicode="&#xee;" horiz-adv-x="282" 
d="M212 530v-530h-142v530h142zM9 624l-52 60l140 131h88l140 -131l-53 -60l-131 89z" />
    <glyph glyph-name="idieresis" unicode="&#xef;" horiz-adv-x="282" 
d="M212 530v-530h-142v530h142zM80.5 770.5q21.5 -21.5 21.5 -52.5t-21.5 -52.5t-53.5 -21.5q-31 0 -53 21.5t-22 52.5t22 52.5t53 21.5q32 0 53.5 -21.5zM307 770.5q22 -21.5 22 -52.5t-22 -52.5t-54 -21.5q-31 0 -52.5 21.5t-21.5 52.5t21.5 52.5t52.5 21.5q32 0 54 -21.5
z" />
    <glyph glyph-name="eth" unicode="&#xf0;" horiz-adv-x="577" 
d="M492 503.5q41 -95.5 41 -229.5q0 -83 -30 -149t-87 -103.5t-134 -37.5q-69 0 -124.5 30t-87.5 86.5t-32 133.5q0 66 26 122t73 89t107 33q42 0 75 -13t61 -38q-13 50 -38 88.5t-68 72.5l-59 -59l-91 43l61 64q-41 14 -96 25l28 95q83 -15 146 -40l73 77l75 -65l-58 -60
q98 -69 139 -164.5zM362 131.5q27 42.5 27 126.5l-1 69q-42 50 -108 50q-97 0 -97 -140q0 -74 26.5 -111t73.5 -37q52 0 79 42.5z" />
    <glyph glyph-name="ntilde" unicode="&#xf1;" horiz-adv-x="579" 
d="M475 503.5q39 -42.5 39 -117.5v-386h-142v362q0 43 -14.5 60.5t-43.5 17.5q-30 0 -54.5 -18.5t-47.5 -55.5v-366h-142v530h123l11 -67q33 41 72.5 62t89.5 21q70 0 109 -42.5zM316.5 647q-15.5 7 -36.5 20q-13 10 -22.5 14.5t-19.5 4.5q-16 0 -28 -11t-25 -34l-73 36
q20 49 52 80t72 31q23 0 39 -7.5t36 -20.5q13 -9 22 -13.5t19 -4.5q16 0 27.5 10.5t25.5 33.5l73 -36q-20 -51 -52 -80.5t-73 -29.5q-21 0 -36.5 7z" />
    <glyph glyph-name="ograve" unicode="&#xf2;" horiz-adv-x="584" 
d="M479 471.5q67 -74.5 67 -206.5q0 -84 -30.5 -147.5t-88 -98.5t-135.5 -35q-119 0 -186.5 74.5t-67.5 206.5q0 84 30.5 147.5t88 98.5t136.5 35q119 0 186 -74.5zM212.5 397.5q-26.5 -42.5 -26.5 -132.5t26.5 -132.5t79.5 -42.5t79.5 42.5t26.5 132.5t-26 132.5t-79 42.5
q-54 0 -80.5 -42.5zM224 827l213 -128l-40 -73l-230 92z" />
    <glyph glyph-name="oacute" unicode="&#xf3;" horiz-adv-x="584" 
d="M479 471.5q67 -74.5 67 -206.5q0 -84 -30.5 -147.5t-88 -98.5t-135.5 -35q-119 0 -186.5 74.5t-67.5 206.5q0 84 30.5 147.5t88 98.5t136.5 35q119 0 186 -74.5zM212.5 397.5q-26.5 -42.5 -26.5 -132.5t26.5 -132.5t79.5 -42.5t79.5 42.5t26.5 132.5t-26 132.5t-79 42.5
q-54 0 -80.5 -42.5zM366 827l56 -109l-230 -92l-40 73z" />
    <glyph glyph-name="ocircumflex" unicode="&#xf4;" horiz-adv-x="584" 
d="M479 471.5q67 -74.5 67 -206.5q0 -84 -30.5 -147.5t-88 -98.5t-135.5 -35q-119 0 -186.5 74.5t-67.5 206.5q0 84 30.5 147.5t88 98.5t136.5 35q119 0 186 -74.5zM212.5 397.5q-26.5 -42.5 -26.5 -132.5t26.5 -132.5t79.5 -42.5t79.5 42.5t26.5 132.5t-26 132.5t-79 42.5
q-54 0 -80.5 -42.5zM160 624l-52 60l140 131h88l140 -131l-53 -60l-131 89z" />
    <glyph glyph-name="otilde" unicode="&#xf5;" horiz-adv-x="584" 
d="M479 471.5q67 -74.5 67 -206.5q0 -84 -30.5 -147.5t-88 -98.5t-135.5 -35q-119 0 -186.5 74.5t-67.5 206.5q0 84 30.5 147.5t88 98.5t136.5 35q119 0 186 -74.5zM212.5 397.5q-26.5 -42.5 -26.5 -132.5t26.5 -132.5t79.5 -42.5t79.5 42.5t26.5 132.5t-26 132.5t-79 42.5
q-54 0 -80.5 -42.5zM313.5 647q-15.5 7 -36.5 20q-13 10 -22.5 14.5t-19.5 4.5q-16 0 -28 -11t-25 -34l-73 36q20 49 52 80t72 31q23 0 39 -7.5t36 -20.5q13 -9 22 -13.5t19 -4.5q16 0 27.5 10.5t25.5 33.5l73 -36q-20 -51 -52 -80.5t-73 -29.5q-21 0 -36.5 7z" />
    <glyph glyph-name="odieresis" unicode="&#xf6;" horiz-adv-x="584" 
d="M479 471.5q67 -74.5 67 -206.5q0 -84 -30.5 -147.5t-88 -98.5t-135.5 -35q-119 0 -186.5 74.5t-67.5 206.5q0 84 30.5 147.5t88 98.5t136.5 35q119 0 186 -74.5zM212.5 397.5q-26.5 -42.5 -26.5 -132.5t26.5 -132.5t79.5 -42.5t79.5 42.5t26.5 132.5t-26 132.5t-79 42.5
q-54 0 -80.5 -42.5zM231.5 770.5q21.5 -21.5 21.5 -52.5t-21.5 -52.5t-53.5 -21.5q-31 0 -53 21.5t-22 52.5t22 52.5t53 21.5q32 0 53.5 -21.5zM458 770.5q22 -21.5 22 -52.5t-22 -52.5t-54 -21.5q-31 0 -52.5 21.5t-21.5 52.5t21.5 52.5t52.5 21.5q32 0 54 -21.5z" />
    <glyph glyph-name="divide" unicode="&#xf7;" horiz-adv-x="514" 
d="M318 155q25 -25 25 -60t-25 -60.5t-61 -25.5q-35 0 -60 25.5t-25 60.5t25 60t60 25q36 0 61 -25zM318 631q25 -25 25 -60t-25 -60.5t-61 -25.5q-35 0 -60 25.5t-25 60.5t25 60t60 25q36 0 61 -25zM52 277v111h411v-111h-411z" />
    <glyph glyph-name="oslash" unicode="&#xf8;" horiz-adv-x="584" 
d="M517 413.5q29 -62.5 29 -148.5q0 -84 -30.5 -147.5t-88 -98.5t-135.5 -35q-12 0 -38 2l-37 -120l-106 31l40 124q-54 33 -83.5 95.5t-29.5 148.5q0 84 30.5 147.5t88 98.5t136.5 35q13 0 37 -2l39 120l106 -31l-42 -124q55 -33 84 -95.5zM177 265q0 -105 30 -144l106 318
q-6 1 -20 1q-116 0 -116 -175zM378 133q29 43 29 132q0 106 -30 143l-105 -317q6 -1 20 -1q57 0 86 43z" />
    <glyph glyph-name="ugrave" unicode="&#xf9;" horiz-adv-x="574" 
d="M504 0h-123l-7 71q-28 -44 -68 -65.5t-93 -21.5q-72 0 -110 43.5t-38 121.5v381h142v-363q0 -42 14 -59.5t44 -17.5q57 0 97 69v371h142v-530zM217 827l213 -128l-40 -73l-230 92z" />
    <glyph glyph-name="uacute" unicode="&#xfa;" horiz-adv-x="574" 
d="M504 0h-123l-7 71q-28 -44 -68 -65.5t-93 -21.5q-72 0 -110 43.5t-38 121.5v381h142v-363q0 -42 14 -59.5t44 -17.5q57 0 97 69v371h142v-530zM359 827l56 -109l-230 -92l-40 73z" />
    <glyph glyph-name="ucircumflex" unicode="&#xfb;" horiz-adv-x="574" 
d="M504 0h-123l-7 71q-28 -44 -68 -65.5t-93 -21.5q-72 0 -110 43.5t-38 121.5v381h142v-363q0 -42 14 -59.5t44 -17.5q57 0 97 69v371h142v-530zM153 624l-52 60l140 131h88l140 -131l-53 -60l-131 89z" />
    <glyph glyph-name="udieresis" unicode="&#xfc;" horiz-adv-x="574" 
d="M504 0h-123l-7 71q-28 -44 -68 -65.5t-93 -21.5q-72 0 -110 43.5t-38 121.5v381h142v-363q0 -42 14 -59.5t44 -17.5q57 0 97 69v371h142v-530zM224.5 770.5q21.5 -21.5 21.5 -52.5t-21.5 -52.5t-53.5 -21.5q-31 0 -53 21.5t-22 52.5t22 52.5t53 21.5q32 0 53.5 -21.5z
M451 770.5q22 -21.5 22 -52.5t-22 -52.5t-54 -21.5q-31 0 -52.5 21.5t-21.5 52.5t21.5 52.5t52.5 21.5q32 0 54 -21.5z" />
    <glyph glyph-name="yacute" unicode="&#xfd;" horiz-adv-x="512" 
d="M343 -1q-32 -101 -100.5 -156t-185.5 -63l-15 102q76 10 111.5 36t58.5 82h-49l-165 530h151l106 -438l112 438h147zM330 827l56 -109l-230 -92l-40 73z" />
    <glyph glyph-name="thorn" unicode="&#xfe;" horiz-adv-x="596" 
d="M504.5 472.5q48.5 -73.5 48.5 -206.5q0 -81 -25 -145t-72.5 -100.5t-112.5 -36.5q-81 0 -131 57v-243l-142 -18v961l142 16v-280q29 36 66 52.5t76 16.5q102 0 150.5 -73.5zM405 265q0 96 -23.5 136t-71.5 40q-29 0 -54 -18.5t-44 -49.5v-231q34 -52 89 -52
q104 0 104 175z" />
    <glyph glyph-name="ydieresis" unicode="&#xff;" horiz-adv-x="512" 
d="M343 -1q-32 -101 -100.5 -156t-185.5 -63l-15 102q76 10 111.5 36t58.5 82h-49l-165 530h151l106 -438l112 438h147zM195.5 770.5q21.5 -21.5 21.5 -52.5t-21.5 -52.5t-53.5 -21.5q-31 0 -53 21.5t-22 52.5t22 52.5t53 21.5q32 0 53.5 -21.5zM422 770.5
q22 -21.5 22 -52.5t-22 -52.5t-54 -21.5q-31 0 -52.5 21.5t-21.5 52.5t21.5 52.5t52.5 21.5q32 0 54 -21.5z" />
    <glyph glyph-name="Amacron" unicode="&#x100;" horiz-adv-x="586" 
d="M439 0l-39 155h-217l-39 -155h-153l213 692h179l212 -692h-156zM211 264h161l-81 319zM443 784h-298v100h298v-100z" />
    <glyph glyph-name="amacron" unicode="&#x101;" horiz-adv-x="547" 
d="M484 101.5q9 -14.5 30 -21.5l-30 -94q-47 4 -76.5 22t-45.5 56q-52 -80 -159 -80q-79 0 -125.5 45.5t-46.5 118.5q0 87 63 133t181 46h61v26q0 49 -22 68t-73 19q-56 0 -140 -28l-32 95q99 39 196 39q108 0 159 -46.5t51 -138.5v-214q0 -31 9 -45.5zM336 145v101h-47
q-115 0 -115 -86q0 -35 17.5 -54.5t50.5 -19.5q60 0 94 59zM418 658h-298v100h298v-100z" />
    <glyph glyph-name="Abreve" unicode="&#x102;" horiz-adv-x="586" 
d="M439 0l-39 155h-217l-39 -155h-153l213 692h179l212 -692h-156zM211 264h161l-81 319zM177 796q-45 44 -51 109l81 15q10 -31 31 -49t55 -18q33 0 55 18t32 49l81 -15q-6 -65 -51.5 -109t-116.5 -44t-116 44z" />
    <glyph glyph-name="abreve" unicode="&#x103;" horiz-adv-x="547" 
d="M484 101.5q9 -14.5 30 -21.5l-30 -94q-47 4 -76.5 22t-45.5 56q-52 -80 -159 -80q-79 0 -125.5 45.5t-46.5 118.5q0 87 63 133t181 46h61v26q0 49 -22 68t-73 19q-56 0 -140 -28l-32 95q99 39 196 39q108 0 159 -46.5t51 -138.5v-214q0 -31 9 -45.5zM336 145v101h-47
q-115 0 -115 -86q0 -35 17.5 -54.5t50.5 -19.5q60 0 94 59zM151.5 680.5q-44.5 45.5 -50.5 117.5l81 15q19 -78 86 -78q66 0 87 78l81 -15q-6 -72 -51 -117.5t-117 -45.5t-116.5 45.5z" />
    <glyph glyph-name="Aogonek" unicode="&#x104;" horiz-adv-x="586" 
d="M402 -105q0 -46 54 -46q29 0 61 7l-10 -91q-37 -7 -68 -7q-63 0 -102.5 30.5t-39.5 81.5q0 52 34.5 90t101.5 64l-33 131h-217l-39 -155h-153l213 692h179l212 -692h-73q-120 -46 -120 -105zM211 264h161l-81 319z" />
    <glyph glyph-name="aogonek" unicode="&#x105;" horiz-adv-x="547" 
d="M364 -119q0 -46 54 -46q29 0 61 7l-10 -91q-37 -7 -68 -7q-63 0 -102.5 30.5t-39.5 81.5q0 54 36 91.5t106 64.5q-24 18 -39 52q-52 -80 -159 -80q-79 0 -125.5 45.5t-46.5 118.5q0 87 63 133t181 46h61v26q0 49 -22 68t-73 19q-56 0 -140 -28l-32 95q99 39 196 39
q108 0 159 -46.5t51 -138.5v-214q0 -31 9 -45.5t30 -21.5l-30 -94q-120 -46 -120 -105zM336 145v101h-47q-115 0 -115 -86q0 -35 17.5 -54.5t50.5 -19.5q60 0 94 59z" />
    <glyph glyph-name="Cacute" unicode="&#x106;" horiz-adv-x="571" 
d="M459 689.5q48 -18.5 94 -56.5l-73 -85q-60 49 -126 49q-74 0 -117.5 -60.5t-43.5 -189.5q0 -126 43.5 -186.5t118.5 -60.5q39 0 71 14.5t67 41.5l68 -85q-37 -38 -91.5 -62.5t-120.5 -24.5q-93 0 -163 42t-109 123.5t-39 197.5q0 113 40 194.5t110 124t158 42.5
q65 0 113 -18.5zM433 945l54 -108l-234 -85l-36 73z" />
    <glyph glyph-name="cacute" unicode="&#x107;" horiz-adv-x="478" 
d="M386.5 530.5q42.5 -15.5 80.5 -48.5l-62 -84q-26 20 -50.5 29t-53.5 9q-113 0 -113 -174q0 -88 29 -126t83 -38q28 0 51 8.5t54 28.5l62 -89q-76 -62 -174 -62q-78 0 -135.5 34t-88.5 96.5t-31 146.5t31 148.5t88.5 100.5t133.5 36q53 0 95.5 -15.5zM364 827l56 -109
l-230 -92l-40 73z" />
    <glyph glyph-name="Ccircumflex" unicode="&#x108;" horiz-adv-x="571" 
d="M459 689.5q48 -18.5 94 -56.5l-73 -85q-60 49 -126 49q-74 0 -117.5 -60.5t-43.5 -189.5q0 -126 43.5 -186.5t118.5 -60.5q39 0 71 14.5t67 41.5l68 -85q-37 -38 -91.5 -62.5t-120.5 -24.5q-93 0 -163 42t-109 123.5t-39 197.5q0 113 40 194.5t110 124t158 42.5
q65 0 113 -18.5zM221 756l-53 60l140 124h88l140 -124l-52 -60l-132 83z" />
    <glyph glyph-name="ccircumflex" unicode="&#x109;" horiz-adv-x="478" 
d="M386.5 530.5q42.5 -15.5 80.5 -48.5l-62 -84q-26 20 -50.5 29t-53.5 9q-113 0 -113 -174q0 -88 29 -126t83 -38q28 0 51 8.5t54 28.5l62 -89q-76 -62 -174 -62q-78 0 -135.5 34t-88.5 96.5t-31 146.5t31 148.5t88.5 100.5t133.5 36q53 0 95.5 -15.5zM158 624l-52 60
l140 131h88l140 -131l-53 -60l-131 89z" />
    <glyph glyph-name="Cdotaccent" unicode="&#x10a;" horiz-adv-x="571" 
d="M459 689.5q48 -18.5 94 -56.5l-73 -85q-60 49 -126 49q-74 0 -117.5 -60.5t-43.5 -189.5q0 -126 43.5 -186.5t118.5 -60.5q39 0 71 14.5t67 41.5l68 -85q-37 -38 -91.5 -62.5t-120.5 -24.5q-93 0 -163 42t-109 123.5t-39 197.5q0 113 40 194.5t110 124t158 42.5
q65 0 113 -18.5zM413.5 905.5q24.5 -23.5 24.5 -59.5t-24.5 -59.5t-62.5 -23.5t-62 23.5t-24 59.5t24 59.5t62 23.5t62.5 -23.5z" />
    <glyph glyph-name="cdotaccent" unicode="&#x10b;" horiz-adv-x="478" 
d="M386.5 530.5q42.5 -15.5 80.5 -48.5l-62 -84q-26 20 -50.5 29t-53.5 9q-113 0 -113 -174q0 -88 29 -126t83 -38q28 0 51 8.5t54 28.5l62 -89q-76 -62 -174 -62q-78 0 -135.5 34t-88.5 96.5t-31 146.5t31 148.5t88.5 100.5t133.5 36q53 0 95.5 -15.5zM351.5 779.5
q24.5 -23.5 24.5 -59.5t-24.5 -59.5t-62.5 -23.5t-62 23.5t-24 59.5t24 59.5t62 23.5t62.5 -23.5z" />
    <glyph glyph-name="Ccaron" unicode="&#x10c;" horiz-adv-x="571" 
d="M459 689.5q48 -18.5 94 -56.5l-73 -85q-60 49 -126 49q-74 0 -117.5 -60.5t-43.5 -189.5q0 -126 43.5 -186.5t118.5 -60.5q39 0 71 14.5t67 41.5l68 -85q-37 -38 -91.5 -62.5t-120.5 -24.5q-93 0 -163 42t-109 123.5t-39 197.5q0 113 40 194.5t110 124t158 42.5
q65 0 113 -18.5zM484 935l52 -60l-140 -124h-88l-140 124l53 60l131 -83z" />
    <glyph glyph-name="ccaron" unicode="&#x10d;" horiz-adv-x="478" 
d="M386.5 530.5q42.5 -15.5 80.5 -48.5l-62 -84q-26 20 -50.5 29t-53.5 9q-113 0 -113 -174q0 -88 29 -126t83 -38q28 0 51 8.5t54 28.5l62 -89q-76 -62 -174 -62q-78 0 -135.5 34t-88.5 96.5t-31 146.5t31 148.5t88.5 100.5t133.5 36q53 0 95.5 -15.5zM422 806l52 -60
l-140 -131h-88l-140 131l53 60l131 -89z" />
    <glyph glyph-name="Dcaron" unicode="&#x10e;" horiz-adv-x="650" 
d="M513.5 618.5q97.5 -73.5 97.5 -269.5q0 -192 -95.5 -270.5t-244.5 -78.5h-198v692h181q162 0 259.5 -73.5zM220 584v-476h60q85 0 131.5 52.5t46.5 188.5q0 94 -23.5 146t-62.5 70.5t-95 18.5h-57zM429 935l52 -60l-140 -124h-88l-140 124l53 60l131 -83z" />
    <glyph glyph-name="dcaron" unicode="&#x10f;" horiz-adv-x="665" 
d="M529 741v-741h-125l-8 65q-56 -81 -152 -81q-98 0 -149.5 75.5t-51.5 205.5q0 82 26.5 145.5t75.5 99.5t113 36q74 0 129 -53v264zM341 105.5q24 15.5 46 48.5v237q-21 25 -42.5 37.5t-49.5 12.5q-49 0 -76.5 -43t-27.5 -133q0 -95 24.5 -135t70.5 -40q31 0 55 15.5z
M647 533l54 208l-110 15l-22 -211z" />
    <glyph glyph-name="Dcroat" unicode="&#x110;" horiz-adv-x="663" 
d="M526.5 618.5q97.5 -73.5 97.5 -269.5q0 -192 -95.5 -270.5t-244.5 -78.5h-198v307h-71v92h71v293h181q162 0 259.5 -73.5zM424.5 160.5q46.5 52.5 46.5 188.5q0 94 -23.5 146t-62.5 70.5t-95 18.5h-57v-185h141v-92h-141v-199h60q85 0 131.5 52.5z" />
    <glyph glyph-name="dcroat" unicode="&#x111;" horiz-adv-x="607" 
d="M596 685v-87h-67v-598h-125l-8 65q-56 -81 -152 -81q-98 0 -149.5 75.5t-51.5 205.5q0 82 26.5 145.5t75.5 99.5t113 36q74 0 129 -53v105h-142v87h142v72l142 -16v-56h67zM341 105.5q24 15.5 46 48.5v237q-21 25 -42.5 37.5t-49.5 12.5q-49 0 -76.5 -43t-27.5 -133
q0 -95 24.5 -135t70.5 -40q31 0 55 15.5z" />
    <glyph glyph-name="Emacron" unicode="&#x112;" horiz-adv-x="528" 
d="M486 692l-16 -107h-250v-180h218v-106h-218v-191h268v-108h-415v692h413zM431 784h-298v100h298v-100z" />
    <glyph glyph-name="emacron" unicode="&#x113;" horiz-adv-x="551" 
d="M515 222h-331q7 -72 39 -102t87 -30q34 0 64 11t65 35l59 -80q-89 -72 -201 -72q-125 0 -192 75t-67 203q0 81 28.5 145.5t83 101.5t129.5 37q113 0 176 -71t63 -198q0 -10 -3 -55zM377 317q0 132 -95 132q-44 0 -68.5 -32.5t-29.5 -105.5h193v6zM431 658h-298v100h298
v-100z" />
    <glyph glyph-name="Ebreve" unicode="&#x114;" horiz-adv-x="528" 
d="M486 692l-16 -107h-250v-180h218v-106h-218v-191h268v-108h-415v692h413zM165 796q-45 44 -51 109l81 15q10 -31 31 -49t55 -18q33 0 55 18t32 49l81 -15q-6 -65 -51.5 -109t-116.5 -44t-116 44z" />
    <glyph glyph-name="ebreve" unicode="&#x115;" horiz-adv-x="551" 
d="M515 222h-331q7 -72 39 -102t87 -30q34 0 64 11t65 35l59 -80q-89 -72 -201 -72q-125 0 -192 75t-67 203q0 81 28.5 145.5t83 101.5t129.5 37q113 0 176 -71t63 -198q0 -10 -3 -55zM377 317q0 132 -95 132q-44 0 -68.5 -32.5t-29.5 -105.5h193v6zM164.5 680.5
q-44.5 45.5 -50.5 117.5l81 15q19 -78 86 -78q66 0 87 78l81 -15q-6 -72 -51 -117.5t-117 -45.5t-116.5 45.5z" />
    <glyph glyph-name="Edotaccent" unicode="&#x116;" horiz-adv-x="528" 
d="M486 692l-16 -107h-250v-180h218v-106h-218v-191h268v-108h-415v692h413zM343.5 905.5q24.5 -23.5 24.5 -59.5t-24.5 -59.5t-62.5 -23.5t-62 23.5t-24 59.5t24 59.5t62 23.5t62.5 -23.5z" />
    <glyph glyph-name="edotaccent" unicode="&#x117;" horiz-adv-x="551" 
d="M515 222h-331q7 -72 39 -102t87 -30q34 0 64 11t65 35l59 -80q-89 -72 -201 -72q-125 0 -192 75t-67 203q0 81 28.5 145.5t83 101.5t129.5 37q113 0 176 -71t63 -198q0 -10 -3 -55zM377 317q0 132 -95 132q-44 0 -68.5 -32.5t-29.5 -105.5h193v6zM343.5 779.5
q24.5 -23.5 24.5 -59.5t-24.5 -59.5t-62.5 -23.5t-62 23.5t-24 59.5t24 59.5t62 23.5t62.5 -23.5z" />
    <glyph glyph-name="Eogonek" unicode="&#x118;" horiz-adv-x="528" 
d="M488 108v-108h-40q-120 -46 -120 -105q0 -46 54 -46q29 0 61 7l-10 -91q-37 -7 -68 -7q-63 0 -102.5 30.5t-39.5 81.5q0 80 86 130h-236v692h413l-16 -107h-250v-180h218v-106h-218v-191h268z" />
    <glyph glyph-name="eogonek" unicode="&#x119;" horiz-adv-x="551" 
d="M515 222h-331q7 -72 39 -102t87 -30q34 0 64 11t65 35l59 -80q-51 -41 -108 -58q-94 -43 -94 -95q0 -46 53 -46q29 0 61 7l-10 -91q-37 -7 -68 -7q-63 0 -102.5 30.5t-39.5 81.5q0 67 72 108q-108 10 -166 84t-58 192q0 81 28.5 145.5t83 101.5t129.5 37q113 0 176 -71
t63 -198q0 -10 -3 -55zM377 317q0 132 -95 132q-44 0 -68.5 -32.5t-29.5 -105.5h193v6z" />
    <glyph glyph-name="Ecaron" unicode="&#x11a;" horiz-adv-x="528" 
d="M486 692l-16 -107h-250v-180h218v-106h-218v-191h268v-108h-415v692h413zM414 935l52 -60l-140 -124h-88l-140 124l53 60l131 -83z" />
    <glyph glyph-name="ecaron" unicode="&#x11b;" horiz-adv-x="551" 
d="M515 222h-331q7 -72 39 -102t87 -30q34 0 64 11t65 35l59 -80q-89 -72 -201 -72q-125 0 -192 75t-67 203q0 81 28.5 145.5t83 101.5t129.5 37q113 0 176 -71t63 -198q0 -10 -3 -55zM377 317q0 132 -95 132q-44 0 -68.5 -32.5t-29.5 -105.5h193v6zM414 806l52 -60
l-140 -131h-88l-140 131l53 60l131 -89z" />
    <glyph glyph-name="Gcircumflex" unicode="&#x11c;" horiz-adv-x="641" 
d="M486.5 686.5q54.5 -21.5 101.5 -61.5l-77 -80q-37 28 -69.5 41t-73.5 13q-79 0 -127.5 -62.5t-48.5 -190.5q0 -135 37.5 -193.5t116.5 -58.5q57 0 103 25v169h-97l-15 107h255v-341q-54 -33 -116.5 -51.5t-126.5 -18.5q-153 0 -232 92t-79 271q0 113 43 195t116.5 124
t164.5 42q70 0 124.5 -21.5zM222 756l-53 60l140 124h88l140 -124l-52 -60l-132 83z" />
    <glyph glyph-name="gcircumflex" unicode="&#x11d;" horiz-adv-x="544" 
d="M544 501q-52 -20 -153 -20q50 -22 74 -54.5t24 -81.5q0 -51 -26.5 -91.5t-76 -63.5t-115.5 -23q-35 0 -62 7q-20 -13 -20 -35q0 -16 12.5 -25.5t48.5 -9.5h81q59 0 103.5 -19.5t69 -54t24.5 -78.5q0 -81 -69.5 -126.5t-200.5 -45.5q-94 0 -148.5 19.5t-76.5 56.5t-22 93
h127q0 -26 10 -41.5t36.5 -23t76.5 -7.5q69 0 96.5 17t27.5 48q0 28 -21 43t-62 15h-78q-79 0 -118 29.5t-39 74.5q0 28 16.5 54.5t45.5 44.5q-49 27 -71.5 63.5t-22.5 87.5q0 58 28.5 101.5t80 67t117.5 23.5q82 -2 135 14t113 50zM200.5 425.5q-23.5 -25.5 -23.5 -69.5
q0 -45 23.5 -71t64.5 -26q43 0 65 25t22 74q0 93 -88 93q-40 0 -63.5 -25.5zM140 624l-52 60l140 131h88l140 -131l-53 -60l-131 89z" />
    <glyph glyph-name="Gbreve" unicode="&#x11e;" horiz-adv-x="641" 
d="M486.5 686.5q54.5 -21.5 101.5 -61.5l-77 -80q-37 28 -69.5 41t-73.5 13q-79 0 -127.5 -62.5t-48.5 -190.5q0 -135 37.5 -193.5t116.5 -58.5q57 0 103 25v169h-97l-15 107h255v-341q-54 -33 -116.5 -51.5t-126.5 -18.5q-153 0 -232 92t-79 271q0 113 43 195t116.5 124
t164.5 42q70 0 124.5 -21.5zM236 796q-45 44 -51 109l81 15q10 -31 31 -49t55 -18q33 0 55 18t32 49l81 -15q-6 -65 -51.5 -109t-116.5 -44t-116 44z" />
    <glyph glyph-name="gbreve" unicode="&#x11f;" horiz-adv-x="544" 
d="M544 501q-52 -20 -153 -20q50 -22 74 -54.5t24 -81.5q0 -51 -26.5 -91.5t-76 -63.5t-115.5 -23q-35 0 -62 7q-20 -13 -20 -35q0 -16 12.5 -25.5t48.5 -9.5h81q59 0 103.5 -19.5t69 -54t24.5 -78.5q0 -81 -69.5 -126.5t-200.5 -45.5q-94 0 -148.5 19.5t-76.5 56.5t-22 93
h127q0 -26 10 -41.5t36.5 -23t76.5 -7.5q69 0 96.5 17t27.5 48q0 28 -21 43t-62 15h-78q-79 0 -118 29.5t-39 74.5q0 28 16.5 54.5t45.5 44.5q-49 27 -71.5 63.5t-22.5 87.5q0 58 28.5 101.5t80 67t117.5 23.5q82 -2 135 14t113 50zM200.5 425.5q-23.5 -25.5 -23.5 -69.5
q0 -45 23.5 -71t64.5 -26q43 0 65 25t22 74q0 93 -88 93q-40 0 -63.5 -25.5zM154.5 680.5q-44.5 45.5 -50.5 117.5l81 15q19 -78 86 -78q66 0 87 78l81 -15q-6 -72 -51 -117.5t-117 -45.5t-116.5 45.5z" />
    <glyph glyph-name="Gdotaccent" unicode="&#x120;" horiz-adv-x="641" 
d="M486.5 686.5q54.5 -21.5 101.5 -61.5l-77 -80q-37 28 -69.5 41t-73.5 13q-79 0 -127.5 -62.5t-48.5 -190.5q0 -135 37.5 -193.5t116.5 -58.5q57 0 103 25v169h-97l-15 107h255v-341q-54 -33 -116.5 -51.5t-126.5 -18.5q-153 0 -232 92t-79 271q0 113 43 195t116.5 124
t164.5 42q70 0 124.5 -21.5zM414.5 905.5q24.5 -23.5 24.5 -59.5t-24.5 -59.5t-62.5 -23.5t-62 23.5t-24 59.5t24 59.5t62 23.5t62.5 -23.5z" />
    <glyph glyph-name="gdotaccent" unicode="&#x121;" horiz-adv-x="544" 
d="M544 501q-52 -20 -153 -20q50 -22 74 -54.5t24 -81.5q0 -51 -26.5 -91.5t-76 -63.5t-115.5 -23q-35 0 -62 7q-20 -13 -20 -35q0 -16 12.5 -25.5t48.5 -9.5h81q59 0 103.5 -19.5t69 -54t24.5 -78.5q0 -81 -69.5 -126.5t-200.5 -45.5q-94 0 -148.5 19.5t-76.5 56.5t-22 93
h127q0 -26 10 -41.5t36.5 -23t76.5 -7.5q69 0 96.5 17t27.5 48q0 28 -21 43t-62 15h-78q-79 0 -118 29.5t-39 74.5q0 28 16.5 54.5t45.5 44.5q-49 27 -71.5 63.5t-22.5 87.5q0 58 28.5 101.5t80 67t117.5 23.5q82 -2 135 14t113 50zM200.5 425.5q-23.5 -25.5 -23.5 -69.5
q0 -45 23.5 -71t64.5 -26q43 0 65 25t22 74q0 93 -88 93q-40 0 -63.5 -25.5zM333.5 779.5q24.5 -23.5 24.5 -59.5t-24.5 -59.5t-62.5 -23.5t-62 23.5t-24 59.5t24 59.5t62 23.5t62.5 -23.5z" />
    <glyph glyph-name="Gcommaaccent" unicode="&#x122;" horiz-adv-x="641" 
d="M486.5 686.5q54.5 -21.5 101.5 -61.5l-77 -80q-37 28 -69.5 41t-73.5 13q-79 0 -127.5 -62.5t-48.5 -190.5q0 -135 37.5 -193.5t116.5 -58.5q57 0 103 25v169h-97l-15 107h255v-341q-54 -33 -116.5 -51.5t-126.5 -18.5q-153 0 -232 92t-79 271q0 113 43 195t116.5 124
t164.5 42q70 0 124.5 -21.5zM400 -90.5q21 -20.5 21 -51.5q0 -17 -5.5 -34.5t-20.5 -48.5l-46 -93h-72l27 115q-30 25 -30 61q0 30 21 51t53 21q31 0 52 -20.5z" />
    <glyph glyph-name="gcommaaccent" unicode="&#x123;" horiz-adv-x="544" 
d="M544 501q-52 -20 -153 -20q50 -22 74 -54.5t24 -81.5q0 -51 -26.5 -91.5t-76 -63.5t-115.5 -23q-35 0 -62 7q-20 -13 -20 -35q0 -16 12.5 -25.5t48.5 -9.5h81q59 0 103.5 -19.5t69 -54t24.5 -78.5q0 -81 -69.5 -126.5t-200.5 -45.5q-94 0 -148.5 19.5t-76.5 56.5t-22 93
h127q0 -26 10 -41.5t36.5 -23t76.5 -7.5q69 0 96.5 17t27.5 48q0 28 -21 43t-62 15h-78q-79 0 -118 29.5t-39 74.5q0 28 16.5 54.5t45.5 44.5q-49 27 -71.5 63.5t-22.5 87.5q0 58 28.5 101.5t80 67t117.5 23.5q82 -2 135 14t113 50zM200.5 425.5q-23.5 -25.5 -23.5 -69.5
q0 -45 23.5 -71t64.5 -26q43 0 65 25t22 74q0 93 -88 93q-40 0 -63.5 -25.5zM217 598.5q-21 20.5 -21 51.5q0 17 5.5 34.5t20.5 48.5l46 93h72l-27 -115q30 -25 30 -61q0 -30 -21 -51t-53 -21q-31 0 -52 20.5z" />
    <glyph glyph-name="Hcircumflex" unicode="&#x124;" horiz-adv-x="669" 
d="M449 0v303h-229v-303h-147v692h147v-273h229v273h147v-692h-147zM204 756l-53 60l140 124h88l140 -124l-52 -60l-132 83z" />
    <glyph glyph-name="hcircumflex" unicode="&#x125;" horiz-adv-x="579" 
d="M474.5 503.5q39.5 -42.5 39.5 -117.5v-386h-142v362q0 43 -15 60.5t-43 17.5q-56 0 -102 -73v-367h-142v741l142 15v-286q32 38 69.5 57t84.5 19q69 0 108.5 -42.5zM158 805l-53 60l140 124h88l140 -124l-52 -60l-132 83z" />
    <glyph glyph-name="Hbar" unicode="&#x126;" horiz-adv-x="680" 
d="M661 588v-86h-60v-502h-147v303h-229v-303h-147v502h-60v86h60v104h147v-104h229v104h147v-104h60zM454 419v83h-229v-83h229z" />
    <glyph glyph-name="hbar" unicode="&#x127;" horiz-adv-x="587" 
d="M482.5 503.5q39.5 -42.5 39.5 -117.5v-386h-142v362q0 43 -15 60.5t-43 17.5q-56 0 -102 -73v-367h-142v598h-66v87h66v56l142 15v-71h136v-87h-136v-128q32 38 69.5 57t84.5 19q69 0 108.5 -42.5z" />
    <glyph glyph-name="Itilde" unicode="&#x128;" horiz-adv-x="294" 
d="M220 692v-692h-147v692h147zM168.5 773q-15.5 7 -36.5 20q-13 10 -22.5 14.5t-19.5 4.5q-16 0 -28 -11t-25 -34l-73 36q20 49 52 80t72 31q23 0 39 -7.5t36 -20.5q13 -9 22 -13.5t19 -4.5q16 0 27.5 10.5t25.5 33.5l73 -36q-20 -51 -52 -80.5t-73 -29.5q-21 0 -36.5 7z
" />
    <glyph glyph-name="itilde" unicode="&#x129;" horiz-adv-x="282" 
d="M212 530v-530h-142v530h142zM162.5 647q-15.5 7 -36.5 20q-13 10 -22.5 14.5t-19.5 4.5q-16 0 -28 -11t-25 -34l-73 36q20 49 52 80t72 31q23 0 39 -7.5t36 -20.5q13 -9 22 -13.5t19 -4.5q16 0 27.5 10.5t25.5 33.5l73 -36q-20 -51 -52 -80.5t-73 -29.5q-21 0 -36.5 7z
" />
    <glyph glyph-name="Imacron" unicode="&#x12a;" horiz-adv-x="294" 
d="M220 692v-692h-147v692h147zM296 784h-298v100h298v-100z" />
    <glyph glyph-name="imacron" unicode="&#x12b;" horiz-adv-x="282" 
d="M212 530v-530h-142v530h142zM290 658h-298v100h298v-100z" />
    <glyph glyph-name="Ibreve" unicode="&#x12c;" horiz-adv-x="294" 
d="M220 692v-692h-147v692h147zM30 796q-45 44 -51 109l81 15q10 -31 31 -49t55 -18q33 0 55 18t32 49l81 -15q-6 -65 -51.5 -109t-116.5 -44t-116 44z" />
    <glyph glyph-name="ibreve" unicode="&#x12d;" horiz-adv-x="282" 
d="M212 530v-530h-142v530h142zM23.5 680.5q-44.5 45.5 -50.5 117.5l81 15q19 -78 86 -78q66 0 87 78l81 -15q-6 -72 -51 -117.5t-117 -45.5t-116.5 45.5z" />
    <glyph glyph-name="Iogonek" unicode="&#x12e;" horiz-adv-x="294" 
d="M220 692v-692h-21q-120 -46 -120 -105q0 -46 54 -46q29 0 61 7l-10 -91q-37 -7 -68 -7q-63 0 -102.5 30.5t-39.5 81.5q0 44 25 77.5t74 59.5v685h147z" />
    <glyph glyph-name="iogonek" unicode="&#x12f;" horiz-adv-x="282" 
d="M78 660.5q-24 23.5 -24 59.5t24 59.5t62 23.5t62.5 -23.5t24.5 -59.5t-24.5 -59.5t-62.5 -23.5t-62 23.5zM70 530h142v-530h-19q-120 -46 -120 -105q0 -46 54 -46q29 0 61 7l-10 -91q-37 -7 -68 -7q-63 0 -102.5 30.5t-39.5 81.5q0 87 102 139v521z" />
    <glyph glyph-name="Idotaccent" unicode="&#x130;" horiz-adv-x="294" 
d="M220 692v-692h-147v692h147zM208.5 905.5q24.5 -23.5 24.5 -59.5t-24.5 -59.5t-62.5 -23.5t-62 23.5t-24 59.5t24 59.5t62 23.5t62.5 -23.5z" />
    <glyph glyph-name="dotlessi" unicode="&#x131;" horiz-adv-x="282" 
d="M212 530v-530h-142v530h142z" />
    <glyph glyph-name="IJ" unicode="&#x132;" horiz-adv-x="608" 
d="M220 692v-692h-147v692h147zM539 103q0 -80 -27.5 -132t-73.5 -81.5t-112 -51.5l-39 105q44 17 66.5 39t30.5 51t8 75v584h147v-589z" />
    <glyph glyph-name="ij" unicode="&#x133;" horiz-adv-x="563" 
d="M212 530v-530h-142v530h142zM202.5 779.5q24.5 -23.5 24.5 -59.5t-24.5 -59.5t-62.5 -23.5t-62 23.5t-24 59.5t24 59.5t62 23.5t62.5 -23.5zM493 53q0 -80 -24.5 -131.5t-67.5 -83t-110 -57.5l-47 103q39 18 61 35.5t34 47t12 77.5v486h142v-477zM484.5 779.5
q24.5 -23.5 24.5 -59.5t-24.5 -59.5t-62.5 -23.5t-62 23.5t-24 59.5t24 59.5t62 23.5t62.5 -23.5z" />
    <glyph glyph-name="Jcircumflex" unicode="&#x134;" horiz-adv-x="314" 
d="M245 103q0 -80 -27.5 -132t-73.5 -81.5t-112 -51.5l-39 105q44 17 66.5 39t30.5 51t8 75v584h147v-589zM40 756l-53 60l140 124h88l140 -124l-52 -60l-132 83z" />
    <glyph glyph-name="jcircumflex" unicode="&#x135;" horiz-adv-x="281" 
d="M211 53q0 -80 -24.5 -131.5t-67.5 -83t-110 -57.5l-47 103q39 18 61 35.5t34 47t12 77.5v486h142v-477zM8 624l-52 60l140 131h88l140 -131l-53 -60l-131 89z" />
    <glyph glyph-name="Kcommaaccent" unicode="&#x136;" horiz-adv-x="622" 
d="M220 692v-692h-147v692h147zM613 692l-231 -312l249 -380h-172l-233 369l230 323h157zM376 -90.5q21 -20.5 21 -51.5q0 -17 -5.5 -34.5t-20.5 -48.5l-46 -93h-72l27 115q-30 25 -30 61q0 30 21 51t53 21q31 0 52 -20.5z" />
    <glyph glyph-name="kcommaaccent" unicode="&#x137;" horiz-adv-x="542" 
d="M212 757v-757h-142v741zM534 530l-169 -233l184 -297h-161l-171 290l170 240h147zM325 -90.5q21 -20.5 21 -51.5q0 -17 -5.5 -34.5t-20.5 -48.5l-46 -93h-72l27 115q-30 25 -30 61q0 30 21 51t53 21q31 0 52 -20.5z" />
    <glyph glyph-name="kgreenlandic" unicode="&#x138;" horiz-adv-x="541" 
d="M212 530v-530h-142v530h142zM532 530l-169 -243l185 -287h-162l-171 280l170 250h147z" />
    <glyph glyph-name="Lacute" unicode="&#x139;" horiz-adv-x="509" 
d="M220 692v-574h274l-16 -118h-405v692h147zM228 945l54 -108l-234 -85l-36 73z" />
    <glyph glyph-name="lacute" unicode="&#x13a;" horiz-adv-x="296" 
d="M101 21.5q-36 37.5 -36 106.5v613l142 16v-625q0 -35 29 -35q16 0 28 6l29 -101q-41 -18 -91 -18q-65 0 -101 37.5zM217 994l54 -108l-234 -85l-36 73z" />
    <glyph glyph-name="Lcommaaccent" unicode="&#x13b;" horiz-adv-x="509" 
d="M220 692v-574h274l-16 -118h-405v692h147zM330 -90.5q21 -20.5 21 -51.5q0 -17 -5.5 -34.5t-20.5 -48.5l-46 -93h-72l27 115q-30 25 -30 61q0 30 21 51t53 21q31 0 52 -20.5z" />
    <glyph glyph-name="lcommaaccent" unicode="&#x13c;" horiz-adv-x="296" 
d="M101 21.5q-36 37.5 -36 106.5v613l142 16v-625q0 -35 29 -35q16 0 28 6l29 -101q-41 -18 -91 -18q-65 0 -101 37.5zM236 -90.5q21 -20.5 21 -51.5q0 -17 -5.5 -34.5t-20.5 -48.5l-46 -93h-72l27 115q-30 25 -30 61q0 30 21 51t53 21q31 0 52 -20.5z" />
    <glyph glyph-name="Lcaron" unicode="&#x13d;" horiz-adv-x="509" 
d="M220 692v-574h274l-16 -118h-405v692h147zM344 484l54 208l-110 15l-22 -211z" />
    <glyph glyph-name="lcaron" unicode="&#x13e;" horiz-adv-x="351" 
d="M101 21.5q-36 37.5 -36 106.5v613l142 16v-625q0 -35 29 -35q16 0 28 6l29 -101q-41 -18 -91 -18q-65 0 -101 37.5zM326 533l54 208l-110 15l-22 -211z" />
    <glyph glyph-name="Ldot" unicode="&#x13f;" horiz-adv-x="509" 
d="M220 692v-574h274l-16 -118h-405v692h147zM459.5 456.5q24.5 -23.5 24.5 -59.5t-24.5 -59.5t-62.5 -23.5t-62 23.5t-24 59.5t24 59.5t62 23.5t62.5 -23.5z" />
    <glyph glyph-name="ldot" unicode="&#x140;" horiz-adv-x="415" 
d="M101 21.5q-36 37.5 -36 106.5v613l142 16v-625q0 -35 29 -35q16 0 28 6l29 -101q-41 -18 -91 -18q-65 0 -101 37.5zM403.5 436.5q24.5 -23.5 24.5 -59.5t-24.5 -59.5t-62.5 -23.5t-62 23.5t-24 59.5t24 59.5t62 23.5t62.5 -23.5z" />
    <glyph glyph-name="Lslash" unicode="&#x141;" horiz-adv-x="543" 
d="M254 118h274l-16 -118h-405v232l-46 -28l-49 80l95 59v349h147v-258l136 84l50 -80l-186 -115v-205z" />
    <glyph glyph-name="lslash" unicode="&#x142;" horiz-adv-x="347" 
d="M287 103l29 -101q-41 -18 -91 -18q-65 0 -101 37.5t-36 106.5v148l-44 -27l-48 79l92 58v355l142 16v-285l73 44l47 -80l-120 -73v-231q0 -35 29 -35q16 0 28 6z" />
    <glyph glyph-name="Nacute" unicode="&#x143;" horiz-adv-x="668" 
d="M595 0h-189l-220 549q9 -71 14.5 -133.5t5.5 -146.5v-269h-133v692h185l224 -550q-20 134 -20 246v304h133v-692zM421 945l54 -108l-234 -85l-36 73z" />
    <glyph glyph-name="nacute" unicode="&#x144;" horiz-adv-x="579" 
d="M475 503.5q39 -42.5 39 -117.5v-386h-142v362q0 43 -14.5 60.5t-43.5 17.5q-30 0 -54.5 -18.5t-47.5 -55.5v-366h-142v530h123l11 -67q33 41 72.5 62t89.5 21q70 0 109 -42.5zM369 827l56 -109l-230 -92l-40 73z" />
    <glyph glyph-name="Ncommaaccent" unicode="&#x145;" horiz-adv-x="668" 
d="M595 0h-189l-220 549q9 -71 14.5 -133.5t5.5 -146.5v-269h-133v692h185l224 -550q-20 134 -20 246v304h133v-692zM389 -90.5q21 -20.5 21 -51.5q0 -17 -5.5 -34.5t-20.5 -48.5l-46 -93h-72l27 115q-30 25 -30 61q0 30 21 51t53 21q31 0 52 -20.5z" />
    <glyph glyph-name="ncommaaccent" unicode="&#x146;" horiz-adv-x="579" 
d="M475 503.5q39 -42.5 39 -117.5v-386h-142v362q0 43 -14.5 60.5t-43.5 17.5q-30 0 -54.5 -18.5t-47.5 -55.5v-366h-142v530h123l11 -67q33 41 72.5 62t89.5 21q70 0 109 -42.5zM344 -90.5q21 -20.5 21 -51.5q0 -17 -5.5 -34.5t-20.5 -48.5l-46 -93h-72l27 115
q-30 25 -30 61q0 30 21 51t53 21q31 0 52 -20.5z" />
    <glyph glyph-name="Ncaron" unicode="&#x147;" horiz-adv-x="668" 
d="M595 0h-189l-220 549q9 -71 14.5 -133.5t5.5 -146.5v-269h-133v692h185l224 -550q-20 134 -20 246v304h133v-692zM472 935l52 -60l-140 -124h-88l-140 124l53 60l131 -83z" />
    <glyph glyph-name="ncaron" unicode="&#x148;" horiz-adv-x="579" 
d="M475 503.5q39 -42.5 39 -117.5v-386h-142v362q0 43 -14.5 60.5t-43.5 17.5q-30 0 -54.5 -18.5t-47.5 -55.5v-366h-142v530h123l11 -67q33 41 72.5 62t89.5 21q70 0 109 -42.5zM427 806l52 -60l-140 -131h-88l-140 131l53 60l131 -89z" />
    <glyph glyph-name="napostrophe" unicode="&#x149;" horiz-adv-x="700" 
d="M150 739.5q19 -18.5 19 -46.5q0 -16 -5.5 -31.5t-19.5 -43.5l-41 -84h-65l25 105q-27 22 -27 54q0 27 19.5 46t47.5 19t47 -18.5zM596 503.5q39 -42.5 39 -117.5v-386h-142v362q0 43 -14.5 60.5t-43.5 17.5q-30 0 -54.5 -18.5t-47.5 -55.5v-366h-142v530h123l11 -67
q33 41 72.5 62t89.5 21q70 0 109 -42.5z" />
    <glyph glyph-name="Eng" unicode="&#x14a;" horiz-adv-x="668" 
d="M595 692v-730q0 -89 -50.5 -135.5t-138.5 -46.5q-80 0 -135 42l50 88q20 -11 34.5 -16t35.5 -5q56 0 56 64v47h-41l-220 549q9 -71 14.5 -133.5t5.5 -146.5v-269h-133v692h185l224 -550q-20 134 -20 246v304h133z" />
    <glyph glyph-name="eng" unicode="&#x14b;" horiz-adv-x="579" 
d="M475 503.5q39 -42.5 39 -117.5v-424q0 -88 -50 -135t-135 -47q-81 0 -136 42l49 84q22 -11 36.5 -15.5t35.5 -4.5q58 0 58 64v412q0 43 -14.5 60.5t-43.5 17.5q-30 0 -54.5 -18.5t-47.5 -55.5v-366h-142v530h123l11 -67q33 41 72.5 62t89.5 21q70 0 109 -42.5z" />
    <glyph glyph-name="Omacron" unicode="&#x14c;" horiz-adv-x="691" 
d="M510 665.5q69 -42.5 106 -123.5t37 -196q0 -113 -37 -194.5t-106 -124.5t-164 -43t-164.5 42.5t-106.5 124t-37 195.5q0 112 37.5 193.5t107 125t163.5 43.5q95 0 164 -42.5zM231.5 538q-38.5 -60 -38.5 -192t39 -192t114 -60q76 0 114 59.5t38 192.5t-38 192.5
t-114 59.5t-114.5 -60zM495 784h-298v100h298v-100z" />
    <glyph glyph-name="omacron" unicode="&#x14d;" horiz-adv-x="584" 
d="M479 471.5q67 -74.5 67 -206.5q0 -84 -30.5 -147.5t-88 -98.5t-135.5 -35q-119 0 -186.5 74.5t-67.5 206.5q0 84 30.5 147.5t88 98.5t136.5 35q119 0 186 -74.5zM212.5 397.5q-26.5 -42.5 -26.5 -132.5t26.5 -132.5t79.5 -42.5t79.5 42.5t26.5 132.5t-26 132.5t-79 42.5
q-54 0 -80.5 -42.5zM441 658h-298v100h298v-100z" />
    <glyph glyph-name="Obreve" unicode="&#x14e;" horiz-adv-x="691" 
d="M510 665.5q69 -42.5 106 -123.5t37 -196q0 -113 -37 -194.5t-106 -124.5t-164 -43t-164.5 42.5t-106.5 124t-37 195.5q0 112 37.5 193.5t107 125t163.5 43.5q95 0 164 -42.5zM231.5 538q-38.5 -60 -38.5 -192t39 -192t114 -60q76 0 114 59.5t38 192.5t-38 192.5
t-114 59.5t-114.5 -60zM229 796q-45 44 -51 109l81 15q10 -31 31 -49t55 -18q33 0 55 18t32 49l81 -15q-6 -65 -51.5 -109t-116.5 -44t-116 44z" />
    <glyph glyph-name="obreve" unicode="&#x14f;" horiz-adv-x="584" 
d="M479 471.5q67 -74.5 67 -206.5q0 -84 -30.5 -147.5t-88 -98.5t-135.5 -35q-119 0 -186.5 74.5t-67.5 206.5q0 84 30.5 147.5t88 98.5t136.5 35q119 0 186 -74.5zM212.5 397.5q-26.5 -42.5 -26.5 -132.5t26.5 -132.5t79.5 -42.5t79.5 42.5t26.5 132.5t-26 132.5t-79 42.5
q-54 0 -80.5 -42.5zM174.5 680.5q-44.5 45.5 -50.5 117.5l81 15q19 -78 86 -78q66 0 87 78l81 -15q-6 -72 -51 -117.5t-117 -45.5t-116.5 45.5z" />
    <glyph glyph-name="Ohungarumlaut" unicode="&#x150;" horiz-adv-x="691" 
d="M510 665.5q69 -42.5 106 -123.5t37 -196q0 -113 -37 -194.5t-106 -124.5t-164 -43t-164.5 42.5t-106.5 124t-37 195.5q0 112 37.5 193.5t107 125t163.5 43.5q95 0 164 -42.5zM231.5 538q-38.5 -60 -38.5 -192t39 -192t114 -60q76 0 114 59.5t38 192.5t-38 192.5
t-114 59.5t-114.5 -60zM303 979l101 -48l-109 -173l-77 32zM473 979l100 -50l-118 -176l-76 35z" />
    <glyph glyph-name="ohungarumlaut" unicode="&#x151;" horiz-adv-x="584" 
d="M479 471.5q67 -74.5 67 -206.5q0 -84 -30.5 -147.5t-88 -98.5t-135.5 -35q-119 0 -186.5 74.5t-67.5 206.5q0 84 30.5 147.5t88 98.5t136.5 35q119 0 186 -74.5zM212.5 397.5q-26.5 -42.5 -26.5 -132.5t26.5 -132.5t79.5 -42.5t79.5 42.5t26.5 132.5t-26 132.5t-79 42.5
q-54 0 -80.5 -42.5zM247 853l101 -48l-109 -173l-77 32zM417 853l100 -50l-118 -176l-76 35z" />
    <glyph glyph-name="OE" unicode="&#x152;" horiz-adv-x="903" 
d="M863 0h-443q-39 -16 -90 -16q-87 0 -153 42.5t-102.5 124t-36.5 195.5q0 111 36.5 193t102.5 125.5t153 43.5q53 0 94 -16h437l-16 -107h-286q59 -72 71 -180h184v-106h-183q-13 -117 -75 -191h307v-108zM230.5 155q37.5 -61 105.5 -61q69 0 105.5 60t36.5 192t-36.5 192
t-105.5 60q-143 0 -143 -252q0 -130 37.5 -191z" />
    <glyph glyph-name="oe" unicode="&#x153;" horiz-adv-x="909" 
d="M873 222h-330q7 -73 38.5 -102.5t86.5 -29.5q34 0 64.5 11t65.5 35l59 -80q-91 -72 -201 -72q-120 0 -186 87q-65 -87 -178 -87q-119 0 -186.5 74.5t-67.5 206.5q0 84 30.5 147.5t88 98.5t135.5 35q112 0 179 -84q65 84 170 84q110 0 172.5 -71t62.5 -198q0 -32 -3 -55z
M736 317q0 63 -22.5 97.5t-69.5 34.5q-46 0 -71 -32.5t-30 -105.5h193v6zM371 132.5q26 42.5 26 133.5q0 89 -26.5 131.5t-78.5 42.5q-53 0 -79.5 -42.5t-26.5 -132.5t26.5 -132.5t79.5 -42.5t79 42.5z" />
    <glyph glyph-name="Racute" unicode="&#x154;" horiz-adv-x="614" 
d="M295 271h-75v-271h-147v692h216q139 0 209 -51.5t70 -155.5q0 -68 -33.5 -112t-103.5 -75l179 -298h-167zM220 375h77q59 0 89 26.5t30 83.5q0 53 -31.5 77.5t-98.5 24.5h-66v-212zM381 945l54 -108l-234 -85l-36 73z" />
    <glyph glyph-name="racute" unicode="&#x155;" horiz-adv-x="397" 
d="M397 537l-24 -137q-28 7 -47 7q-47 0 -73 -33t-41 -100v-274h-142v530h123l13 -103q19 56 55.5 87t82.5 31q24 0 53 -8zM309 827l56 -109l-230 -92l-40 73z" />
    <glyph glyph-name="Rcommaaccent" unicode="&#x156;" horiz-adv-x="614" 
d="M295 271h-75v-271h-147v692h216q139 0 209 -51.5t70 -155.5q0 -68 -33.5 -112t-103.5 -75l179 -298h-167zM220 375h77q59 0 89 26.5t30 83.5q0 53 -31.5 77.5t-98.5 24.5h-66v-212zM364 -90.5q21 -20.5 21 -51.5q0 -17 -5.5 -34.5t-20.5 -48.5l-46 -93h-72l27 115
q-30 25 -30 61q0 30 21 51t53 21q31 0 52 -20.5z" />
    <glyph glyph-name="rcommaaccent" unicode="&#x157;" horiz-adv-x="397" 
d="M397 537l-24 -137q-28 7 -47 7q-47 0 -73 -33t-41 -100v-274h-142v530h123l13 -103q19 56 55.5 87t82.5 31q24 0 53 -8zM195 -90.5q21 -20.5 21 -51.5q0 -17 -5.5 -34.5t-20.5 -48.5l-46 -93h-72l27 115q-30 25 -30 61q0 30 21 51t53 21q31 0 52 -20.5z" />
    <glyph glyph-name="Rcaron" unicode="&#x158;" horiz-adv-x="614" 
d="M295 271h-75v-271h-147v692h216q139 0 209 -51.5t70 -155.5q0 -68 -33.5 -112t-103.5 -75l179 -298h-167zM220 375h77q59 0 89 26.5t30 83.5q0 53 -31.5 77.5t-98.5 24.5h-66v-212zM432 935l52 -60l-140 -124h-88l-140 124l53 60l131 -83z" />
    <glyph glyph-name="rcaron" unicode="&#x159;" horiz-adv-x="397" 
d="M397 537l-24 -137q-28 7 -47 7q-47 0 -73 -33t-41 -100v-274h-142v530h123l13 -103q19 56 55.5 87t82.5 31q24 0 53 -8zM367 806l52 -60l-140 -131h-88l-140 131l53 60l131 -89z" />
    <glyph glyph-name="Sacute" unicode="&#x15a;" horiz-adv-x="565" 
d="M414.5 686.5q55.5 -21.5 102.5 -65.5l-70 -81q-37 30 -74 44t-79 14q-46 0 -73.5 -19.5t-27.5 -55.5q0 -25 11.5 -41t40.5 -30t87 -32q103 -33 154 -81.5t51 -138.5q0 -64 -32 -112.5t-93 -76t-143 -27.5t-146 26t-110 71l75 83q40 -34 83 -51.5t94 -17.5q54 0 86.5 25
t32.5 70q0 28 -11.5 46.5t-39.5 33.5t-81 31q-113 35 -161.5 84t-48.5 128q0 58 31 102.5t86 68.5t125 24q75 0 130.5 -21.5zM372 945l54 -108l-234 -85l-36 73z" />
    <glyph glyph-name="sacute" unicode="&#x15b;" horiz-adv-x="479" 
d="M438 482l-54 -81q-67 42 -132 42q-35 0 -54 -13t-19 -35q0 -16 8.5 -27t32 -21t70.5 -24q84 -23 125 -61.5t41 -105.5q0 -53 -30.5 -92t-82.5 -59.5t-116 -20.5q-67 0 -122 20.5t-94 56.5l70 78q67 -52 142 -52q40 0 63.5 15.5t23.5 42.5q0 21 -9 33t-33 22.5t-75 24.5
q-80 22 -118.5 62.5t-38.5 100.5q0 45 26 81t73.5 56.5t110.5 20.5q112 0 192 -64zM322 827l56 -109l-230 -92l-40 73z" />
    <glyph glyph-name="Scircumflex" unicode="&#x15c;" horiz-adv-x="565" 
d="M414.5 686.5q55.5 -21.5 102.5 -65.5l-70 -81q-37 30 -74 44t-79 14q-46 0 -73.5 -19.5t-27.5 -55.5q0 -25 11.5 -41t40.5 -30t87 -32q103 -33 154 -81.5t51 -138.5q0 -64 -32 -112.5t-93 -76t-143 -27.5t-146 26t-110 71l75 83q40 -34 83 -51.5t94 -17.5q54 0 86.5 25
t32.5 70q0 28 -11.5 46.5t-39.5 33.5t-81 31q-113 35 -161.5 84t-48.5 128q0 58 31 102.5t86 68.5t125 24q75 0 130.5 -21.5zM160 756l-53 60l140 124h88l140 -124l-52 -60l-132 83z" />
    <glyph glyph-name="scircumflex" unicode="&#x15d;" horiz-adv-x="479" 
d="M438 482l-54 -81q-67 42 -132 42q-35 0 -54 -13t-19 -35q0 -16 8.5 -27t32 -21t70.5 -24q84 -23 125 -61.5t41 -105.5q0 -53 -30.5 -92t-82.5 -59.5t-116 -20.5q-67 0 -122 20.5t-94 56.5l70 78q67 -52 142 -52q40 0 63.5 15.5t23.5 42.5q0 21 -9 33t-33 22.5t-75 24.5
q-80 22 -118.5 62.5t-38.5 100.5q0 45 26 81t73.5 56.5t110.5 20.5q112 0 192 -64zM116 624l-52 60l140 131h88l140 -131l-53 -60l-131 89z" />
    <glyph glyph-name="Scedilla" unicode="&#x15e;" horiz-adv-x="565" 
d="M478.5 56q-58.5 -58 -160.5 -69v-37q51 -5 76 -30.5t25 -65.5q0 -50 -39.5 -80.5t-103.5 -30.5q-33 0 -60.5 8t-46.5 21l33 68q31 -17 64 -17q48 0 48 32q0 19 -21.5 27.5t-70.5 8.5l12 94q-134 11 -221 96l75 83q40 -34 83 -51.5t94 -17.5q54 0 86.5 25t32.5 70
q0 28 -11.5 46.5t-39.5 33.5t-81 31q-113 35 -161.5 84t-48.5 128q0 58 31 102.5t86 68.5t125 24q75 0 130.5 -21.5t102.5 -65.5l-70 -81q-37 30 -74 44t-79 14q-46 0 -73.5 -19.5t-27.5 -55.5q0 -25 11.5 -41t40.5 -30t87 -32q103 -33 154 -81.5t51 -138.5
q0 -86 -58.5 -144z" />
    <glyph glyph-name="scedilla" unicode="&#x15f;" horiz-adv-x="479" 
d="M407 44q-49 -44 -128 -56v-38q51 -5 76 -30.5t25 -65.5q0 -50 -39.5 -80.5t-103.5 -30.5q-33 0 -60.5 8t-46.5 21l33 68q31 -17 64 -17q48 0 48 32q0 19 -21.5 27.5t-70.5 8.5l12 94q-57 5 -103.5 25t-80.5 51l70 78q67 -52 142 -52q40 0 63.5 15.5t23.5 42.5q0 21 -9 33
t-33 22.5t-75 24.5q-80 22 -118.5 62.5t-38.5 100.5q0 45 26 81t73.5 56.5t110.5 20.5q112 0 192 -64l-54 -81q-67 42 -132 42q-35 0 -54 -13t-19 -35q0 -16 8.5 -27t32 -21t70.5 -24q84 -23 125 -61.5t41 -105.5q0 -68 -49 -112z" />
    <glyph glyph-name="Scaron" unicode="&#x160;" horiz-adv-x="565" 
d="M414.5 686.5q55.5 -21.5 102.5 -65.5l-70 -81q-37 30 -74 44t-79 14q-46 0 -73.5 -19.5t-27.5 -55.5q0 -25 11.5 -41t40.5 -30t87 -32q103 -33 154 -81.5t51 -138.5q0 -64 -32 -112.5t-93 -76t-143 -27.5t-146 26t-110 71l75 83q40 -34 83 -51.5t94 -17.5q54 0 86.5 25
t32.5 70q0 28 -11.5 46.5t-39.5 33.5t-81 31q-113 35 -161.5 84t-48.5 128q0 58 31 102.5t86 68.5t125 24q75 0 130.5 -21.5zM423 935l52 -60l-140 -124h-88l-140 124l53 60l131 -83z" />
    <glyph glyph-name="scaron" unicode="&#x161;" horiz-adv-x="479" 
d="M438 482l-54 -81q-67 42 -132 42q-35 0 -54 -13t-19 -35q0 -16 8.5 -27t32 -21t70.5 -24q84 -23 125 -61.5t41 -105.5q0 -53 -30.5 -92t-82.5 -59.5t-116 -20.5q-67 0 -122 20.5t-94 56.5l70 78q67 -52 142 -52q40 0 63.5 15.5t23.5 42.5q0 21 -9 33t-33 22.5t-75 24.5
q-80 22 -118.5 62.5t-38.5 100.5q0 45 26 81t73.5 56.5t110.5 20.5q112 0 192 -64zM380 806l52 -60l-140 -131h-88l-140 131l53 60l131 -89z" />
    <glyph glyph-name="uni0162" unicode="&#x162;" horiz-adv-x="534" 
d="M418.5 -80.5q25.5 -25.5 25.5 -65.5q0 -50 -40 -80.5t-105 -30.5q-31 0 -59 8t-46 21l33 68q31 -17 61 -17q51 0 51 33q0 18 -22 26.5t-70 8.5l14 109h-67v577h-184v115h522l-16 -115h-175v-627q52 -5 77.5 -30.5z" />
    <glyph glyph-name="uni0163" unicode="&#x163;" horiz-adv-x="380" 
d="M349 -80.5q25 -25.5 25 -65.5q0 -50 -39.5 -80.5t-103.5 -30.5q-33 0 -60.5 8t-46.5 21l33 68q31 -17 64 -17q48 0 48 32q0 19 -21.5 27.5t-70.5 8.5l13 101q-107 30 -107 174v264h-79v100h79v116l142 17v-133h122l-14 -100h-108v-261q0 -38 13 -55t40 -17t60 18l49 -90
q-24 -16 -53.5 -26.5t-60.5 -13.5v-35q51 -5 76 -30.5z" />
    <glyph glyph-name="Tcaron" unicode="&#x164;" horiz-adv-x="534" 
d="M532 692l-16 -115h-175v-577h-147v577h-184v115h522zM399 935l52 -60l-140 -124h-88l-140 124l53 60l131 -83z" />
    <glyph glyph-name="tcaron" unicode="&#x165;" horiz-adv-x="380" 
d="M381 772l-54 -208l-78 12l22 211zM387 25q-29 -20 -65.5 -30.5t-72.5 -10.5q-82 1 -124 47t-42 135v264h-79v100h79v116l142 17v-133h122l-14 -100h-108v-261q0 -38 13 -55t40 -17t60 18z" />
    <glyph glyph-name="Tbar" unicode="&#x166;" horiz-adv-x="534" 
d="M516 576h-175v-187h117v-87h-117v-303h-147v303h-117v87h117v187h-184v115h522z" />
    <glyph glyph-name="tbar" unicode="&#x167;" horiz-adv-x="380" 
d="M387 25q-29 -20 -65.5 -30.5t-72.5 -10.5q-82 1 -124 47t-42 135v98h-70v96h70v70h-79v100h79v116l142 17v-133h122l-14 -100h-108v-70h105v-96h-105v-95q0 -38 13 -55t40 -17t60 18z" />
    <glyph glyph-name="Utilde" unicode="&#x168;" horiz-adv-x="654" 
d="M590 228q0 -71 -30 -126t-89.5 -86.5t-144.5 -31.5q-128 0 -195.5 66.5t-67.5 177.5v464h147v-457q0 -70 28 -104.5t88 -34.5t88.5 34.5t28.5 104.5v457h147v-464zM348.5 773q-15.5 7 -36.5 20q-13 10 -22.5 14.5t-19.5 4.5q-16 0 -28 -11t-25 -34l-73 36q20 49 52 80
t72 31q23 0 39 -7.5t36 -20.5q13 -9 22 -13.5t19 -4.5q16 0 27.5 10.5t25.5 33.5l73 -36q-20 -51 -52 -80.5t-73 -29.5q-21 0 -36.5 7z" />
    <glyph glyph-name="utilde" unicode="&#x169;" horiz-adv-x="574" 
d="M504 0h-123l-7 71q-28 -44 -68 -65.5t-93 -21.5q-72 0 -110 43.5t-38 121.5v381h142v-363q0 -42 14 -59.5t44 -17.5q57 0 97 69v371h142v-530zM306.5 647q-15.5 7 -36.5 20q-13 10 -22.5 14.5t-19.5 4.5q-16 0 -28 -11t-25 -34l-73 36q20 49 52 80t72 31q23 0 39 -7.5
t36 -20.5q13 -9 22 -13.5t19 -4.5q16 0 27.5 10.5t25.5 33.5l73 -36q-20 -51 -52 -80.5t-73 -29.5q-21 0 -36.5 7z" />
    <glyph glyph-name="Umacron" unicode="&#x16a;" horiz-adv-x="654" 
d="M590 228q0 -71 -30 -126t-89.5 -86.5t-144.5 -31.5q-128 0 -195.5 66.5t-67.5 177.5v464h147v-457q0 -70 28 -104.5t88 -34.5t88.5 34.5t28.5 104.5v457h147v-464zM476 784h-298v100h298v-100z" />
    <glyph glyph-name="umacron" unicode="&#x16b;" horiz-adv-x="574" 
d="M504 0h-123l-7 71q-28 -44 -68 -65.5t-93 -21.5q-72 0 -110 43.5t-38 121.5v381h142v-363q0 -42 14 -59.5t44 -17.5q57 0 97 69v371h142v-530zM434 658h-298v100h298v-100z" />
    <glyph glyph-name="Ubreve" unicode="&#x16c;" horiz-adv-x="654" 
d="M590 228q0 -71 -30 -126t-89.5 -86.5t-144.5 -31.5q-128 0 -195.5 66.5t-67.5 177.5v464h147v-457q0 -70 28 -104.5t88 -34.5t88.5 34.5t28.5 104.5v457h147v-464zM210 796q-45 44 -51 109l81 15q10 -31 31 -49t55 -18q33 0 55 18t32 49l81 -15q-6 -65 -51.5 -109
t-116.5 -44t-116 44z" />
    <glyph glyph-name="ubreve" unicode="&#x16d;" horiz-adv-x="574" 
d="M504 0h-123l-7 71q-28 -44 -68 -65.5t-93 -21.5q-72 0 -110 43.5t-38 121.5v381h142v-363q0 -42 14 -59.5t44 -17.5q57 0 97 69v371h142v-530zM167.5 680.5q-44.5 45.5 -50.5 117.5l81 15q19 -78 86 -78q66 0 87 78l81 -15q-6 -72 -51 -117.5t-117 -45.5t-116.5 45.5z
" />
    <glyph glyph-name="Uring" unicode="&#x16e;" horiz-adv-x="654" 
d="M590 228q0 -71 -30 -126t-89.5 -86.5t-144.5 -31.5q-128 0 -195.5 66.5t-67.5 177.5v464h147v-457q0 -70 28 -104.5t88 -34.5t88.5 34.5t28.5 104.5v457h147v-464zM423 949.5q37 -36.5 37 -88.5q0 -53 -37 -89.5t-96 -36.5t-96 36.5t-37 89.5q0 52 37 88.5t96 36.5
t96 -36.5zM293 898.5q-13 -13.5 -13 -37.5q0 -25 12.5 -38.5t34.5 -13.5t34.5 13.5t12.5 38.5q0 24 -13 37.5t-34 13.5t-34 -13.5z" />
    <glyph glyph-name="uring" unicode="&#x16f;" horiz-adv-x="574" 
d="M504 0h-123l-7 71q-28 -44 -68 -65.5t-93 -21.5q-72 0 -110 43.5t-38 121.5v381h142v-363q0 -42 14 -59.5t44 -17.5q57 0 97 69v371h142v-530zM381 823.5q37 -36.5 37 -88.5q0 -53 -37 -89.5t-96 -36.5t-96 36.5t-37 89.5q0 52 37 88.5t96 36.5t96 -36.5zM251 772.5
q-13 -13.5 -13 -37.5q0 -25 12.5 -38.5t34.5 -13.5t34.5 13.5t12.5 38.5q0 24 -13 37.5t-34 13.5t-34 -13.5z" />
    <glyph glyph-name="Uhungarumlaut" unicode="&#x170;" horiz-adv-x="654" 
d="M590 228q0 -71 -30 -126t-89.5 -86.5t-144.5 -31.5q-128 0 -195.5 66.5t-67.5 177.5v464h147v-457q0 -70 28 -104.5t88 -34.5t88.5 34.5t28.5 104.5v457h147v-464zM284 979l101 -48l-109 -173l-77 32zM454 979l100 -50l-118 -176l-76 35z" />
    <glyph glyph-name="uhungarumlaut" unicode="&#x171;" horiz-adv-x="574" 
d="M504 0h-123l-7 71q-28 -44 -68 -65.5t-93 -21.5q-72 0 -110 43.5t-38 121.5v381h142v-363q0 -42 14 -59.5t44 -17.5q57 0 97 69v371h142v-530zM240 853l101 -48l-109 -173l-77 32zM410 853l100 -50l-118 -176l-76 35z" />
    <glyph glyph-name="Uogonek" unicode="&#x172;" horiz-adv-x="654" 
d="M590 692v-464q0 -83 -41 -144t-119 -85q-66 -26 -91 -52t-25 -52q0 -46 53 -46q29 0 61 7l-10 -91q-37 -7 -68 -7q-63 0 -102.5 30.5t-39.5 81.5q0 74 87 115q-113 8 -172.5 73.5t-59.5 169.5v464h147v-457q0 -70 28 -104.5t88 -34.5t88.5 34.5t28.5 104.5v457h147z" />
    <glyph glyph-name="uogonek" unicode="&#x173;" horiz-adv-x="574" 
d="M384 -105q0 -46 54 -46q29 0 61 7l-10 -91q-37 -7 -68 -7q-63 0 -102.5 30.5t-39.5 81.5q0 45 25.5 78.5t75.5 59.5l-6 63q-28 -44 -68 -65.5t-93 -21.5q-72 0 -110 43.5t-38 121.5v381h142v-363q0 -42 14 -59.5t44 -17.5q57 0 97 69v371h142v-530q-120 -46 -120 -105z
" />
    <glyph glyph-name="Wcircumflex" unicode="&#x174;" horiz-adv-x="842" 
d="M828 692l-121 -692h-191l-96 541l-101 -541h-186l-120 692h147l79 -578l105 578h155l101 -578l89 578h139zM291 756l-53 60l140 124h88l140 -124l-52 -60l-132 83z" />
    <glyph glyph-name="wcircumflex" unicode="&#x175;" horiz-adv-x="741" 
d="M733 530l-113 -530h-173l-76 403l-76 -403h-171l-116 530h143l65 -425l88 425h142l79 -425l72 425h136zM239 624l-52 60l140 131h88l140 -131l-53 -60l-131 89z" />
    <glyph glyph-name="Ycircumflex" unicode="&#x176;" horiz-adv-x="583" 
d="M587 692l-222 -431v-261h-147v260l-222 432h161l138 -314l137 314h155zM161 756l-53 60l140 124h88l140 -124l-52 -60l-132 83z" />
    <glyph glyph-name="ycircumflex" unicode="&#x177;" horiz-adv-x="512" 
d="M343 -1q-32 -101 -100.5 -156t-185.5 -63l-15 102q76 10 111.5 36t58.5 82h-49l-165 530h151l106 -438l112 438h147zM124 624l-52 60l140 131h88l140 -131l-53 -60l-131 89z" />
    <glyph glyph-name="Ydieresis" unicode="&#x178;" horiz-adv-x="583" 
d="M587 692l-222 -431v-261h-147v260l-222 432h161l138 -314l137 314h155zM230.5 896.5q21.5 -21.5 21.5 -52.5t-21.5 -52.5t-53.5 -21.5q-31 0 -53 21.5t-22 52.5t22 52.5t53 21.5q32 0 53.5 -21.5zM457 896.5q22 -21.5 22 -52.5t-22 -52.5t-54 -21.5q-31 0 -52.5 21.5
t-21.5 52.5t21.5 52.5t52.5 21.5q32 0 54 -21.5z" />
    <glyph glyph-name="Zacute" unicode="&#x179;" horiz-adv-x="539" 
d="M503 692v-113l-310 -460h315l-16 -119h-471v111l316 465h-284v116h450zM356 945l54 -108l-234 -85l-36 73z" />
    <glyph glyph-name="zacute" unicode="&#x17a;" horiz-adv-x="454" 
d="M428 530v-101l-249 -319h254l-14 -110h-403v102l249 319h-228v109h391zM303 827l56 -109l-230 -92l-40 73z" />
    <glyph glyph-name="Zdotaccent" unicode="&#x17b;" horiz-adv-x="539" 
d="M503 692v-113l-310 -460h315l-16 -119h-471v111l316 465h-284v116h450zM336.5 905.5q24.5 -23.5 24.5 -59.5t-24.5 -59.5t-62.5 -23.5t-62 23.5t-24 59.5t24 59.5t62 23.5t62.5 -23.5z" />
    <glyph glyph-name="zdotaccent" unicode="&#x17c;" horiz-adv-x="454" 
d="M428 530v-101l-249 -319h254l-14 -110h-403v102l249 319h-228v109h391zM290.5 779.5q24.5 -23.5 24.5 -59.5t-24.5 -59.5t-62.5 -23.5t-62 23.5t-24 59.5t24 59.5t62 23.5t62.5 -23.5z" />
    <glyph glyph-name="Zcaron" unicode="&#x17d;" horiz-adv-x="539" 
d="M503 692v-113l-310 -460h315l-16 -119h-471v111l316 465h-284v116h450zM407 935l52 -60l-140 -124h-88l-140 124l53 60l131 -83z" />
    <glyph glyph-name="zcaron" unicode="&#x17e;" horiz-adv-x="454" 
d="M428 530v-101l-249 -319h254l-14 -110h-403v102l249 319h-228v109h391zM361 806l52 -60l-140 -131h-88l-140 131l53 60l131 -89z" />
    <glyph glyph-name="longs" unicode="&#x17f;" horiz-adv-x="351" 
d="M422 725l-39 -94q-43 20 -86 20q-36 0 -51.5 -17t-15.5 -55v-579h-142v430h-84v100h84v53q0 77 50.5 125.5t143.5 48.5q74 0 140 -32z" />
    <glyph glyph-name="uni0180" unicode="&#x180;" horiz-adv-x="604" 
d="M509.5 472q51.5 -74 51.5 -207q0 -82 -25.5 -145.5t-73 -99.5t-111.5 -36q-87 0 -139 68l-8 -52h-126v598h-66v87h66v56l142 16v-72h136v-87h-136v-125q25 34 63 53.5t82 19.5q93 0 144.5 -74zM413 265q0 97 -24.5 136.5t-70.5 39.5q-57 0 -98 -68v-227q35 -57 91 -57
q102 0 102 176z" />
    <glyph glyph-name="uni0181" unicode="&#x181;" horiz-adv-x="742" 
d="M667.5 315.5q43.5 -37.5 43.5 -114.5q0 -109 -78 -155t-217 -46h-216v585h-28q-48 0 -48 -44q0 -16 4 -30.5t12 -36.5l-91 -41q-20 30 -32 57.5t-12 59.5q0 66 47 104t128 38h209q142 0 217 -42t75 -135q0 -61 -36.5 -98.5t-90.5 -50.5q70 -13 113.5 -50.5zM347 586v-175
h72q54 0 83 22.5t29 68.5t-31 65t-97 19h-56zM522 129.5q36 20.5 36 77.5q0 104 -128 104h-83v-202h70q69 0 105 20.5z" />
    <glyph glyph-name="uni0182" unicode="&#x182;" horiz-adv-x="592" 
d="M500 387.5q71 -54.5 71 -160.5q0 -113 -73.5 -170t-197.5 -57h-227v692h419l-16 -113h-256v-137h79q130 0 201 -54.5zM385 136.5q32 27.5 32 88.5q0 57 -32 85t-97 28h-68v-229h72q61 0 93 27.5z" />
    <glyph glyph-name="uni0183" unicode="&#x183;" horiz-adv-x="596" 
d="M501 464q52 -73 52 -204q0 -80 -25.5 -142.5t-73 -98t-111.5 -35.5q-87 0 -139 68l-8 -52h-126v741h361l-15 -102h-204v-175q24 34 62 53.5t80 19.5q95 0 147 -73zM378 130q27 41 27 130q0 95 -24.5 133t-70.5 38q-59 0 -98 -67v-218q17 -27 40.5 -42t51.5 -15
q47 0 74 41z" />
    <glyph glyph-name="uni0184" unicode="&#x184;" horiz-adv-x="605" 
d="M516 397q71 -55 71 -165q0 -117 -73.5 -174.5t-197.5 -57.5h-227v500l-73 48q55 58 95 144h125v-240h79q130 0 201 -55zM401 137q32 28 32 93q0 60 -32 88.5t-97 28.5h-68v-238h72q61 0 93 28z" />
    <glyph glyph-name="uni0185" unicode="&#x185;" horiz-adv-x="536" 
d="M456.5 317.5q58.5 -46.5 58.5 -135.5t-61.5 -135.5t-159.5 -46.5h-209v347l-74 49q55 57 96 134h120v-166h45q126 0 184.5 -46.5zM369 184q0 44 -22.5 65t-76.5 21h-43v-174h52q90 0 90 88z" />
    <glyph glyph-name="uni0186" unicode="&#x186;" horiz-adv-x="571" 
d="M395 666q66 -42 102 -123t36 -195q0 -116 -38.5 -198t-108 -124t-161.5 -42q-67 0 -121 24.5t-93 62.5l67 84q37 -27 68 -41t72 -14q75 0 118 59.5t43 187.5q0 131 -39 190.5t-107 59.5q-40 0 -74.5 -12.5t-68.5 -36.5l-71 85q47 38 100 56.5t122 18.5q88 0 154 -42z" />
    <glyph glyph-name="uni0187" unicode="&#x187;" horiz-adv-x="571" 
d="M720 809l-43 -89q-19 11 -34.5 16t-35.5 5q-54 0 -54 -65v-43l-65 -75q-67 39 -135 39q-74 0 -117 -60.5t-43 -189.5q0 -125 43.5 -186t118.5 -61q39 0 70 15t68 43l68 -87q-37 -38 -91.5 -62.5t-121.5 -24.5q-93 0 -163 42t-108.5 123.5t-38.5 197.5q0 113 39.5 194.5
t107 124t147.5 42.5q54 0 93 -17q3 75 45 115.5t120 40.5q73 0 130 -38z" />
    <glyph glyph-name="uni0188" unicode="&#x188;" horiz-adv-x="478" 
d="M635 719l-44 -89q-19 11 -34 16t-35 5q-55 0 -55 -65v-104l-53 -73q-52 27 -111 27q-115 0 -115 -174q0 -88 29 -126t83 -38q28 0 51 8.5t54 28.5l62 -89q-76 -62 -174 -62q-78 0 -135.5 34t-88.5 96.5t-31 146.5q0 83 30.5 148t84.5 101t124 36q35 0 62 -9v53
q0 81 42.5 124t123.5 43q73 0 130 -38z" />
    <glyph glyph-name="uni0189" unicode="&#x189;" horiz-adv-x="663" 
d="M526.5 618.5q97.5 -73.5 97.5 -269.5q0 -192 -95.5 -270.5t-244.5 -78.5h-198v307h-71v92h71v293h181q162 0 259.5 -73.5zM424.5 160.5q46.5 52.5 46.5 188.5q0 94 -23.5 146t-62.5 70.5t-95 18.5h-57v-185h141v-92h-141v-199h60q85 0 131.5 52.5z" />
    <glyph glyph-name="uni018A" unicode="&#x18a;" horiz-adv-x="777" 
d="M640.5 618.5q97.5 -73.5 97.5 -269.5q0 -192 -95.5 -270.5t-244.5 -78.5h-198v585h-28q-48 0 -48 -44q0 -16 4 -30.5t12 -36.5l-91 -41q-20 30 -32 57.5t-12 59.5q0 66 47 104t128 38h201q162 0 259.5 -73.5zM538.5 160.5q46.5 52.5 46.5 188.5q0 94 -23.5 146
t-62.5 70.5t-95 18.5h-57v-476h60q85 0 131.5 52.5z" />
    <glyph glyph-name="uni018B" unicode="&#x18b;" horiz-adv-x="592" 
d="M519 0h-234q-121 0 -192.5 54.5t-71.5 165.5q0 106 72 164t200 58h79v137h-266v113h413v-692zM372 109v229h-68q-129 0 -129 -118q0 -60 32 -85.5t93 -25.5h72z" />
    <glyph glyph-name="uni018C" unicode="&#x18c;" horiz-adv-x="599" 
d="M529 0h-125l-8 65q-56 -81 -152 -81q-97 0 -149 75t-52 202q0 79 26.5 142t75.5 98.5t115 35.5q37 0 69.5 -14.5t57.5 -39.5v156h-211v102h353v-741zM342 106q24 16 45 48v228q-21 25 -42 37.5t-49 12.5q-49 0 -77 -42.5t-28 -128.5q0 -92 25 -131.5t71 -39.5q31 0 55 16
z" />
    <glyph glyph-name="uni018D" unicode="&#x18d;" horiz-adv-x="578" 
d="M464 7.5q21 -32.5 21 -77.5q0 -65 -52.5 -108t-152.5 -43q-110 0 -188 59l66 77q28 -18 54 -26.5t57 -8.5q41 0 59.5 14.5t18.5 38.5q0 19 -7.5 31t-29.5 25t-68 32q-107 44 -155.5 103.5t-48.5 159.5q0 76 30.5 135.5t87.5 93t133 33.5q116 0 183 -68.5t67 -188.5
q0 -73 -39 -128t-113 -90q56 -31 77 -63.5zM196.5 204.5q10.5 -29.5 37 -52t78.5 -46.5q43 33 61.5 75.5t18.5 103.5q0 78 -25 116.5t-77 38.5q-104 0 -104 -157q0 -49 10.5 -78.5z" />
    <glyph glyph-name="uni018E" unicode="&#x18e;" horiz-adv-x="528" 
d="M46 692h409v-692h-415v108h267v191h-217v106h217v180h-261v107z" />
    <glyph glyph-name="uni018F" unicode="&#x18f;" horiz-adv-x="642" 
d="M526.5 618q76.5 -90 76.5 -265q0 -181 -77.5 -275t-211.5 -94q-142 0 -214 92.5t-72 260.5q0 31 5 63h420q-4 103 -43 150.5t-112 47.5q-48 0 -86.5 -15.5t-76.5 -43.5l-68 81q52 44 111 66t132 22q140 0 216.5 -90zM413.5 141q35.5 48 39.5 155h-282q3 -203 141 -203
q66 0 101.5 48z" />
    <glyph glyph-name="uni0190" unicode="&#x190;" horiz-adv-x="536" 
d="M516 618l-73 -77q-64 58 -139 58q-52 0 -76 -24t-24 -63q0 -44 29 -68.5t81 -24.5h73l-18 -108h-53q-64 0 -97 -28t-33 -79q0 -52 32.5 -80.5t91.5 -28.5q43 0 78 16t67 47l81 -77q-89 -97 -239 -97q-77 0 -137.5 26t-94.5 74.5t-34 111.5q0 76 46 119.5t125 52.5
q-73 16 -111.5 57t-38.5 102q0 52 29 93t82.5 64.5t124.5 23.5q132 0 228 -90z" />
    <glyph glyph-name="uni0191" unicode="&#x191;" horiz-adv-x="488" 
d="M220 585v-196h208v-107h-208v-281h1v-39q0 -89 -50.5 -135.5t-138.5 -46.5q-80 0 -135 42l50 88q20 -11 34.5 -16t35.5 -5q56 0 56 64v739h402l-16 -107h-239z" />
    <glyph glyph-name="florin" unicode="&#x192;" horiz-adv-x="364" 
d="M251 634.5q-16 -16.5 -16 -55.5v-49h127l-16 -100h-111v-377q0 -80 -24 -131.5t-67 -83t-111 -57.5l-46 103q39 18 60.5 35.5t33.5 47t12 77.5v386h-82v100h82v53q0 77 50.5 125.5t143.5 48.5q77 0 148 -32l-39 -94q-45 20 -89 20q-40 0 -56 -16.5z" />
    <glyph glyph-name="uni0193" unicode="&#x193;" horiz-adv-x="606" 
d="M755 809l-43 -89q-19 11 -34.5 16t-35.5 5q-54 0 -54 -65v-51l-70 -73q-39 23 -74.5 35t-75.5 12q-79 0 -127.5 -62.5t-48.5 -190.5q0 -135 37.5 -193.5t116.5 -58.5q57 0 103 25v169h-97l-15 107h255v-341q-53 -33 -116 -51.5t-131 -18.5q-150 0 -228.5 92.5
t-78.5 270.5q0 112 42.5 194t113 124.5t151.5 42.5q64 0 115 -23q2 77 43.5 119.5t121.5 42.5q75 0 130 -38z" />
    <glyph glyph-name="uni0194" unicode="&#x194;" horiz-adv-x="566" 
d="M363 86q35 -59 50.5 -101t15.5 -86q0 -56 -35.5 -87.5t-108.5 -31.5q-72 0 -108 31.5t-36 87.5q0 39 15.5 80t51.5 107l-217 606h157l138 -509l138 509h150zM307.5 -49.5q-7.5 22.5 -22.5 56.5q-15 -33 -22.5 -56.5t-7.5 -41.5q0 -16 8 -24.5t22 -8.5q30 0 30 33
q0 19 -7.5 41.5z" />
    <glyph glyph-name="uni0195" unicode="&#x195;" horiz-adv-x="874" 
d="M825 250q0 -90 -36 -150t-93.5 -88t-123.5 -28q-87 0 -143.5 49t-56.5 143v186q0 43 -15 60.5t-43 17.5q-56 0 -102 -73v-367h-142v741l142 15v-286q32 38 69.5 57t84.5 19q69 0 108.5 -42.5t39.5 -117.5v-206q0 -90 68 -90q41 0 70.5 41t29.5 130q0 125 -26 269h141
q28 -153 28 -280z" />
    <glyph glyph-name="uni0196" unicode="&#x196;" horiz-adv-x="385" 
d="M387 26q-55 -42 -135 -42q-88 0 -138.5 46.5t-50.5 135.5v526h147v-487h1v-48q0 -64 56 -64q21 0 35.5 5t34.5 16z" />
    <glyph glyph-name="uni0197" unicode="&#x197;" horiz-adv-x="326" 
d="M318 414v-109h-82v-305h-147v305h-81v109h81v278h147v-278h82z" />
    <glyph glyph-name="uni0198" unicode="&#x198;" horiz-adv-x="644" 
d="M226 369l146 227q39 62 76 87t96 25q64 0 110 -37l-41 -85q-24 14 -50 14q-22 0 -37 -10.5t-37 -42.5l-107 -167l249 -380h-172zM220 692v-692h-147v692h147z" />
    <glyph glyph-name="uni0199" unicode="&#x199;" horiz-adv-x="542" 
d="M227.5 634q-15.5 -17 -15.5 -55v-579h-142v583q0 77 50.5 125.5t143.5 48.5q74 0 140 -32l-39 -94q-43 20 -86 20q-36 0 -51.5 -17zM365 297l184 -297h-161l-171 290l170 240h147z" />
    <glyph glyph-name="uni019A" unicode="&#x19a;" horiz-adv-x="330" 
d="M321 2q-41 -18 -91 -18q-65 0 -101 37.5t-36 106.5v193h-85v101h85v319l142 16v-335h83v-101h-83v-189q0 -35 29 -35q16 0 28 6z" />
    <glyph glyph-name="uni019B" unicode="&#x19b;" horiz-adv-x="520" 
d="M450.5 189q33.5 -89 86.5 -159l-136 -46q-51 79 -81.5 165.5t-61.5 244.5l-107 -410l-140 33l159 474h71q-12 52 -28 84l-59 -51l-80 47l75 69q-34 15 -86 22l18 95q50 -8 87 -19t66 -29l70 63l62 -68l-65 -57q44 -62 74 -186q42 -183 75.5 -272z" />
    <glyph glyph-name="uni019C" unicode="&#x19c;" horiz-adv-x="919" 
d="M846 692v-692h-128l-11 67q-35 -43 -73 -63t-85 -20q-52 0 -90 25t-58 69q-40 -49 -80 -71.5t-90 -22.5q-79 0 -123.5 54t-44.5 142v512h147v-506q0 -43 17.5 -66.5t48.5 -23.5q29 0 52.5 17.5t52.5 55.5v11v512h147v-506q0 -43 17.5 -66.5t48.5 -23.5t54.5 17t50.5 57
v522h147z" />
    <glyph glyph-name="uni019D" unicode="&#x19d;" horiz-adv-x="668" 
d="M595 692v-692h-189l-220 549q9 -71 14.5 -133.5t5.5 -146.5v-308q0 -88 -47.5 -134.5t-129.5 -46.5q-78 0 -135 42l50 85q20 -11 35 -16t36 -5q58 0 58 64v742h185l224 -550q-20 134 -20 246v304h133z" />
    <glyph glyph-name="uni019E" unicode="&#x19e;" horiz-adv-x="579" 
d="M475 503.5q39 -42.5 39 -117.5v-606l-142 16v566q0 43 -14.5 60.5t-43.5 17.5q-30 0 -54.5 -18.5t-47.5 -55.5v-366h-142v530h123l11 -67q33 41 72.5 62t89.5 21q70 0 109 -42.5z" />
    <glyph glyph-name="uni019F" unicode="&#x19f;" horiz-adv-x="691" 
d="M510 665.5q69 -42.5 106 -123.5t37 -196q0 -113 -37 -194.5t-106 -124.5t-164 -43t-164.5 42.5t-106.5 124t-37 195.5q0 112 37.5 193.5t107 125t163.5 43.5q95 0 164 -42.5zM237 549q-40 -49 -47 -155h311q-7 106 -46 155t-109 49q-69 0 -109 -49zM456.5 145
q39.5 51 45.5 163h-313q11 -214 157 -214q71 0 110.5 51z" />
    <glyph glyph-name="Ohorn" unicode="&#x1a0;" horiz-adv-x="712" 
d="M602 569q51 -90 51 -223q0 -113 -37 -194.5t-106 -124.5t-164 -43t-164.5 42.5t-106.5 124t-37 195.5q0 112 37.5 193.5t107 125t163.5 43.5q128 0 205 -74q26 4 37.5 17.5t11.5 37.5q0 37 -13 69l95 15q19 -36 19 -87q0 -97 -99 -117zM460 153.5q38 59.5 38 192.5
t-38 192.5t-114 59.5t-114.5 -60t-38.5 -192t39 -192t114 -60q76 0 114 59.5z" />
    <glyph glyph-name="ohorn" unicode="&#x1a1;" horiz-adv-x="618" 
d="M598 442q-27 -30 -77 -38q25 -61 25 -139q0 -84 -30.5 -147.5t-88 -98.5t-135.5 -35q-119 0 -186.5 74.5t-67.5 206.5q0 84 30.5 147.5t88 98.5t136.5 35q117 0 185 -73q25 3 35.5 15.5t10.5 36.5q0 37 -13 69l95 15q19 -36 19 -87q0 -50 -27 -80zM371.5 132.5
q26.5 42.5 26.5 132.5t-26 132.5t-79 42.5q-54 0 -80.5 -42.5t-26.5 -132.5t26.5 -132.5t79.5 -42.5t79.5 42.5z" />
    <glyph glyph-name="uni01A2" unicode="&#x1a2;" horiz-adv-x="952" 
d="M828 662q51 -47 51 -137v-733h-148v738q0 74 -63 74q-21 0 -39 -4.5t-39 -14.5q63 -94 63 -239q0 -113 -37 -194.5t-106 -124.5t-164 -43t-164.5 42.5t-106.5 124t-37 195.5q0 112 37.5 193.5t107 125t163.5 43.5q102 0 175 -52q39 27 78.5 40t85.5 13q92 0 143 -47z
M460 153.5q38 59.5 38 192.5t-38 192.5t-114 59.5t-114.5 -60t-38.5 -192t39 -192t114 -60q76 0 114 59.5z" />
    <glyph glyph-name="uni01A3" unicode="&#x1a3;" horiz-adv-x="820" 
d="M702 499q48 -47 48 -137v-582l-142 16v576q0 69 -60 69q-23 0 -44 -7q42 -68 42 -169q0 -84 -30.5 -147.5t-88 -98.5t-135.5 -35q-119 0 -186.5 74.5t-67.5 206.5q0 84 30.5 147.5t88 98.5t136.5 35t136 -36q33 18 65.5 27t72.5 9q87 0 135 -47zM371.5 132.5
q26.5 42.5 26.5 132.5t-26 132.5t-79 42.5q-54 0 -80.5 -42.5t-26.5 -132.5t26.5 -132.5t79.5 -42.5t79.5 42.5z" />
    <glyph glyph-name="uni01A4" unicode="&#x1a4;" horiz-adv-x="722" 
d="M623.5 636q74.5 -56 74.5 -167q0 -116 -74 -174.5t-198 -58.5h-79v-236h-147v585h-28q-48 0 -48 -44q0 -16 4 -30.5t12 -36.5l-91 -41q-20 30 -32 57.5t-12 59.5q0 66 47 104t128 38h234q135 0 209.5 -56zM512 373q34 29 34 96q0 117 -134 117h-65v-242h67q64 0 98 29z
" />
    <glyph glyph-name="uni01A5" unicode="&#x1a5;" horiz-adv-x="596" 
d="M504.5 472.5q48.5 -73.5 48.5 -206.5q0 -81 -25 -145t-72.5 -100.5t-112.5 -36.5q-81 0 -131 57v-245l-142 -16v803q0 77 50.5 125.5t143.5 48.5q74 0 140 -32l-39 -94q-43 20 -86 20q-36 0 -51.5 -17t-15.5 -55v-105q29 37 66 54.5t76 17.5q102 0 150.5 -73.5zM405 265
q0 96 -23.5 136t-71.5 40q-29 0 -54 -18.5t-44 -49.5v-231q34 -52 89 -52q104 0 104 175z" />
    <glyph glyph-name="uni01A6" unicode="&#x1a6;" horiz-adv-x="614" 
d="M295 155h-75v-155h-147v692h147v-116h69q139 0 209 -51.5t70 -155.5q0 -69 -33 -113t-103 -74l178 -298h-167zM220 259h77q59 0 89 26.5t30 83.5q0 53 -31.5 77t-98.5 24h-66v-211z" />
    <glyph glyph-name="uni01A7" unicode="&#x1a7;" horiz-adv-x="556" 
d="M413 684.5q54 -23.5 83.5 -67t29.5 -100.5q0 -78 -50.5 -126.5t-162.5 -82.5q-75 -23 -103.5 -50t-28.5 -69q0 -44 31 -68t82 -24q92 0 174 66l75 -82q-47 -45 -112 -71t-147 -26q-77 0 -135 27t-89.5 75.5t-31.5 109.5q0 87 51.5 135.5t154.5 81.5q56 18 86 33.5
t42 33.5t12 44q0 37 -25.5 55.5t-69.5 18.5q-46 0 -83.5 -14t-74.5 -44l-71 81q50 43 108.5 65t130.5 22q70 0 124 -23.5z" />
    <glyph glyph-name="uni01A8" unicode="&#x1a8;" horiz-adv-x="470" 
d="M350 525.5q45 -20.5 69 -56t24 -80.5q0 -63 -38 -99t-121 -60q-48 -13 -72 -25t-32.5 -25t-8.5 -33q0 -28 21.5 -44t55.5 -16q73 0 142 52l69 -78q-39 -36 -94.5 -56.5t-121.5 -20.5q-61 0 -111 20t-79.5 58.5t-29.5 90.5q0 68 41.5 105t127.5 60q45 13 68 24t31 23.5
t8 30.5q0 21 -17.5 34t-51.5 13q-68 0 -135 -42l-53 81q88 64 202 64q61 0 106 -20.5z" />
    <glyph glyph-name="uni01A9" unicode="&#x1a9;" horiz-adv-x="503" 
d="M477 692v-109h-288l175 -209v-65l-176 -198h289v-111h-451v109l199 230l-199 244v109h451z" />
    <glyph glyph-name="uni01AA" unicode="&#x1aa;" horiz-adv-x="380" 
d="M489 -178q-55 -42 -136 -42q-85 0 -135 47t-50 135v481q-31 -11 -61 -11q-66 0 -108.5 44t-42.5 117t47.5 118.5t125.5 45.5q84 0 132.5 -47t48.5 -129v-631q0 -64 58 -64q21 0 35.5 4.5t36.5 15.5zM168 537v63q0 56 -42 56q-44 0 -44 -60q0 -64 51 -64q15 0 35 5z" />
    <glyph glyph-name="uni01AB" unicode="&#x1ab;" horiz-adv-x="380" 
d="M387 25v-62q0 -90 -48 -136t-135 -46q-43 0 -78 11.5t-60 29.5l49 86q22 -11 39 -16.5t41 -5.5q66 0 66 64v35q-5 -1 -17 -1q-78 1 -119.5 47.5t-41.5 134.5v264h-79v100h79v116l142 17v-133h122l-14 -100h-108v-271q0 -36 13 -52t43 -16q31 0 65 10z" />
    <glyph glyph-name="uni01AC" unicode="&#x1ac;" horiz-adv-x="585" 
d="M567 577h-175v-577h-148v577h-71q-24 0 -36 -11t-12 -30q0 -16 4 -27.5t13 -32.5l-99 -44q-38 61 -38 116q0 67 48 105.5t133 38.5h396z" />
    <glyph glyph-name="uni01AD" unicode="&#x1ad;" horiz-adv-x="380" 
d="M387 25q-29 -20 -65.5 -30.5t-72.5 -10.5q-82 1 -124 47t-42 135v264h-79v100h79v50q0 81 46 129t130 48q70 0 127 -38l-44 -84q-18 10 -33 15t-33 5q-51 0 -51 -64v-61h122l-14 -100h-108v-261q0 -38 13 -55t40 -17q28 0 60 19z" />
    <glyph glyph-name="uni01AE" unicode="&#x1ae;" horiz-adv-x="536" 
d="M432.5 -106q14.5 5 34.5 16l50 -88q-55 -42 -135 -42q-88 0 -138.5 46.5t-50.5 135.5v39h1v576h-184v115h522l-16 -115h-175v-624q0 -64 56 -64q21 0 35.5 5z" />
    <glyph glyph-name="Uhorn" unicode="&#x1af;" horiz-adv-x="713" 
d="M733 686q0 -59 -37.5 -89.5t-105.5 -32.5v-336q0 -71 -30 -126t-89.5 -86.5t-144.5 -31.5q-128 0 -195.5 66.5t-67.5 177.5v464h147v-457q0 -70 28 -104.5t88 -34.5t88.5 34.5t28.5 104.5v457h147v-56q22 4 32 17t10 36q0 37 -13 69l95 15q19 -36 19 -87z" />
    <glyph glyph-name="uhorn" unicode="&#x1b0;" horiz-adv-x="633" 
d="M647 522q0 -59 -37.5 -89.5t-105.5 -32.5v-400h-123l-7 71q-28 -44 -68 -65.5t-93 -21.5q-72 0 -110 43.5t-38 121.5v381h142v-363q0 -42 14 -59.5t44 -17.5q57 0 97 69v371h142v-57q22 4 32 16.5t10 35.5q0 37 -13 69l95 15q19 -36 19 -87z" />
    <glyph glyph-name="uni01B1" unicode="&#x1b1;" horiz-adv-x="691" 
d="M181.5 25q-69.5 41 -106.5 113.5t-37 166.5q0 101 34.5 166.5t96.5 112.5h-109v108h227v-103q-49 -51 -71.5 -114t-22.5 -170q0 -105 39 -158t114 -53q74 0 113 53.5t39 158.5q0 104 -23.5 167.5t-70.5 115.5v103h228v-108h-110q62 -42 96.5 -108.5t34.5 -169.5
q0 -92 -37.5 -165.5t-107 -115t-162.5 -41.5q-95 0 -164.5 41z" />
    <glyph glyph-name="uni01B2" unicode="&#x1b2;" horiz-adv-x="654" 
d="M553 669q37 -39 37 -118v-257q0 -95 -35 -165t-99 -107.5t-150 -37.5q-74 0 -129 29.5t-84.5 81.5t-29.5 118v479h147v-477q0 -57 26 -88t74 -31q63 0 98 49t35 149v263q0 23 -7.5 32.5t-25.5 9.5q-16 0 -29 -5l-26 97q39 17 91 17q70 0 107 -39z" />
    <glyph glyph-name="uni01B3" unicode="&#x1b3;" horiz-adv-x="621" 
d="M218 260l-222 432h161l138 -314l79 193q29 74 68.5 105.5t105.5 31.5q62 0 117 -38l-43 -84q-28 17 -57 17q-23 0 -37.5 -12.5t-30.5 -45.5l-132 -284v-261h-147v260z" />
    <glyph glyph-name="uni01B4" unicode="&#x1b4;" horiz-adv-x="518" 
d="M42 -118q76 10 111.5 36t58.5 82h-49l-165 530h151l106 -438l80 351q16 73 48 106t93 33q39 0 80 -16l-26 -95q-13 5 -29 5q-17 0 -26.5 -8.5t-16.5 -32.5l-106 -414q-28 -115 -100.5 -174t-194.5 -67z" />
    <glyph glyph-name="uni01B5" unicode="&#x1b5;" horiz-adv-x="539" 
d="M181 119h327l-16 -119h-471v107l134 191h-83v98h151l126 180h-296v116h450v-108l-130 -188h85v-98h-153z" />
    <glyph glyph-name="uni01B6" unicode="&#x1b6;" horiz-adv-x="454" 
d="M173 105h260l-14 -105h-403v97l99 128h-69v90h139l86 111h-234v104h391v-97l-92 -118h66v-90h-136z" />
    <glyph glyph-name="uni01B7" unicode="&#x1b7;" horiz-adv-x="539" 
d="M451.5 347q56.5 -52 56.5 -143q0 -63 -32 -113t-93 -78.5t-144 -28.5q-79 0 -135.5 25t-98.5 75l77 75q35 -34 69.5 -49t80.5 -15q59 0 91.5 30t32.5 84q0 55 -33.5 79.5t-99.5 24.5h-96v86l184 184h-268v109h433v-106l-187 -184q106 -3 162.5 -55z" />
    <glyph glyph-name="uni01B8" unicode="&#x1b8;" horiz-adv-x="539" 
d="M534 84q-43 -50 -100.5 -75t-140.5 -25q-79 0 -138.5 27.5t-91.5 77t-32 111.5q0 89 58.5 143.5t160.5 58.5l-187 184v106h433v-109h-267l183 -186v-84h-96q-66 0 -99.5 -28.5t-33.5 -82.5q0 -49 31.5 -78t86.5 -29q49 0 85.5 15t70.5 49z" />
    <glyph glyph-name="uni01B9" unicode="&#x1b9;" horiz-adv-x="503" 
d="M512 -120q-42 -49 -98.5 -74.5t-133.5 -25.5q-78 0 -137 29t-90.5 79t-31.5 113q0 96 58 150.5t163 59.5l-191 220v99h424v-108h-264l179 -214v-84h-89q-68 0 -100.5 -28t-32.5 -88q0 -57 32 -87.5t88 -30.5q44 0 78.5 14t71.5 47z" />
    <glyph glyph-name="uni01BA" unicode="&#x1ba;" horiz-adv-x="499" 
d="M28 -71q0 54 41 85t129 45q72 12 101.5 28.5t29.5 50.5q0 28 -20 41t-61 13h-137v81l166 154h-254v103h421v-94l-180 -158h34q84 0 131.5 -38t47.5 -105q0 -77 -54 -117t-146 -54q-70 -11 -93 -21.5t-23 -29.5q0 -15 14 -27.5t43 -25.5l-37 -81q-153 52 -153 150z" />
    <glyph glyph-name="uni01BB" unicode="&#x1bb;" horiz-adv-x="512" 
d="M476 110l-16 -110h-429v103q63 63 137 139h-104v98h191q33 43 46.5 75.5t13.5 68.5q0 43 -25 68t-67 25q-37 0 -66 -16.5t-61 -54.5l-85 68q86 113 225 113q70 0 121 -25.5t77.5 -69t26.5 -96.5q0 -41 -12 -78t-41 -78h59v-98h-140q-49 -52 -134 -132h283z" />
    <glyph glyph-name="uni01BC" unicode="&#x1bc;" horiz-adv-x="535" 
d="M453 589h-256v-165q53 26 109 26t99.5 -26.5t68.5 -77t25 -120.5q0 -72 -32 -127t-91 -85t-138 -30q-134 0 -222 98l80 75q58 -64 137 -64q58 0 89 34t31 99q0 124 -101 124q-23 0 -44 -5.5t-48 -17.5h-99v365h409z" />
    <glyph glyph-name="uni01BD" unicode="&#x1bd;" horiz-adv-x="473" 
d="M389 425h-199v-93q38 15 83 15q47 0 85.5 -20.5t61 -60t22.5 -93.5q0 -56 -28 -99t-79.5 -66.5t-118.5 -23.5q-64 0 -110 20.5t-85 58.5l72 77q34 -26 59 -36.5t61 -10.5q39 0 62 21t23 61q0 38 -19 56t-50 18q-22 0 -37.5 -3.5t-35.5 -12.5h-95v297h349z" />
    <glyph glyph-name="uni01BE" unicode="&#x1be;" horiz-adv-x="513" 
d="M431.5 362q42.5 -52 42.5 -142q0 -70 -30 -123t-85 -82.5t-128 -29.5q-66 0 -119.5 22t-100.5 68l71 73q33 -29 64.5 -43t68.5 -14q54 0 83 34t29 96q0 66 -29.5 102.5t-91.5 52.5l-60 13v144h-72v87h72v121l142 15v-136h100v-87h-100v-94l30 -5q71 -20 113.5 -72z" />
    <glyph glyph-name="uni01BF" unicode="&#x1bf;" horiz-adv-x="591" 
d="M466 523q41 -23 64 -67t23 -103q0 -84 -34 -144t-92 -102t-149 -87l-66 -33v-191l-142 -16v750h125l8 -68q33 41 75 62.5t96 21.5q51 0 92 -23zM367.5 218.5q37.5 55.5 37.5 131.5q0 45 -19.5 68.5t-56.5 23.5q-65 0 -117 -59v-291l43 26q75 45 112.5 100.5z" />
    <glyph glyph-name="uni01C0" unicode="&#x1c0;" horiz-adv-x="271" 
d="M198 755v-755h-125v741z" />
    <glyph glyph-name="uni01C1" unicode="&#x1c1;" horiz-adv-x="466" 
d="M198 755v-755h-125v741zM394 755v-755h-125v741z" />
    <glyph glyph-name="uni01C2" unicode="&#x1c2;" horiz-adv-x="326" 
d="M318 399h-92v-64h92v-85h-92v-250h-125v250h-93v85h93v64h-93v85h93v257l125 14v-271h92v-85z" />
    <glyph glyph-name="uni01C3" unicode="&#x1c3;" horiz-adv-x="317" 
d="M220 755v-526h-124v512zM219 130q25 -25 25 -60t-25 -60.5t-61 -25.5q-35 0 -60 25.5t-25 60.5t25 60t60 25q36 0 61 -25z" />
    <glyph glyph-name="uni01C4" unicode="&#x1c4;" horiz-adv-x="1164" 
d="M513.5 618.5q97.5 -73.5 97.5 -269.5q0 -192 -95.5 -270.5t-244.5 -78.5h-198v692h181q162 0 259.5 -73.5zM220 584v-476h60q85 0 131.5 52.5t46.5 188.5q0 94 -23.5 146t-62.5 70.5t-95 18.5h-57zM1128 692v-113l-310 -460h315l-16 -119h-471v111l316 465h-284v116h450z
M1032 935l52 -60l-140 -124h-88l-140 124l53 60l131 -83z" />
    <glyph glyph-name="uni01C5" unicode="&#x1c5;" horiz-adv-x="1094" 
d="M513.5 618.5q97.5 -73.5 97.5 -269.5q0 -192 -95.5 -270.5t-244.5 -78.5h-198v692h181q162 0 259.5 -73.5zM220 584v-476h60q85 0 131.5 52.5t46.5 188.5q0 94 -23.5 146t-62.5 70.5t-95 18.5h-57zM1068 530v-101l-249 -319h254l-14 -110h-403v102l249 319h-228v109h391z
M1001 806l52 -60l-140 -131h-88l-140 131l53 60l131 -89z" />
    <glyph glyph-name="uni01C6" unicode="&#x1c6;" horiz-adv-x="1053" 
d="M529 741v-741h-125l-8 65q-56 -81 -152 -81q-98 0 -149.5 75.5t-51.5 205.5q0 82 26.5 145.5t75.5 99.5t113 36q74 0 129 -53v264zM341 105.5q24 15.5 46 48.5v237q-21 25 -42.5 37.5t-49.5 12.5q-49 0 -76.5 -43t-27.5 -133q0 -95 24.5 -135t70.5 -40q31 0 55 15.5z
M1027 530v-101l-249 -319h254l-14 -110h-403v102l249 319h-228v109h391zM960 806l52 -60l-140 -131h-88l-140 131l53 60l131 -89z" />
    <glyph glyph-name="uni01C7" unicode="&#x1c7;" horiz-adv-x="801" 
d="M220 692v-574h274l-16 -118h-405v692h147zM732 103q0 -80 -27.5 -132t-73.5 -81.5t-112 -51.5l-39 105q44 17 66.5 39t30.5 51t8 75v584h147v-589z" />
    <glyph glyph-name="uni01C8" unicode="&#x1c8;" horiz-adv-x="775" 
d="M220 692v-574h274l-16 -118h-405v692h147zM705 53q0 -80 -24.5 -131.5t-67.5 -83t-110 -57.5l-47 103q39 18 61 35.5t34 47t12 77.5v486h142v-477zM696.5 779.5q24.5 -23.5 24.5 -59.5t-24.5 -59.5t-62.5 -23.5t-62 23.5t-24 59.5t24 59.5t62 23.5t62.5 -23.5z" />
    <glyph glyph-name="uni01C9" unicode="&#x1c9;" horiz-adv-x="577" 
d="M101 21.5q-36 37.5 -36 106.5v613l142 16v-625q0 -35 29 -35q16 0 28 6l29 -101q-41 -18 -91 -18q-65 0 -101 37.5zM507 53q0 -80 -24.5 -131.5t-67.5 -83t-110 -57.5l-47 103q39 18 61 35.5t34 47t12 77.5v486h142v-477zM497.5 779.5q24.5 -23.5 24.5 -59.5t-24.5 -59.5
t-62.5 -23.5t-62 23.5t-24 59.5t24 59.5t62 23.5t62.5 -23.5z" />
    <glyph glyph-name="uni01CA" unicode="&#x1ca;" horiz-adv-x="982" 
d="M595 0h-189l-220 549q9 -71 14.5 -133.5t5.5 -146.5v-269h-133v692h185l224 -550q-20 134 -20 246v304h133v-692zM913 103q0 -80 -27.5 -132t-73.5 -81.5t-112 -51.5l-39 105q44 17 66.5 39t30.5 51t8 75v584h147v-589z" />
    <glyph glyph-name="uni01CB" unicode="&#x1cb;" horiz-adv-x="949" 
d="M595 0h-189l-220 549q9 -71 14.5 -133.5t5.5 -146.5v-269h-133v692h185l224 -550q-20 134 -20 246v304h133v-692zM879 53q0 -80 -24.5 -131.5t-67.5 -83t-110 -57.5l-47 103q39 18 61 35.5t34 47t12 77.5v486h142v-477zM870.5 779.5q24.5 -23.5 24.5 -59.5t-24.5 -59.5
t-62.5 -23.5t-62 23.5t-24 59.5t24 59.5t62 23.5t62.5 -23.5z" />
    <glyph glyph-name="uni01CC" unicode="&#x1cc;" horiz-adv-x="860" 
d="M475 503.5q39 -42.5 39 -117.5v-386h-142v362q0 43 -14.5 60.5t-43.5 17.5q-30 0 -54.5 -18.5t-47.5 -55.5v-366h-142v530h123l11 -67q33 41 72.5 62t89.5 21q70 0 109 -42.5zM790 53q0 -80 -24.5 -131.5t-67.5 -83t-110 -57.5l-47 103q39 18 61 35.5t34 47t12 77.5v486
h142v-477zM780.5 779.5q24.5 -23.5 24.5 -59.5t-24.5 -59.5t-62.5 -23.5t-62 23.5t-24 59.5t24 59.5t62 23.5t62.5 -23.5z" />
    <glyph glyph-name="uni01CD" unicode="&#x1cd;" horiz-adv-x="586" 
d="M439 0l-39 155h-217l-39 -155h-153l213 692h179l212 -692h-156zM211 264h161l-81 319zM426 935l52 -60l-140 -124h-88l-140 124l53 60l131 -83z" />
    <glyph glyph-name="uni01CE" unicode="&#x1ce;" horiz-adv-x="547" 
d="M484 101.5q9 -14.5 30 -21.5l-30 -94q-47 4 -76.5 22t-45.5 56q-52 -80 -159 -80q-79 0 -125.5 45.5t-46.5 118.5q0 87 63 133t181 46h61v26q0 49 -22 68t-73 19q-56 0 -140 -28l-32 95q99 39 196 39q108 0 159 -46.5t51 -138.5v-214q0 -31 9 -45.5zM336 145v101h-47
q-115 0 -115 -86q0 -35 17.5 -54.5t50.5 -19.5q60 0 94 59zM401 806l52 -60l-140 -131h-88l-140 131l53 60l131 -89z" />
    <glyph glyph-name="uni01CF" unicode="&#x1cf;" horiz-adv-x="294" 
d="M220 692v-692h-147v692h147zM279 935l52 -60l-140 -124h-88l-140 124l53 60l131 -83z" />
    <glyph glyph-name="uni01D0" unicode="&#x1d0;" horiz-adv-x="282" 
d="M212 530v-530h-142v530h142zM273 806l52 -60l-140 -131h-88l-140 131l53 60l131 -89z" />
    <glyph glyph-name="uni01D1" unicode="&#x1d1;" horiz-adv-x="691" 
d="M510 665.5q69 -42.5 106 -123.5t37 -196q0 -113 -37 -194.5t-106 -124.5t-164 -43t-164.5 42.5t-106.5 124t-37 195.5q0 112 37.5 193.5t107 125t163.5 43.5q95 0 164 -42.5zM231.5 538q-38.5 -60 -38.5 -192t39 -192t114 -60q76 0 114 59.5t38 192.5t-38 192.5
t-114 59.5t-114.5 -60zM478 935l52 -60l-140 -124h-88l-140 124l53 60l131 -83z" />
    <glyph glyph-name="uni01D2" unicode="&#x1d2;" horiz-adv-x="584" 
d="M479 471.5q67 -74.5 67 -206.5q0 -84 -30.5 -147.5t-88 -98.5t-135.5 -35q-119 0 -186.5 74.5t-67.5 206.5q0 84 30.5 147.5t88 98.5t136.5 35q119 0 186 -74.5zM212.5 397.5q-26.5 -42.5 -26.5 -132.5t26.5 -132.5t79.5 -42.5t79.5 42.5t26.5 132.5t-26 132.5t-79 42.5
q-54 0 -80.5 -42.5zM424 806l52 -60l-140 -131h-88l-140 131l53 60l131 -89z" />
    <glyph glyph-name="uni01D3" unicode="&#x1d3;" horiz-adv-x="654" 
d="M590 228q0 -71 -30 -126t-89.5 -86.5t-144.5 -31.5q-128 0 -195.5 66.5t-67.5 177.5v464h147v-457q0 -70 28 -104.5t88 -34.5t88.5 34.5t28.5 104.5v457h147v-464zM459 935l52 -60l-140 -124h-88l-140 124l53 60l131 -83z" />
    <glyph glyph-name="uni01D4" unicode="&#x1d4;" horiz-adv-x="574" 
d="M504 0h-123l-7 71q-28 -44 -68 -65.5t-93 -21.5q-72 0 -110 43.5t-38 121.5v381h142v-363q0 -42 14 -59.5t44 -17.5q57 0 97 69v371h142v-530zM417 806l52 -60l-140 -131h-88l-140 131l53 60l131 -89z" />
    <glyph glyph-name="uni01D5" unicode="&#x1d5;" horiz-adv-x="654" 
d="M590 228q0 -71 -30 -126t-89.5 -86.5t-144.5 -31.5q-128 0 -195.5 66.5t-67.5 177.5v464h147v-457q0 -70 28 -104.5t88 -34.5t88.5 34.5t28.5 104.5v457h147v-464zM266.5 871.5q21.5 -21.5 21.5 -52.5t-21.5 -52.5t-53.5 -21.5q-31 0 -53 21.5t-22 52.5t22 52.5t53 21.5
q32 0 53.5 -21.5zM493 871.5q22 -21.5 22 -52.5t-22 -52.5t-54 -21.5q-31 0 -52.5 21.5t-21.5 52.5t21.5 52.5t52.5 21.5q32 0 54 -21.5zM479 931h-298v100h298v-100z" />
    <glyph glyph-name="uni01D6" unicode="&#x1d6;" horiz-adv-x="574" 
d="M504 0h-123l-7 71q-28 -44 -68 -65.5t-93 -21.5q-72 0 -110 43.5t-38 121.5v381h142v-363q0 -42 14 -59.5t44 -17.5q57 0 97 69v371h142v-530zM224.5 733.5q21.5 -21.5 21.5 -52.5t-21.5 -52.5t-53.5 -21.5q-31 0 -53 21.5t-22 52.5t22 52.5t53 21.5q32 0 53.5 -21.5z
M451 733.5q22 -21.5 22 -52.5t-22 -52.5t-54 -21.5q-31 0 -52.5 21.5t-21.5 52.5t21.5 52.5t52.5 21.5q32 0 54 -21.5zM434 799h-298v100h298v-100z" />
    <glyph glyph-name="uni01D7" unicode="&#x1d7;" horiz-adv-x="654" 
d="M590 228q0 -71 -30 -126t-89.5 -86.5t-144.5 -31.5q-128 0 -195.5 66.5t-67.5 177.5v464h147v-457q0 -70 28 -104.5t88 -34.5t88.5 34.5t28.5 104.5v457h147v-464zM400 1076l79 -76l-152 -137l-55 49zM261 873.5q22 -21.5 22 -52.5t-22 -52.5t-53 -21.5t-53 21.5
t-22 52.5t22 52.5t53 21.5t53 -21.5zM497 873.5q22 -21.5 22 -52.5t-22 -52.5t-53 -21.5q-32 0 -53.5 21.5t-21.5 52.5t21.5 52.5t53.5 21.5q31 0 53 -21.5z" />
    <glyph glyph-name="uni01D8" unicode="&#x1d8;" horiz-adv-x="574" 
d="M504 0h-123l-7 71q-28 -44 -68 -65.5t-93 -21.5q-72 0 -110 43.5t-38 121.5v381h142v-363q0 -42 14 -59.5t44 -17.5q57 0 97 69v371h142v-530zM358 936l79 -76l-152 -137l-55 49zM219 732.5q22 -21.5 22 -51.5q0 -31 -21.5 -52.5t-53.5 -21.5t-53.5 21.5t-21.5 52.5
q0 30 22 51.5t53 21.5t53 -21.5zM455 732.5q22 -21.5 22 -51.5q0 -31 -21.5 -52.5t-53.5 -21.5t-53.5 21t-21.5 53q0 30 21.5 51.5t53.5 21.5q31 0 53 -21.5z" />
    <glyph glyph-name="uni01D9" unicode="&#x1d9;" horiz-adv-x="654" 
d="M590 228q0 -71 -30 -126t-89.5 -86.5t-144.5 -31.5q-128 0 -195.5 66.5t-67.5 177.5v464h147v-457q0 -70 28 -104.5t88 -34.5t88.5 34.5t28.5 104.5v457h147v-464zM456 1080l52 -60l-140 -124h-88l-140 124l53 60l131 -83zM262 873.5q22 -21.5 22 -52.5t-22 -52.5
t-53 -21.5q-32 0 -54 21.5t-22 52.5t22 52.5t54 21.5q31 0 53 -21.5zM497 873.5q22 -21.5 22 -52.5t-22 -52.5t-53 -21.5t-53 21.5t-22 52.5t22 52.5t53 21.5t53 -21.5z" />
    <glyph glyph-name="uni01DA" unicode="&#x1da;" horiz-adv-x="574" 
d="M504 0h-123l-7 71q-28 -44 -68 -65.5t-93 -21.5q-72 0 -110 43.5t-38 121.5v381h142v-363q0 -42 14 -59.5t44 -17.5q57 0 97 69v371h142v-530zM417 939l52 -60l-140 -124h-88l-140 124l53 60l131 -83zM220.5 732.5q21.5 -21.5 21.5 -51.5q0 -31 -21 -52.5t-53 -21.5
t-54 21.5t-22 52.5q0 30 22.5 51.5t53.5 21.5t52.5 -21.5zM456.5 732.5q21.5 -21.5 21.5 -51.5q0 -32 -21.5 -53t-53.5 -21q-31 0 -53 21.5t-22 52.5q0 30 22 51.5t53 21.5q32 0 53.5 -21.5z" />
    <glyph glyph-name="uni01DB" unicode="&#x1db;" horiz-adv-x="654" 
d="M590 228q0 -71 -30 -126t-89.5 -86.5t-144.5 -31.5q-128 0 -195.5 66.5t-67.5 177.5v464h147v-457q0 -70 28 -104.5t88 -34.5t88.5 34.5t28.5 104.5v457h147v-464zM254 1076l129 -164l-55 -49l-152 137zM261.5 873.5q21.5 -21.5 21.5 -52.5t-21.5 -52.5t-53.5 -21.5
q-31 0 -53 21.5t-22 52.5t22 52.5t53 21.5q32 0 53.5 -21.5zM497.5 873.5q21.5 -21.5 21.5 -52.5t-21.5 -52.5t-53.5 -21.5q-31 0 -53 21.5t-22 52.5t22 52.5t53 21.5q32 0 53.5 -21.5z" />
    <glyph glyph-name="uni01DC" unicode="&#x1dc;" horiz-adv-x="574" 
d="M504 0h-123l-7 71q-28 -44 -68 -65.5t-93 -21.5q-72 0 -110 43.5t-38 121.5v381h142v-363q0 -42 14 -59.5t44 -17.5q57 0 97 69v371h142v-530zM212 936l129 -164l-55 -49l-152 137zM219.5 732.5q21.5 -21.5 21.5 -51.5q0 -32 -21.5 -53t-53.5 -21t-53.5 21.5t-21.5 52.5
q0 30 22 51.5t53 21.5q32 0 53.5 -21.5zM455.5 732.5q21.5 -21.5 21.5 -51.5q0 -32 -21.5 -53t-53.5 -21t-53.5 21.5t-21.5 52.5q0 30 22 51.5t53 21.5q32 0 53.5 -21.5z" />
    <glyph glyph-name="uni01DD" unicode="&#x1dd;" horiz-adv-x="555" 
d="M455 471q62 -75 62 -205q0 -83 -29 -146.5t-84 -99.5t-132 -36q-72 0 -126 32t-83.5 93t-29.5 145q0 30 3 54h342q-4 70 -32.5 102.5t-81.5 32.5q-37 0 -68.5 -10.5t-65.5 -34.5l-60 81q83 67 199 67q124 0 186 -75zM347.5 117q26.5 31 30.5 102h-210v-7q1 -59 28 -92.5
t76 -33.5t75.5 31z" />
    <glyph glyph-name="uni01DE" unicode="&#x1de;" horiz-adv-x="586" 
d="M439 0l-39 155h-217l-39 -155h-153l213 692h179l212 -692h-156zM211 264h161l-81 319zM233.5 871.5q21.5 -21.5 21.5 -52.5t-21.5 -52.5t-53.5 -21.5q-31 0 -53 21.5t-22 52.5t22 52.5t53 21.5q32 0 53.5 -21.5zM460 871.5q22 -21.5 22 -52.5t-22 -52.5t-54 -21.5
q-31 0 -52.5 21.5t-21.5 52.5t21.5 52.5t52.5 21.5q32 0 54 -21.5zM446 931h-298v100h298v-100z" />
    <glyph glyph-name="uni01DF" unicode="&#x1df;" horiz-adv-x="547" 
d="M484 101.5q9 -14.5 30 -21.5l-30 -94q-47 4 -76.5 22t-45.5 56q-52 -80 -159 -80q-79 0 -125.5 45.5t-46.5 118.5q0 87 63 133t181 46h61v26q0 49 -22 68t-73 19q-56 0 -140 -28l-32 95q99 39 196 39q108 0 159 -46.5t51 -138.5v-214q0 -31 9 -45.5zM336 145v101h-47
q-115 0 -115 -86q0 -35 17.5 -54.5t50.5 -19.5q60 0 94 59zM208.5 733.5q21.5 -21.5 21.5 -52.5t-21.5 -52.5t-53.5 -21.5q-31 0 -53 21.5t-22 52.5t22 52.5t53 21.5q32 0 53.5 -21.5zM435 733.5q22 -21.5 22 -52.5t-22 -52.5t-54 -21.5q-31 0 -52.5 21.5t-21.5 52.5
t21.5 52.5t52.5 21.5q32 0 54 -21.5zM418 799h-298v100h298v-100z" />
    <glyph glyph-name="uni01E0" unicode="&#x1e0;" horiz-adv-x="586" 
d="M439 0l-39 155h-217l-39 -155h-153l213 692h179l212 -692h-156zM211 264h161l-81 319zM355.5 879.5q24.5 -23.5 24.5 -59.5t-24.5 -59.5t-62.5 -23.5t-62 23.5t-24 59.5t24 59.5t62 23.5t62.5 -23.5zM444 932h-298v100h298v-100z" />
    <glyph glyph-name="uni01E1" unicode="&#x1e1;" horiz-adv-x="547" 
d="M484 101.5q9 -14.5 30 -21.5l-30 -94q-47 4 -76.5 22t-45.5 56q-52 -80 -159 -80q-79 0 -125.5 45.5t-46.5 118.5q0 87 63 133t181 46h61v26q0 49 -22 68t-73 19q-56 0 -140 -28l-32 95q99 39 196 39q108 0 159 -46.5t51 -138.5v-214q0 -31 9 -45.5zM336 145v101h-47
q-115 0 -115 -86q0 -35 17.5 -54.5t50.5 -19.5q60 0 94 59zM330.5 738.5q24.5 -23.5 24.5 -59.5t-24.5 -59.5t-62.5 -23.5t-62 23.5t-24 59.5t24 59.5t62 23.5t62.5 -23.5zM418 795h-298v100h298v-100z" />
    <glyph glyph-name="uni01E2" unicode="&#x1e2;" horiz-adv-x="838" 
d="M570 108h230v-108h-352l-29 155h-229l-54 -155h-156l272 692h510l-16 -107h-279l39 -182h247v-106h-224zM227 264h171l-60 319zM630 784h-298v100h298v-100z" />
    <glyph glyph-name="uni01E3" unicode="&#x1e3;" horiz-adv-x="854" 
d="M818 222h-331q7 -72 39 -102t87 -30q34 0 64 11t65 35l59 -80q-89 -72 -201 -72q-68 0 -120 24t-85 68q-35 -50 -82 -71t-107 -21q-81 0 -128 45.5t-47 118.5q0 87 64.5 133t184.5 46h61v25q0 49 -21.5 68t-72.5 19q-58 0 -140 -28l-33 96q99 39 196 39q111 0 161 -70
q62 70 161 70q69 0 121 -32t80 -93t28 -144q0 -10 -3 -55zM681 317q-2 132 -96 132q-44 0 -68.5 -32.5t-29.5 -105.5h194v6zM306.5 104q25.5 18 48.5 54q-10 37 -12 82v3h-47q-58 0 -86.5 -20.5t-28.5 -64.5q0 -34 17.5 -53t50.5 -19q32 0 57.5 18zM577 658h-298v100h298
v-100z" />
    <glyph glyph-name="uni01E4" unicode="&#x1e4;" horiz-adv-x="659" 
d="M657 174h-65v-120q-53 -33 -115.5 -51.5t-128.5 -18.5q-152 0 -231 92.5t-79 270.5q0 113 43 195t116.5 124t163.5 42q71 0 125 -21.5t102 -61.5l-76 -80q-38 28 -70.5 41t-73.5 13q-79 0 -127.5 -62.5t-48.5 -190.5q0 -135 37.5 -193.5t116.5 -58.5q57 0 112 24v56h-111
v91h111v47h-108l-13 95h255v-142h65v-91z" />
    <glyph glyph-name="uni01E5" unicode="&#x1e5;" horiz-adv-x="544" 
d="M577 -88h-54q-16 -63 -83.5 -97.5t-181.5 -34.5q-94 0 -148.5 19.5t-76.5 56.5t-22 93h127q0 -29 10 -45t36.5 -23.5t76.5 -7.5q58 0 90.5 9.5t44.5 29.5h-129v69h127q-22 32 -92 32h-78q-79 0 -118 26.5t-39 68.5q0 28 16.5 52t45.5 43q-49 27 -71.5 63.5t-22.5 87.5
q0 58 28.5 101.5t80 67t117.5 23.5q82 -2 135 14t113 50l35 -109q-52 -20 -153 -20q50 -22 74 -54.5t24 -81.5q0 -51 -26.5 -91.5t-76 -63.5t-115.5 -23q-35 0 -62 7q-20 -13 -20 -35q0 -16 12.5 -24t48.5 -8h81q79 0 131 -34.5t63 -91.5h52v-69zM200.5 425.5
q-23.5 -25.5 -23.5 -69.5q0 -45 23.5 -71t64.5 -26q43 0 65 25t22 74q0 93 -88 93q-40 0 -63.5 -25.5z" />
    <glyph glyph-name="Gcaron" unicode="&#x1e6;" horiz-adv-x="641" 
d="M486.5 686.5q54.5 -21.5 101.5 -61.5l-77 -80q-37 28 -69.5 41t-73.5 13q-79 0 -127.5 -62.5t-48.5 -190.5q0 -135 37.5 -193.5t116.5 -58.5q57 0 103 25v169h-97l-15 107h255v-341q-54 -33 -116.5 -51.5t-126.5 -18.5q-153 0 -232 92t-79 271q0 113 43 195t116.5 124
t164.5 42q70 0 124.5 -21.5zM485 935l52 -60l-140 -124h-88l-140 124l53 60l131 -83z" />
    <glyph glyph-name="gcaron" unicode="&#x1e7;" horiz-adv-x="544" 
d="M544 501q-52 -20 -153 -20q50 -22 74 -54.5t24 -81.5q0 -51 -26.5 -91.5t-76 -63.5t-115.5 -23q-35 0 -62 7q-20 -13 -20 -35q0 -16 12.5 -25.5t48.5 -9.5h81q59 0 103.5 -19.5t69 -54t24.5 -78.5q0 -81 -69.5 -126.5t-200.5 -45.5q-94 0 -148.5 19.5t-76.5 56.5t-22 93
h127q0 -26 10 -41.5t36.5 -23t76.5 -7.5q69 0 96.5 17t27.5 48q0 28 -21 43t-62 15h-78q-79 0 -118 29.5t-39 74.5q0 28 16.5 54.5t45.5 44.5q-49 27 -71.5 63.5t-22.5 87.5q0 58 28.5 101.5t80 67t117.5 23.5q82 -2 135 14t113 50zM200.5 425.5q-23.5 -25.5 -23.5 -69.5
q0 -45 23.5 -71t64.5 -26q43 0 65 25t22 74q0 93 -88 93q-40 0 -63.5 -25.5zM404 806l52 -60l-140 -131h-88l-140 131l53 60l131 -89z" />
    <glyph glyph-name="uni01E8" unicode="&#x1e8;" horiz-adv-x="622" 
d="M220 692v-692h-147v692h147zM613 692l-231 -312l249 -380h-172l-233 369l230 323h157zM461 935l52 -60l-140 -124h-88l-140 124l53 60l131 -83z" />
    <glyph glyph-name="uni01E9" unicode="&#x1e9;" horiz-adv-x="542" 
d="M212 757v-757h-142v741zM534 530l-169 -233l184 -297h-161l-171 290l170 240h147zM425 984l52 -60l-140 -124h-88l-140 124l53 60l131 -83z" />
    <glyph glyph-name="uni01EA" unicode="&#x1ea;" horiz-adv-x="691" 
d="M331 -105q0 -46 54 -46q29 0 61 7l-10 -91q-37 -7 -68 -7q-63 0 -102.5 30.5t-39.5 81.5q0 71 67 118q-120 17 -187.5 110t-67.5 248q0 112 37.5 193.5t107 125t163.5 43.5q95 0 164 -42.5t106 -123.5t37 -196q0 -135 -53.5 -225t-150.5 -122q-118 -45 -118 -104z
M232 154q39 -60 114 -60q76 0 114 59.5t38 192.5t-38 192.5t-114 59.5t-114.5 -60t-38.5 -192t39 -192z" />
    <glyph glyph-name="uni01EB" unicode="&#x1eb;" horiz-adv-x="584" 
d="M289.5 -54.5q-23.5 -25.5 -23.5 -50.5q0 -46 54 -46q29 0 61 7l-10 -91q-37 -7 -68 -7q-63 0 -102.5 30.5t-39.5 81.5q0 72 70 120q-91 18 -142 90t-51 185q0 84 30.5 147.5t88 98.5t136.5 35q119 0 186 -74.5t67 -206.5q0 -102 -45 -173t-126 -96q-62 -25 -85.5 -50.5z
M212.5 132.5q26.5 -42.5 79.5 -42.5t79.5 42.5t26.5 132.5t-26 132.5t-79 42.5q-54 0 -80.5 -42.5t-26.5 -132.5t26.5 -132.5z" />
    <glyph glyph-name="uni01EC" unicode="&#x1ec;" horiz-adv-x="691" 
d="M495 884v-100h-298v100h298zM331 -105q0 -46 54 -46q29 0 61 7l-10 -91q-37 -7 -68 -7q-63 0 -102.5 30.5t-39.5 81.5q0 71 67 118q-120 17 -187.5 110t-67.5 248q0 112 37.5 193.5t107 125t163.5 43.5q95 0 164 -42.5t106 -123.5t37 -196q0 -135 -53.5 -225t-150.5 -122
q-118 -45 -118 -104zM232 154q39 -60 114 -60q76 0 114 59.5t38 192.5t-38 192.5t-114 59.5t-114.5 -60t-38.5 -192t39 -192z" />
    <glyph glyph-name="uni01ED" unicode="&#x1ed;" horiz-adv-x="584" 
d="M441 758v-100h-298v100h298zM289.5 -54.5q-23.5 -25.5 -23.5 -50.5q0 -46 54 -46q29 0 61 7l-10 -91q-37 -7 -68 -7q-63 0 -102.5 30.5t-39.5 81.5q0 72 70 120q-91 18 -142 90t-51 185q0 84 30.5 147.5t88 98.5t136.5 35q119 0 186 -74.5t67 -206.5q0 -102 -45 -173
t-126 -96q-62 -25 -85.5 -50.5zM212.5 132.5q26.5 -42.5 79.5 -42.5t79.5 42.5t26.5 132.5t-26 132.5t-79 42.5q-54 0 -80.5 -42.5t-26.5 -132.5t26.5 -132.5z" />
    <glyph glyph-name="uni01EE" unicode="&#x1ee;" horiz-adv-x="539" 
d="M451.5 347q56.5 -52 56.5 -143q0 -63 -32 -113t-93 -78.5t-144 -28.5q-79 0 -135.5 25t-98.5 75l77 75q35 -34 69.5 -49t80.5 -15q59 0 91.5 30t32.5 84q0 55 -33.5 79.5t-99.5 24.5h-96v86l184 184h-268v109h433v-106l-187 -184q106 -3 162.5 -55zM392 935l52 -60
l-140 -124h-88l-140 124l53 60l131 -83z" />
    <glyph glyph-name="uni01EF" unicode="&#x1ef;" horiz-adv-x="503" 
d="M425 155.5q57 -50.5 57 -146.5q0 -67 -31.5 -118.5t-91 -81t-139.5 -29.5q-144 0 -229 100l76 73q36 -33 69.5 -48t76.5 -15q57 0 89.5 32t32.5 95q0 57 -32.5 82t-100.5 25h-90v86l179 212h-263v108h424v-99l-192 -220q108 -5 165 -55.5zM372 806l52 -60l-140 -131h-88
l-140 131l53 60l131 -89z" />
    <glyph glyph-name="uni01F0" unicode="&#x1f0;" horiz-adv-x="281" 
d="M211 53q0 -80 -24.5 -131.5t-67.5 -83t-110 -57.5l-47 103q39 18 61 35.5t34 47t12 77.5v486h142v-477zM272 806l52 -60l-140 -131h-88l-140 131l53 60l131 -89z" />
    <glyph glyph-name="uni01F1" unicode="&#x1f1;" horiz-adv-x="1164" 
d="M513.5 618.5q97.5 -73.5 97.5 -269.5q0 -192 -95.5 -270.5t-244.5 -78.5h-198v692h181q162 0 259.5 -73.5zM220 584v-476h60q85 0 131.5 52.5t46.5 188.5q0 94 -23.5 146t-62.5 70.5t-95 18.5h-57zM1128 692v-113l-310 -460h315l-16 -119h-471v111l316 465h-284v116h450z
" />
    <glyph glyph-name="uni01F2" unicode="&#x1f2;" horiz-adv-x="1094" 
d="M513.5 618.5q97.5 -73.5 97.5 -269.5q0 -192 -95.5 -270.5t-244.5 -78.5h-198v692h181q162 0 259.5 -73.5zM220 584v-476h60q85 0 131.5 52.5t46.5 188.5q0 94 -23.5 146t-62.5 70.5t-95 18.5h-57zM1068 530v-101l-249 -319h254l-14 -110h-403v102l249 319h-228v109h391z
" />
    <glyph glyph-name="uni01F3" unicode="&#x1f3;" horiz-adv-x="1053" 
d="M529 741v-741h-125l-8 65q-56 -81 -152 -81q-98 0 -149.5 75.5t-51.5 205.5q0 82 26.5 145.5t75.5 99.5t113 36q74 0 129 -53v264zM341 105.5q24 15.5 46 48.5v237q-21 25 -42.5 37.5t-49.5 12.5q-49 0 -76.5 -43t-27.5 -133q0 -95 24.5 -135t70.5 -40q31 0 55 15.5z
M1027 530v-101l-249 -319h254l-14 -110h-403v102l249 319h-228v109h391z" />
    <glyph glyph-name="uni01F4" unicode="&#x1f4;" horiz-adv-x="641" 
d="M486.5 686.5q54.5 -21.5 101.5 -61.5l-77 -80q-37 28 -69.5 41t-73.5 13q-79 0 -127.5 -62.5t-48.5 -190.5q0 -135 37.5 -193.5t116.5 -58.5q57 0 103 25v169h-97l-15 107h255v-341q-54 -33 -116.5 -51.5t-126.5 -18.5q-153 0 -232 92t-79 271q0 113 43 195t116.5 124
t164.5 42q70 0 124.5 -21.5zM434 945l54 -108l-234 -85l-36 73z" />
    <glyph glyph-name="uni01F5" unicode="&#x1f5;" horiz-adv-x="544" 
d="M544 501q-52 -20 -153 -20q50 -22 74 -54.5t24 -81.5q0 -51 -26.5 -91.5t-76 -63.5t-115.5 -23q-35 0 -62 7q-20 -13 -20 -35q0 -16 12.5 -25.5t48.5 -9.5h81q59 0 103.5 -19.5t69 -54t24.5 -78.5q0 -81 -69.5 -126.5t-200.5 -45.5q-94 0 -148.5 19.5t-76.5 56.5t-22 93
h127q0 -26 10 -41.5t36.5 -23t76.5 -7.5q69 0 96.5 17t27.5 48q0 28 -21 43t-62 15h-78q-79 0 -118 29.5t-39 74.5q0 28 16.5 54.5t45.5 44.5q-49 27 -71.5 63.5t-22.5 87.5q0 58 28.5 101.5t80 67t117.5 23.5q82 -2 135 14t113 50zM200.5 425.5q-23.5 -25.5 -23.5 -69.5
q0 -45 23.5 -71t64.5 -26q43 0 65 25t22 74q0 93 -88 93q-40 0 -63.5 -25.5zM346 827l56 -109l-230 -92l-40 73z" />
    <glyph glyph-name="uni01F6" unicode="&#x1f6;" horiz-adv-x="955" 
d="M907 250q0 -90 -36 -150t-93.5 -88t-123.5 -28q-89 0 -147 49t-58 143v127h-229v-303h-147v692h147v-273h229v273h147v-512q0 -90 67 -90q42 0 71.5 40.5t29.5 130.5q0 125 -26 269h140q29 -149 29 -280z" />
    <glyph glyph-name="uni01F7" unicode="&#x1f7;" horiz-adv-x="595" 
d="M476 684.5q44 -23.5 69.5 -67t25.5 -102.5q0 -76 -35.5 -129t-93 -88t-143.5 -67l-79 -29v-202h-147v692h147v-45q61 61 159 61q53 0 97 -23.5zM381.5 404q37.5 44 37.5 105q0 44 -23.5 67t-64.5 23q-62 0 -111 -44v-247l52 21q72 31 109.5 75z" />
    <glyph glyph-name="uni01F8" unicode="&#x1f8;" horiz-adv-x="668" 
d="M595 0h-189l-220 549q9 -71 14.5 -133.5t5.5 -146.5v-269h-133v692h185l224 -550q-20 134 -20 246v304h133v-692zM254 945l216 -120l-36 -73l-234 85z" />
    <glyph glyph-name="uni01F9" unicode="&#x1f9;" horiz-adv-x="579" 
d="M475 503.5q39 -42.5 39 -117.5v-386h-142v362q0 43 -14.5 60.5t-43.5 17.5q-30 0 -54.5 -18.5t-47.5 -55.5v-366h-142v530h123l11 -67q33 41 72.5 62t89.5 21q70 0 109 -42.5zM227 827l213 -128l-40 -73l-230 92z" />
    <glyph glyph-name="Aringacute" unicode="&#x1fa;" horiz-adv-x="586" 
d="M439 0l-39 155h-217l-39 -155h-153l213 692h179l212 -692h-156zM211 264h161l-81 319zM390 936.5q37 -36.5 37 -88.5q0 -53 -37 -89.5t-96 -36.5t-96 36.5t-37 89.5q0 52 37 88.5t96 36.5t96 -36.5zM260 885.5q-13 -13.5 -13 -37.5q0 -25 12.5 -38.5t34.5 -13.5
t34.5 13.5t12.5 38.5q0 24 -13 37.5t-34 13.5t-34 -13.5zM376 1170l54 -108l-234 -85l-36 73z" />
    <glyph glyph-name="aringacute" unicode="&#x1fb;" horiz-adv-x="547" 
d="M404 918l-234 -85l-36 73l216 120zM172 792.5q37 36.5 96 36.5t96 -36.5t37 -88.5q0 -53 -37 -89.5t-96 -36.5t-96 36.5t-37 89.5q0 52 37 88.5zM302 741.5q-13 13.5 -34 13.5t-34 -13.5t-13 -37.5q0 -25 12.5 -38.5t34.5 -13.5t34.5 13.5t12.5 38.5q0 24 -13 37.5z
M484 101.5q9 -14.5 30 -21.5l-30 -94q-47 4 -76.5 22t-45.5 56q-52 -80 -159 -80q-79 0 -125.5 45.5t-46.5 118.5q0 87 63 133t181 46h61v26q0 49 -22 68t-73 19q-56 0 -140 -28l-32 95q99 39 196 39q108 0 159 -46.5t51 -138.5v-214q0 -31 9 -45.5zM336 145v101h-47
q-115 0 -115 -86q0 -35 17.5 -54.5t50.5 -19.5q60 0 94 59z" />
    <glyph glyph-name="AEacute" unicode="&#x1fc;" horiz-adv-x="838" 
d="M570 108h230v-108h-352l-29 155h-229l-54 -155h-156l272 692h510l-16 -107h-279l39 -182h247v-106h-224zM227 264h171l-60 319zM562 945l54 -108l-234 -85l-36 73z" />
    <glyph glyph-name="aeacute" unicode="&#x1fd;" horiz-adv-x="854" 
d="M818 222h-331q7 -72 39 -102t87 -30q34 0 64 11t65 35l59 -80q-89 -72 -201 -72q-68 0 -120 24t-85 68q-35 -50 -82 -71t-107 -21q-81 0 -128 45.5t-47 118.5q0 87 64.5 133t184.5 46h61v25q0 49 -21.5 68t-72.5 19q-58 0 -140 -28l-33 96q99 39 196 39q111 0 161 -70
q62 70 161 70q69 0 121 -32t80 -93t28 -144q0 -10 -3 -55zM681 317q-2 132 -96 132q-44 0 -68.5 -32.5t-29.5 -105.5h194v6zM306.5 104q25.5 18 48.5 54q-10 37 -12 82v3h-47q-58 0 -86.5 -20.5t-28.5 -64.5q0 -34 17.5 -53t50.5 -19q32 0 57.5 18zM502 827l56 -109
l-230 -92l-40 73z" />
    <glyph glyph-name="Oslashacute" unicode="&#x1fe;" horiz-adv-x="691" 
d="M615.5 543.5q37.5 -81.5 37.5 -197.5q0 -113 -37 -194.5t-106 -124.5t-164 -43q-31 0 -54 4l-36 -121l-113 30l40 129q-70 42 -107.5 123.5t-37.5 196.5q0 112 37.5 193.5t107 125t163.5 43.5q30 0 53 -4l37 122l112 -30l-41 -129q71 -42 108.5 -123.5zM231.5 538
q-38.5 -60 -38.5 -192q0 -155 48 -212l139 462q-22 2 -34 2q-76 0 -114.5 -60zM460 153.5q38 59.5 38 192.5q0 159 -49 214l-139 -463q18 -3 36 -3q76 0 114 59.5zM424 974l54 -108l-234 -85l-36 73z" />
    <glyph glyph-name="oslashacute" unicode="&#x1ff;" horiz-adv-x="584" 
d="M517 413.5q29 -62.5 29 -148.5q0 -84 -30.5 -147.5t-88 -98.5t-135.5 -35q-12 0 -38 2l-37 -120l-106 31l40 124q-54 33 -83.5 95.5t-29.5 148.5q0 84 30.5 147.5t88 98.5t136.5 35q13 0 37 -2l39 120l106 -31l-42 -124q55 -33 84 -95.5zM177 265q0 -105 30 -144l106 318
q-6 1 -20 1q-116 0 -116 -175zM378 133q29 43 29 132q0 106 -30 143l-105 -317q6 -1 20 -1q57 0 86 43zM366 827l56 -109l-230 -92l-40 73z" />
    <glyph glyph-name="uni0200" unicode="&#x200;" horiz-adv-x="586" 
d="M439 0l-39 155h-217l-39 -155h-153l213 692h179l212 -692h-156zM211 264h161l-81 319zM165 979l95 -191l-76 -35l-118 176zM335 979l86 -189l-77 -32l-109 173z" />
    <glyph glyph-name="uni0201" unicode="&#x201;" horiz-adv-x="547" 
d="M484 101.5q9 -14.5 30 -21.5l-30 -94q-47 4 -76.5 22t-45.5 56q-52 -80 -159 -80q-79 0 -125.5 45.5t-46.5 118.5q0 87 63 133t181 46h61v26q0 49 -22 68t-73 19q-56 0 -140 -28l-32 95q99 39 196 39q108 0 159 -46.5t51 -138.5v-214q0 -31 9 -45.5zM336 145v101h-47
q-115 0 -115 -86q0 -35 17.5 -54.5t50.5 -19.5q60 0 94 59zM150 853l95 -191l-76 -35l-118 176zM320 853l86 -189l-77 -32l-109 173z" />
    <glyph glyph-name="uni0202" unicode="&#x202;" horiz-adv-x="586" 
d="M439 0l-39 155h-217l-39 -155h-153l213 692h179l212 -692h-156zM211 264h161l-81 319zM410 898.5q45 -45.5 51 -117.5l-81 -15q-21 78 -87 78q-67 0 -86 -78l-81 15q6 72 50.5 117.5t116.5 45.5t117 -45.5z" />
    <glyph glyph-name="uni0203" unicode="&#x203;" horiz-adv-x="547" 
d="M484 101.5q9 -14.5 30 -21.5l-30 -94q-47 4 -76.5 22t-45.5 56q-52 -80 -159 -80q-79 0 -125.5 45.5t-46.5 118.5q0 87 63 133t181 46h61v26q0 49 -22 68t-73 19q-56 0 -140 -28l-32 95q99 39 196 39q108 0 159 -46.5t51 -138.5v-214q0 -31 9 -45.5zM336 145v101h-47
q-115 0 -115 -86q0 -35 17.5 -54.5t50.5 -19.5q60 0 94 59zM385 736.5q45 -45.5 51 -117.5l-81 -15q-21 78 -87 78q-67 0 -86 -78l-81 15q6 72 50.5 117.5t116.5 45.5t117 -45.5z" />
    <glyph glyph-name="uni0204" unicode="&#x204;" horiz-adv-x="528" 
d="M486 692l-16 -107h-250v-180h218v-106h-218v-191h268v-108h-415v692h413zM153 979l95 -191l-76 -35l-118 176zM323 979l86 -189l-77 -32l-109 173z" />
    <glyph glyph-name="uni0205" unicode="&#x205;" horiz-adv-x="551" 
d="M515 222h-331q7 -72 39 -102t87 -30q34 0 64 11t65 35l59 -80q-89 -72 -201 -72q-125 0 -192 75t-67 203q0 81 28.5 145.5t83 101.5t129.5 37q113 0 176 -71t63 -198q0 -10 -3 -55zM377 317q0 132 -95 132q-44 0 -68.5 -32.5t-29.5 -105.5h193v6zM163 853l95 -191
l-76 -35l-118 176zM333 853l86 -189l-77 -32l-109 173z" />
    <glyph glyph-name="uni0206" unicode="&#x206;" horiz-adv-x="528" 
d="M486 692l-16 -107h-250v-180h218v-106h-218v-191h268v-108h-415v692h413zM398 898.5q45 -45.5 51 -117.5l-81 -15q-21 78 -87 78q-67 0 -86 -78l-81 15q6 72 50.5 117.5t116.5 45.5t117 -45.5z" />
    <glyph glyph-name="uni0207" unicode="&#x207;" horiz-adv-x="551" 
d="M515 222h-331q7 -72 39 -102t87 -30q34 0 64 11t65 35l59 -80q-89 -72 -201 -72q-125 0 -192 75t-67 203q0 81 28.5 145.5t83 101.5t129.5 37q113 0 176 -71t63 -198q0 -10 -3 -55zM377 317q0 132 -95 132q-44 0 -68.5 -32.5t-29.5 -105.5h193v6zM398 736.5
q45 -45.5 51 -117.5l-81 -15q-21 78 -87 78q-67 0 -86 -78l-81 15q6 72 50.5 117.5t116.5 45.5t117 -45.5z" />
    <glyph glyph-name="uni0208" unicode="&#x208;" horiz-adv-x="294" 
d="M220 692v-692h-147v692h147zM18 979l95 -191l-76 -35l-118 176zM188 979l86 -189l-77 -32l-109 173z" />
    <glyph glyph-name="uni0209" unicode="&#x209;" horiz-adv-x="282" 
d="M212 530v-530h-142v530h142zM22 853l95 -191l-76 -35l-118 176zM192 853l86 -189l-77 -32l-109 173z" />
    <glyph glyph-name="uni020A" unicode="&#x20a;" horiz-adv-x="294" 
d="M220 692v-692h-147v692h147zM263 898.5q45 -45.5 51 -117.5l-81 -15q-21 78 -87 78q-67 0 -86 -78l-81 15q6 72 50.5 117.5t116.5 45.5t117 -45.5z" />
    <glyph glyph-name="uni020B" unicode="&#x20b;" horiz-adv-x="282" 
d="M212 530v-530h-142v530h142zM257 736.5q45 -45.5 51 -117.5l-81 -15q-21 78 -87 78q-67 0 -86 -78l-81 15q6 72 50.5 117.5t116.5 45.5t117 -45.5z" />
    <glyph glyph-name="uni020C" unicode="&#x20c;" horiz-adv-x="691" 
d="M510 665.5q69 -42.5 106 -123.5t37 -196q0 -113 -37 -194.5t-106 -124.5t-164 -43t-164.5 42.5t-106.5 124t-37 195.5q0 112 37.5 193.5t107 125t163.5 43.5q95 0 164 -42.5zM231.5 538q-38.5 -60 -38.5 -192t39 -192t114 -60q76 0 114 59.5t38 192.5t-38 192.5
t-114 59.5t-114.5 -60zM217 979l95 -191l-76 -35l-118 176zM387 979l86 -189l-77 -32l-109 173z" />
    <glyph glyph-name="uni020D" unicode="&#x20d;" horiz-adv-x="584" 
d="M479 471.5q67 -74.5 67 -206.5q0 -84 -30.5 -147.5t-88 -98.5t-135.5 -35q-119 0 -186.5 74.5t-67.5 206.5q0 84 30.5 147.5t88 98.5t136.5 35q119 0 186 -74.5zM212.5 397.5q-26.5 -42.5 -26.5 -132.5t26.5 -132.5t79.5 -42.5t79.5 42.5t26.5 132.5t-26 132.5t-79 42.5
q-54 0 -80.5 -42.5zM173 853l95 -191l-76 -35l-118 176zM343 853l86 -189l-77 -32l-109 173z" />
    <glyph glyph-name="uni020E" unicode="&#x20e;" horiz-adv-x="691" 
d="M510 665.5q69 -42.5 106 -123.5t37 -196q0 -113 -37 -194.5t-106 -124.5t-164 -43t-164.5 42.5t-106.5 124t-37 195.5q0 112 37.5 193.5t107 125t163.5 43.5q95 0 164 -42.5zM231.5 538q-38.5 -60 -38.5 -192t39 -192t114 -60q76 0 114 59.5t38 192.5t-38 192.5
t-114 59.5t-114.5 -60zM462 898.5q45 -45.5 51 -117.5l-81 -15q-21 78 -87 78q-67 0 -86 -78l-81 15q6 72 50.5 117.5t116.5 45.5t117 -45.5z" />
    <glyph glyph-name="uni020F" unicode="&#x20f;" horiz-adv-x="584" 
d="M479 471.5q67 -74.5 67 -206.5q0 -84 -30.5 -147.5t-88 -98.5t-135.5 -35q-119 0 -186.5 74.5t-67.5 206.5q0 84 30.5 147.5t88 98.5t136.5 35q119 0 186 -74.5zM212.5 397.5q-26.5 -42.5 -26.5 -132.5t26.5 -132.5t79.5 -42.5t79.5 42.5t26.5 132.5t-26 132.5t-79 42.5
q-54 0 -80.5 -42.5zM408 736.5q45 -45.5 51 -117.5l-81 -15q-21 78 -87 78q-67 0 -86 -78l-81 15q6 72 50.5 117.5t116.5 45.5t117 -45.5z" />
    <glyph glyph-name="uni0210" unicode="&#x210;" horiz-adv-x="614" 
d="M295 271h-75v-271h-147v692h216q139 0 209 -51.5t70 -155.5q0 -68 -33.5 -112t-103.5 -75l179 -298h-167zM220 375h77q59 0 89 26.5t30 83.5q0 53 -31.5 77.5t-98.5 24.5h-66v-212zM171 979l95 -191l-76 -35l-118 176zM341 979l86 -189l-77 -32l-109 173z" />
    <glyph glyph-name="uni0211" unicode="&#x211;" horiz-adv-x="397" 
d="M397 537l-24 -137q-28 7 -47 7q-47 0 -73 -33t-41 -100v-274h-142v530h123l13 -103q19 56 55.5 87t82.5 31q24 0 53 -8zM116 853l95 -191l-76 -35l-118 176zM286 853l86 -189l-77 -32l-109 173z" />
    <glyph glyph-name="uni0212" unicode="&#x212;" horiz-adv-x="614" 
d="M295 271h-75v-271h-147v692h216q139 0 209 -51.5t70 -155.5q0 -68 -33.5 -112t-103.5 -75l179 -298h-167zM220 375h77q59 0 89 26.5t30 83.5q0 53 -31.5 77.5t-98.5 24.5h-66v-212zM416 898.5q45 -45.5 51 -117.5l-81 -15q-21 78 -87 78q-67 0 -86 -78l-81 15
q6 72 50.5 117.5t116.5 45.5t117 -45.5z" />
    <glyph glyph-name="uni0213" unicode="&#x213;" horiz-adv-x="397" 
d="M397 537l-24 -137q-28 7 -47 7q-47 0 -73 -33t-41 -100v-274h-142v530h123l13 -103q19 56 55.5 87t82.5 31q24 0 53 -8zM351 736.5q45 -45.5 51 -117.5l-81 -15q-21 78 -87 78q-67 0 -86 -78l-81 15q6 72 50.5 117.5t116.5 45.5t117 -45.5z" />
    <glyph glyph-name="uni0214" unicode="&#x214;" horiz-adv-x="654" 
d="M590 228q0 -71 -30 -126t-89.5 -86.5t-144.5 -31.5q-128 0 -195.5 66.5t-67.5 177.5v464h147v-457q0 -70 28 -104.5t88 -34.5t88.5 34.5t28.5 104.5v457h147v-464zM198 979l95 -191l-76 -35l-118 176zM368 979l86 -189l-77 -32l-109 173z" />
    <glyph glyph-name="uni0215" unicode="&#x215;" horiz-adv-x="574" 
d="M504 0h-123l-7 71q-28 -44 -68 -65.5t-93 -21.5q-72 0 -110 43.5t-38 121.5v381h142v-363q0 -42 14 -59.5t44 -17.5q57 0 97 69v371h142v-530zM166 853l95 -191l-76 -35l-118 176zM336 853l86 -189l-77 -32l-109 173z" />
    <glyph glyph-name="uni0216" unicode="&#x216;" horiz-adv-x="654" 
d="M590 228q0 -71 -30 -126t-89.5 -86.5t-144.5 -31.5q-128 0 -195.5 66.5t-67.5 177.5v464h147v-457q0 -70 28 -104.5t88 -34.5t88.5 34.5t28.5 104.5v457h147v-464zM443 898.5q45 -45.5 51 -117.5l-81 -15q-21 78 -87 78q-67 0 -86 -78l-81 15q6 72 50.5 117.5t116.5 45.5
t117 -45.5z" />
    <glyph glyph-name="uni0217" unicode="&#x217;" horiz-adv-x="574" 
d="M504 0h-123l-7 71q-28 -44 -68 -65.5t-93 -21.5q-72 0 -110 43.5t-38 121.5v381h142v-363q0 -42 14 -59.5t44 -17.5q57 0 97 69v371h142v-530zM401 736.5q45 -45.5 51 -117.5l-81 -15q-21 78 -87 78q-67 0 -86 -78l-81 15q6 72 50.5 117.5t116.5 45.5t117 -45.5z" />
    <glyph glyph-name="Scommaaccent" unicode="&#x218;" horiz-adv-x="565" 
d="M414.5 686.5q55.5 -21.5 102.5 -65.5l-70 -81q-37 30 -74 44t-79 14q-46 0 -73.5 -19.5t-27.5 -55.5q0 -25 11.5 -41t40.5 -30t87 -32q103 -33 154 -81.5t51 -138.5q0 -64 -32 -112.5t-93 -76t-143 -27.5t-146 26t-110 71l75 83q40 -34 83 -51.5t94 -17.5q54 0 86.5 25
t32.5 70q0 28 -11.5 46.5t-39.5 33.5t-81 31q-113 35 -161.5 84t-48.5 128q0 58 31 102.5t86 68.5t125 24q75 0 130.5 -21.5zM333 -90.5q21 -20.5 21 -51.5q0 -17 -5.5 -34.5t-20.5 -48.5l-46 -93h-72l27 115q-30 25 -30 61q0 30 21 51t53 21q31 0 52 -20.5z" />
    <glyph glyph-name="scommaaccent" unicode="&#x219;" horiz-adv-x="479" 
d="M438 482l-54 -81q-67 42 -132 42q-35 0 -54 -13t-19 -35q0 -16 8.5 -27t32 -21t70.5 -24q84 -23 125 -61.5t41 -105.5q0 -53 -30.5 -92t-82.5 -59.5t-116 -20.5q-67 0 -122 20.5t-94 56.5l70 78q67 -52 142 -52q40 0 63.5 15.5t23.5 42.5q0 21 -9 33t-33 22.5t-75 24.5
q-80 22 -118.5 62.5t-38.5 100.5q0 45 26 81t73.5 56.5t110.5 20.5q112 0 192 -64zM294 -90.5q21 -20.5 21 -51.5q0 -17 -5.5 -34.5t-20.5 -48.5l-46 -93h-72l27 115q-30 25 -30 61q0 30 21 51t53 21q31 0 52 -20.5z" />
    <glyph glyph-name="uni021A" unicode="&#x21a;" horiz-adv-x="534" 
d="M532 692l-16 -115h-175v-577h-147v577h-184v115h522zM321 -90.5q21 -20.5 21 -51.5q0 -17 -5.5 -34.5t-20.5 -48.5l-46 -93h-72l27 115q-30 25 -30 61q0 30 21 51t53 21q31 0 52 -20.5z" />
    <glyph glyph-name="uni021B" unicode="&#x21b;" horiz-adv-x="380" 
d="M387 25q-29 -20 -65.5 -30.5t-72.5 -10.5q-82 1 -124 47t-42 135v264h-79v100h79v116l142 17v-133h122l-14 -100h-108v-261q0 -38 13 -55t40 -17t60 18zM288 -90.5q21 -20.5 21 -51.5q0 -17 -5.5 -34.5t-20.5 -48.5l-46 -93h-72l27 115q-30 25 -30 61q0 30 21 51t53 21
q31 0 52 -20.5z" />
    <glyph glyph-name="uni021C" unicode="&#x21c;" horiz-adv-x="516" 
d="M357 684q52 -24 79.5 -66t27.5 -96q0 -65 -38 -106.5t-112 -57.5q81 -9 126 -48.5t45 -114.5q0 -106 -101 -186t-316 -119l-12 111q108 26 168 56.5t83.5 65t23.5 78.5q0 100 -131 100h-71l17 108h56q52 0 81 25.5t29 72.5q0 42 -23.5 67t-73.5 25q-72 0 -145 -58l-69 77
q98 90 233 90q71 0 123 -24z" />
    <glyph glyph-name="uni021D" unicode="&#x21d;" horiz-adv-x="480" 
d="M357.5 506q58.5 -40 58.5 -111q0 -48 -28 -78t-86 -44q67 -4 103.5 -34t36.5 -83q0 -88 -99 -156.5t-282 -105.5l-15 95q132 40 190 78.5t58 90.5q0 31 -19 44.5t-57 13.5h-96l8 95h53q89 0 89 70q0 65 -79 65q-35 0 -63.5 -9t-58.5 -28l-65 76q85 61 206 61
q87 0 145.5 -40z" />
    <glyph glyph-name="uni021E" unicode="&#x21e;" horiz-adv-x="669" 
d="M449 0v303h-229v-303h-147v692h147v-273h229v273h147v-692h-147zM467 935l52 -60l-140 -124h-88l-140 124l53 60l131 -83z" />
    <glyph glyph-name="uni021F" unicode="&#x21f;" horiz-adv-x="579" 
d="M474.5 503.5q39.5 -42.5 39.5 -117.5v-386h-142v362q0 43 -15 60.5t-43 17.5q-56 0 -102 -73v-367h-142v741l142 15v-286q32 38 69.5 57t84.5 19q69 0 108.5 -42.5zM421 984l52 -60l-140 -124h-88l-140 124l53 60l131 -83z" />
    <glyph glyph-name="uni0220" unicode="&#x220;" horiz-adv-x="658" 
d="M545 656.5q46 -51.5 46 -135.5v-729h-147v704q0 51 -19.5 76t-62.5 25q-42 0 -73.5 -18t-68.5 -57v-522h-147v692h129l11 -71q43 44 89.5 65.5t107.5 21.5q89 0 135 -51.5z" />
    <glyph glyph-name="uni0221" unicode="&#x221;" horiz-adv-x="776" 
d="M753.5 210q33.5 -30 33.5 -81q0 -70 -52 -107.5t-135 -37.5q-29 0 -52 4l-32 -70l-74 29l32 67q-44 26 -65 69q-61 -99 -165 -99q-98 0 -149.5 75.5t-51.5 205.5q0 82 26.5 145.5t75.5 99.5t115 36q37 0 69.5 -14.5t57.5 -38.5v264l142 -16v-563q0 -28 4 -44
q25 55 56.5 80.5t79.5 25.5q51 0 84.5 -30zM342 106.5q24 16.5 46 49.5q-1 8 -1 27v208q-21 25 -42 37.5t-49 12.5q-49 0 -77 -43t-28 -133q0 -95 24.5 -135t71.5 -40q31 0 55 16.5zM684 130q0 14 -7.5 21.5t-21.5 7.5q-18 0 -31.5 -14.5t-31.5 -54.5q8 -1 26 -1q66 0 66 41
z" />
    <glyph glyph-name="uni0222" unicode="&#x222;" horiz-adv-x="651" 
d="M579 327.5q34 -46.5 34 -111.5q0 -62 -35 -115t-100 -85t-152 -32t-152.5 31t-100.5 83.5t-35 116.5q0 63 34 109t97 72q-89 48 -89 154v142h148v-146q0 -51 22.5 -77.5t75.5 -26.5q99 0 99 104v146h147v-142q0 -50 -23.5 -88.5t-67.5 -63.5q64 -24 98 -70.5zM425 126
q33 32 33 91q0 56 -33.5 87.5t-98.5 31.5t-99 -31.5t-34 -88.5q0 -58 34 -90t99 -32q66 0 99 32z" />
    <glyph glyph-name="uni0223" unicode="&#x223;" horiz-adv-x="578" 
d="M540 223q0 -66 -29.5 -120.5t-86.5 -86.5t-135 -32t-134.5 31t-86.5 85t-30 122q0 70 30.5 118.5t88.5 72.5q-81 43 -81 140v188h140v-207q0 -80 74 -80q39 0 56 20t17 60v207h140v-188q0 -46 -21.5 -81t-62.5 -57q121 -47 121 -192zM368 122.5q25 32.5 25 101.5
q0 134 -104 134t-104 -135q0 -133 104 -133q54 0 79 32.5z" />
    <glyph glyph-name="uni0224" unicode="&#x224;" horiz-adv-x="534" 
d="M503 579l-310 -460h307v-157q0 -89 -50.5 -135.5t-137.5 -46.5q-80 0 -135 42l49 89q19 -12 34.5 -17t39.5 -5q59 0 59 64v47h-338v111l316 465h-284v116h450v-113z" />
    <glyph glyph-name="uni0225" unicode="&#x225;" horiz-adv-x="449" 
d="M428 429l-249 -319h248v-148q0 -89 -50 -135.5t-136 -46.5q-80 0 -135 42l49 85q21 -11 36.5 -16t38.5 -5q61 0 61 64v50h-275v102l249 319h-228v109h391v-101z" />
    <glyph glyph-name="uni0226" unicode="&#x226;" horiz-adv-x="586" 
d="M439 0l-39 155h-217l-39 -155h-153l213 692h179l212 -692h-156zM211 264h161l-81 319zM355.5 905.5q24.5 -23.5 24.5 -59.5t-24.5 -59.5t-62.5 -23.5t-62 23.5t-24 59.5t24 59.5t62 23.5t62.5 -23.5z" />
    <glyph glyph-name="uni0227" unicode="&#x227;" horiz-adv-x="547" 
d="M484 101.5q9 -14.5 30 -21.5l-30 -94q-47 4 -76.5 22t-45.5 56q-52 -80 -159 -80q-79 0 -125.5 45.5t-46.5 118.5q0 87 63 133t181 46h61v26q0 49 -22 68t-73 19q-56 0 -140 -28l-32 95q99 39 196 39q108 0 159 -46.5t51 -138.5v-214q0 -31 9 -45.5zM336 145v101h-47
q-115 0 -115 -86q0 -35 17.5 -54.5t50.5 -19.5q60 0 94 59zM330.5 779.5q24.5 -23.5 24.5 -59.5t-24.5 -59.5t-62.5 -23.5t-62 23.5t-24 59.5t24 59.5t62 23.5t62.5 -23.5z" />
    <glyph glyph-name="uni0228" unicode="&#x228;" horiz-adv-x="528" 
d="M320 0v-50q51 -5 76 -30.5t25 -65.5q0 -50 -39.5 -80.5t-103.5 -30.5q-33 0 -60.5 8t-46.5 21l33 68q31 -17 64 -17q48 0 48 32q0 19 -21.5 27.5t-70.5 8.5l14 109h-165v692h413l-16 -107h-250v-180h218v-106h-218v-191h268v-108h-168z" />
    <glyph glyph-name="uni0229" unicode="&#x229;" horiz-adv-x="551" 
d="M515 222h-331q7 -72 39 -102t87 -30q34 0 64 11t65 35l59 -80q-74 -60 -166 -70v-36q51 -5 76 -30.5t25 -65.5q0 -50 -39.5 -80.5t-103.5 -30.5q-33 0 -60.5 8t-46.5 21l33 68q31 -17 64 -17q48 0 48 32q0 19 -21.5 27.5t-70.5 8.5l12 96q-102 15 -156 88t-54 187
q0 81 28.5 145.5t83 101.5t129.5 37q113 0 176 -71t63 -198q0 -10 -3 -55zM377 317q0 132 -95 132q-44 0 -68.5 -32.5t-29.5 -105.5h193v6z" />
    <glyph glyph-name="uni022A" unicode="&#x22a;" horiz-adv-x="691" 
d="M510 665.5q69 -42.5 106 -123.5t37 -196q0 -113 -37 -194.5t-106 -124.5t-164 -43t-164.5 42.5t-106.5 124t-37 195.5q0 112 37.5 193.5t107 125t163.5 43.5q95 0 164 -42.5zM231.5 538q-38.5 -60 -38.5 -192t39 -192t114 -60q76 0 114 59.5t38 192.5t-38 192.5
t-114 59.5t-114.5 -60zM285.5 871.5q21.5 -21.5 21.5 -52.5t-21.5 -52.5t-53.5 -21.5q-31 0 -53 21.5t-22 52.5t22 52.5t53 21.5q32 0 53.5 -21.5zM512 871.5q22 -21.5 22 -52.5t-22 -52.5t-54 -21.5q-31 0 -52.5 21.5t-21.5 52.5t21.5 52.5t52.5 21.5q32 0 54 -21.5z
M498 931h-298v100h298v-100z" />
    <glyph glyph-name="uni022B" unicode="&#x22b;" horiz-adv-x="584" 
d="M479 471.5q67 -74.5 67 -206.5q0 -84 -30.5 -147.5t-88 -98.5t-135.5 -35q-119 0 -186.5 74.5t-67.5 206.5q0 84 30.5 147.5t88 98.5t136.5 35q119 0 186 -74.5zM212.5 397.5q-26.5 -42.5 -26.5 -132.5t26.5 -132.5t79.5 -42.5t79.5 42.5t26.5 132.5t-26 132.5t-79 42.5
q-54 0 -80.5 -42.5zM231.5 733.5q21.5 -21.5 21.5 -52.5t-21.5 -52.5t-53.5 -21.5q-31 0 -53 21.5t-22 52.5t22 52.5t53 21.5q32 0 53.5 -21.5zM458 733.5q22 -21.5 22 -52.5t-22 -52.5t-54 -21.5q-31 0 -52.5 21.5t-21.5 52.5t21.5 52.5t52.5 21.5q32 0 54 -21.5zM441 799
h-298v100h298v-100z" />
    <glyph glyph-name="uni022C" unicode="&#x22c;" horiz-adv-x="691" 
d="M510 665.5q69 -42.5 106 -123.5t37 -196q0 -113 -37 -194.5t-106 -124.5t-164 -43t-164.5 42.5t-106.5 124t-37 195.5q0 112 37.5 193.5t107 125t163.5 43.5q95 0 164 -42.5zM231.5 538q-38.5 -60 -38.5 -192t39 -192t114 -60q76 0 114 59.5t38 192.5t-38 192.5
t-114 59.5t-114.5 -60zM367.5 763q-15.5 7 -36.5 20q-13 10 -22.5 14.5t-19.5 4.5q-16 0 -28 -11t-25 -34l-73 36q20 49 52 80t72 31q23 0 39 -7.5t36 -20.5q13 -9 22 -13.5t19 -4.5q16 0 27.5 10.5t25.5 33.5l73 -36q-20 -51 -52 -80.5t-73 -29.5q-21 0 -36.5 7zM495 935
h-298v100h298v-100z" />
    <glyph glyph-name="uni022D" unicode="&#x22d;" horiz-adv-x="584" 
d="M479 471.5q67 -74.5 67 -206.5q0 -84 -30.5 -147.5t-88 -98.5t-135.5 -35q-119 0 -186.5 74.5t-67.5 206.5q0 84 30.5 147.5t88 98.5t136.5 35q119 0 186 -74.5zM212.5 397.5q-26.5 -42.5 -26.5 -132.5t26.5 -132.5t79.5 -42.5t79.5 42.5t26.5 132.5t-26 132.5t-79 42.5
q-54 0 -80.5 -42.5zM313.5 601q-15.5 7 -36.5 20q-13 10 -22.5 14.5t-19.5 4.5q-16 0 -28 -11t-25 -34l-73 36q20 49 52 80t72 31q23 0 39 -7.5t36 -20.5q13 -9 22 -13.5t19 -4.5q16 0 27.5 10.5t25.5 33.5l73 -36q-20 -51 -52 -80.5t-73 -29.5q-21 0 -36.5 7zM441 826h-298
v100h298v-100z" />
    <glyph glyph-name="uni022E" unicode="&#x22e;" horiz-adv-x="691" 
d="M510 665.5q69 -42.5 106 -123.5t37 -196q0 -113 -37 -194.5t-106 -124.5t-164 -43t-164.5 42.5t-106.5 124t-37 195.5q0 112 37.5 193.5t107 125t163.5 43.5q95 0 164 -42.5zM231.5 538q-38.5 -60 -38.5 -192t39 -192t114 -60q76 0 114 59.5t38 192.5t-38 192.5
t-114 59.5t-114.5 -60zM407.5 905.5q24.5 -23.5 24.5 -59.5t-24.5 -59.5t-62.5 -23.5t-62 23.5t-24 59.5t24 59.5t62 23.5t62.5 -23.5z" />
    <glyph glyph-name="uni022F" unicode="&#x22f;" horiz-adv-x="584" 
d="M479 471.5q67 -74.5 67 -206.5q0 -84 -30.5 -147.5t-88 -98.5t-135.5 -35q-119 0 -186.5 74.5t-67.5 206.5q0 84 30.5 147.5t88 98.5t136.5 35q119 0 186 -74.5zM212.5 397.5q-26.5 -42.5 -26.5 -132.5t26.5 -132.5t79.5 -42.5t79.5 42.5t26.5 132.5t-26 132.5t-79 42.5
q-54 0 -80.5 -42.5zM353.5 779.5q24.5 -23.5 24.5 -59.5t-24.5 -59.5t-62.5 -23.5t-62 23.5t-24 59.5t24 59.5t62 23.5t62.5 -23.5z" />
    <glyph glyph-name="uni0230" unicode="&#x230;" horiz-adv-x="691" 
d="M510 665.5q69 -42.5 106 -123.5t37 -196q0 -113 -37 -194.5t-106 -124.5t-164 -43t-164.5 42.5t-106.5 124t-37 195.5q0 112 37.5 193.5t107 125t163.5 43.5q95 0 164 -42.5zM231.5 538q-38.5 -60 -38.5 -192t39 -192t114 -60q76 0 114 59.5t38 192.5t-38 192.5
t-114 59.5t-114.5 -60zM407.5 879.5q24.5 -23.5 24.5 -59.5t-24.5 -59.5t-62.5 -23.5t-62 23.5t-24 59.5t24 59.5t62 23.5t62.5 -23.5zM496 932h-298v100h298v-100z" />
    <glyph glyph-name="uni0231" unicode="&#x231;" horiz-adv-x="584" 
d="M479 471.5q67 -74.5 67 -206.5q0 -84 -30.5 -147.5t-88 -98.5t-135.5 -35q-119 0 -186.5 74.5t-67.5 206.5q0 84 30.5 147.5t88 98.5t136.5 35q119 0 186 -74.5zM212.5 397.5q-26.5 -42.5 -26.5 -132.5t26.5 -132.5t79.5 -42.5t79.5 42.5t26.5 132.5t-26 132.5t-79 42.5
q-54 0 -80.5 -42.5zM353.5 738.5q24.5 -23.5 24.5 -59.5t-24.5 -59.5t-62.5 -23.5t-62 23.5t-24 59.5t24 59.5t62 23.5t62.5 -23.5zM441 795h-298v100h298v-100z" />
    <glyph glyph-name="uni0232" unicode="&#x232;" horiz-adv-x="583" 
d="M587 692l-222 -431v-261h-147v260l-222 432h161l138 -314l137 314h155zM441 784h-298v100h298v-100z" />
    <glyph glyph-name="uni0233" unicode="&#x233;" horiz-adv-x="512" 
d="M343 -1q-32 -101 -100.5 -156t-185.5 -63l-15 102q76 10 111.5 36t58.5 82h-49l-165 530h151l106 -438l112 438h147zM405 658h-298v100h298v-100z" />
    <glyph glyph-name="uni0234" unicode="&#x234;" horiz-adv-x="454" 
d="M431 210q33 -30 33 -81q0 -70 -51.5 -107.5t-134.5 -37.5q-32 0 -53 5l-32 -71l-73 29l32 67q-87 50 -87 169v558l142 16v-579q0 -27 4 -42q24 54 55.5 79t79.5 25q52 0 85 -30zM361 130q0 29 -29 29q-18 0 -31.5 -14.5t-31.5 -54.5q8 -1 26 -1q66 0 66 41z" />
    <glyph glyph-name="uni0235" unicode="&#x235;" horiz-adv-x="761" 
d="M738.5 210q33.5 -30 33.5 -81q0 -70 -52 -107.5t-135 -37.5q-29 0 -52 4l-32 -70l-74 29l32 67q-40 23 -63.5 65t-23.5 104v179q0 43 -14.5 60.5t-43.5 17.5q-30 0 -54.5 -18.5t-47.5 -55.5v-366h-142v530h123l11 -67q33 41 72.5 62t89.5 21q70 0 109 -42.5t39 -117.5
v-208q0 -28 4 -44q25 55 56.5 80.5t79.5 25.5q51 0 84.5 -30zM669 130q0 14 -7.5 21.5t-21.5 7.5q-18 0 -31.5 -14.5t-31.5 -54.5q8 -1 26 -1q66 0 66 41z" />
    <glyph glyph-name="uni0236" unicode="&#x236;" horiz-adv-x="471" 
d="M448.5 210q33.5 -30 33.5 -81q0 -70 -51.5 -107.5t-135.5 -37.5q-29 0 -53 4l-31 -70l-73 29l31 66q-86 48 -86 170v247h-79v100h79v116l142 17v-133h122l-14 -100h-108v-252q0 -27 4 -42q24 54 55.5 79t79.5 25q51 0 84.5 -30zM379 130q0 29 -29 29q-18 0 -31.5 -14.5
t-31.5 -54.5q8 -1 26 -1q66 0 66 41z" />
    <glyph glyph-name="uni0237" unicode="&#x237;" horiz-adv-x="281" 
d="M211 53q0 -80 -24.5 -131.5t-67.5 -83t-110 -57.5l-47 103q39 18 61 35.5t34 47t12 77.5v486h142v-477z" />
    <glyph glyph-name="uni0238" unicode="&#x238;" horiz-adv-x="874" 
d="M782 471.5q49 -74.5 49 -206.5q0 -81 -25 -145t-70.5 -100t-105.5 -36q-40 0 -73 21t-55 58l-9 -63h-109l-9 64q-26 -36 -62 -58t-79 -22q-91 0 -141 76t-50 205q0 81 25.5 145t71 100t104.5 36q35 0 67 -17t56 -49v261l142 16v-285q53 74 139 74q85 0 134 -74.5z
M367 154v230q-39 57 -86 57q-41 0 -65.5 -43.5t-24.5 -132.5q0 -175 86 -175q49 0 90 64zM658 132q25 43 25 133q0 97 -22.5 136.5t-60.5 39.5q-28 0 -50 -16.5t-41 -45.5v-222q19 -34 38.5 -51t47.5 -17q38 0 63 43z" />
    <glyph glyph-name="uni0239" unicode="&#x239;" horiz-adv-x="874" 
d="M783.5 472q47.5 -74 47.5 -206q0 -81 -24.5 -145t-69.5 -100.5t-103 -36.5q-78 0 -125 69v-257l-142 -16v272q-53 -68 -134 -68q-90 0 -140 76t-50 205q0 81 25.5 145t72.5 100t108 36q37 0 70 -19t59 -58l7 61h107l8 -64q58 80 144 80q92 0 139.5 -74zM367 154v223
q-19 34 -39.5 49t-46.5 15q-41 0 -65.5 -43.5t-24.5 -132.5q0 -175 85 -175q50 0 91 64zM658 133q25 43 25 132q0 95 -21 135.5t-60 40.5q-26 0 -50 -18t-43 -47v-224q33 -62 83 -62q41 0 66 43z" />
    <glyph glyph-name="uni023A" unicode="&#x23a;" horiz-adv-x="586" 
d="M450 0l-41 155h-120l-61 -228l-55 13l57 215h-57l-41 -155h-141l213 692h169l16 62l55 -13l-35 -133l186 -608h-145zM200 257h57l62 234l-28 106zM316 257h66l-34 124z" />
    <glyph glyph-name="uni023B" unicode="&#x23b;" horiz-adv-x="571" 
d="M561 71q-37 -38 -91.5 -62.5t-120.5 -24.5q-38 0 -76 8l-17 -65l-55 13l18 69q-85 36 -133 122.5t-48 215.5q0 113 40 194.5t110 124t158 42.5q34 0 58 -4l13 50l55 -13l-14 -51q48 -18 95 -57l-73 -85q-25 20 -51 32l-125 -472q26 -8 51 -8q39 0 71 14.5t67 41.5z
M254 139l121 457q-7 1 -21 1q-74 0 -117.5 -60.5t-43.5 -189.5q0 -145 61 -208z" />
    <glyph glyph-name="uni023C" unicode="&#x23c;" horiz-adv-x="478" 
d="M351 106.5q23 8.5 54 28.5l62 -89q-76 -62 -174 -62q-29 0 -52 4l-16 -61l-53 13l17 63q-72 28 -111.5 95t-39.5 163q0 84 31 148.5t88.5 100.5t133.5 36q23 0 44 -3l15 56l52 -13l-15 -56q42 -16 80 -48l-62 -84q-25 18 -46 27l-87 -324q14 -3 28 -3q28 0 51 8.5z
M223 129l83 307h-5q-113 0 -113 -174q0 -93 35 -133z" />
    <glyph glyph-name="uni023D" unicode="&#x23d;" horiz-adv-x="524" 
d="M234 118h274l-16 -118h-405v307h-79v112h79v273h147v-273h84v-112h-84v-189z" />
    <glyph glyph-name="uni023E" unicode="&#x23e;" horiz-adv-x="534" 
d="M516 582h-90l-93 -209v-373h-132v79l-68 -152l-48 22l116 260v373h-191v110h407l29 65l49 -22l-19 -43h56zM333 504l35 78h-35v-78z" />
    <glyph glyph-name="uni023F" unicode="&#x23f;" horiz-adv-x="481" 
d="M423 -102l32 -87q-41 -30 -103 -30q-43 0 -74.5 16t-54 40t-54.5 68q-35 48 -65.5 81.5t-72.5 62.5l-18 12l60 78q78 -52 153 -52q39 0 61.5 14.5t22.5 42.5q0 21 -9 33.5t-33 23t-75 24.5q-80 22 -118.5 62.5t-38.5 100.5q0 45 26 81t73.5 56.5t110.5 20.5
q112 0 192 -64l-54 -81q-67 42 -132 42q-35 0 -54 -13t-19 -35q0 -16 8.5 -27t32 -21t70.5 -24q84 -23 125 -61.5t41 -105.5q0 -53 -30.5 -92t-81 -59.5t-108.5 -20.5h-2q17 -12 31.5 -26t26.5 -27q23 -24 38 -34t40 -10q26 0 53 11z" />
    <glyph glyph-name="uni0240" unicode="&#x240;" horiz-adv-x="430" 
d="M305.5 -206q-29.5 13 -49.5 33t-46 54q-28 36 -50.5 58t-58 39.5t-85.5 21.5v102l249 319h-228v109h391v-101l-279 -350q53 -17 84 -46t66 -76q27 -37 46 -53.5t48 -16.5q26 0 55 11l32 -87q-41 -30 -103 -30q-42 0 -71.5 13z" />
    <glyph glyph-name="uni0241" unicode="&#x241;" horiz-adv-x="499" 
d="M148 327l59 17q62 17 90.5 49t28.5 92q0 53 -28 83.5t-78 30.5q-38 0 -72 -14t-70 -44l-73 77q50 45 106.5 67.5t125.5 22.5q73 0 128 -27t84.5 -76t29.5 -113q0 -85 -41.5 -131.5t-118.5 -74.5l-24 -9v-277h-147v327z" />
    <glyph glyph-name="uni0242" unicode="&#x242;" horiz-adv-x="458" 
d="M113 201l57 16q54 15 81.5 43.5t27.5 76.5q0 46 -25 73.5t-69 27.5q-35 0 -60.5 -11.5t-56.5 -36.5l-70 74q42 41 90 61.5t111 20.5q68 0 120 -26.5t80 -73.5t28 -107q0 -74 -38.5 -116.5t-105.5 -63.5l-28 -8v-151h-142v201z" />
    <glyph glyph-name="uni0243" unicode="&#x243;" horiz-adv-x="628" 
d="M554.5 315.5q43.5 -37.5 43.5 -114.5q0 -109 -78 -155t-217 -46h-216v174h-72v77h72v441h189q142 0 217 -42t75 -135q0 -61 -36.5 -98.5t-90.5 -50.5q70 -13 113.5 -50.5zM234 586v-175h72q54 0 83 22.5t29 68.5t-31 65t-97 19h-56zM409 129.5q36 20.5 36 77.5
q0 104 -128 104h-83v-60h126v-77h-126v-65h70q69 0 105 20.5z" />
    <glyph glyph-name="uni0244" unicode="&#x244;" horiz-adv-x="683" 
d="M665 502h-60v-274q0 -71 -30 -126t-89.5 -86.5t-144.5 -31.5q-128 0 -195.5 66.5t-67.5 177.5v274h-60v86h60v104h147v-104h233v104h147v-104h60v-86zM458 502h-233v-267q0 -70 28 -104.5t88 -34.5t88.5 34.5t28.5 104.5v267z" />
    <glyph glyph-name="uni0245" unicode="&#x245;" horiz-adv-x="586" 
d="M383 692l212 -692h-156l-147 583l-148 -583h-153l213 692h179z" />
    <glyph glyph-name="uni0246" unicode="&#x246;" horiz-adv-x="528" 
d="M488 108v-108h-236l-19 -73l-55 13l16 60h-121v692h305l16 62l54 -13l-13 -49h51l-16 -107h-63l-48 -180h79v-106h-107l-50 -191h207zM220 585v-180h81l48 180h-129zM220 108h3l50 191h-53v-191z" />
    <glyph glyph-name="uni0247" unicode="&#x247;" horiz-adv-x="551" 
d="M289 224l-34 -127q22 -7 55 -7q34 0 64 11t65 35l59 -80q-89 -72 -201 -72q-40 0 -71 7l-17 -64l-50 13l18 67q-68 30 -103.5 96.5t-35.5 158.5q0 81 28.5 145.5t83 101.5t129.5 37q22 0 42 -3l15 56l50 -13l-15 -55q71 -26 109 -91t38 -163q0 -5 -3 -53h-226zM206 417.5
q-26 -33.5 -32 -109.5h84l38 142q-4 1 -14 1q-50 0 -76 -33.5zM345 434l-34 -126h78v7q0 89 -44 119zM235 224h-60q6 -65 34 -98z" />
    <glyph glyph-name="uni0248" unicode="&#x248;" horiz-adv-x="331" 
d="M326 287h-81v-184q0 -80 -27.5 -132t-73.5 -81.5t-112 -51.5l-39 105q44 17 66.5 39t30.5 51t8 75v179h-82v112h82v293h147v-293h81v-112z" />
    <glyph glyph-name="uni0249" unicode="&#x249;" horiz-adv-x="327" 
d="M319 206h-83v-153q0 -80 -24.5 -131.5t-67.5 -83t-110 -57.5l-47 103q39 18 61 35.5t34 47t12 77.5v162h-85v101h85v223h142v-223h83v-101zM226.5 779.5q24.5 -23.5 24.5 -59.5t-24.5 -59.5t-62.5 -23.5t-62 23.5t-24 59.5t24 59.5t62 23.5t62.5 -23.5z" />
    <glyph glyph-name="uni024A" unicode="&#x24a;" horiz-adv-x="672" 
d="M775 -178q-55 -42 -135 -42q-88 0 -138.5 46.5t-50.5 135.5v78q-58 -56 -141 -56q-79 0 -140.5 41t-96.5 119.5t-35 188.5q0 116 35.5 201t98 129.5t142.5 44.5q86 0 147 -58l7 42h131v-739q0 -64 56 -64q21 0 35.5 5t34.5 16zM451 138v416q-47 44 -110 44
q-72 0 -110 -63t-38 -202q0 -128 38 -184.5t107 -56.5q65 0 113 46z" />
    <glyph glyph-name="uni024B" unicode="&#x24b;" horiz-adv-x="599" 
d="M615 -202q-17 -8 -41 -13t-49 -5q-65 0 -101.5 37.5t-36.5 106.5v130q-55 -70 -143 -70q-98 0 -149.5 75.5t-51.5 205.5q0 82 26.5 145.5t75.5 99.5t115 36q79 0 138 -65l8 49h123v-602q0 -35 29 -35q15 0 28 5zM342 106q24 16 45 48v237q-21 25 -42 37.5t-49 12.5
q-49 0 -77 -43t-28 -133q0 -95 24.5 -135t71.5 -40q31 0 55 16z" />
    <glyph glyph-name="uni024C" unicode="&#x24c;" horiz-adv-x="627" 
d="M456 0l-148 271h-75v-271h-147v271h-71v104h71v317h216q139 0 209 -51.5t70 -155.5q0 -68 -33.5 -112t-103.5 -75l179 -298h-167zM310 375q59 0 89 26.5t30 83.5q0 53 -31.5 77.5t-98.5 24.5h-66v-212h77z" />
    <glyph glyph-name="uni024D" unicode="&#x24d;" horiz-adv-x="418" 
d="M418 537l-24 -137q-28 7 -47 7q-45 0 -70.5 -30t-40.5 -92h82v-101h-85v-184h-142v184h-83v101h83v245h123l13 -103q19 56 55.5 87t82.5 31q24 0 53 -8z" />
    <glyph glyph-name="uni024E" unicode="&#x24e;" horiz-adv-x="583" 
d="M547 612h41v-86h-86l-136 -265v-261h-148v260l-137 266h-83v86h39l-41 80h157l35 -80h215l35 80h150zM295 369l70 157h-139z" />
    <glyph glyph-name="uni024F" unicode="&#x24f;" horiz-adv-x="531" 
d="M480 393h41v-85h-68l-100 -309q-32 -101 -100.5 -156t-185.5 -63l-15 102q76 10 111.5 36t58.5 82h-49l-96 308h-68v85h42l-43 137h151l33 -137h150l35 137h147zM265 92l55 216h-107z" />
    <glyph glyph-name="uni0250" unicode="&#x250;" horiz-adv-x="547" 
d="M446 118l32 -95q-99 -39 -196 -39q-108 0 -159 46.5t-51 138.5v214q0 31 -9 45.5t-30 21.5l30 94q47 -4 76.5 -22t45.5 -56q52 80 159 80q79 0 125.5 -45.5t46.5 -118.5q0 -87 -63 -133t-181 -46h-61v-26q0 -49 22 -68t73 -19q56 0 140 28zM211 385v-101h47q115 0 115 86
q0 35 -17.5 54.5t-50.5 19.5q-60 0 -94 -59z" />
    <glyph glyph-name="uni0251" unicode="&#x251;" horiz-adv-x="598" 
d="M532 116q9 -17 34 -29l-42 -103q-52 10 -82 29.5t-44 52.5q-29 -38 -68.5 -60t-86.5 -22q-98 0 -151.5 76t-53.5 205q0 82 26.5 145.5t76 99.5t116.5 36q81 0 134 -64l8 48h124v-361q0 -36 9 -53zM335 106q24 16 46 49v235q-21 25 -43.5 38t-50.5 13q-48 0 -74.5 -43
t-26.5 -133q0 -95 24.5 -135t68.5 -40q32 0 56 16z" />
    <glyph glyph-name="uni0252" unicode="&#x252;" horiz-adv-x="598" 
d="M506.5 470q53.5 -76 53.5 -205q0 -82 -26.5 -145.5t-76 -99.5t-116.5 -36q-81 0 -134 64l-8 -48h-124v361q0 36 -9 53t-34 29l42 103q52 -10 82 -29.5t44 -52.5q29 38 68.5 60t86.5 22q98 0 151.5 -76zM385.5 132q26.5 43 26.5 133q0 95 -24.5 135t-68.5 40
q-32 0 -56 -16t-46 -49v-235q21 -25 43.5 -38t50.5 -13q48 0 74.5 43z" />
    <glyph glyph-name="uni0253" unicode="&#x253;" horiz-adv-x="596" 
d="M501.5 472q51.5 -74 51.5 -207q0 -82 -25.5 -145.5t-73 -99.5t-111.5 -36q-87 0 -139 68l-8 -52h-126v583q0 77 50.5 125.5t143.5 48.5q74 0 140 -32l-39 -94q-43 20 -86 20q-36 0 -51.5 -17t-15.5 -55v-106q24 34 62 53.5t80 19.5q96 0 147.5 -74zM378 131q27 42 27 134
q0 97 -24.5 136.5t-70.5 39.5q-30 0 -55 -18t-43 -50v-227q17 -27 40.5 -42t51.5 -15q47 0 74 42z" />
    <glyph glyph-name="uni0254" unicode="&#x254;" horiz-adv-x="478" 
d="M11 44l64 84q28 -20 51 -28.5t54 -9.5q56 0 84 42.5t28 132.5q0 91 -26.5 133t-80.5 42q-55 0 -108 -36l-61 81q72 61 177 61q116 0 181.5 -74.5t65.5 -206.5q0 -84 -30.5 -147.5t-87.5 -98.5t-136 -35q-102 0 -175 60z" />
    <glyph glyph-name="uni0255" unicode="&#x255;" horiz-adv-x="498" 
d="M452 218.5q35 -31.5 35 -85.5q0 -72 -52.5 -110.5t-134.5 -38.5q-41 0 -71 8l-33 -74l-73 29l34 73q-57 33 -88 95.5t-31 145.5q0 84 31 148.5t88.5 100.5t133.5 36q53 0 95.5 -15.5t80.5 -48.5l-62 -85q-26 20 -50.5 29.5t-53.5 9.5q-113 0 -113 -174q0 -83 26 -125
q24 59 59 86t89 27q55 0 90 -31.5zM384 136q0 33 -34 33q-23 0 -39.5 -16t-36.5 -58q21 -6 43 -6q67 0 67 47z" />
    <glyph glyph-name="uni0256" unicode="&#x256;" horiz-adv-x="599" 
d="M708 -178q-55 -42 -136 -42q-85 0 -135 47t-50 135v91q-55 -69 -143 -69q-98 0 -149.5 75.5t-51.5 205.5q0 82 26.5 145.5t75.5 99.5t115 36q37 0 69.5 -14.5t57.5 -38.5v264l142 -16v-791q0 -64 58 -64q21 0 35.5 4.5t36.5 15.5zM342 106q24 16 45 48v237
q-21 25 -42 37.5t-49 12.5q-49 0 -77 -43t-28 -133q0 -95 24.5 -135t71.5 -40q31 0 55 16z" />
    <glyph glyph-name="uni0257" unicode="&#x257;" horiz-adv-x="599" 
d="M696 719l-43 -89q-19 11 -34.5 16t-34.5 5q-55 0 -55 -65v-586h-125l-8 65q-56 -81 -152 -81q-98 0 -149.5 75.5t-51.5 205.5q0 82 26.5 145.5t75.5 99.5t115 36q37 0 69.5 -14.5t57.5 -38.5v87q0 82 46.5 129.5t132.5 47.5q75 0 130 -38zM342 106q24 16 45 48v237
q-21 25 -42 37.5t-49 12.5q-49 0 -77 -43t-28 -133q0 -95 24.5 -135t71.5 -40q31 0 55 16z" />
    <glyph glyph-name="uni0258" unicode="&#x258;" horiz-adv-x="551" 
d="M452.5 469q60.5 -77 60.5 -207q0 -127 -67.5 -202.5t-191.5 -75.5q-112 0 -201 72l58 80q35 -24 66.5 -35t68.5 -11q54 0 84 29.5t36 102.5h-330q-3 45 -3 55q0 126 64 197.5t175 71.5q120 0 180.5 -77zM173 311h194q-4 77 -26.5 107.5t-70.5 30.5q-95 0 -97 -132v-6z
" />
    <glyph glyph-name="uni0259" unicode="&#x259;" horiz-adv-x="555" 
d="M455 471q62 -75 62 -205q0 -83 -29 -146.5t-84 -99.5t-132 -36q-72 0 -126 32t-83.5 93t-29.5 145q0 30 3 54h342q-4 70 -32.5 102.5t-81.5 32.5q-37 0 -68.5 -10.5t-65.5 -34.5l-60 81q83 67 199 67q124 0 186 -75zM347.5 117q26.5 31 30.5 102h-210v-7q1 -59 28 -92.5
t76 -33.5t75.5 31z" />
    <glyph glyph-name="uni025A" unicode="&#x25a;" horiz-adv-x="813" 
d="M828 346q-51 -38 -123 -38q-69 0 -108.5 33t-45.5 91v6l-57 -32q23 -61 23 -140q0 -83 -29 -146.5t-84 -99.5t-132 -36q-72 0 -126 32t-83.5 93t-29.5 145q0 30 3 54h342q-4 70 -32.5 102.5t-81.5 32.5q-37 0 -68.5 -10.5t-65.5 -34.5l-60 81q83 67 199 67q115 0 179 -67
l97 51h121v-62q0 -58 54 -58q19 0 33 4t33 13zM347.5 117q26.5 31 30.5 102h-210v-7q1 -59 28 -92.5t76 -33.5t75.5 31z" />
    <glyph glyph-name="uni025B" unicode="&#x25b;" horiz-adv-x="477" 
d="M455 489l-59 -76q-30 17 -56.5 25t-58.5 8q-36 0 -57 -16t-21 -46q0 -29 21.5 -46t60.5 -17h65l-15 -95h-57q-49 0 -70.5 -16.5t-21.5 -51.5q0 -33 24 -52t70 -19q34 0 65 10t66 32l61 -81q-40 -31 -93.5 -47.5t-116.5 -16.5q-100 0 -162 43t-62 120q0 118 140 135
q-119 24 -119 118q0 68 56 107t148 39q113 0 192 -57z" />
    <glyph glyph-name="uni025C" unicode="&#x25c;" horiz-adv-x="498" 
d="M374.5 506.5q58.5 -39.5 58.5 -106.5q0 -45 -28 -74t-86 -43q71 -11 106 -41.5t35 -87.5q0 -83 -66.5 -126.5t-174.5 -43.5q-127 0 -213 65l68 80q36 -23 67.5 -32.5t72.5 -9.5q98 0 98 73q0 35 -26.5 50.5t-76.5 15.5h-80l9 95h60q43 0 67 16.5t24 49.5q0 30 -21.5 44.5
t-57.5 14.5t-63.5 -9.5t-57.5 -28.5l-66 77q44 31 94 46t113 15q86 0 144.5 -39.5z" />
    <glyph glyph-name="uni025D" unicode="&#x25d;" horiz-adv-x="746" 
d="M761 346q-51 -38 -123 -38q-69 0 -108.5 33t-45.5 91v6l-51 -29v-9q0 -45 -28 -74t-86 -43q71 -11 106 -41.5t35 -87.5q0 -83 -66.5 -126.5t-174.5 -43.5q-127 0 -213 65l68 80q36 -23 67.5 -32.5t72.5 -9.5q98 0 98 73q0 35 -26.5 50.5t-76.5 15.5h-80l9 95h60
q43 0 67 16.5t24 49.5q0 30 -21.5 44.5t-57.5 14.5t-63.5 -9.5t-57.5 -28.5l-66 77q44 31 94 46t113 15q52 0 96 -15t71 -43l81 42h121v-62q0 -58 54 -58q19 0 33 4t33 13z" />
    <glyph glyph-name="uni025E" unicode="&#x25e;" horiz-adv-x="572" 
d="M104.5 57.5q-66.5 73.5 -66.5 207.5q0 85 30.5 148t88.5 98t139 35q94 0 153 -40t59 -107q0 -87 -114 -116q70 -11 105 -41.5t35 -87.5q0 -81 -64.5 -125.5t-171.5 -44.5q-127 0 -193.5 73.5zM365.5 105.5q24.5 18.5 24.5 55.5q0 35 -26 50t-73 15h-35l8 95h16
q39 0 62.5 16.5t23.5 48.5q0 28 -19.5 44t-52.5 16q-57 0 -84.5 -43.5t-27.5 -137.5q0 -95 26 -136.5t89 -41.5q44 0 68.5 18.5z" />
    <glyph glyph-name="uni025F" unicode="&#x25f;" horiz-adv-x="327" 
d="M319 206h-83v-153q0 -80 -24.5 -131.5t-67.5 -83t-110 -57.5l-47 103q39 18 61 35.5t34 47t12 77.5v162h-85v101h85v223h142v-223h83v-101z" />
    <glyph glyph-name="uni0260" unicode="&#x260;" horiz-adv-x="599" 
d="M696 719l-43 -89q-19 11 -34.5 16t-34.5 5q-55 0 -55 -65v-573q0 -117 -63 -175t-185 -58q-111 0 -186 49l43 89q62 -32 132 -32q63 0 90 26t27 83v78q-55 -69 -143 -69q-97 0 -149 74t-52 197q0 77 26.5 139t75.5 97t115 35q71 0 127 -53v87q0 82 46.5 129.5t132.5 47.5
q75 0 130 -38zM342 126q24 16 45 48v217q-21 25 -42 37.5t-49 12.5q-49 0 -77 -41.5t-28 -124.5q0 -88 25 -126.5t71 -38.5q31 0 55 16z" />
    <glyph glyph-name="uni0261" unicode="&#x261;" horiz-adv-x="599" 
d="M529 530v-517q0 -117 -63 -175t-185 -58q-111 0 -186 49l43 89q62 -32 132 -32q63 0 90 26t27 83v78q-55 -69 -143 -69q-97 0 -149 74t-52 197q0 77 26.5 139t75.5 97t115 35q77 0 138 -64l8 48h123zM342 126q24 16 45 48v217q-21 25 -42 37.5t-49 12.5q-49 0 -77 -41.5
t-28 -124.5q0 -88 25 -126.5t71 -38.5q31 0 55 16z" />
    <glyph glyph-name="uni0262" unicode="&#x262;" 
d="M417 528q47 -18 89 -53l-70 -76q-31 22 -59.5 32.5t-63.5 10.5q-58 0 -92.5 -44.5t-34.5 -130.5q0 -97 27.5 -138t82.5 -41q41 0 81 16v108h-76l-13 96h223v-261q-102 -61 -217 -61q-126 0 -191 71t-65 211q0 84 35.5 147t96.5 97t136 34q64 0 111 -18z" />
    <glyph glyph-name="uni0263" unicode="&#x263;" horiz-adv-x="512" 
d="M329 78q36 -59 52 -99t16 -83q0 -54 -35 -85t-104 -31t-103.5 31t-34.5 85q0 38 15.5 79t52.5 102l-190 453h151l109 -362l109 362h147zM281 -57q-7 20 -23 53q-15 -31 -22 -52.5t-7 -40.5q0 -15 7.5 -23.5t21.5 -8.5q30 0 30 32q0 20 -7 40z" />
    <glyph glyph-name="uni0264" unicode="&#x264;" horiz-adv-x="551" 
d="M514 538.5q22 -7.5 44 -22.5l-41 -81q-12 5 -20 7.5t-20 2.5q-14 0 -23.5 -8.5t-21.5 -31.5l-87 -167q32 -48 45 -79t13 -67q0 -48 -32.5 -78t-95.5 -30q-62 0 -95 30t-33 78q0 32 13 63t45 84l-86 166q-12 23 -21.5 31.5t-23.5 8.5q-12 0 -20 -2.5t-20 -7.5l-41 81
q21 15 43.5 22.5t51.5 7.5q52 0 83 -28t57 -91l47 -107l48 107q27 64 57 91.5t83 27.5q29 0 51 -7.5zM295.5 127q-5.5 12 -20.5 41q-4 -8 -11.5 -22.5t-11 -25t-3.5 -20.5q0 -27 26 -27t26 27q0 15 -5.5 27z" />
    <glyph glyph-name="uni0265" unicode="&#x265;" horiz-adv-x="579" 
d="M509 530v-750l-142 16v264q-64 -76 -153 -76q-70 0 -109.5 42.5t-39.5 118.5v385h142v-361q0 -44 15 -61.5t44 -17.5q54 0 101 74v366h142z" />
    <glyph glyph-name="uni0266" unicode="&#x266;" horiz-adv-x="579" 
d="M474.5 503.5q39.5 -42.5 39.5 -117.5v-386h-142v362q0 43 -15 60.5t-43 17.5q-56 0 -102 -73v-367h-142v583q0 77 50.5 125.5t143.5 48.5q74 0 140 -32l-39 -94q-43 20 -86 20q-36 0 -51.5 -17t-15.5 -55v-109q32 38 69.5 57t84.5 19q69 0 108.5 -42.5z" />
    <glyph glyph-name="uni0267" unicode="&#x267;" horiz-adv-x="579" 
d="M474.5 503.5q39.5 -42.5 39.5 -117.5v-424q0 -88 -50 -135t-135 -47q-81 0 -136 42l49 84q22 -11 36.5 -15.5t35.5 -4.5q58 0 58 64v412q0 43 -15 60.5t-43 17.5q-56 0 -102 -73v-367h-142v583q0 77 50.5 125.5t143.5 48.5q74 0 140 -32l-39 -94q-43 20 -86 20
q-36 0 -51.5 -17t-15.5 -55v-109q32 38 69.5 57t84.5 19q69 0 108.5 -42.5z" />
    <glyph glyph-name="uni0268" unicode="&#x268;" horiz-adv-x="326" 
d="M100 660.5q-24 23.5 -24 59.5t24 59.5t62 23.5t62.5 -23.5t24.5 -59.5t-24.5 -59.5t-62.5 -23.5t-62 23.5zM318 332v-101h-84v-231h-142v231h-84v101h84v198h142v-198h84z" />
    <glyph glyph-name="uni0269" unicode="&#x269;" horiz-adv-x="296" 
d="M101 21.5q-36 37.5 -36 106.5v402h142v-398q0 -35 29 -35q13 0 28 5l29 -100q-41 -18 -91 -18q-65 0 -101 37.5z" />
    <glyph glyph-name="uni026A" unicode="&#x26a;" horiz-adv-x="336" 
d="M318 427h-79v-323h79v-104h-300v104h79v323h-79v103h300v-103z" />
    <glyph glyph-name="uni026B" unicode="&#x26b;" horiz-adv-x="441" 
d="M290 281v-149q0 -35 29 -35q16 0 28 6l29 -101q-41 -18 -91 -18q-65 0 -101 37.5t-36 106.5v212q-8 2 -13 2q-23 0 -38 -13.5t-32 -38.5l-77 39q26 53 62.5 86.5t92.5 33.5h5v292l142 16v-366q9 -3 19 -3q22 0 37 12t32 36l76 -38q-25 -52 -61.5 -84.5t-91.5 -32.5h-11z
" />
    <glyph glyph-name="uni026C" unicode="&#x26c;" horiz-adv-x="411" 
d="M383 2q-41 -18 -91 -18q-65 0 -101 37.5t-36 106.5v116q-78 2 -117.5 34t-39.5 88q0 52 34.5 82t87.5 30q17 0 35 -4v267l142 16v-431q29 1 72 10l12 -74q-39 -11 -84 -14v-116q0 -35 29 -35q16 0 28 6zM155 324v75q-12 3 -25 3q-17 0 -26 -9t-9 -26q0 -43 60 -43z" />
    <glyph glyph-name="uni026D" unicode="&#x26d;" horiz-adv-x="282" 
d="M391 -178q-55 -42 -136 -42q-85 0 -135 47t-50 135v779l142 16v-807q0 -64 58 -64q21 0 35.5 4.5t36.5 15.5z" />
    <glyph glyph-name="uni026E" unicode="&#x26e;" horiz-adv-x="696" 
d="M618.5 155q57.5 -51 57.5 -148q0 -66 -31.5 -117.5t-91 -80.5t-139.5 -29q-128 0 -208 77l69 82q32 -25 62.5 -37t68.5 -12q58 0 90 31.5t32 93.5q0 59 -32 84t-101 25h-89v86l179 212h-278v-290q0 -35 29 -35q16 0 28 6l29 -101q-41 -18 -91 -18q-65 0 -101 37.5
t-36 106.5v613l142 16v-227h439v-99l-192 -220q107 -5 164.5 -56z" />
    <glyph glyph-name="uni026F" unicode="&#x26f;" horiz-adv-x="848" 
d="M778 530v-530h-123l-11 66q-30 -40 -67.5 -61t-86.5 -21q-45 0 -78 22.5t-48 63.5q-33 -43 -71.5 -64.5t-87.5 -21.5q-63 0 -101.5 43t-38.5 117v386h142v-362q0 -78 52 -78q28 0 49 18t43 56v366h142v-362q0 -78 52 -78q28 0 49 18.5t42 55.5v366h142z" />
    <glyph glyph-name="uni0270" unicode="&#x270;" horiz-adv-x="848" 
d="M778 530v-750l-142 16v259q-58 -71 -146 -71q-45 0 -78 22.5t-48 63.5q-33 -43 -71.5 -64.5t-87.5 -21.5q-63 0 -101.5 43t-38.5 117v386h142v-362q0 -78 52 -78q28 0 49 18t43 56v366h142v-362q0 -78 52 -78q28 0 49 18.5t42 55.5v366h142z" />
    <glyph glyph-name="uni0271" unicode="&#x271;" horiz-adv-x="848" 
d="M744.5 503q38.5 -43 38.5 -117v-424q0 -89 -50.5 -135.5t-136.5 -46.5q-79 0 -134 42l49 85q21 -11 35.5 -16t35.5 -5q59 0 59 64v412q0 78 -52 78q-28 0 -49 -18t-43 -56v-366h-142v362q0 78 -52 78q-28 0 -49 -18.5t-42 -55.5v-366h-142v530h123l11 -66q30 40 67.5 61
t86.5 21q45 0 78 -22.5t48 -63.5q33 43 71.5 64.5t87.5 21.5q63 0 101.5 -43z" />
    <glyph glyph-name="uni0272" unicode="&#x272;" horiz-adv-x="579" 
d="M475 503.5q39 -42.5 39 -117.5v-386h-142v362q0 43 -14.5 60.5t-43.5 17.5q-30 0 -54.5 -18.5t-47.5 -55.5v-404q0 -88 -50 -135t-135 -47q-81 0 -136 42l49 84q22 -11 36.5 -15.5t35.5 -4.5q58 0 58 64v580h123l11 -67q33 41 72.5 62t89.5 21q70 0 109 -42.5z" />
    <glyph glyph-name="uni0273" unicode="&#x273;" horiz-adv-x="579" 
d="M693 -178q-55 -42 -136 -42q-85 0 -135 47t-50 135v400q0 43 -14.5 60.5t-43.5 17.5q-30 0 -54.5 -18.5t-47.5 -55.5v-366h-142v530h123l11 -67q33 41 72.5 62t89.5 21q70 0 109 -42.5t39 -117.5v-436q0 -64 58 -64q21 0 35.5 4.5t36.5 15.5z" />
    <glyph glyph-name="uni0274" unicode="&#x274;" horiz-adv-x="589" 
d="M519 0h-172l-171 404q10 -62 15.5 -115.5t5.5 -123.5v-165h-127v530h171l172 -404q-11 64 -15.5 102.5t-4.5 99.5v202h126v-530z" />
    <glyph glyph-name="uni0275" unicode="&#x275;" horiz-adv-x="584" 
d="M479 471.5q67 -74.5 67 -206.5q0 -84 -30.5 -147.5t-88 -98.5t-135.5 -35q-119 0 -186.5 74.5t-67.5 206.5q0 84 30.5 147.5t88 98.5t136.5 35q119 0 186 -74.5zM218 410q-27 -32 -34 -99h216q-7 67 -33.5 99t-73.5 32q-48 0 -75 -32zM368 122q27 34 33 105h-218
q6 -71 33 -105t76 -34t76 34z" />
    <glyph glyph-name="uni0276" unicode="&#x276;" horiz-adv-x="764" 
d="M484 100h254v-100h-355q-46 -16 -91 -16q-119 0 -186.5 74.5t-67.5 206.5q0 84 30.5 147.5t88 98.5t136.5 35q47 0 94 -16h352l-15 -99h-237q39 -48 51 -113h159v-98h-157q-12 -71 -56 -120zM370.5 133q27.5 43 27.5 132q0 90 -28 132.5t-77 42.5q-54 0 -80.5 -42.5
t-26.5 -132.5t26.5 -132.5t80.5 -42.5q50 0 77.5 43z" />
    <glyph glyph-name="uni0277" unicode="&#x277;" horiz-adv-x="764" 
d="M636.5 466.5q89.5 -79.5 89.5 -225.5q0 -128 -54 -192.5t-141 -64.5q-62 0 -99 28.5t-50 89.5q-16 -63 -52 -90.5t-100 -27.5q-87 0 -139.5 63.5t-52.5 193.5q0 146 90 225.5t255 79.5q164 0 253.5 -79.5zM565.5 125.5q20.5 35.5 20.5 122.5q0 94 -47.5 145.5
t-155.5 51.5q-109 0 -157 -51.5t-48 -147.5q0 -81 19 -118.5t56 -37.5q31 0 47 20t16 75v115l132 18v-133q0 -52 16 -73.5t46 -21.5q35 0 55.5 35.5z" />
    <glyph glyph-name="uni0278" unicode="&#x278;" horiz-adv-x="654" 
d="M561.5 80.5q-62.5 -66.5 -163.5 -76.5l-1 -208l-142 -16l1 224q-102 10 -163.5 75t-61.5 184q0 120 62 186.5t162 76.5v215l142 15v-230q102 -9 164.5 -74.5t62.5 -184.5q0 -120 -62.5 -186.5zM459 146q24 41 24 121t-24.5 120t-72.5 45v-333q49 6 73 47zM267 99v333
q-49 -6 -72 -47t-23 -122q0 -152 95 -164z" />
    <glyph glyph-name="uni0279" unicode="&#x279;" horiz-adv-x="397" 
d="M327 530v-530h-123l-13 103q-19 -56 -55.5 -87t-82.5 -31q-24 0 -53 8l24 137q28 -7 47 -7q47 0 73 33t41 100v274h142z" />
    <glyph glyph-name="uni027A" unicode="&#x27a;" horiz-adv-x="397" 
d="M327 741v-741h-123l-13 103q-19 -56 -55.5 -87t-82.5 -31q-24 0 -53 8l24 137q28 -7 47 -7q47 0 73 33t41 100v501z" />
    <glyph glyph-name="uni027B" unicode="&#x27b;" horiz-adv-x="397" 
d="M506 -178q-55 -42 -136 -42q-85 0 -135 47t-50 135v125q-20 -48 -54.5 -74.5t-76.5 -26.5q-29 0 -53 7l23 138q24 -7 48 -7q46 0 72 32.5t41 98.5v275h142v-580q0 -64 58 -64q21 0 35.5 4.5t36.5 15.5z" />
    <glyph glyph-name="uni027C" unicode="&#x27c;" horiz-adv-x="397" 
d="M397 537l-24 -137q-28 7 -47 7q-47 0 -73 -33t-41 -100v-478l-142 -16v750h123l13 -103q19 56 55.5 87t82.5 31q24 0 53 -8z" />
    <glyph glyph-name="uni027D" unicode="&#x27d;" horiz-adv-x="397" 
d="M305.5 -109.5q14.5 4.5 36.5 15.5l49 -84q-55 -42 -136 -42q-85 0 -135 47t-50 135v568h123l13 -103q19 56 55.5 87t82.5 31q24 0 53 -8l-24 -137q-28 7 -47 7q-47 0 -73 -33t-41 -100v-324q0 -64 58 -64q21 0 35.5 4.5z" />
    <glyph glyph-name="uni027E" unicode="&#x27e;" horiz-adv-x="386" 
d="M386 506l-49 -84q-22 11 -36.5 15.5t-35.5 4.5q-58 0 -58 -64v-378h-142v366q0 88 50 135t135 47q81 0 136 -42z" />
    <glyph glyph-name="uni027F" unicode="&#x27f;" horiz-adv-x="386" 
d="M271 501q50 -47 50 -135v-366h-142v378q0 64 -58 64q-21 0 -35.5 -4.5t-36.5 -15.5l-49 84q55 42 136 42q85 0 135 -47z" />
    <glyph glyph-name="uni0280" unicode="&#x280;" horiz-adv-x="529" 
d="M257 188h-50v-188h-137v530h179q112 0 171.5 -43t59.5 -129q0 -50 -24.5 -89t-71.5 -60l134 -209h-151zM207 277h47q44 0 65 19t21 63q0 42 -23 59.5t-71 17.5h-39v-159z" />
    <glyph glyph-name="uni0281" unicode="&#x281;" horiz-adv-x="529" 
d="M455.5 265q24.5 -38 24.5 -89q0 -89 -59 -132.5t-172 -43.5h-179v530h137v-188h50l110 188h151l-134 -208q47 -19 71.5 -57zM317 112.5q23 18.5 23 62.5q0 42 -21.5 60t-64.5 18h-47v-159h39q48 0 71 18.5z" />
    <glyph glyph-name="uni0282" unicode="&#x282;" horiz-adv-x="479" 
d="M137 2v-52q0 -64 66 -64q24 0 41 5.5t38 16.5l50 -86q-58 -41 -138 -41q-87 0 -135 46t-48 136v98l59 67q72 -41 152 -41q41 0 64.5 15.5t23.5 41.5q0 21 -9 33.5t-33 23t-75 24.5q-80 22 -118.5 62.5t-38.5 100.5q0 45 26 81t73.5 56.5t110.5 20.5q112 0 192 -64
l-54 -83q-65 44 -128 44q-37 0 -57 -13t-20 -35q0 -16 8.5 -27t32 -21t70.5 -24q84 -23 125 -61.5t41 -105.5q0 -53 -29.5 -92t-79 -59.5t-107.5 -20.5q-59 0 -103 18z" />
    <glyph glyph-name="uni0283" unicode="&#x283;" horiz-adv-x="282" 
d="M379 719l-43 -89q-19 11 -34.5 16t-34.5 5q-55 0 -55 -65v-624q0 -88 -50 -135t-135 -47q-81 0 -136 42l49 84q22 -11 36.5 -15.5t35.5 -4.5q58 0 58 64v630q0 82 46.5 129.5t132.5 47.5q75 0 130 -38z" />
    <glyph glyph-name="uni0284" unicode="&#x284;" horiz-adv-x="327" 
d="M317 101v-101h-85q-11 -89 -59.5 -136.5t-139.5 -82.5l-45 97q50 21 74.5 47t29.5 75h-85v101h86v479q0 82 46.5 129.5t132.5 47.5q75 0 130 -38l-43 -89q-19 11 -34.5 16t-34.5 5q-55 0 -55 -65v-485h82z" />
    <glyph glyph-name="uni0285" unicode="&#x285;" horiz-adv-x="474" 
d="M481 26q-55 -42 -136 -42q-85 0 -135 47t-50 135v209q0 65 -55 65q-19 0 -34.5 -5t-34.5 -16l-43 89q55 38 130 38q86 0 132.5 -47.5t46.5 -129.5v-215q0 -64 58 -64q21 0 35.5 4.5t36.5 15.5z" />
    <glyph glyph-name="uni0286" unicode="&#x286;" horiz-adv-x="330" 
d="M260 586v-56l1 -511q0 -16 -1 -23q50 -14 104 -41l-27 -62q-32 14 -86 31q-34 -144 -191 -144q-68 0 -105.5 31t-37.5 84q0 61 41.5 94t113.5 33q18 0 46 -2v560q0 82 46.5 129.5t132.5 47.5q75 0 130 -38l-43 -89q-19 11 -34.5 16t-34.5 5q-55 0 -55 -65zM100.5 -121
q15.5 21 17.5 69q-26 2 -46 2q-67 0 -67 -50q0 -42 47 -42q33 0 48.5 21z" />
    <glyph glyph-name="uni0287" unicode="&#x287;" horiz-adv-x="380" 
d="M376 0h-79v-116l-142 -17v133h-122l14 100h108v261q0 38 -13 55t-40 17t-60 -18l-49 90q29 20 65.5 30.5t72.5 10.5q82 -1 124 -47t42 -135v-264h79v-100z" />
    <glyph glyph-name="uni0288" unicode="&#x288;" horiz-adv-x="380" 
d="M404 -178q-55 -42 -136 -42q-85 0 -135 47t-50 135v468h-79v100h79v116l142 17v-133h122l-14 -100h-108v-480q0 -64 58 -64q21 0 35.5 4.5t36.5 15.5z" />
    <glyph glyph-name="uni0289" unicode="&#x289;" horiz-adv-x="614" 
d="M601 301h-79v-301h-123l-7 71q-28 -44 -68 -65.5t-93 -21.5q-72 0 -110 43.5t-38 121.5v152h-77v92h77v137h142v-137h155v137h142v-137h79v-92zM380 301h-155v-134q0 -42 14 -59.5t44 -17.5q57 0 97 69v142z" />
    <glyph glyph-name="uni028A" unicode="&#x28a;" horiz-adv-x="583" 
d="M156.5 16q-57.5 32 -88 87.5t-30.5 124.5q0 128 100 202h-85v100h193v-94q-29 -34 -45 -80.5t-16 -114.5q0 -76 27 -115t79 -39q53 0 80.5 39t27.5 115q0 67 -16.5 113.5t-45.5 81.5v94h193v-100h-84q99 -75 99 -202q0 -68 -30.5 -123.5t-88 -88t-135.5 -32.5
q-77 0 -134.5 32z" />
    <glyph glyph-name="uni028B" unicode="&#x28b;" horiz-adv-x="571" 
d="M122 32q-57 48 -57 139v359h142v-350q0 -47 17 -68.5t52 -21.5q45 0 73 37t28 123v153q0 35 -28 35q-14 0 -26 -5l-24 97q37 16 82 16q65 0 101.5 -37.5t36.5 -111.5v-142q0 -138 -71 -204.5t-181 -66.5q-88 0 -145 48z" />
    <glyph glyph-name="uni028C" unicode="&#x28c;" horiz-adv-x="508" 
d="M-2 0l170 530h169l173 -530h-154l-105 419l-107 -419h-146z" />
    <glyph glyph-name="uni028D" unicode="&#x28d;" horiz-adv-x="741" 
d="M8 0l113 530h173l76 -403l76 403h171l116 -530h-143l-65 425l-88 -425h-142l-79 425l-72 -425h-136z" />
    <glyph glyph-name="uni028E" unicode="&#x28e;" horiz-adv-x="512" 
d="M169 531q33 107 100.5 162.5t185.5 63.5l13 -98q-54 -7 -86.5 -22t-51.5 -40t-33 -67h51l166 -530h-151l-106 438l-112 -438h-147z" />
    <glyph glyph-name="uni028F" unicode="&#x28f;" horiz-adv-x="488" 
d="M498 530l-183 -336v-194h-142v193l-182 337h151l105 -244l104 244h147z" />
    <glyph glyph-name="uni0290" unicode="&#x290;" horiz-adv-x="454" 
d="M612 -178q-57 -42 -135 -42q-84 0 -132 46.5t-48 135.5v38h-281v102l249 319h-228v109h391v-101l-249 -319h254v-160q0 -64 58 -64q21 0 36 5t35 16z" />
    <glyph glyph-name="uni0291" unicode="&#x291;" horiz-adv-x="521" 
d="M335 0q-5 -36 -5 -93v-34h-86q0 70 6 127h-234v102l249 319h-228v109h391v-97l-253 -323h91q34 143 154 143q52 0 85.5 -30t33.5 -82q0 -139 -204 -141zM351 110q47 0 67 8t20 29q0 14 -7.5 21.5t-21.5 7.5q-42 0 -58 -66z" />
    <glyph glyph-name="uni0292" unicode="&#x292;" horiz-adv-x="503" 
d="M425 155.5q57 -50.5 57 -146.5q0 -67 -31.5 -118.5t-91 -81t-139.5 -29.5q-144 0 -229 100l76 73q36 -33 69.5 -48t76.5 -15q57 0 89.5 32t32.5 95q0 57 -32.5 82t-100.5 25h-90v86l179 212h-263v108h424v-99l-192 -220q108 -5 165 -55.5z" />
    <glyph glyph-name="uni0293" unicode="&#x293;" horiz-adv-x="503" 
d="M438.5 -124q-43.5 -56 -126.5 -80l26 -54l-76 -29l-31 69q-26 -2 -41 -2q-104 0 -160.5 39t-56.5 110q0 56 35 88.5t90 32.5q56 0 92 -32.5t71 -113.5l2 -4q38 13 55 41.5t17 75.5q0 61 -32 86.5t-101 25.5h-90v86l181 207h-265v108h424v-99l-191 -215q108 -5 164.5 -56
t56.5 -149q0 -79 -43.5 -135zM99 -99.5q24 -10.5 85 -10.5q-20 46 -35.5 62.5t-38.5 16.5q-17 0 -26 -9t-9 -25q0 -24 24 -34.5z" />
    <glyph glyph-name="uni0294" unicode="&#x294;" horiz-adv-x="469" 
d="M131 352l47 14q61 19 92 55t31 100q0 62 -29 96t-83 34q-37 0 -68 -14t-64 -44l-72 73q48 46 102 68.5t120 22.5q73 0 127.5 -29t84.5 -82t30 -123q0 -90 -42.5 -138.5t-116.5 -75.5l-17 -7v-302h-142v352z" />
    <glyph glyph-name="uni0295" unicode="&#x295;" horiz-adv-x="469" 
d="M197 0v302l-18 7q-74 27 -116.5 75.5t-42.5 138.5q0 69 31.5 122.5t87.5 82.5t128 29q65 0 117.5 -22.5t99.5 -68.5l-71 -73q-33 29 -63 43.5t-67 14.5q-54 0 -85 -35t-31 -97q0 -63 31.5 -98.5t92.5 -54.5l48 -14v-352h-142z" />
    <glyph glyph-name="uni0296" unicode="&#x296;" horiz-adv-x="513" 
d="M288 756v-317l30 -5q71 -20 113.5 -72t42.5 -142q0 -70 -30 -123t-85 -82.5t-128 -29.5q-66 0 -119.5 22t-100.5 68l71 73q33 -29 64.5 -43t68.5 -14q54 0 83 34t29 96q0 66 -29.5 102.5t-91.5 52.5l-60 13v352z" />
    <glyph glyph-name="uni0297" unicode="&#x297;" horiz-adv-x="490" 
d="M479 482l-60 -82q-25 18 -49 27t-50 9q-60 0 -90.5 -65t-30.5 -210q0 -143 30 -204.5t86 -61.5q27 0 50 8.5t51 28.5l63 -89q-76 -62 -168 -62q-126 0 -194 97.5t-68 280.5q0 184 69.5 285.5t195.5 101.5q94 0 165 -64z" />
    <glyph glyph-name="uni0298" unicode="&#x298;" horiz-adv-x="796" 
d="M585.5 664.5q81.5 -43.5 127 -125.5t45.5 -192q0 -108 -45.5 -190.5t-127 -127.5t-187.5 -45t-187.5 44t-127 126t-45.5 192q0 107 45.5 189t127.5 127.5t187 45.5q106 0 187.5 -43.5zM235.5 542q-58.5 -65 -58.5 -196q0 -132 59 -196t162 -64q105 0 163 64t58 197
q0 130 -59.5 195t-161.5 65q-104 0 -162.5 -65zM456.5 400.5q22.5 -21.5 22.5 -53.5t-22.5 -53.5t-56.5 -21.5t-56 21.5t-22 53.5t22 53.5t56 21.5t56.5 -21.5z" />
    <glyph glyph-name="uni0299" unicode="&#x299;" horiz-adv-x="558" 
d="M520 162q0 -82 -63 -122t-171 -40h-216v524q112 22 201 22q105 0 165 -36.5t60 -107.5q0 -45 -28.5 -73.5t-82.5 -38.5q135 -15 135 -128zM212 449v-128h66q36 0 56.5 16t20.5 50q0 33 -21.5 49t-64.5 16q-27 0 -57 -3zM374 172q0 35 -21.5 52t-68.5 17h-72v-145h71
q91 0 91 76z" />
    <glyph glyph-name="uni029A" unicode="&#x29a;" horiz-adv-x="572" 
d="M102.5 28.5q-64.5 44.5 -64.5 125.5q0 57 35 87.5t105 41.5q-114 29 -114 116q0 67 59 107t153 40q81 0 139 -35t88.5 -98t30.5 -148q0 -134 -66.5 -207.5t-193.5 -73.5q-107 0 -171.5 44.5zM364 128.5q26 41.5 26 136.5q0 94 -27.5 137.5t-84.5 43.5q-33 0 -52.5 -16
t-19.5 -44q0 -32 23.5 -48.5t62.5 -16.5h16l8 -95h-35q-47 0 -73 -15t-26 -50q0 -37 24.5 -55.5t68.5 -18.5q63 0 89 41.5z" />
    <glyph glyph-name="uni029B" unicode="&#x29b;" 
d="M673 719l-43 -89q-19 11 -34 16t-35 5q-55 0 -55 -65v-111l-62 -69q-34 19 -63 27.5t-66 8.5q-61 0 -95 -44t-34 -131q0 -97 27.5 -138t82.5 -41q41 0 81 16v108h-76l-13 96h223v-261q-42 -28 -97 -44.5t-119 -16.5q-126 0 -191.5 71.5t-65.5 210.5q0 83 34.5 146.5
t93.5 97.5t129 34q46 0 83 -14v58q0 81 42.5 124t123.5 43q74 0 129 -38z" />
    <glyph glyph-name="uni029C" unicode="&#x29c;" horiz-adv-x="588" 
d="M376 0v216h-164v-216h-142v530h142v-207h164v207h142v-530h-142z" />
    <glyph glyph-name="uni029D" unicode="&#x29d;" horiz-adv-x="332" 
d="M337 -107q-32 14 -86 31q-34 -144 -191 -144q-68 0 -105.5 31t-37.5 84q0 61 41.5 94t113.5 33q19 0 47 -2v510h142v-509q0 -17 -1 -26q55 -16 104 -40zM100.5 -121q15.5 21 17.5 68q-18 3 -46 3q-67 0 -67 -50q0 -42 47 -42q33 0 48.5 21zM251.5 779.5
q24.5 -23.5 24.5 -59.5t-24.5 -59.5t-62.5 -23.5t-62 23.5t-24 59.5t24 59.5t62 23.5t62.5 -23.5z" />
    <glyph glyph-name="uni029E" unicode="&#x29e;" horiz-adv-x="542" 
d="M8 0l169 233l-184 297h161l171 -290l-170 -240h-147zM330 -204v734h142v-750z" />
    <glyph glyph-name="uni029F" unicode="&#x29f;" horiz-adv-x="447" 
d="M212 530v-419h225l-16 -111h-351v530h142z" />
    <glyph glyph-name="uni02A0" unicode="&#x2a0;" horiz-adv-x="599" 
d="M696 719l-43 -89q-19 11 -34.5 16t-34.5 5q-55 0 -55 -65v-806l-142 16v258q-55 -70 -143 -70q-98 0 -149.5 75.5t-51.5 205.5q0 82 26 145.5t74 99.5t112 36q85 0 132 -62v96q0 82 46.5 129.5t132.5 47.5q75 0 130 -38zM342 106q24 16 45 48v237q-21 25 -42 37.5
t-49 12.5q-49 0 -77 -43t-28 -133q0 -95 24.5 -135t71.5 -40q31 0 55 16z" />
    <glyph glyph-name="uni02A1" unicode="&#x2a1;" horiz-adv-x="469" 
d="M273 302v-82h99v-87h-99v-133h-142v133h-67v87h67v132l47 14q61 19 92 55t31 100q0 62 -29 96t-83 34q-37 0 -68 -14t-64 -44l-72 73q48 46 102 68.5t120 22.5q73 0 127.5 -29t84.5 -82t30 -123q0 -90 -42.5 -138.5t-116.5 -75.5z" />
    <glyph glyph-name="uni02A2" unicode="&#x2a2;" horiz-adv-x="469" 
d="M198 616q-31 -35 -31 -97q0 -63 31.5 -98.5t92.5 -54.5l48 -14v-132h67v-87h-67v-133h-142v133h-100v87h100v82l-18 7q-74 27 -116.5 75.5t-42.5 138.5q0 69 31.5 122.5t87.5 82.5t128 29q65 0 117.5 -22.5t99.5 -68.5l-71 -73q-33 29 -63 43.5t-67 14.5q-54 0 -85 -35z
" />
    <glyph glyph-name="uni02A3" unicode="&#x2a3;" horiz-adv-x="965" 
d="M945 110l-14 -110h-527l-8 65q-56 -81 -152 -81q-98 0 -149.5 75.5t-51.5 205.5q0 82 26.5 145.5t75.5 99.5t113 36q74 0 129 -53v264l142 -16v-211h411v-101l-256 -319h261zM341 105.5q24 15.5 46 48.5v237q-21 25 -42.5 37.5t-49.5 12.5q-49 0 -76.5 -43t-27.5 -133
q0 -95 24.5 -135t70.5 -40q31 0 55 15.5zM529 421v-321l255 321h-255z" />
    <glyph glyph-name="uni02A4" unicode="&#x2a4;" horiz-adv-x="1003" 
d="M925 155.5q57 -50.5 57 -146.5q0 -67 -31.5 -118.5t-91 -81t-139.5 -29.5q-144 0 -229 100l76 73q36 -33 69.5 -48t76.5 -15q57 0 89.5 32t32.5 95q0 57 -32.5 82t-100.5 25h-90v86l179 212h-262v-422h-125l-8 65q-56 -81 -152 -81q-98 0 -149.5 75.5t-51.5 205.5
q0 82 26.5 145.5t75.5 99.5t113 36q74 0 129 -53v264l142 -16v-211h423v-99l-192 -220q108 -5 165 -55.5zM341 105.5q24 15.5 46 48.5v237q-21 25 -42.5 37.5t-49.5 12.5q-49 0 -76.5 -43t-27.5 -133q0 -95 24.5 -135t70.5 -40q31 0 55 15.5z" />
    <glyph glyph-name="uni02A5" unicode="&#x2a5;" horiz-adv-x="1033" 
d="M847 0q-6 -38 -6 -127h-85q0 79 5 127h-357l-8 65q-56 -81 -152 -81q-98 0 -149.5 75.5t-51.5 205.5q0 82 26.5 145.5t75.5 99.5t113 36q74 0 129 -53v264l142 -16v-211h410v-97l-258 -323h97q33 143 153 143q53 0 86 -29.5t33 -82.5q0 -140 -203 -141zM341 105.5
q24 15.5 46 48.5v237q-21 25 -42.5 37.5t-49.5 12.5q-49 0 -76.5 -43t-27.5 -133q0 -95 24.5 -135t70.5 -40q31 0 55 15.5zM529 421v-316l252 316h-252zM929.5 118q19.5 8 19.5 29q0 14 -7.5 21.5t-20.5 7.5q-43 0 -58 -66q47 0 66.5 8z" />
    <glyph glyph-name="uni02A6" unicode="&#x2a6;" horiz-adv-x="733" 
d="M673.5 260q35.5 -38 35.5 -96q0 -88 -80 -134t-228 -46q-164 0 -241 58.5t-77 178.5v209h-79v100h79v116l142 17v-133h98l-15 -100h-83v-206q0 -72 40.5 -103.5t136.5 -31.5q85 0 122.5 15.5t37.5 48.5q0 25 -17 41.5t-73 33.5q-81 25 -113.5 61t-32.5 97q0 46 24 82.5
t68.5 57t101.5 20.5q101 0 177 -62l-50 -80q-62 39 -120 39q-31 0 -49 -13.5t-18 -35.5t20.5 -37t80.5 -34q77 -25 112.5 -63z" />
    <glyph glyph-name="uni02A7" unicode="&#x2a7;" horiz-adv-x="587" 
d="M684 719l-43 -89q-19 11 -34.5 16t-34.5 5q-55 0 -55 -65v-624q0 -88 -50 -135t-135 -47q-81 0 -136 42l49 84q22 -11 36.5 -15.5t35.5 -4.5q58 0 58 64v54q-53 -20 -105 -20q-187 1 -187 187v259h-79v100h79v116l142 17v-133h150v50q0 82 46.5 129.5t132.5 47.5
q75 0 130 -38zM375 105v325h-150v-258q0 -40 17.5 -57.5t54.5 -17.5q40 0 78 8z" />
    <glyph glyph-name="uni02A8" unicode="&#x2a8;" horiz-adv-x="806" 
d="M760 218.5q35 -31.5 35 -85.5q0 -72 -52.5 -110.5t-134.5 -38.5q-105 0 -174 58q-54 -31 -96.5 -44.5t-83.5 -13.5q-171 1 -171 182v264h-79v100h79v116l142 17v-133h122l-14 -100h-108v-261q0 -39 14.5 -55.5t48.5 -16.5q39 0 89 19q-31 64 -31 145q0 84 31 148.5
t88 100.5t133 36q53 0 96 -15.5t81 -48.5l-62 -85q-26 20 -50.5 29.5t-53.5 9.5q-114 0 -114 -174q0 -46 9 -81q42 36 82 52.5t84 16.5q55 0 90 -31.5zM692 136q0 16 -9 24.5t-25 8.5q-23 0 -49 -12.5t-66 -42.5q29 -25 82 -25q67 0 67 47z" />
    <glyph glyph-name="uni02A9" unicode="&#x2a9;" horiz-adv-x="880" 
d="M776 503.5q39 -42.5 39 -117.5v-424q0 -88 -50 -135t-135 -47q-81 0 -136 42l49 84q22 -11 36.5 -15.5t35.5 -4.5q58 0 58 64v412q0 43 -14.5 60.5t-43.5 17.5q-30 0 -54.5 -18.5t-47.5 -55.5v-366h-142v430h-141v-430h-142v430h-84v100h84v53q0 77 50.5 125.5
t143.5 48.5q74 0 140 -32l-39 -94q-43 20 -86 20q-36 0 -51.5 -17t-15.5 -55v-49h264l11 -67q33 41 72.5 62t89.5 21q70 0 109 -42.5z" />
    <glyph glyph-name="uni02AA" unicode="&#x2aa;" horiz-adv-x="684" 
d="M133 42.5q-68 58.5 -68 166.5v532l142 16v-553q0 -62 35.5 -88.5t114.5 -26.5q87 0 126.5 15.5t39.5 48.5q0 16 -7 27.5t-28.5 22.5t-64.5 25q-81 25 -113.5 61t-32.5 97q0 46 24 82.5t68.5 57t101.5 20.5q101 0 177 -62l-50 -80q-61 39 -120 39q-31 0 -48.5 -13.5
t-17.5 -35.5t20.5 -37t79.5 -34q78 -25 113.5 -63t35.5 -96q0 -88 -79 -134t-225 -46q-156 0 -224 58.5z" />
    <glyph glyph-name="uni02AB" unicode="&#x2ab;" horiz-adv-x="701" 
d="M666 0h-381q-35 -16 -83 -16q-65 0 -101 37.5t-36 106.5v613l142 16v-625q0 -35 29 -35q16 0 28 6l248 318h-228v109h391v-101l-252 -319h257z" />
    <glyph glyph-name="uni02AC" unicode="&#x2ac;" horiz-adv-x="468" 
d="M438 667l-62 -267h-100l-39 194l-41 -194h-100l-66 267h81l39 -205l44 205h90l41 -206l38 206h75zM438 267l-62 -267h-100l-39 194l-41 -194h-100l-66 267h81l39 -205l44 205h90l41 -206l38 206h75z" />
    <glyph glyph-name="uni02AD" unicode="&#x2ad;" horiz-adv-x="359" 
d="M30 400v161h299v-161h-87v85h-125v-85h-87zM30 0v161h299v-161h-87v85h-125v-85h-87z" />
    <glyph glyph-name="uni02AE" unicode="&#x2ae;" horiz-adv-x="694" 
d="M624 530v-750l-142 16v265q-65 -77 -154 -77q-70 0 -109.5 42.5t-39.5 118.5v233q0 64 -58 64q-21 0 -35.5 -4.5t-36.5 -15.5l-49 84q55 42 136 42q85 0 135 -47t50 -135v-197q0 -44 15 -61.5t44 -17.5t53.5 19t48.5 55v366h142z" />
    <glyph glyph-name="uni02AF" unicode="&#x2af;" horiz-adv-x="694" 
d="M803 -178q-55 -42 -136 -42q-85 0 -135 47t-50 135v99q-65 -77 -154 -77q-70 0 -109.5 42.5t-39.5 118.5v233q0 64 -58 64q-21 0 -35.5 -4.5t-36.5 -15.5l-49 84q55 42 136 42q85 0 135 -47t50 -135v-197q0 -44 15 -61.5t44 -17.5t53.5 19t48.5 55v366h142v-580
q0 -64 58 -64q21 0 35.5 4.5t36.5 15.5z" />
    <glyph glyph-name="uni02B0" unicode="&#x2b0;" horiz-adv-x="311" 
d="M258.5 652.5q22.5 -20.5 22.5 -59.5v-193h-81v177q0 20 -7.5 27.5t-21.5 7.5q-15 0 -28 -7t-31 -21v-184h-82v372l82 9v-142q35 34 85 34q39 0 61.5 -20.5z" />
    <glyph glyph-name="uni02B1" unicode="&#x2b1;" horiz-adv-x="311" 
d="M258.5 652.5q22.5 -20.5 22.5 -59.5v-193h-81v177q0 20 -7.5 27.5t-21.5 7.5q-15 0 -28 -7t-31 -21v-184h-82v293q0 38 28.5 62t79.5 24q19 0 41.5 -4.5t39.5 -11.5l-23 -53q-27 8 -49 8q-19 0 -27 -7t-8 -24v-48q35 34 85 34q39 0 61.5 -20.5z" />
    <glyph glyph-name="uni02B2" unicode="&#x2b2;" horiz-adv-x="209" 
d="M165.5 793.5q13.5 -13.5 13.5 -33.5t-13.5 -33.5t-36.5 -13.5q-22 0 -36.5 13.5t-14.5 33.5t14.5 33.5t36.5 13.5q23 0 36.5 -13.5zM170 426q0 -60 -28.5 -88.5t-88.5 -46.5l-23 54q33 16 45.5 31t12.5 49v240h82v-239z" />
    </font>
</defs>
</svg>
