<?xml version="1.0" standalone="no"?>
<!DOCTYPE svg PUBLIC "-//W3C//DTD SVG 1.1//EN" "http://www.w3.org/Graphics/SVG/1.1/DTD/svg11.dtd" >
<svg xmlns="http://www.w3.org/2000/svg" xmlns:xlink="http://www.w3.org/1999/xlink" version="1.1">
<metadata>
Created by FontForge 20170731 at Fri Dec  2 11:32:35 2016
 By Aleksey,,,
Digitized data copyright 2012-2016, The Mozilla Foundation and Telefonica S.A.
</metadata>
<defs>
<font id="FiraSans-SemiBoldItalic" horiz-adv-x="560" >
  <font-face 
    font-family="Fira Sans SemiBold"
    font-weight="600"
    font-style="italic"
    font-stretch="normal"
    units-per-em="1000"
    panose-1="2 11 7 3 5 0 0 2 0 4"
    ascent="800"
    descent="-200"
    x-height="530"
    cap-height="692"
    bbox="-781 -354 1417 1168"
    underline-thickness="50"
    underline-position="-150"
    slope="-8"
    unicode-range="U+000D-FEFF"
  />
<missing-glyph horiz-adv-x="657" 
d="M646 1050l-197 -1400h-414l197 1400h414zM586 998h-306l-183 -1296h306zM417.5 425.5q23.5 -25.5 23.5 -66.5q0 -9 -2 -27q-7 -52 -32.5 -79.5t-75.5 -34.5l-8 -47q-1 -11 -8.5 -16.5t-16.5 -5.5q-11 0 -18 7.5t-6 18.5l10 82q53 3 75 21t28 60q2 14 2 20q0 22 -11 33.5
t-39 11.5q-29 0 -54 -13l-12 -1q-12 0 -18.5 8t-4.5 19q2 17 31 26t62 9q51 0 74.5 -25.5zM313.5 109q9.5 -11 7.5 -28q-2 -14 -12.5 -23.5t-24.5 -9.5q-16 0 -25 12t-6 29q1 13 11 22t24 9q16 0 25.5 -11z" />
    <glyph glyph-name="fi" unicode="fi" horiz-adv-x="585" 
d="M479 0h-141l60 429h-150l-53 -378q-11 -80 -42 -131.5t-77 -82.5t-116 -57l-36 104q61 24 91 58t40 105l53 382h-82l14 101h82l8 55q10 77 68.5 124.5t153.5 47.5q49 0 89.5 -11t79.5 -33l-50 -91q-55 28 -107 28q-45 0 -67.5 -17.5t-27.5 -55.5l-7 -47h291z" />
    <glyph glyph-name="fl" unicode="fl" horiz-adv-x="606" 
d="M553 103l18 -100q-44 -19 -93 -19q-57 0 -87.5 29.5t-30.5 86.5q0 16 3 34l72 509q-36 11 -78 11t-62.5 -19t-25.5 -58l-7 -47h106l-30 -101h-90l-53 -378q-11 -80 -42 -131.5t-77 -82.5t-116 -57l-36 104q61 24 91 58t40 105l53 382h-82l14 101h82l8 55q10 77 66 124.5
t148 47.5q66 0 123 -20l122 13l-86 -615q-1 -5 -1 -13q0 -13 5.5 -18.5t17.5 -5.5q11 0 28 5z" />
    <glyph glyph-name=".notdef" horiz-adv-x="657" 
d="M646 1050l-197 -1400h-414l197 1400h414zM586 998h-306l-183 -1296h306zM417.5 425.5q23.5 -25.5 23.5 -66.5q0 -9 -2 -27q-7 -52 -32.5 -79.5t-75.5 -34.5l-8 -47q-1 -11 -8.5 -16.5t-16.5 -5.5q-11 0 -18 7.5t-6 18.5l10 82q53 3 75 21t28 60q2 14 2 20q0 22 -11 33.5
t-39 11.5q-29 0 -54 -13l-12 -1q-12 0 -18.5 8t-4.5 19q2 17 31 26t62 9q51 0 74.5 -25.5zM313.5 109q9.5 -11 7.5 -28q-2 -14 -12.5 -23.5t-24.5 -9.5q-16 0 -25 12t-6 29q1 13 11 22t24 9q16 0 25.5 -11z" />
    <glyph glyph-name=".null" horiz-adv-x="0" 
 />
    <glyph glyph-name="nonmarkingreturn" unicode="&#xd;" horiz-adv-x="235" 
 />
    <glyph glyph-name="space" unicode=" " horiz-adv-x="235" 
 />
    <glyph glyph-name="exclam" unicode="!" horiz-adv-x="232" 
d="M55 249l45 443h150l-80 -443h-115zM29.5 6q-21.5 22 -21.5 55q0 39 27.5 66.5t66.5 27.5q33 0 54 -21.5t21 -54.5q0 -39 -27 -67t-66 -28q-33 0 -54.5 22z" />
    <glyph glyph-name="quotedbl" unicode="&#x22;" horiz-adv-x="421" 
d="M86 417l22 275h130l-56 -275h-96zM282 417l22 275h130l-56 -275h-96z" />
    <glyph glyph-name="numbersign" unicode="#" horiz-adv-x="539" 
d="M550 442h-71l-53 -198h59l-14 -96h-71l-40 -148h-117l40 148h-111l-40 -148h-117l40 148h-57l13 96h70l53 198h-58l13 96h71l37 136h117l-37 -136h111l37 136h117l-37 -136h58zM309 244l53 198h-111l-53 -198h111z" />
    <glyph glyph-name="dollar" unicode="$" horiz-adv-x="536" 
d="M457.5 331q43.5 -46 43.5 -118q0 -81 -54 -143t-163 -77l-22 -153h-104l21 151q-120 13 -191 94l82 77q64 -66 159 -66q55 0 90 26t35 74q0 35 -23 56.5t-82 43.5q-89 32 -131 77t-42 109q0 80 54.5 135t150.5 66l20 146h105l-22 -149q92 -16 159 -81l-75 -75
q-67 55 -141 55q-49 0 -77 -20t-28 -59q0 -32 23.5 -52.5t87.5 -42.5q81 -28 124.5 -74z" />
    <glyph glyph-name="percent" unicode="%" horiz-adv-x="842" 
d="M669 718l-553 -699l80 -57l554 699zM109.5 374q-42.5 41 -42.5 109q0 48 21.5 95t65.5 78t108 31q67 0 109 -40.5t42 -107.5q0 -48 -20.5 -95.5t-64.5 -79t-109 -31.5q-67 0 -109.5 41zM291 456.5q19 36.5 19 80.5q0 63 -54 63q-48 0 -67 -37t-19 -78q0 -65 55 -65
q47 0 66 36.5zM491 25q-42 41 -42 109q0 48 21 95t65.5 78t108.5 31q67 0 109 -40.5t42 -107.5q0 -48 -20.5 -95.5t-64.5 -79t-110 -31.5q-67 0 -109 41zM672 107.5q19 36.5 19 80.5q0 64 -53 64q-48 0 -67 -37t-19 -79q0 -65 55 -65q46 0 65 36.5z" />
    <glyph glyph-name="ampersand" unicode="&#x26;" horiz-adv-x="748" 
d="M498.5 666q52.5 -42 52.5 -109q0 -58 -38.5 -101.5t-121.5 -93.5l124 -136q41 67 68 137l114 -39q-47 -95 -112 -175l97 -103l-116 -62l-71 80q-51 -41 -105 -60.5t-118 -19.5q-65 0 -114 23t-75 63t-26 91q0 66 35.5 116t121.5 100q-39 44 -56 79t-17 76q0 44 22.5 84
t71 66t121.5 26q90 0 142.5 -42zM295.5 592q-21.5 -22 -21.5 -58q0 -24 11 -46.5t35 -49.5q52 32 75.5 58.5t23.5 59.5q0 27 -18 42.5t-47 15.5q-37 0 -58.5 -22zM221.5 236.5q-16.5 -30.5 -16.5 -67.5q0 -38 24 -60t68 -22q67 0 131 49l-144 161q-46 -30 -62.5 -60.5z" />
    <glyph glyph-name="quotesingle" unicode="'" horiz-adv-x="225" 
d="M86 417l22 275h130l-56 -275h-96z" />
    <glyph glyph-name="parenleft" unicode="(" horiz-adv-x="316" 
d="M375 793q-108 -132 -159.5 -270t-51.5 -300q0 -94 20.5 -168.5t63.5 -153.5l-96 -55q-42 74 -67.5 127t-42.5 119.5t-17 146.5q0 127 30.5 229.5t86.5 191.5t148 197z" />
    <glyph glyph-name="parenright" unicode=")" horiz-adv-x="316" 
d="M254.5 727q25.5 -53 42.5 -120t17 -147q0 -126 -30.5 -228.5t-87 -192t-147.5 -196.5l-84 64q108 133 159 270.5t51 298.5q0 95 -20.5 169.5t-63.5 153.5l96 55q42 -74 67.5 -127z" />
    <glyph glyph-name="asterisk" unicode="*" horiz-adv-x="438" 
d="M467 541l-146 -26l86 -104l-108 -74l-52 128l-85 -129l-90 74l114 106l-139 25l52 114l124 -61l-2 147h130l-42 -147l135 64z" />
    <glyph glyph-name="plus" unicode="+" horiz-adv-x="513" 
d="M354 542l-21 -155h148l-16 -111h-148l-22 -154h-118l22 154h-147l15 111h148l21 155h118z" />
    <glyph glyph-name="comma" unicode="," horiz-adv-x="241" 
d="M156.5 133.5q21.5 -21.5 21.5 -53.5q0 -23 -8.5 -45t-32.5 -64l-85 -146h-83l68 176q-28 20 -28 59t27 67t66 28q33 0 54.5 -21.5z" />
    <glyph glyph-name="hyphen" unicode="-" horiz-adv-x="398" 
d="M45 257l15 112h306l-15 -112h-306z" />
    <glyph glyph-name="period" unicode="." horiz-adv-x="240" 
d="M29.5 6q-21.5 22 -21.5 55q0 39 27.5 66.5t66.5 27.5q33 0 54 -21.5t21 -54.5q0 -39 -27 -67t-66 -28q-33 0 -54.5 22z" />
    <glyph glyph-name="slash" unicode="/" horiz-adv-x="511" 
d="M386 815l119 -29l-355 -896l-120 30z" />
    <glyph glyph-name="zero" unicode="0" horiz-adv-x="570" 
d="M167 617q-67 -70 -95.5 -172.5t-28.5 -206.5q0 -123 53 -188.5t152 -65.5q107 0 174 71t95.5 174t28.5 206q0 122 -52.5 187t-151.5 65q-108 0 -175 -70zM388.5 554q18.5 -27 18.5 -90q0 -82 -16 -168.5t-50 -145.5t-85 -59q-36 0 -54 28t-18 91q0 82 15.5 168
t49.5 144.5t86 58.5q35 0 53.5 -27z" />
    <glyph glyph-name="one" unicode="1" horiz-adv-x="447" 
d="M418 674l-94 -674h-138l74 524l-158 -90l-48 105l239 135h125z" />
    <glyph glyph-name="two" unicode="2" horiz-adv-x="503" 
d="M435 638q54 -49 54 -127q0 -52 -24 -102.5t-93.5 -122.5t-203.5 -177l279 2l-31 -111h-423l14 104q152 136 220 203.5t92 108t24 83.5q0 38 -21.5 58t-58.5 20q-36 0 -67 -17t-68 -54l-79 74q51 53 108.5 80t127.5 27q96 0 150 -49z" />
    <glyph glyph-name="three" unicode="3" horiz-adv-x="506" 
d="M432 642q51 -45 51 -115q0 -58 -37 -104t-116 -67q57 -6 93 -41.5t36 -97.5q0 -54 -29.5 -107.5t-91 -89.5t-153.5 -36q-70 0 -123 26.5t-87 74.5l87 72q27 -33 57 -48t69 -15q57 0 93 36t36 97q0 41 -25 58t-75 17h-56l29 100h36q59 0 88.5 31.5t29.5 75.5q0 35 -21 53
t-59 18q-37 0 -71 -15t-70 -45l-63 82q53 43 108 64t119 21q94 0 145 -45z" />
    <glyph glyph-name="four" unicode="4" horiz-adv-x="548" 
d="M525 258l-15 -108h-77l-21 -150h-137l20 150h-282l13 96l249 443l117 -45l-212 -386h131l39 165h121l-23 -165h77z" />
    <glyph glyph-name="five" unicode="5" horiz-adv-x="519" 
d="M483 571h-246l-22 -155q47 23 102 23q75 0 119.5 -48t44.5 -136q0 -61 -29.5 -123.5t-94 -105t-161.5 -42.5q-70 0 -120 26t-86 72l86 73q25 -31 55 -46.5t69 -15.5q67 0 102.5 46.5t35.5 109.5q0 91 -82 91q-24 0 -45 -5.5t-46 -18.5h-98l50 358h396z" />
    <glyph glyph-name="six" unicode="6" horiz-adv-x="548" 
d="M473 403.5q45 -47.5 45 -133.5q0 -62 -27.5 -128.5t-87 -112t-148.5 -45.5q-109 0 -161.5 63.5t-52.5 177.5q0 120 40.5 226t117 171t179.5 65q85 0 143 -45l-62 -85q-37 27 -87 27q-60 0 -105 -52t-65 -145q70 64 153 64q73 0 118 -47.5zM329.5 117q26.5 29 37.5 70
t11 80q0 45 -17 64.5t-50 19.5q-32 0 -63.5 -17t-58.5 -47q-6 -51 -6 -83q0 -62 18 -89t59 -27q43 0 69.5 29z" />
    <glyph glyph-name="seven" unicode="7" horiz-adv-x="453" 
d="M491 674l-13 -98l-325 -591l-125 43l302 537h-274l15 109h420z" />
    <glyph glyph-name="eight" unicode="8" horiz-adv-x="565" 
d="M523 203q0 -61 -35 -111t-98 -79t-146 -29q-70 0 -121 23.5t-77.5 64.5t-26.5 93q0 57 35.5 105.5t116.5 80.5q-79 50 -79 138q0 52 28.5 97.5t83.5 73t131 27.5q91 0 149.5 -42.5t58.5 -115.5q0 -53 -31 -95t-100 -75q111 -55 111 -156zM251 561q-24 -29 -24 -67
q0 -33 18.5 -53t58.5 -36l18 -7q50 30 67.5 60t17.5 63q0 32 -20 50.5t-58 18.5q-54 0 -78 -29zM348 122q34 34 34 84q0 32 -22 52.5t-75 41.5l-28 10q-96 -47 -96 -137q0 -40 25.5 -62.5t69.5 -22.5q58 0 92 34z" />
    <glyph glyph-name="nine" unicode="9" horiz-adv-x="543" 
d="M479 628.5q56 -58.5 56 -157.5q0 -175 -100.5 -311t-364.5 -187l-18 102q134 33 209 85.5t106 144.5q-62 -69 -148 -69q-47 0 -84 22.5t-58.5 64t-21.5 97.5q0 65 28.5 126t87.5 101t147 40q105 0 161 -58.5zM329.5 356q30.5 18 57.5 51q6 44 6 72q0 56 -20 80.5
t-61 24.5q-63 0 -90 -49.5t-27 -110.5q0 -44 19 -65t52 -21t63.5 18z" />
    <glyph glyph-name="colon" unicode=":" horiz-adv-x="240" 
d="M29.5 6q-21.5 22 -21.5 55q0 39 27.5 66.5t66.5 27.5q33 0 54 -21.5t21 -54.5q0 -39 -27 -67t-66 -28q-33 0 -54.5 22zM78.5 357q-21.5 22 -21.5 55q0 39 27.5 66.5t66.5 27.5q33 0 54 -21.5t21 -54.5q0 -39 -27 -67t-66 -28q-33 0 -54.5 22z" />
    <glyph glyph-name="semicolon" unicode=";" horiz-adv-x="243" 
d="M157.5 133.5q21.5 -21.5 21.5 -53.5q0 -23 -8.5 -45t-32.5 -64l-85 -146h-83l68 176q-28 20 -28 59t27 67t66 28q33 0 54.5 -21.5zM81.5 357q-21.5 22 -21.5 55q0 39 27.5 66.5t66.5 27.5q33 0 54 -21.5t21 -54.5q0 -39 -27 -67t-66 -28q-33 0 -54.5 22z" />
    <glyph glyph-name="less" unicode="&#x3c;" horiz-adv-x="507" 
d="M465 570l37 -109l-338 -129l296 -131l-60 -105l-362 172l17 129z" />
    <glyph glyph-name="equal" unicode="=" horiz-adv-x="506" 
d="M66 378l15 112h406l-16 -112h-405zM38 172l15 112h406l-16 -112h-405z" />
    <glyph glyph-name="greater" unicode="&#x3e;" horiz-adv-x="505" 
d="M124 570l363 -173l-19 -129l-409 -172l-34 111l336 130l-295 130z" />
    <glyph glyph-name="question" unicode="?" horiz-adv-x="467" 
d="M441 665.5q49 -42.5 49 -107.5q0 -50 -19 -84t-46.5 -54t-70.5 -43q-50 -26 -73.5 -47.5t-23.5 -57.5q0 -11 3 -23l-125 -20q-8 26 -8 50q0 46 17.5 76.5t42.5 49t65 40.5q47 26 68.5 46t21.5 54q0 24 -17 37t-47 13q-68 0 -133 -65l-81 74q101 104 236 104
q92 0 141 -42.5zM131.5 6q-21.5 22 -21.5 55q0 39 27.5 66.5t66.5 27.5q33 0 54 -21.5t21 -54.5q0 -39 -27 -67t-66 -28q-33 0 -54.5 22z" />
    <glyph glyph-name="at" unicode="@" horiz-adv-x="1011" 
d="M784 661q89 -47 135.5 -128t46.5 -183q0 -78 -26.5 -157.5t-81.5 -133.5t-137 -54q-55 0 -88 29.5t-40 70.5q-53 -96 -150 -96q-73 0 -114 47t-41 127q0 73 26 145.5t85.5 122t152.5 49.5q41 0 83.5 -11.5t79.5 -33.5l-38 -291q-2 -16 -2 -22q0 -45 40 -45q41 0 69 40.5
t41.5 100t13.5 116.5q0 120 -70.5 184t-206.5 64q-138 0 -224.5 -64.5t-124 -160.5t-37.5 -194q0 -87 35 -154t103.5 -104.5t165.5 -37.5q46 0 96.5 10t93.5 25l23 -101q-113 -41 -224 -41q-127 0 -223 51.5t-148 143t-52 209.5q0 119 56 240t174.5 202.5t294.5 81.5
q124 0 213 -47zM555 164l34 235q-21 9 -47 9q-69 0 -98 -70t-29 -160q0 -78 55 -78q50 0 85 64z" />
    <glyph glyph-name="A" unicode="A" horiz-adv-x="577" 
d="M396 0l-17 155h-215l-60 -155h-151l307 692h177l112 -692h-153zM206 264h161l-35 326z" />
    <glyph glyph-name="B" unicode="B" horiz-adv-x="606" 
d="M531.5 321q37.5 -33 37.5 -101q0 -100 -75 -160t-245 -60h-214l97 692h200q119 0 185.5 -37.5t66.5 -119.5q0 -69 -43.5 -111.5t-109.5 -57.5q63 -12 100.5 -45zM262 586l-24 -175h69q62 0 94.5 29.5t32.5 80.5q0 36 -25.5 50.5t-74.5 14.5h-72zM384.5 140.5
q34.5 31.5 34.5 89.5q0 81 -112 81h-83l-28 -202h65q89 0 123.5 31.5z" />
    <glyph glyph-name="C" unicode="C" horiz-adv-x="563" 
d="M595 628l-79 -77q-28 23 -56 34.5t-62 11.5q-72 0 -117.5 -52t-65.5 -128t-20 -150q0 -85 34 -126t95 -41q39 0 72 15t72 43l58 -89q-99 -85 -222 -85q-78 0 -136.5 33t-91 97t-32.5 155q0 104 36.5 204.5t115 167.5t198.5 67q126 0 201 -80z" />
    <glyph glyph-name="D" unicode="D" horiz-adv-x="641" 
d="M536 634.5q85 -57.5 85 -204.5q0 -120 -38.5 -216.5t-125 -155t-225.5 -58.5h-197l97 692h178q141 0 226 -57.5zM262 584l-66 -476h58q117 0 167 96t50 226q0 89 -39.5 121.5t-111.5 32.5h-58z" />
    <glyph glyph-name="E" unicode="E" horiz-adv-x="520" 
d="M539 692l-30 -108h-247l-25 -179h214l-13 -106h-215l-27 -191h264l-16 -108h-409l97 692h407z" />
    <glyph glyph-name="F" unicode="F" horiz-adv-x="480" 
d="M529 692l-31 -108h-236l-27 -195h206l-15 -107h-206l-39 -282h-146l97 692h397z" />
    <glyph glyph-name="G" unicode="G" horiz-adv-x="632" 
d="M629 622l-83 -74q-33 27 -63 39t-70 12q-78 0 -127.5 -53.5t-71 -134.5t-21.5 -166q0 -80 30.5 -115t93.5 -35q55 0 104 25l25 168h-96l1 107h251l-47 -339q-55 -35 -118.5 -53.5t-130.5 -18.5q-129 0 -196 70t-67 205q0 111 39.5 213.5t123 169t209.5 66.5
q131 0 214 -86z" />
    <glyph glyph-name="H" unicode="H" horiz-adv-x="660" 
d="M180 0h-145l97 692h146l-39 -273h224l39 273h145l-97 -692h-145l42 303h-224z" />
    <glyph glyph-name="I" unicode="I" horiz-adv-x="291" 
d="M278 692l-97 -692h-146l97 692h146z" />
    <glyph glyph-name="J" unicode="J" horiz-adv-x="308" 
d="M216 101q-11 -80 -45.5 -131.5t-83.5 -81t-116 -50.5l-27 106q46 17 71.5 39.5t37.5 52t18 75.5l82 581h146z" />
    <glyph glyph-name="K" unicode="K" horiz-adv-x="613" 
d="M35 0l97 692h146l-97 -692h-146zM419 0l-181 369l269 323h158l-274 -321l195 -371h-167z" />
    <glyph glyph-name="L" unicode="L" horiz-adv-x="502" 
d="M278 692l-81 -573h270l-32 -119h-400l97 692h146z" />
    <glyph glyph-name="M" unicode="M" horiz-adv-x="774" 
d="M697 0h-142l24 283q13 160 34 289l-184 -498h-139l-55 497q-6 -126 -39 -296l-52 -275h-142l150 692h179l47 -485l172 485h191z" />
    <glyph glyph-name="N" unicode="N" horiz-adv-x="659" 
d="M550 0h-186l-143 569v-41q0 -132 -18 -266l-37 -262h-131l97 692h184l146 -569q-2 58 -2 83q0 85 14 190l42 296h131z" />
    <glyph glyph-name="O" unicode="O" horiz-adv-x="682" 
d="M592.5 634q68.5 -74 68.5 -209q0 -104 -35 -204.5t-115 -168.5t-206 -68q-124 0 -192.5 74t-68.5 208q0 103 35 204t115.5 169.5t206.5 68.5q123 0 191.5 -74zM274 542q-44 -56 -62 -134t-18 -151q0 -85 30.5 -123.5t89.5 -38.5q74 0 118 56t61.5 134t17.5 152
q0 84 -30 122.5t-90 38.5q-73 0 -117 -56z" />
    <glyph glyph-name="P" unicode="P" horiz-adv-x="587" 
d="M529.5 643.5q66.5 -48.5 66.5 -142.5q0 -68 -31 -128t-99 -98.5t-174 -38.5h-78l-33 -236h-146l97 692h210q121 0 187.5 -48.5zM409.5 388.5q34.5 44.5 34.5 107.5q0 90 -115 90h-67l-33 -242h63q83 0 117.5 44.5z" />
    <glyph glyph-name="Q" unicode="Q" horiz-adv-x="681" 
d="M613.5 197.5q-47.5 -107.5 -149.5 -156.5q63 -2 106.5 -18t80.5 -46l-103 -115q-48 61 -102 91.5t-141 30.5q-124 0 -192.5 74t-68.5 208q0 103 35 204t115.5 169.5t206.5 68.5q123 0 191.5 -74t68.5 -209q0 -120 -47.5 -227.5zM314 95q74 0 118 56.5t61.5 136
t17.5 157.5q0 79 -30 116t-90 37q-73 0 -117.5 -56.5t-62 -135.5t-17.5 -155q0 -156 120 -156z" />
    <glyph glyph-name="R" unicode="R" horiz-adv-x="605" 
d="M557.5 384.5q-36.5 -55.5 -125.5 -89.5l133 -295h-160l-109 271h-78l-37 -271h-146l97 692h213q123 0 186 -47t63 -134q0 -71 -36.5 -126.5zM233 375h78q70 0 101 38.5t31 91.5q0 43 -27 62t-86 19h-68z" />
    <glyph glyph-name="S" unicode="S" horiz-adv-x="557" 
d="M559 619l-80 -79q-31 30 -65.5 44t-75.5 14q-50 0 -81.5 -23t-31.5 -63q0 -22 10.5 -37t35.5 -28t73 -29q88 -28 133 -73t45 -122q0 -61 -30 -115.5t-95 -89t-165 -34.5q-81 0 -142 27t-102 72l85 84q33 -34 72.5 -51.5t90.5 -17.5q61 0 97 28t36 76q0 37 -24.5 59
t-88.5 44q-97 33 -140 77.5t-43 113.5q0 54 29.5 102.5t88.5 79t143 30.5q139 0 225 -89z" />
    <glyph glyph-name="T" unicode="T" horiz-adv-x="526" 
d="M584 692l-32 -115h-173l-81 -577h-145l81 577h-181l16 115h515z" />
    <glyph glyph-name="U" unicode="U" horiz-adv-x="645" 
d="M577 226q-10 -71 -47 -125.5t-99.5 -85.5t-145.5 -31q-114 0 -172.5 54.5t-58.5 147.5q0 22 3 44l65 462h146l-65 -459q-3 -22 -3 -40q0 -49 23 -72.5t72 -23.5q61 0 94 34.5t43 105.5l65 455h145z" />
    <glyph glyph-name="V" unicode="V" horiz-adv-x="558" 
d="M627 692l-294 -692h-176l-106 692h151l59 -570l215 570h151z" />
    <glyph glyph-name="W" unicode="W" horiz-adv-x="833" 
d="M879 692l-217 -692h-189l-19 540l-174 -540h-184l-21 692h142l-3 -578l184 578h155l18 -578l169 578h139z" />
    <glyph glyph-name="X" unicode="X" horiz-adv-x="563" 
d="M606 692l-227 -319l148 -373h-157l-88 278l-164 -278h-158l246 368l-133 324h156l74 -235l146 235h157z" />
    <glyph glyph-name="Y" unicode="Y" horiz-adv-x="574" 
d="M639 692l-279 -431l-37 -261h-146l37 260l-159 432h156l91 -314l181 314h156z" />
    <glyph glyph-name="Z" unicode="Z" horiz-adv-x="530" 
d="M-18 0l15 112l376 464h-277l16 116h444l-15 -113l-372 -460h310l-31 -119h-466z" />
    <glyph glyph-name="bracketleft" unicode="[" horiz-adv-x="315" 
d="M365 821l-16 -108h-114l-103 -727h115l-15 -107h-248l133 942h248z" />
    <glyph glyph-name="backslash" unicode="\" horiz-adv-x="511" 
d="M276 813l107 -895l-125 -28l-105 896z" />
    <glyph glyph-name="bracketright" unicode="]" horiz-adv-x="315" 
d="M355 821l-133 -942h-247l15 108h114l103 726h-115l15 108h248z" />
    <glyph glyph-name="asciicircum" unicode="^" horiz-adv-x="545" 
d="M418 843l142 -316h-139l-82 207l-138 -207h-142l231 316h128z" />
    <glyph glyph-name="underscore" unicode="_" horiz-adv-x="511" 
d="M-50 -164l16 113h490l-15 -113h-491z" />
    <glyph glyph-name="grave" unicode="`" horiz-adv-x="323" 
d="M156 827l196 -130l-40 -69l-218 90z" />
    <glyph glyph-name="a" unicode="a" horiz-adv-x="571" 
d="M540 493l-50 -348q-2 -18 -2 -24q0 -16 6.5 -25.5t22.5 -16.5l-40 -93q-98 10 -116 88q-65 -90 -158 -90q-82 0 -127 56.5t-45 152.5q0 83 31 164t98.5 135t170.5 54q110 0 209 -53zM242 405q-34 -38 -49.5 -95.5t-15.5 -116.5q0 -103 68 -103q31 0 57 20t53 59l38 262
q-29 12 -65 12q-52 0 -86 -38z" />
    <glyph glyph-name="b" unicode="b" horiz-adv-x="581" 
d="M506 492q42 -54 42 -153q0 -86 -28 -166.5t-96 -134.5t-179 -54q-54 0 -104 10.5t-106 31.5l100 715l142 16l-38 -274q31 30 69 46.5t78 16.5q78 0 120 -54zM224 375l-38 -272q35 -13 73 -13q50 0 82.5 38.5t47.5 95.5t15 115q0 55 -18.5 78t-51.5 23q-57 0 -110 -65z
" />
    <glyph glyph-name="c" unicode="c" horiz-adv-x="471" 
d="M489 481l-70 -83q-22 20 -44.5 28.5t-50.5 8.5q-77 0 -110.5 -71t-33.5 -160q0 -57 23 -81.5t66 -24.5q28 0 52.5 9t56.5 29l53 -93q-85 -59 -179 -59q-103 0 -161 60.5t-58 165.5q0 76 30.5 153.5t95.5 130t164 52.5t166 -65z" />
    <glyph glyph-name="d" unicode="d" horiz-adv-x="586" 
d="M584 741l-104 -741h-124l1 78q-29 -43 -68.5 -68.5t-89.5 -25.5q-82 0 -124.5 56.5t-42.5 156.5q0 79 27 159.5t83.5 135t141.5 54.5q39 0 71 -15t54 -40l37 265zM234.5 401.5q-30.5 -39.5 -43.5 -96.5t-13 -111q0 -56 17 -80t48 -24q34 0 63.5 27t60.5 76l29 204
q-33 44 -82 44t-79.5 -39.5z" />
    <glyph glyph-name="e" unicode="e" horiz-adv-x="529" 
d="M422.5 255.5q-93.5 -46.5 -247.5 -61.5q5 -103 99 -103q35 0 67 12t70 37l52 -86q-97 -70 -206 -70t-166.5 59.5t-57.5 162.5q0 80 30 158t96 130t168 52q90 0 139.5 -40.5t49.5 -102.5q0 -101 -93.5 -147.5zM327.5 321.5q46.5 29.5 46.5 75.5q0 21 -13.5 36t-43.5 15
q-57 0 -90 -47t-45 -117q99 8 145.5 37.5z" />
    <glyph glyph-name="f" unicode="f" horiz-adv-x="342" 
d="M293.5 632.5q-19.5 -17.5 -24.5 -55.5l-7 -47h125l-30 -101h-109l-53 -378q-11 -80 -42 -131.5t-77 -82.5t-116 -57l-36 104q61 24 91 58t40 105l53 382h-82l14 101h82l8 55q10 77 64.5 124.5t144.5 47.5q76 0 142 -43l-50 -86q-34 22 -81 22q-37 0 -56.5 -17.5z" />
    <glyph glyph-name="g" unicode="g" horiz-adv-x="578" 
d="M546 493l-67 -459q-20 -135 -85.5 -195t-185.5 -60q-48 0 -100.5 15t-94.5 41l48 96q76 -42 144 -42q54 0 89 26.5t46 101.5l8 55q-29 -33 -65 -52.5t-78 -19.5q-82 0 -127.5 55.5t-45.5 148.5q0 82 31.5 160.5t99.5 130t173 51.5q111 0 210 -53zM245 407
q-35 -36 -51 -90t-16 -110q0 -100 70 -100q56 0 113 79l38 245q-31 12 -66 12q-53 0 -88 -36z" />
    <glyph glyph-name="h" unicode="h" horiz-adv-x="571" 
d="M492.5 512q32.5 -34 32.5 -95q0 -22 -2 -34l-54 -383h-140l50 355q2 20 2 26q0 27 -9.5 37.5t-27.5 10.5q-64 0 -132 -131l-41 -298h-140l104 741l142 15l-45 -317q30 49 74.5 78t95.5 29q58 0 90.5 -34z" />
    <glyph glyph-name="i" unicode="i" horiz-adv-x="278" 
d="M246 530l-74 -530h-140l74 530h140zM139 658q-21 21 -21 53q0 40 27 66t67 26q35 0 56 -20.5t21 -53.5q0 -40 -27 -66t-67 -26q-35 0 -56 21z" />
    <glyph glyph-name="j" unicode="j" horiz-adv-x="277" 
d="M-93 -118q41 17 66.5 36t41.5 49.5t23 79.5l67 483h140l-67 -479q-11 -80 -42 -131.5t-77 -82.5t-116 -57zM139 658q-21 21 -21 53q0 40 27 66t67 26q35 0 56 -20.5t21 -53.5q0 -40 -27 -66t-67 -26q-35 0 -56 21z" />
    <glyph glyph-name="k" unicode="k" horiz-adv-x="561" 
d="M235 455q75 91 177 91q63 0 101 -34.5t38 -90.5q0 -128 -148 -186l103 -235h-155l-103 257q86 26 122.5 60t36.5 81q0 22 -12.5 34.5t-35.5 12.5q-36 0 -73 -29.5t-69 -89.5l-45 -326h-141l104 741l142 16z" />
    <glyph glyph-name="l" unicode="l" horiz-adv-x="288" 
d="M185 133l-1 -11q0 -24 23 -24q13 0 28 5l19 -100q-46 -19 -94 -19q-57 0 -87.5 29.5t-30.5 86.5q0 16 3 34l86 607l141 16z" />
    <glyph glyph-name="m" unicode="m" horiz-adv-x="835" 
d="M758.5 512q31.5 -34 31.5 -94q0 -22 -2 -34l-54 -384h-140l51 355q2 11 2 28q0 27 -9.5 36.5t-28.5 9.5q-53 0 -113 -125l-43 -304h-140l50 355q2 20 2 26q0 27 -10 37.5t-29 10.5q-28 0 -57.5 -35.5t-54.5 -94.5l-42 -299h-140l74 530h121l-4 -90q34 50 76.5 78t91.5 28
q47 0 78 -26t38 -75q33 48 76.5 74.5t89.5 26.5q54 0 85.5 -34z" />
    <glyph glyph-name="n" unicode="n" horiz-adv-x="570" 
d="M493.5 512q32.5 -34 32.5 -95q0 -16 -3 -36l-53 -381h-140l50 355q2 20 2 25q0 27 -10 38t-29 11q-61 0 -129 -131l-42 -298h-140l74 530h121l-4 -96q36 53 82 82.5t99 29.5q57 0 89.5 -34z" />
    <glyph glyph-name="o" unicode="o" horiz-adv-x="575" 
d="M90 43.5q-57 59.5 -57 164.5q0 80 29 157.5t94.5 129t167.5 51.5q103 0 160 -59t57 -162q0 -80 -28 -158t-93 -130.5t-169 -52.5t-161 59.5zM365 167q31 76 32 165q0 56 -20.5 82t-61.5 26q-52 0 -82.5 -39.5t-42.5 -95t-12 -107.5q0 -55 20.5 -81t61.5 -26q74 0 105 76z
" />
    <glyph glyph-name="p" unicode="p" horiz-adv-x="581" 
d="M106 530h123l-1 -60q73 76 158 76q79 0 121 -54t42 -153q0 -84 -28.5 -165.5t-91.5 -135.5t-161 -54q-54 0 -97 16l-30 -205l-140 -16zM342 128.5q32 38.5 47 95.5t15 115q0 55 -18.5 78t-51.5 23q-57 0 -109 -64l-38 -273q33 -13 73 -13q50 0 82 38.5z" />
    <glyph glyph-name="q" unicode="q" horiz-adv-x="575" 
d="M341 51q-20 -27 -57.5 -47t-81.5 -20q-81 0 -126 56.5t-45 152.5q0 85 31 165.5t99 134t171 53.5q111 0 211 -53l-99 -698l-141 -16zM303.5 110q26.5 20 53.5 59l38 262q-31 12 -66 12q-52 0 -86 -38t-50 -95.5t-16 -116.5q0 -103 69 -103q31 0 57.5 20z" />
    <glyph glyph-name="r" unicode="r" horiz-adv-x="390" 
d="M428 537l-40 -138q-22 7 -45 7q-46 0 -77.5 -39t-57.5 -113l-36 -254h-140l74 530h121l-3 -101q28 57 67.5 86.5t83.5 29.5q27 0 53 -8z" />
    <glyph glyph-name="s" unicode="s" horiz-adv-x="471" 
d="M373 528q48 -18 85 -49l-63 -79q-28 21 -61 32t-65 11q-38 0 -58.5 -13.5t-20.5 -36.5q0 -15 9.5 -25.5t30 -19.5t63.5 -23q71 -22 106 -60.5t35 -99.5q0 -52 -27 -93t-79.5 -64.5t-126.5 -23.5q-67 0 -123 23.5t-92 61.5l72 75q65 -56 145 -56q45 0 67.5 18t22.5 43
q0 20 -9 32t-30.5 22t-66.5 25q-71 24 -104 59.5t-33 92.5q0 44 25 82t74.5 61t119.5 23q56 0 104 -18z" />
    <glyph glyph-name="t" unicode="t" horiz-adv-x="371" 
d="M207 167q-2 -20 -2 -25q0 -24 10 -34t30 -10q26 0 64 18l38 -93q-31 -19 -67.5 -29t-70.5 -10q-71 0 -108.5 37.5t-37.5 107.5q0 18 3 39l37 261h-78l14 101h84l33 119l119 14l-18 -133h122l-29 -101h-107z" />
    <glyph glyph-name="u" unicode="u" horiz-adv-x="566" 
d="M77.5 19q-33.5 35 -33.5 97q0 18 3 36l54 378h140l-50 -358q-2 -20 -2 -27q0 -27 10 -37.5t31 -10.5q31 0 59.5 25.5t56.5 67.5l48 340h140l-74 -530h-122l5 83q-37 -48 -79 -73.5t-91 -25.5q-62 0 -95.5 35z" />
    <glyph glyph-name="v" unicode="v" horiz-adv-x="499" 
d="M540 530l-240 -530h-168l-97 530h151l45 -418l160 418h149z" />
    <glyph glyph-name="w" unicode="w" horiz-adv-x="732" 
d="M761 530l-185 -530h-170l-18 403l-132 -403h-169l-40 530h140l5 -425l146 425h140l18 -425l130 425h135z" />
    <glyph glyph-name="x" unicode="x" horiz-adv-x="498" 
d="M518 530l-182 -252l131 -278h-153l-73 201l-128 -201h-157l210 283l-118 247h153l58 -177l105 177h154z" />
    <glyph glyph-name="y" unicode="y" horiz-adv-x="502" 
d="M306 -3q-45 -100 -122 -154.5t-195 -62.5l-4 102q77 10 117 36t72 82h-50l-89 530h147l44 -435l170 435h147z" />
    <glyph glyph-name="z" unicode="z" horiz-adv-x="445" 
d="M458 530l-13 -102l-279 -318h238l-29 -110h-398l13 102l280 319h-213l16 109h385z" />
    <glyph glyph-name="braceleft" unicode="{" horiz-adv-x="315" 
d="M354 738q-45 0 -64.5 -15t-24.5 -49l-28 -198q-8 -60 -34.5 -87t-78.5 -42q40 -9 60 -30t20 -65q0 -20 -2 -32l-29 -199q-1 -6 -1 -16q0 -24 15.5 -33.5t54.5 -9.5l-11 -101q-98 0 -144.5 32.5t-46.5 98.5q0 21 2 32l27 189q2 11 2 30q0 26 -13 37t-46 11l17 117
q38 0 55.5 19t23.5 64l26 189q8 57 31 91t70.5 51t129.5 17z" />
    <glyph glyph-name="bar" unicode="|" horiz-adv-x="374" 
d="M328 809l-128 -913h-130l128 913h130z" />
    <glyph glyph-name="braceright" unicode="}" horiz-adv-x="315" 
d="M-15 -38q45 0 64.5 14.5t24.5 49.5l28 198q8 60 34.5 87t78.5 42q-40 9 -60 30t-20 65q0 20 2 32l28 199q1 6 1 17q0 23 -15.5 32.5t-54.5 9.5l11 101q99 0 145 -32.5t46 -98.5q0 -21 -2 -32l-26 -189q-3 -18 -3 -30q0 -26 13 -37t46 -11l-16 -117q-38 0 -56 -19.5
t-24 -63.5l-26 -189q-8 -57 -30.5 -91t-70 -51t-130.5 -17z" />
    <glyph glyph-name="asciitilde" unicode="~" horiz-adv-x="499" 
d="M274.5 246q-21.5 10 -45.5 27q-17 12 -29 18t-26 6q-26 0 -44 -14.5t-35 -41.5l-73 45q74 118 168 118q30 0 51 -9.5t44 -26.5q20 -14 31 -19.5t26 -5.5q25 0 42.5 14t34.5 39l73 -45q-32 -51 -71.5 -83t-93.5 -32q-31 0 -52.5 10z" />
    <glyph glyph-name="uni00A0" unicode="&#xa0;" horiz-adv-x="235" 
 />
    <glyph glyph-name="exclamdown" unicode="&#xa1;" horiz-adv-x="230" 
d="M77.5 357q-21.5 22 -21.5 55q0 39 27.5 66.5t66.5 27.5q33 0 54 -21.5t21 -54.5q0 -39 -27 -67t-66 -28q-33 0 -54.5 22zM172 238l-45 -442h-150l80 442h115z" />
    <glyph glyph-name="cent" unicode="&#xa2;" horiz-adv-x="471" 
d="M431 43q-73 -50 -147 -57l-21 -145h-104l22 152q-71 19 -109.5 75.5t-38.5 141.5q0 67 23.5 136t74 122.5t127.5 70.5l21 151h103l-20 -147q74 -11 127 -62l-70 -83q-22 20 -44.5 28.5t-50.5 8.5q-77 0 -110.5 -71t-33.5 -160q0 -57 23 -81.5t66 -24.5q28 0 52.5 9
t56.5 29z" />
    <glyph glyph-name="sterling" unicode="&#xa3;" horiz-adv-x="526" 
d="M221.5 156q-16.5 -27 -55.5 -47h305l-32 -109h-447l14 105q38 11 58 26.5t28.5 37.5t13.5 59l12 85h-66l11 77h66l14 102q12 90 71 142.5t156 52.5q64 0 109.5 -24t76.5 -73l-92 -61q-17 28 -37 39t-50 11q-84 0 -96 -92l-14 -97h187l-11 -77h-186l-12 -83
q-7 -47 -23.5 -74z" />
    <glyph glyph-name="currency" unicode="&#xa4;" 
d="M465 222l76 -75l-67 -67l-78 76q-52 -30 -117 -30q-64 0 -114 31l-79 -77l-66 67l76 76q-33 53 -33 118t33 117l-76 79l66 67l79 -79q50 31 114 31t118 -30l77 78l67 -67l-76 -77q34 -53 34 -119t-34 -119zM357 255.5q26 30.5 26 86.5t-26 86t-76 30q-51 0 -77.5 -30.5
t-26.5 -85.5q0 -56 26.5 -86.5t77.5 -30.5q50 0 76 30.5z" />
    <glyph glyph-name="yen" unicode="&#xa5;" horiz-adv-x="552" 
d="M614 674l-222 -323h99l-11 -78h-132l-10 -76h131l-10 -77h-132l-17 -120h-141l17 120h-132l11 77h132l10 76h-132l11 78h99l-132 323h148l93 -284l173 284h147z" />
    <glyph glyph-name="brokenbar" unicode="&#xa6;" horiz-adv-x="374" 
d="M328 809l-51 -366h-131l52 366h130zM252 262l-52 -366h-130l51 366h131z" />
    <glyph glyph-name="section" unicode="&#xa7;" horiz-adv-x="537" 
d="M454.5 400.5q33.5 -32.5 33.5 -83.5q0 -47 -25 -81t-74 -61q23 -19 33.5 -41.5t10.5 -52.5q0 -43 -23.5 -79.5t-74.5 -59.5t-129 -23q-53 0 -100 15.5t-82 41.5l56 84q59 -40 126 -40q92 0 92 56q0 17 -8.5 28.5t-30 22t-66.5 25.5q-69 22 -101.5 53t-32.5 83
q0 85 102 140q-45 39 -45 96q0 75 60 118.5t157 43.5q55 0 103 -16.5t85 -43.5l-58 -79q-60 39 -126 39q-86 0 -86 -56q0 -24 20.5 -39.5t82.5 -35.5q67 -22 100.5 -54.5zM317 217q23 20 34 38t11 37q0 23 -18 40t-63 33q-37 13 -55 22q-21 -19 -30 -37t-9 -38
q0 -23 14.5 -39.5t51.5 -29.5q44 -16 64 -26z" />
    <glyph glyph-name="dieresis" unicode="&#xa8;" horiz-adv-x="435" 
d="M112 662.5q-19 18.5 -19 47.5q0 35 24 58t60 23q31 0 50 -18t19 -47q0 -35 -24.5 -58.5t-59.5 -23.5q-31 0 -50 18.5zM336 662.5q-19 18.5 -19 47.5q0 35 24 58t60 23q31 0 49.5 -18t18.5 -47q0 -35 -24.5 -58.5t-59.5 -23.5q-30 0 -49 18.5z" />
    <glyph glyph-name="copyright" unicode="&#xa9;" horiz-adv-x="810" 
d="M597 720q76 -42 120 -117.5t44 -169.5t-44 -169.5t-120 -117.5t-167 -42q-92 0 -168.5 42t-121 117.5t-44.5 169.5t44.5 169.5t121 117.5t168.5 42q91 0 167 -42zM302.5 656.5q-56.5 -32.5 -89 -90.5t-32.5 -133t32 -133t89 -90t128 -32q70 0 126.5 32t88.5 90t32 133
t-32 133t-88.5 90.5t-126.5 32.5q-71 0 -127.5 -32.5zM559 581l-45 -58q-18 14 -35.5 19.5t-37.5 5.5q-36 0 -57 -27.5t-21 -86.5q0 -58 20.5 -86t56.5 -28q23 0 42.5 7.5t38.5 22.5l41 -61q-54 -51 -129 -51q-81 0 -128 51t-47 145q0 60 22.5 104t62 67.5t89.5 23.5
q73 0 127 -48z" />
    <glyph glyph-name="ordfeminine" unicode="&#xaa;" horiz-adv-x="484" 
d="M96.5 299.5q-33.5 33.5 -33.5 83.5q0 62 49.5 103t165.5 41h43l2 15q1 6 1 17q0 22 -12.5 31t-43.5 9q-47 0 -118 -21l-20 84q84 30 166 30q76 0 114 -30t38 -95q0 -10 -2 -34l-18 -135q-2 -12 -2 -17q0 -21 23 -29l-36 -84q-36 3 -59.5 16.5t-35.5 39.5
q-49 -58 -130 -58q-58 0 -91.5 33.5zM302 394l9 63h-31q-86 0 -86 -62q0 -37 38 -37q42 0 70 36zM8 0l14 112h397l-16 -112h-395z" />
    <glyph glyph-name="guillemotleft" unicode="&#xab;" horiz-adv-x="607" 
d="M259 551l81 -58l-158 -208l99 -208l-92 -58l-154 220l12 91zM520 551l81 -58l-158 -208l99 -208l-92 -58l-154 220l12 91z" />
    <glyph glyph-name="logicalnot" unicode="&#xac;" horiz-adv-x="514" 
d="M481 383l-37 -263h-125l21 151h-289l16 112h414z" />
    <glyph glyph-name="uni00AD" unicode="&#xad;" horiz-adv-x="398" 
d="M45 257l15 112h306l-15 -112h-306z" />
    <glyph glyph-name="registered" unicode="&#xae;" horiz-adv-x="638" 
d="M488.5 721.5q61.5 -35.5 96.5 -97.5t35 -138t-35 -137t-96.5 -96t-137.5 -35t-137.5 35t-97 96t-35.5 137t35.5 138t97 97.5t137.5 35.5t137.5 -35.5zM453.5 306.5q44.5 25.5 69.5 72t25 107.5t-25 108.5t-70 73.5t-102 26t-102 -26t-70 -73.5t-25 -108.5t25 -107.5
t70 -72t102 -25.5q58 0 102.5 25.5zM447 500q-16 -20 -44 -30l74 -117h-79l-58 104h-22v-104h-68v281h82q131 0 131 -87q0 -27 -16 -47zM318 511h29q46 0 46 38q0 34 -47 34h-28v-72z" />
    <glyph glyph-name="macron" unicode="&#xaf;" horiz-adv-x="354" 
d="M379 658h-293l13 100h294z" />
    <glyph glyph-name="degree" unicode="&#xb0;" horiz-adv-x="512" 
d="M121.5 411q-42.5 39 -42.5 107q0 55 25.5 98.5t69.5 67.5t96 24q68 0 110.5 -39t42.5 -107q0 -55 -25.5 -98t-69.5 -67.5t-96 -24.5q-68 0 -110.5 39zM300.5 484.5q23.5 28.5 23.5 74.5q0 32 -15.5 48.5t-43.5 16.5q-40 0 -63.5 -28.5t-23.5 -74.5q0 -32 15 -48.5
t44 -16.5q40 0 63.5 28.5z" />
    <glyph glyph-name="plusminus" unicode="&#xb1;" horiz-adv-x="514" 
d="M18 0l15 112h406l-16 -112h-405zM363 603l-21 -155h148l-16 -111h-148l-22 -154h-118l22 154h-147l15 111h148l21 155h118z" />
    <glyph glyph-name="uni00B2" unicode="&#xb2;" horiz-adv-x="391" 
d="M358 718q36 -32 36 -81q0 -41 -23.5 -77t-61 -68t-111.5 -88h174l-22 -83h-287l10 78l41 34q90 74 129.5 116t39.5 80q0 19 -11.5 29t-32.5 10q-23 0 -42 -10.5t-42 -33.5l-60 53q70 73 163 73q64 0 100 -32z" />
    <glyph glyph-name="uni00B3" unicode="&#xb3;" horiz-adv-x="391" 
d="M359.5 721.5q35.5 -28.5 35.5 -72.5q0 -41 -28 -68t-77 -39q41 -3 66 -25t25 -62q0 -42 -24.5 -75.5t-66.5 -51.5t-92 -18q-100 0 -147 67l64 53q35 -39 83 -39q33 0 53.5 18.5t20.5 51.5q0 23 -14.5 32.5t-46.5 9.5h-38l23 74h23q31 0 50 15.5t19 41.5q0 36 -46 36
q-44 0 -92 -35l-47 59q71 56 157 56q64 0 99.5 -28.5z" />
    <glyph glyph-name="acute" unicode="&#xb4;" horiz-adv-x="324" 
d="M315 827l45 -109l-239 -92l-32 73z" />
    <glyph glyph-name="uni00B5" unicode="&#xb5;" horiz-adv-x="575" 
d="M480 80q0 -47 6 -82l-129 -12q-7 21 -9 39.5t-2 46.5q-53 -83 -128 -83q-43 0 -68 27q6 -21 6 -50q0 -31 -7 -77l-13 -93l-135 -15l105 749h140l-52 -371q-1 -6 -1 -18q0 -47 46 -47q27 0 55 17.5t52 54.5l50 364h140l-49 -350q-7 -53 -7 -100z" />
    <glyph glyph-name="paragraph" unicode="&#xb6;" horiz-adv-x="766" 
d="M705 692l-126 -896l-124 -17l113 811h-99l-110 -794l-124 -17l68 489q-101 4 -153 52t-52 128q0 76 36.5 131.5t102.5 84t152 28.5h316z" />
    <glyph glyph-name="periodcentered" unicode="&#xb7;" horiz-adv-x="239" 
d="M62.5 245q-21.5 22 -21.5 55q0 39 27.5 66.5t66.5 27.5q33 0 54 -21.5t21 -54.5q0 -39 -27 -67t-66 -28q-33 0 -54.5 22z" />
    <glyph glyph-name="cedilla" unicode="&#xb8;" horiz-adv-x="306" 
d="M130 -50q43 -4 66 -27.5t23 -60.5q0 -30 -16.5 -57t-51 -44.5t-85.5 -17.5q-63 0 -105 31l42 65q27 -16 61 -16q23 0 37 9t14 26q1 19 -18 26t-67 7l31 125h80z" />
    <glyph glyph-name="uni00B9" unicode="&#xb9;" horiz-adv-x="391" 
d="M354 741l-59 -420h-105l44 317l-99 -56l-37 72l160 87h96z" />
    <glyph glyph-name="ordmasculine" unicode="&#xba;" horiz-adv-x="491" 
d="M436.5 646.5q47.5 -45.5 47.5 -128.5q0 -73 -29 -130t-82.5 -89.5t-123.5 -32.5q-86 0 -134 45.5t-48 127.5q0 73 29.5 130.5t83 90t123.5 32.5q86 0 133.5 -45.5zM222 550q-24 -48 -24 -114q0 -76 58 -76q50 0 73.5 48.5t23.5 115.5q0 38 -14 56t-43 18q-50 0 -74 -48z
M6 0l15 112h406l-16 -112h-405z" />
    <glyph glyph-name="guillemotright" unicode="&#xbb;" horiz-adv-x="607" 
d="M162 551l154 -221l-12 -91l-212 -220l-81 58l158 208l-99 208zM423 551l154 -221l-12 -91l-212 -220l-81 58l158 208l-99 208z" />
    <glyph glyph-name="onequarter" unicode="&#xbc;" horiz-adv-x="933" 
d="M347 692l-59 -420h-105l44 317l-99 -56l-37 72l160 87h96zM695 757l78 -42l-515 -799l-79 42zM892 167l-12 -80h-47l-12 -87h-101l12 87h-188l10 73l158 269l86 -33l-132 -229h78l31 97h83l-14 -97h48z" />
    <glyph glyph-name="onehalf" unicode="&#xbd;" horiz-adv-x="933" 
d="M347 692l-59 -420h-105l44 317l-99 -56l-37 72l160 87h96zM695 757l78 -42l-515 -799l-79 42zM855 397q36 -32 36 -81q0 -41 -23.5 -77t-61 -68t-111.5 -88h174l-22 -83h-287l10 78l41 34q90 74 129.5 116t39.5 80q0 19 -11.5 29t-32.5 10q-23 0 -42 -10.5t-42 -33.5
l-60 53q70 73 163 73q64 0 100 -32z" />
    <glyph glyph-name="threequarters" unicode="&#xbe;" horiz-adv-x="933" 
d="M352.5 672.5q35.5 -28.5 35.5 -72.5q0 -41 -28 -68t-77 -39q41 -3 66 -25t25 -62q0 -42 -24.5 -75.5t-66.5 -51.5t-92 -18q-100 0 -147 67l64 53q35 -39 83 -39q33 0 53.5 18.5t20.5 51.5q0 23 -14.5 32.5t-46.5 9.5h-38l23 74h23q31 0 50 15.5t19 41.5q0 36 -46 36
q-44 0 -92 -35l-47 59q71 56 157 56q64 0 99.5 -28.5zM695 757l78 -42l-515 -799l-79 42zM892 167l-12 -80h-47l-12 -87h-101l12 87h-188l10 73l158 269l86 -33l-132 -229h78l31 97h83l-14 -97h48z" />
    <glyph glyph-name="questiondown" unicode="&#xbf;" horiz-adv-x="467" 
d="M329.5 486q21.5 -22 21.5 -55q0 -39 -27.5 -66.5t-66.5 -27.5q-33 0 -54 21.5t-21 54.5q0 39 27 67t66 28q33 0 54.5 -22zM20 -179.5q-49 41.5 -49 104.5q0 51 19 85t46 54t71 43q34 18 53 30.5t31.5 31.5t12.5 45q0 12 -3 24l125 19q8 -24 8 -49q0 -44 -17.5 -74.5
t-42.5 -49.5t-64 -40q-47 -26 -69 -47t-22 -56q0 -24 16.5 -36.5t48.5 -12.5q67 0 132 65l81 -75q-101 -103 -236 -103q-92 0 -141 41.5z" />
    <glyph glyph-name="Agrave" unicode="&#xc0;" horiz-adv-x="577" 
d="M396 0l-17 155h-215l-60 -155h-151l307 692h177l112 -692h-153zM206 264h161l-35 326zM306 939l196 -119l-38 -71l-218 81z" />
    <glyph glyph-name="Aacute" unicode="&#xc1;" horiz-adv-x="577" 
d="M396 0l-17 155h-215l-60 -155h-151l307 692h177l112 -692h-153zM206 264h161l-35 326zM465 940l44 -109l-239 -82l-30 71z" />
    <glyph glyph-name="Acircumflex" unicode="&#xc2;" horiz-adv-x="577" 
d="M396 0l-17 155h-215l-60 -155h-151l307 692h177l112 -692h-153zM206 264h161l-35 326zM227 756l-48 60l156 125h86l121 -125l-57 -60l-118 84z" />
    <glyph glyph-name="Atilde" unicode="&#xc3;" horiz-adv-x="577" 
d="M396 0l-17 155h-215l-60 -155h-151l307 692h177l112 -692h-153zM206 264h161l-35 326zM386.5 773q-15.5 7 -34.5 20q-13 9 -21.5 13.5t-17.5 4.5q-18 0 -31 -11t-30 -35l-68 39q26 49 61 79.5t74 30.5q22 0 37 -7t34 -21q12 -9 20 -13.5t17 -4.5q16 0 29.5 10.5
t30.5 34.5l68 -39q-26 -50 -61 -79t-72 -29q-20 0 -35.5 7z" />
    <glyph glyph-name="Adieresis" unicode="&#xc4;" horiz-adv-x="577" 
d="M396 0l-17 155h-215l-60 -155h-151l307 692h177l112 -692h-153zM206 264h161l-35 326zM200 788.5q-19 18.5 -19 47.5q0 35 24 58t60 23q31 0 50 -18t19 -47q0 -35 -24.5 -58.5t-59.5 -23.5q-31 0 -50 18.5zM424 788.5q-19 18.5 -19 47.5q0 35 24 58t60 23q31 0 49.5 -18
t18.5 -47q0 -35 -24.5 -58.5t-59.5 -23.5q-30 0 -49 18.5z" />
    <glyph glyph-name="Aring" unicode="&#xc5;" horiz-adv-x="577" 
d="M396 0l-17 155h-215l-60 -155h-151l307 692h177l112 -692h-153zM206 264h161l-35 326zM474 954q32 -32 32 -81q0 -37 -19 -68.5t-52.5 -50.5t-75.5 -19q-54 0 -86 32t-32 81q0 36 19 68t52.5 51t75.5 19q54 0 86 -32zM340.5 894q-15.5 -19 -15.5 -43q0 -20 10.5 -31
t29.5 -11q26 0 41.5 18.5t15.5 42.5q0 21 -10.5 32t-29.5 11q-26 0 -41.5 -19z" />
    <glyph glyph-name="AE" unicode="&#xc6;" horiz-adv-x="826" 
d="M782 584h-277l14 -181h243l-13 -106h-222l15 -189h226l-15 -108h-342l-8 155h-229l-74 -155h-156l359 692h510zM227 264h170l-17 319z" />
    <glyph glyph-name="Ccedilla" unicode="&#xc7;" horiz-adv-x="563" 
d="M342 -14l-6 -36q43 -4 66 -27.5t23 -60.5q0 -30 -16.5 -57t-51 -44.5t-85.5 -17.5q-63 0 -105 31l42 65q27 -16 61 -16q23 0 37 9t14 26q1 19 -18 26t-67 7l24 96q-100 13 -158 86t-58 196q0 104 36.5 204.5t115 167.5t198.5 67q126 0 201 -80l-79 -77q-28 23 -56 34.5
t-62 11.5q-72 0 -117.5 -52t-65.5 -128t-20 -150q0 -85 34 -126t95 -41q39 0 72 15t72 43l58 -89q-83 -71 -184 -83z" />
    <glyph glyph-name="Egrave" unicode="&#xc8;" horiz-adv-x="520" 
d="M539 692l-30 -108h-247l-25 -179h214l-13 -106h-215l-27 -191h264l-16 -108h-409l97 692h407zM295 939l196 -119l-38 -71l-218 81z" />
    <glyph glyph-name="Eacute" unicode="&#xc9;" horiz-adv-x="520" 
d="M539 692l-30 -108h-247l-25 -179h214l-13 -106h-215l-27 -191h264l-16 -108h-409l97 692h407zM454 940l44 -109l-239 -82l-30 71z" />
    <glyph glyph-name="Ecircumflex" unicode="&#xca;" horiz-adv-x="520" 
d="M539 692l-30 -108h-247l-25 -179h214l-13 -106h-215l-27 -191h264l-16 -108h-409l97 692h407zM216 756l-48 60l156 125h86l121 -125l-57 -60l-118 84z" />
    <glyph glyph-name="Edieresis" unicode="&#xcb;" horiz-adv-x="520" 
d="M539 692l-30 -108h-247l-25 -179h214l-13 -106h-215l-27 -191h264l-16 -108h-409l97 692h407zM189 788.5q-19 18.5 -19 47.5q0 35 24 58t60 23q31 0 50 -18t19 -47q0 -35 -24.5 -58.5t-59.5 -23.5q-31 0 -50 18.5zM413 788.5q-19 18.5 -19 47.5q0 35 24 58t60 23
q31 0 49.5 -18t18.5 -47q0 -35 -24.5 -58.5t-59.5 -23.5q-30 0 -49 18.5z" />
    <glyph glyph-name="Igrave" unicode="&#xcc;" horiz-adv-x="291" 
d="M278 692l-97 -692h-146l97 692h146zM162 939l196 -119l-38 -71l-218 81z" />
    <glyph glyph-name="Iacute" unicode="&#xcd;" horiz-adv-x="291" 
d="M278 692l-97 -692h-146l97 692h146zM321 940l44 -109l-239 -82l-30 71z" />
    <glyph glyph-name="Icircumflex" unicode="&#xce;" horiz-adv-x="291" 
d="M278 692l-97 -692h-146l97 692h146zM83 756l-48 60l156 125h86l121 -125l-57 -60l-118 84z" />
    <glyph glyph-name="Idieresis" unicode="&#xcf;" horiz-adv-x="291" 
d="M278 692l-97 -692h-146l97 692h146zM56 788.5q-19 18.5 -19 47.5q0 35 24 58t60 23q31 0 50 -18t19 -47q0 -35 -24.5 -58.5t-59.5 -23.5q-31 0 -50 18.5zM280 788.5q-19 18.5 -19 47.5q0 35 24 58t60 23q31 0 49.5 -18t18.5 -47q0 -35 -24.5 -58.5t-59.5 -23.5
q-30 0 -49 18.5z" />
    <glyph glyph-name="Eth" unicode="&#xd0;" horiz-adv-x="651" 
d="M546 634.5q85 -57.5 85 -204.5q0 -120 -38.5 -216.5t-125 -155t-225.5 -58.5h-197l43 307h-69l12 92h70l41 293h178q141 0 226 -57.5zM431 204q50 96 50 226q0 89 -39.5 121.5t-111.5 32.5h-58l-26 -185h139l-13 -92h-138l-28 -199h58q117 0 167 96z" />
    <glyph glyph-name="Ntilde" unicode="&#xd1;" horiz-adv-x="659" 
d="M550 0h-186l-143 569v-41q0 -132 -18 -266l-37 -262h-131l97 692h184l146 -569q-2 58 -2 83q0 85 14 190l42 296h131zM433.5 773q-15.5 7 -34.5 20q-13 9 -21.5 13.5t-17.5 4.5q-18 0 -31 -11t-30 -35l-68 39q26 49 61 79.5t74 30.5q22 0 37 -7t34 -21q12 -9 20 -13.5
t17 -4.5q16 0 29.5 10.5t30.5 34.5l68 -39q-26 -50 -61 -79t-72 -29q-20 0 -35.5 7z" />
    <glyph glyph-name="Ograve" unicode="&#xd2;" horiz-adv-x="682" 
d="M592.5 634q68.5 -74 68.5 -209q0 -104 -35 -204.5t-115 -168.5t-206 -68q-124 0 -192.5 74t-68.5 208q0 103 35 204t115.5 169.5t206.5 68.5q123 0 191.5 -74zM274 542q-44 -56 -62 -134t-18 -151q0 -85 30.5 -123.5t89.5 -38.5q74 0 118 56t61.5 134t17.5 152
q0 84 -30 122.5t-90 38.5q-73 0 -117 -56zM360 939l196 -119l-38 -71l-218 81z" />
    <glyph glyph-name="Oacute" unicode="&#xd3;" horiz-adv-x="682" 
d="M592.5 634q68.5 -74 68.5 -209q0 -104 -35 -204.5t-115 -168.5t-206 -68q-124 0 -192.5 74t-68.5 208q0 103 35 204t115.5 169.5t206.5 68.5q123 0 191.5 -74zM274 542q-44 -56 -62 -134t-18 -151q0 -85 30.5 -123.5t89.5 -38.5q74 0 118 56t61.5 134t17.5 152
q0 84 -30 122.5t-90 38.5q-73 0 -117 -56zM519 940l44 -109l-239 -82l-30 71z" />
    <glyph glyph-name="Ocircumflex" unicode="&#xd4;" horiz-adv-x="682" 
d="M592.5 634q68.5 -74 68.5 -209q0 -104 -35 -204.5t-115 -168.5t-206 -68q-124 0 -192.5 74t-68.5 208q0 103 35 204t115.5 169.5t206.5 68.5q123 0 191.5 -74zM274 542q-44 -56 -62 -134t-18 -151q0 -85 30.5 -123.5t89.5 -38.5q74 0 118 56t61.5 134t17.5 152
q0 84 -30 122.5t-90 38.5q-73 0 -117 -56zM281 756l-48 60l156 125h86l121 -125l-57 -60l-118 84z" />
    <glyph glyph-name="Otilde" unicode="&#xd5;" horiz-adv-x="682" 
d="M592.5 634q68.5 -74 68.5 -209q0 -104 -35 -204.5t-115 -168.5t-206 -68q-124 0 -192.5 74t-68.5 208q0 103 35 204t115.5 169.5t206.5 68.5q123 0 191.5 -74zM274 542q-44 -56 -62 -134t-18 -151q0 -85 30.5 -123.5t89.5 -38.5q74 0 118 56t61.5 134t17.5 152
q0 84 -30 122.5t-90 38.5q-73 0 -117 -56zM440.5 773q-15.5 7 -34.5 20q-13 9 -21.5 13.5t-17.5 4.5q-18 0 -31 -11t-30 -35l-68 39q26 49 61 79.5t74 30.5q22 0 37 -7t34 -21q12 -9 20 -13.5t17 -4.5q16 0 29.5 10.5t30.5 34.5l68 -39q-26 -50 -61 -79t-72 -29
q-20 0 -35.5 7z" />
    <glyph glyph-name="Odieresis" unicode="&#xd6;" horiz-adv-x="682" 
d="M592.5 634q68.5 -74 68.5 -209q0 -104 -35 -204.5t-115 -168.5t-206 -68q-124 0 -192.5 74t-68.5 208q0 103 35 204t115.5 169.5t206.5 68.5q123 0 191.5 -74zM274 542q-44 -56 -62 -134t-18 -151q0 -85 30.5 -123.5t89.5 -38.5q74 0 118 56t61.5 134t17.5 152
q0 84 -30 122.5t-90 38.5q-73 0 -117 -56zM254 788.5q-19 18.5 -19 47.5q0 35 24 58t60 23q31 0 50 -18t19 -47q0 -35 -24.5 -58.5t-59.5 -23.5q-31 0 -50 18.5zM478 788.5q-19 18.5 -19 47.5q0 35 24 58t60 23q31 0 49.5 -18t18.5 -47q0 -35 -24.5 -58.5t-59.5 -23.5
q-30 0 -49 18.5z" />
    <glyph glyph-name="multiply" unicode="&#xd7;" horiz-adv-x="506" 
d="M400 505l70 -81l-132 -116l101 -122l-88 -77l-98 121l-134 -121l-71 80l132 117l-100 121l88 78l98 -121z" />
    <glyph glyph-name="Oslash" unicode="&#xd8;" horiz-adv-x="682" 
d="M634.5 569q26.5 -61 26.5 -144q0 -104 -35 -204.5t-115 -168.5t-206 -68q-31 0 -55 4l-52 -121l-109 30l59 130q-51 36 -77.5 96t-26.5 143q0 103 35 204t115.5 169.5t206.5 68.5q31 0 52 -4l55 122l108 -30l-59 -131q51 -35 77.5 -96zM273 541.5q-45 -56.5 -63 -136
t-18 -154.5q0 -82 26 -119l203 464q-18 2 -30 2q-73 0 -118 -56.5zM432.5 151.5q44.5 56.5 62.5 136.5t18 157q0 82 -26 117l-202 -465q9 -2 29 -2q74 0 118.5 56.5z" />
    <glyph glyph-name="Ugrave" unicode="&#xd9;" horiz-adv-x="645" 
d="M577 226q-10 -71 -47 -125.5t-99.5 -85.5t-145.5 -31q-114 0 -172.5 54.5t-58.5 147.5q0 22 3 44l65 462h146l-65 -459q-3 -22 -3 -40q0 -49 23 -72.5t72 -23.5q61 0 94 34.5t43 105.5l65 455h145zM339 939l196 -119l-38 -71l-218 81z" />
    <glyph glyph-name="Uacute" unicode="&#xda;" horiz-adv-x="645" 
d="M577 226q-10 -71 -47 -125.5t-99.5 -85.5t-145.5 -31q-114 0 -172.5 54.5t-58.5 147.5q0 22 3 44l65 462h146l-65 -459q-3 -22 -3 -40q0 -49 23 -72.5t72 -23.5q61 0 94 34.5t43 105.5l65 455h145zM498 940l44 -109l-239 -82l-30 71z" />
    <glyph glyph-name="Ucircumflex" unicode="&#xdb;" horiz-adv-x="645" 
d="M577 226q-10 -71 -47 -125.5t-99.5 -85.5t-145.5 -31q-114 0 -172.5 54.5t-58.5 147.5q0 22 3 44l65 462h146l-65 -459q-3 -22 -3 -40q0 -49 23 -72.5t72 -23.5q61 0 94 34.5t43 105.5l65 455h145zM260 756l-48 60l156 125h86l121 -125l-57 -60l-118 84z" />
    <glyph glyph-name="Udieresis" unicode="&#xdc;" horiz-adv-x="645" 
d="M577 226q-10 -71 -47 -125.5t-99.5 -85.5t-145.5 -31q-114 0 -172.5 54.5t-58.5 147.5q0 22 3 44l65 462h146l-65 -459q-3 -22 -3 -40q0 -49 23 -72.5t72 -23.5q61 0 94 34.5t43 105.5l65 455h145zM233 788.5q-19 18.5 -19 47.5q0 35 24 58t60 23q31 0 50 -18t19 -47
q0 -35 -24.5 -58.5t-59.5 -23.5q-31 0 -50 18.5zM457 788.5q-19 18.5 -19 47.5q0 35 24 58t60 23q31 0 49.5 -18t18.5 -47q0 -35 -24.5 -58.5t-59.5 -23.5q-30 0 -49 18.5z" />
    <glyph glyph-name="Yacute" unicode="&#xdd;" horiz-adv-x="574" 
d="M639 692l-279 -431l-37 -261h-146l37 260l-159 432h156l91 -314l181 314h156zM465 940l44 -109l-239 -82l-30 71z" />
    <glyph glyph-name="Thorn" unicode="&#xde;" horiz-adv-x="587" 
d="M513.5 532.5q65.5 -48.5 65.5 -147.5q0 -66 -29 -126.5t-97 -101t-178 -40.5h-78l-16 -117h-146l97 692h146l-16 -111h64q122 0 187.5 -48.5zM393 272q35 47 35 111q0 48 -29 70t-86 22h-65l-35 -250h62q83 0 118 47z" />
    <glyph glyph-name="germandbls" unicode="&#xdf;" horiz-adv-x="593" 
d="M-93 -116q60 23 90 54.5t39 97.5l70 501q14 104 79.5 162t172.5 58q86 0 133.5 -39.5t47.5 -100.5q0 -43 -20 -69.5t-56 -54.5q-27 -22 -39 -36t-12 -34q0 -19 12 -33.5t40 -38.5q29 -24 48 -43.5t32.5 -50.5t13.5 -73q0 -49 -23.5 -95t-73 -75.5t-121.5 -29.5
q-35 0 -67 8.5t-56 22.5l52 94q27 -15 60 -15q44 0 64.5 26t20.5 56q0 33 -15.5 55t-48.5 51t-49.5 52.5t-16.5 58.5q0 42 16.5 67.5t49.5 55.5q28 25 41 43.5t13 47.5q0 23 -15 35.5t-41 12.5q-42 0 -68 -30t-34 -89l-67 -485q-12 -80 -42.5 -131.5t-77 -82.5t-116.5 -57z
" />
    <glyph glyph-name="agrave" unicode="&#xe0;" horiz-adv-x="571" 
d="M540 493l-50 -348q-2 -18 -2 -24q0 -16 6.5 -25.5t22.5 -16.5l-40 -93q-98 10 -116 88q-65 -90 -158 -90q-82 0 -127 56.5t-45 152.5q0 83 31 164t98.5 135t170.5 54q110 0 209 -53zM242 405q-34 -38 -49.5 -95.5t-15.5 -116.5q0 -103 68 -103q31 0 57 20t53 59l38 262
q-29 12 -65 12q-52 0 -86 -38zM310 827l196 -130l-40 -69l-218 90z" />
    <glyph glyph-name="aacute" unicode="&#xe1;" horiz-adv-x="571" 
d="M540 493l-50 -348q-2 -18 -2 -24q0 -16 6.5 -25.5t22.5 -16.5l-40 -93q-98 10 -116 88q-65 -90 -158 -90q-82 0 -127 56.5t-45 152.5q0 83 31 164t98.5 135t170.5 54q110 0 209 -53zM242 405q-34 -38 -49.5 -95.5t-15.5 -116.5q0 -103 68 -103q31 0 57 20t53 59l38 262
q-29 12 -65 12q-52 0 -86 -38zM459 827l45 -109l-239 -92l-32 73z" />
    <glyph glyph-name="acircumflex" unicode="&#xe2;" horiz-adv-x="571" 
d="M540 493l-50 -348q-2 -18 -2 -24q0 -16 6.5 -25.5t22.5 -16.5l-40 -93q-98 10 -116 88q-65 -90 -158 -90q-82 0 -127 56.5t-45 152.5q0 83 31 164t98.5 135t170.5 54q110 0 209 -53zM242 405q-34 -38 -49.5 -95.5t-15.5 -116.5q0 -103 68 -103q31 0 57 20t53 59l38 262
q-29 12 -65 12q-52 0 -86 -38zM226 624l-47 60l156 131h87l120 -131l-59 -60l-116 89z" />
    <glyph glyph-name="atilde" unicode="&#xe3;" horiz-adv-x="571" 
d="M540 493l-50 -348q-2 -18 -2 -24q0 -16 6.5 -25.5t22.5 -16.5l-40 -93q-98 10 -116 88q-65 -90 -158 -90q-82 0 -127 56.5t-45 152.5q0 83 31 164t98.5 135t170.5 54q110 0 209 -53zM242 405q-34 -38 -49.5 -95.5t-15.5 -116.5q0 -103 68 -103q31 0 57 20t53 59l38 262
q-29 12 -65 12q-52 0 -86 -38zM384.5 647q-15.5 7 -34.5 20q-13 9 -21.5 13.5t-17.5 4.5q-18 0 -31 -11t-30 -35l-68 39q26 49 61 79.5t74 30.5q22 0 37 -7t34 -21q12 -9 20 -13.5t17 -4.5q16 0 29.5 10.5t30.5 34.5l68 -39q-26 -50 -61 -79t-72 -29q-20 0 -35.5 7z" />
    <glyph glyph-name="adieresis" unicode="&#xe4;" horiz-adv-x="571" 
d="M540 493l-50 -348q-2 -18 -2 -24q0 -16 6.5 -25.5t22.5 -16.5l-40 -93q-98 10 -116 88q-65 -90 -158 -90q-82 0 -127 56.5t-45 152.5q0 83 31 164t98.5 135t170.5 54q110 0 209 -53zM242 405q-34 -38 -49.5 -95.5t-15.5 -116.5q0 -103 68 -103q31 0 57 20t53 59l38 262
q-29 12 -65 12q-52 0 -86 -38zM199 662.5q-19 18.5 -19 47.5q0 35 24 58t60 23q31 0 50 -18t19 -47q0 -35 -24.5 -58.5t-59.5 -23.5q-31 0 -50 18.5zM423 662.5q-19 18.5 -19 47.5q0 35 24 58t60 23q31 0 49.5 -18t18.5 -47q0 -35 -24.5 -58.5t-59.5 -23.5q-30 0 -49 18.5z
" />
    <glyph glyph-name="aring" unicode="&#xe5;" horiz-adv-x="571" 
d="M540 493l-50 -348q-2 -18 -2 -24q0 -16 6.5 -25.5t22.5 -16.5l-40 -93q-98 10 -116 88q-65 -90 -158 -90q-82 0 -127 56.5t-45 152.5q0 83 31 164t98.5 135t170.5 54q110 0 209 -53zM242 405q-34 -38 -49.5 -95.5t-15.5 -116.5q0 -103 68 -103q31 0 57 20t53 59l38 262
q-29 12 -65 12q-52 0 -86 -38zM471 828q32 -32 32 -81q0 -37 -19 -68.5t-52.5 -50.5t-75.5 -19q-54 0 -86 32t-32 81q0 36 19 68t52.5 51t75.5 19q54 0 86 -32zM337.5 768q-15.5 -19 -15.5 -43q0 -20 10.5 -31t29.5 -11q26 0 41.5 18.5t15.5 42.5q0 21 -10.5 32t-29.5 11
q-26 0 -41.5 -19z" />
    <glyph glyph-name="ae" unicode="&#xe6;" horiz-adv-x="829" 
d="M387 527q38 -19 60 -55q31 33 78 53.5t102 20.5q60 0 103 -19t65 -51.5t22 -72.5q0 -101 -94.5 -147t-249.5 -60q2 -57 28.5 -81t72.5 -24q35 0 67 12t70 37l52 -86q-97 -70 -206 -70q-66 0 -113.5 23t-74.5 66q-42 -48 -89.5 -68.5t-104.5 -20.5q-74 0 -118 39.5
t-44 103.5q0 82 62.5 136.5t208.5 54.5h65q8 37 18 59q-4 29 -31 45.5t-69 16.5q-63 0 -142 -25l-22 96q95 36 184 36q62 0 100 -19zM525.5 401q-33.5 -47 -45.5 -116q99 9 146.5 38t47.5 73q0 21 -13.5 36.5t-44.5 15.5q-57 0 -90.5 -47zM289 234q-126 0 -126 -92
q0 -56 57 -56q33 0 61 17.5t58 52.5q-2 11 -3 35t0 43h-47z" />
    <glyph glyph-name="ccedilla" unicode="&#xe7;" horiz-adv-x="471" 
d="M276 -15l-6 -35q43 -4 66 -27.5t23 -60.5q0 -30 -16.5 -57t-51 -44.5t-85.5 -17.5q-63 0 -105 31l42 65q27 -16 61 -16q23 0 37 9t14 26q1 19 -18 26t-67 7l24 99q-77 16 -119 73.5t-42 146.5q0 76 30.5 153.5t95.5 130t164 52.5t166 -65l-70 -83q-22 20 -44.5 28.5
t-50.5 8.5q-77 0 -110.5 -71t-33.5 -160q0 -57 23 -81.5t66 -24.5q28 0 52.5 9t56.5 29l53 -93q-75 -52 -155 -58z" />
    <glyph glyph-name="egrave" unicode="&#xe8;" horiz-adv-x="529" 
d="M422.5 255.5q-93.5 -46.5 -247.5 -61.5q5 -103 99 -103q35 0 67 12t70 37l52 -86q-97 -70 -206 -70t-166.5 59.5t-57.5 162.5q0 80 30 158t96 130t168 52q90 0 139.5 -40.5t49.5 -102.5q0 -101 -93.5 -147.5zM327.5 321.5q46.5 29.5 46.5 75.5q0 21 -13.5 36t-43.5 15
q-57 0 -90 -47t-45 -117q99 8 145.5 37.5zM283 827l196 -130l-40 -69l-218 90z" />
    <glyph glyph-name="eacute" unicode="&#xe9;" horiz-adv-x="529" 
d="M422.5 255.5q-93.5 -46.5 -247.5 -61.5q5 -103 99 -103q35 0 67 12t70 37l52 -86q-97 -70 -206 -70t-166.5 59.5t-57.5 162.5q0 80 30 158t96 130t168 52q90 0 139.5 -40.5t49.5 -102.5q0 -101 -93.5 -147.5zM327.5 321.5q46.5 29.5 46.5 75.5q0 21 -13.5 36t-43.5 15
q-57 0 -90 -47t-45 -117q99 8 145.5 37.5zM432 827l45 -109l-239 -92l-32 73z" />
    <glyph glyph-name="ecircumflex" unicode="&#xea;" horiz-adv-x="529" 
d="M422.5 255.5q-93.5 -46.5 -247.5 -61.5q5 -103 99 -103q35 0 67 12t70 37l52 -86q-97 -70 -206 -70t-166.5 59.5t-57.5 162.5q0 80 30 158t96 130t168 52q90 0 139.5 -40.5t49.5 -102.5q0 -101 -93.5 -147.5zM327.5 321.5q46.5 29.5 46.5 75.5q0 21 -13.5 36t-43.5 15
q-57 0 -90 -47t-45 -117q99 8 145.5 37.5zM199 624l-47 60l156 131h87l120 -131l-59 -60l-116 89z" />
    <glyph glyph-name="edieresis" unicode="&#xeb;" horiz-adv-x="529" 
d="M422.5 255.5q-93.5 -46.5 -247.5 -61.5q5 -103 99 -103q35 0 67 12t70 37l52 -86q-97 -70 -206 -70t-166.5 59.5t-57.5 162.5q0 80 30 158t96 130t168 52q90 0 139.5 -40.5t49.5 -102.5q0 -101 -93.5 -147.5zM327.5 321.5q46.5 29.5 46.5 75.5q0 21 -13.5 36t-43.5 15
q-57 0 -90 -47t-45 -117q99 8 145.5 37.5zM172 662.5q-19 18.5 -19 47.5q0 35 24 58t60 23q31 0 50 -18t19 -47q0 -35 -24.5 -58.5t-59.5 -23.5q-31 0 -50 18.5zM396 662.5q-19 18.5 -19 47.5q0 35 24 58t60 23q31 0 49.5 -18t18.5 -47q0 -35 -24.5 -58.5t-59.5 -23.5
q-30 0 -49 18.5z" />
    <glyph glyph-name="igrave" unicode="&#xec;" horiz-adv-x="278" 
d="M246 530l-74 -530h-140l74 530h140zM144 827l196 -130l-40 -69l-218 90z" />
    <glyph glyph-name="iacute" unicode="&#xed;" horiz-adv-x="278" 
d="M246 530l-74 -530h-140l74 530h140zM293 827l45 -109l-239 -92l-32 73z" />
    <glyph glyph-name="icircumflex" unicode="&#xee;" horiz-adv-x="278" 
d="M246 530l-74 -530h-140l74 530h140zM60 624l-47 60l156 131h87l120 -131l-59 -60l-116 89z" />
    <glyph glyph-name="idieresis" unicode="&#xef;" horiz-adv-x="278" 
d="M246 530l-74 -530h-140l74 530h140zM33 662.5q-19 18.5 -19 47.5q0 35 24 58t60 23q31 0 50 -18t19 -47q0 -35 -24.5 -58.5t-59.5 -23.5q-31 0 -50 18.5zM257 662.5q-19 18.5 -19 47.5q0 35 24 58t60 23q31 0 49.5 -18t18.5 -47q0 -35 -24.5 -58.5t-59.5 -23.5
q-30 0 -49 18.5z" />
    <glyph glyph-name="eth" unicode="&#xf0;" horiz-adv-x="574" 
d="M504 539q31 -71 31 -164q0 -111 -33.5 -200t-99.5 -140t-159 -51q-62 0 -110 25t-75.5 72t-27.5 112q0 68 27 133.5t81 108.5t130 43q82 0 131 -51q-7 51 -25.5 89.5t-55.5 73.5l-68 -60l-85 43l71 64q-44 15 -92 23l39 96q77 -15 138 -41l83 78l66 -65l-67 -62
q70 -56 101 -127zM350.5 153q31.5 63 41.5 175q-34 49 -97 49q-66 0 -94 -57t-28 -131q0 -99 79 -99q67 0 98.5 63z" />
    <glyph glyph-name="ntilde" unicode="&#xf1;" horiz-adv-x="570" 
d="M493.5 512q32.5 -34 32.5 -95q0 -16 -3 -36l-53 -381h-140l50 355q2 20 2 25q0 27 -10 38t-29 11q-61 0 -129 -131l-42 -298h-140l74 530h121l-4 -96q36 53 82 82.5t99 29.5q57 0 89.5 -34zM367.5 647q-15.5 7 -34.5 20q-13 9 -21.5 13.5t-17.5 4.5q-18 0 -31 -11
t-30 -35l-68 39q26 49 61 79.5t74 30.5q22 0 37 -7t34 -21q12 -9 20 -13.5t17 -4.5q16 0 29.5 10.5t30.5 34.5l68 -39q-26 -50 -61 -79t-72 -29q-20 0 -35.5 7z" />
    <glyph glyph-name="ograve" unicode="&#xf2;" horiz-adv-x="575" 
d="M90 43.5q-57 59.5 -57 164.5q0 80 29 157.5t94.5 129t167.5 51.5q103 0 160 -59t57 -162q0 -80 -28 -158t-93 -130.5t-169 -52.5t-161 59.5zM365 167q31 76 32 165q0 56 -20.5 82t-61.5 26q-52 0 -82.5 -39.5t-42.5 -95t-12 -107.5q0 -55 20.5 -81t61.5 -26q74 0 105 76z
M288 827l196 -130l-40 -69l-218 90z" />
    <glyph glyph-name="oacute" unicode="&#xf3;" horiz-adv-x="575" 
d="M90 43.5q-57 59.5 -57 164.5q0 80 29 157.5t94.5 129t167.5 51.5q103 0 160 -59t57 -162q0 -80 -28 -158t-93 -130.5t-169 -52.5t-161 59.5zM365 167q31 76 32 165q0 56 -20.5 82t-61.5 26q-52 0 -82.5 -39.5t-42.5 -95t-12 -107.5q0 -55 20.5 -81t61.5 -26q74 0 105 76z
M437 827l45 -109l-239 -92l-32 73z" />
    <glyph glyph-name="ocircumflex" unicode="&#xf4;" horiz-adv-x="575" 
d="M90 43.5q-57 59.5 -57 164.5q0 80 29 157.5t94.5 129t167.5 51.5q103 0 160 -59t57 -162q0 -80 -28 -158t-93 -130.5t-169 -52.5t-161 59.5zM365 167q31 76 32 165q0 56 -20.5 82t-61.5 26q-52 0 -82.5 -39.5t-42.5 -95t-12 -107.5q0 -55 20.5 -81t61.5 -26q74 0 105 76z
M204 624l-47 60l156 131h87l120 -131l-59 -60l-116 89z" />
    <glyph glyph-name="otilde" unicode="&#xf5;" horiz-adv-x="575" 
d="M90 43.5q-57 59.5 -57 164.5q0 80 29 157.5t94.5 129t167.5 51.5q103 0 160 -59t57 -162q0 -80 -28 -158t-93 -130.5t-169 -52.5t-161 59.5zM365 167q31 76 32 165q0 56 -20.5 82t-61.5 26q-52 0 -82.5 -39.5t-42.5 -95t-12 -107.5q0 -55 20.5 -81t61.5 -26q74 0 105 76z
M362.5 647q-15.5 7 -34.5 20q-13 9 -21.5 13.5t-17.5 4.5q-18 0 -31 -11t-30 -35l-68 39q26 49 61 79.5t74 30.5q22 0 37 -7t34 -21q12 -9 20 -13.5t17 -4.5q16 0 29.5 10.5t30.5 34.5l68 -39q-26 -50 -61 -79t-72 -29q-20 0 -35.5 7z" />
    <glyph glyph-name="odieresis" unicode="&#xf6;" horiz-adv-x="575" 
d="M90 43.5q-57 59.5 -57 164.5q0 80 29 157.5t94.5 129t167.5 51.5q103 0 160 -59t57 -162q0 -80 -28 -158t-93 -130.5t-169 -52.5t-161 59.5zM365 167q31 76 32 165q0 56 -20.5 82t-61.5 26q-52 0 -82.5 -39.5t-42.5 -95t-12 -107.5q0 -55 20.5 -81t61.5 -26q74 0 105 76z
M177 662.5q-19 18.5 -19 47.5q0 35 24 58t60 23q31 0 50 -18t19 -47q0 -35 -24.5 -58.5t-59.5 -23.5q-31 0 -50 18.5zM401 662.5q-19 18.5 -19 47.5q0 35 24 58t60 23q31 0 49.5 -18t18.5 -47q0 -35 -24.5 -58.5t-59.5 -23.5q-30 0 -49 18.5z" />
    <glyph glyph-name="divide" unicode="&#xf7;" horiz-adv-x="505" 
d="M169.5 31q-21.5 22 -21.5 55q0 39 27.5 66.5t66.5 27.5q33 0 54 -21.5t21 -54.5q0 -39 -27 -67t-66 -28q-33 0 -54.5 22zM235.5 507q-21.5 22 -21.5 55q0 39 27.5 66.5t66.5 27.5q33 0 54 -21.5t21 -54.5q0 -39 -27 -67t-66 -28q-33 0 -54.5 22zM52 276l15 112h406
l-16 -112h-405z" />
    <glyph glyph-name="oslash" unicode="&#xf8;" horiz-adv-x="575" 
d="M520 430.5q21 -46.5 21 -104.5q0 -81 -28 -159t-93 -130.5t-169 -52.5q-21 0 -39 3l-54 -121l-101 31l58 127q-40 29 -61 76t-21 108q0 80 29 157.5t94.5 129t167.5 51.5q21 0 39 -3l55 121l102 -31l-60 -127q39 -29 60 -75.5zM228.5 400.5q-33.5 -39.5 -47 -94.5
t-13.5 -105q0 -54 17 -78l148 316q-5 1 -16 1q-55 0 -88.5 -39.5zM346.5 130.5q33.5 39.5 47 93.5t13.5 104q0 48 -16 77l-147 -313q5 -1 15 -1q54 0 87.5 39.5z" />
    <glyph glyph-name="ugrave" unicode="&#xf9;" horiz-adv-x="566" 
d="M77.5 19q-33.5 35 -33.5 97q0 18 3 36l54 378h140l-50 -358q-2 -20 -2 -27q0 -27 10 -37.5t31 -10.5q31 0 59.5 25.5t56.5 67.5l48 340h140l-74 -530h-122l5 83q-37 -48 -79 -73.5t-91 -25.5q-62 0 -95.5 35zM286 827l196 -130l-40 -69l-218 90z" />
    <glyph glyph-name="uacute" unicode="&#xfa;" horiz-adv-x="566" 
d="M77.5 19q-33.5 35 -33.5 97q0 18 3 36l54 378h140l-50 -358q-2 -20 -2 -27q0 -27 10 -37.5t31 -10.5q31 0 59.5 25.5t56.5 67.5l48 340h140l-74 -530h-122l5 83q-37 -48 -79 -73.5t-91 -25.5q-62 0 -95.5 35zM435 827l45 -109l-239 -92l-32 73z" />
    <glyph glyph-name="ucircumflex" unicode="&#xfb;" horiz-adv-x="566" 
d="M77.5 19q-33.5 35 -33.5 97q0 18 3 36l54 378h140l-50 -358q-2 -20 -2 -27q0 -27 10 -37.5t31 -10.5q31 0 59.5 25.5t56.5 67.5l48 340h140l-74 -530h-122l5 83q-37 -48 -79 -73.5t-91 -25.5q-62 0 -95.5 35zM202 624l-47 60l156 131h87l120 -131l-59 -60l-116 89z" />
    <glyph glyph-name="udieresis" unicode="&#xfc;" horiz-adv-x="566" 
d="M77.5 19q-33.5 35 -33.5 97q0 18 3 36l54 378h140l-50 -358q-2 -20 -2 -27q0 -27 10 -37.5t31 -10.5q31 0 59.5 25.5t56.5 67.5l48 340h140l-74 -530h-122l5 83q-37 -48 -79 -73.5t-91 -25.5q-62 0 -95.5 35zM175 662.5q-19 18.5 -19 47.5q0 35 24 58t60 23q31 0 50 -18
t19 -47q0 -35 -24.5 -58.5t-59.5 -23.5q-31 0 -50 18.5zM399 662.5q-19 18.5 -19 47.5q0 35 24 58t60 23q31 0 49.5 -18t18.5 -47q0 -35 -24.5 -58.5t-59.5 -23.5q-30 0 -49 18.5z" />
    <glyph glyph-name="yacute" unicode="&#xfd;" horiz-adv-x="502" 
d="M306 -3q-45 -100 -122 -154.5t-195 -62.5l-4 102q77 10 117 36t72 82h-50l-89 530h147l44 -435l170 435h147zM406 827l45 -109l-239 -92l-32 73z" />
    <glyph glyph-name="thorn" unicode="&#xfe;" horiz-adv-x="581" 
d="M506.5 492.5q41.5 -53.5 41.5 -153.5q0 -85 -27.5 -166t-91 -135t-164.5 -54q-51 0 -94 16l-29 -205l-142 -17l135 963l142 16l-39 -273q33 30 71 46t77 16q79 0 120.5 -53.5zM341.5 128.5q32.5 38.5 47.5 95.5t15 115q0 55 -18.5 78t-52.5 23q-56 0 -109 -65l-38 -272
q39 -13 73 -13q50 0 82.5 38.5z" />
    <glyph glyph-name="ydieresis" unicode="&#xff;" horiz-adv-x="502" 
d="M306 -3q-45 -100 -122 -154.5t-195 -62.5l-4 102q77 10 117 36t72 82h-50l-89 530h147l44 -435l170 435h147zM146 662.5q-19 18.5 -19 47.5q0 35 24 58t60 23q31 0 50 -18t19 -47q0 -35 -24.5 -58.5t-59.5 -23.5q-31 0 -50 18.5zM370 662.5q-19 18.5 -19 47.5q0 35 24 58
t60 23q31 0 49.5 -18t18.5 -47q0 -35 -24.5 -58.5t-59.5 -23.5q-30 0 -49 18.5z" />
    <glyph glyph-name="Amacron" unicode="&#x100;" horiz-adv-x="577" 
d="M396 0l-17 155h-215l-60 -155h-151l307 692h177l112 -692h-153zM206 264h161l-35 326zM510 784h-293l13 100h294z" />
    <glyph glyph-name="amacron" unicode="&#x101;" horiz-adv-x="571" 
d="M540 493l-50 -348q-2 -18 -2 -24q0 -16 6.5 -25.5t22.5 -16.5l-40 -93q-98 10 -116 88q-65 -90 -158 -90q-82 0 -127 56.5t-45 152.5q0 83 31 164t98.5 135t170.5 54q110 0 209 -53zM242 405q-34 -38 -49.5 -95.5t-15.5 -116.5q0 -103 68 -103q31 0 57 20t53 59l38 262
q-29 12 -65 12q-52 0 -86 -38zM507 658h-293l13 100h294z" />
    <glyph glyph-name="Abreve" unicode="&#x102;" horiz-adv-x="577" 
d="M396 0l-17 155h-215l-60 -155h-151l307 692h177l112 -692h-153zM206 264h161l-35 326zM277.5 773q-33.5 21 -49.5 56.5t-14 77.5l79 12q5 -31 23 -48.5t50 -17.5q34 0 58.5 19t38.5 50l80 -19q-15 -65 -64.5 -108t-119.5 -43q-48 0 -81.5 21z" />
    <glyph glyph-name="abreve" unicode="&#x103;" horiz-adv-x="571" 
d="M540 493l-50 -348q-2 -18 -2 -24q0 -16 6.5 -25.5t22.5 -16.5l-40 -93q-98 10 -116 88q-65 -90 -158 -90q-82 0 -127 56.5t-45 152.5q0 83 31 164t98.5 135t170.5 54q110 0 209 -53zM242 405q-34 -38 -49.5 -95.5t-15.5 -116.5q0 -103 68 -103q31 0 57 20t53 59l38 262
q-29 12 -65 12q-52 0 -86 -38zM242 681.5q-38 46.5 -34 118.5l81 11q8 -76 71 -76q34 0 59.5 21t39.5 58l78 -18q-15 -72 -64.5 -116.5t-120.5 -44.5q-72 0 -110 46.5z" />
    <glyph glyph-name="Aogonek" unicode="&#x104;" horiz-adv-x="577" 
d="M349 -116q0 -35 45 -35q25 0 62 8l-20 -92q-37 -7 -67 -7q-57 0 -92 28t-35 74q0 105 151 164l-14 131h-215l-60 -155h-151l307 692h177l112 -692h-65q-135 -50 -135 -116zM206 264h161l-35 326z" />
    <glyph glyph-name="aogonek" unicode="&#x105;" horiz-adv-x="571" 
d="M488 121q0 -16 6.5 -25.5t22.5 -16.5l-40 -93q-135 -50 -135 -116q0 -35 45 -35q25 0 62 8l-20 -92q-37 -7 -67 -7q-57 0 -92 28t-35 74q0 109 163 168q-28 22 -37 60q-65 -90 -158 -90q-82 0 -127 56.5t-45 152.5q0 83 31 164t98.5 135t170.5 54q110 0 209 -53l-50 -348
q-2 -18 -2 -24zM393 431q-29 12 -65 12q-52 0 -86 -38t-49.5 -95.5t-15.5 -116.5q0 -103 68 -103q31 0 57 20t53 59z" />
    <glyph glyph-name="Cacute" unicode="&#x106;" horiz-adv-x="563" 
d="M595 628l-79 -77q-28 23 -56 34.5t-62 11.5q-72 0 -117.5 -52t-65.5 -128t-20 -150q0 -85 34 -126t95 -41q39 0 72 15t72 43l58 -89q-99 -85 -222 -85q-78 0 -136.5 33t-91 97t-32.5 155q0 104 36.5 204.5t115 167.5t198.5 67q126 0 201 -80zM523 940l44 -109l-239 -82
l-30 71z" />
    <glyph glyph-name="cacute" unicode="&#x107;" horiz-adv-x="471" 
d="M489 481l-70 -83q-22 20 -44.5 28.5t-50.5 8.5q-77 0 -110.5 -71t-33.5 -160q0 -57 23 -81.5t66 -24.5q28 0 52.5 9t56.5 29l53 -93q-85 -59 -179 -59q-103 0 -161 60.5t-58 165.5q0 76 30.5 153.5t95.5 130t164 52.5t166 -65zM440 827l45 -109l-239 -92l-32 73z" />
    <glyph glyph-name="Ccircumflex" unicode="&#x108;" horiz-adv-x="563" 
d="M595 628l-79 -77q-28 23 -56 34.5t-62 11.5q-72 0 -117.5 -52t-65.5 -128t-20 -150q0 -85 34 -126t95 -41q39 0 72 15t72 43l58 -89q-99 -85 -222 -85q-78 0 -136.5 33t-91 97t-32.5 155q0 104 36.5 204.5t115 167.5t198.5 67q126 0 201 -80zM285 756l-48 60l156 125h86
l121 -125l-57 -60l-118 84z" />
    <glyph glyph-name="ccircumflex" unicode="&#x109;" horiz-adv-x="471" 
d="M489 481l-70 -83q-22 20 -44.5 28.5t-50.5 8.5q-77 0 -110.5 -71t-33.5 -160q0 -57 23 -81.5t66 -24.5q28 0 52.5 9t56.5 29l53 -93q-85 -59 -179 -59q-103 0 -161 60.5t-58 165.5q0 76 30.5 153.5t95.5 130t164 52.5t166 -65zM207 624l-47 60l156 131h87l120 -131
l-59 -60l-116 89z" />
    <glyph glyph-name="Cdotaccent" unicode="&#x10a;" horiz-adv-x="563" 
d="M595 628l-79 -77q-28 23 -56 34.5t-62 11.5q-72 0 -117.5 -52t-65.5 -128t-20 -150q0 -85 34 -126t95 -41q39 0 72 15t72 43l58 -89q-99 -85 -222 -85q-78 0 -136.5 33t-91 97t-32.5 155q0 104 36.5 204.5t115 167.5t198.5 67q126 0 201 -80zM367 784q-21 21 -21 53
q0 40 27 66t67 26q35 0 56 -20.5t21 -53.5q0 -40 -27 -66t-67 -26q-35 0 -56 21z" />
    <glyph glyph-name="cdotaccent" unicode="&#x10b;" horiz-adv-x="471" 
d="M489 481l-70 -83q-22 20 -44.5 28.5t-50.5 8.5q-77 0 -110.5 -71t-33.5 -160q0 -57 23 -81.5t66 -24.5q28 0 52.5 9t56.5 29l53 -93q-85 -59 -179 -59q-103 0 -161 60.5t-58 165.5q0 76 30.5 153.5t95.5 130t164 52.5t166 -65zM286 658q-21 21 -21 53q0 40 27 66t67 26
q35 0 56 -20.5t21 -53.5q0 -40 -27 -66t-67 -26q-35 0 -56 21z" />
    <glyph glyph-name="Ccaron" unicode="&#x10c;" horiz-adv-x="563" 
d="M595 628l-79 -77q-28 23 -56 34.5t-62 11.5q-72 0 -117.5 -52t-65.5 -128t-20 -150q0 -85 34 -126t95 -41q39 0 72 15t72 43l58 -89q-99 -85 -222 -85q-78 0 -136.5 33t-91 97t-32.5 155q0 104 36.5 204.5t115 167.5t198.5 67q126 0 201 -80zM567 935l46 -60l-155 -124
h-86l-122 124l58 60l117 -83z" />
    <glyph glyph-name="ccaron" unicode="&#x10d;" horiz-adv-x="471" 
d="M489 481l-70 -83q-22 20 -44.5 28.5t-50.5 8.5q-77 0 -110.5 -71t-33.5 -160q0 -57 23 -81.5t66 -24.5q28 0 52.5 9t56.5 29l53 -93q-85 -59 -179 -59q-103 0 -161 60.5t-58 165.5q0 76 30.5 153.5t95.5 130t164 52.5t166 -65zM485 806l47 -60l-155 -131h-87l-121 131
l56 60l117 -89z" />
    <glyph glyph-name="Dcaron" unicode="&#x10e;" horiz-adv-x="641" 
d="M536 634.5q85 -57.5 85 -204.5q0 -120 -38.5 -216.5t-125 -155t-225.5 -58.5h-197l97 692h178q141 0 226 -57.5zM262 584l-66 -476h58q117 0 167 96t50 226q0 89 -39.5 121.5t-111.5 32.5h-58zM513 935l46 -60l-155 -124h-86l-122 124l58 60l117 -83z" />
    <glyph glyph-name="dcaron" unicode="&#x10f;" horiz-adv-x="643" 
d="M584 741l-104 -741h-124l1 78q-29 -43 -68.5 -68.5t-89.5 -25.5q-82 0 -124.5 56.5t-42.5 156.5q0 79 27 159.5t83.5 135t141.5 54.5q39 0 71 -15t54 -40l37 265zM234.5 401.5q-30.5 -39.5 -43.5 -96.5t-13 -111q0 -56 17 -80t48 -24q34 0 63.5 27t60.5 76l29 204
q-33 44 -82 44t-79.5 -39.5zM636 754l108 -13l-75 -208l-74 8z" />
    <glyph glyph-name="Dcroat" unicode="&#x110;" horiz-adv-x="651" 
d="M546 634.5q85 -57.5 85 -204.5q0 -120 -38.5 -216.5t-125 -155t-225.5 -58.5h-197l43 307h-69l12 92h70l41 293h178q141 0 226 -57.5zM431 204q50 96 50 226q0 89 -39.5 121.5t-111.5 32.5h-58l-26 -185h139l-13 -92h-138l-28 -199h58q117 0 167 96z" />
    <glyph glyph-name="dcroat" unicode="&#x111;" horiz-adv-x="595" 
d="M641 686l-12 -88h-65l-84 -598h-124l1 78q-29 -43 -68.5 -68.5t-89.5 -25.5q-82 0 -124.5 56.5t-42.5 156.5q0 79 27 159.5t83.5 135t141.5 54.5q39 0 71 -15t54 -40l15 107h-134l1 88h145l10 70l138 -15l-8 -55h65zM396 397q-33 44 -82 44t-79.5 -39.5t-43.5 -96.5
t-13 -111q0 -56 17 -80t48 -24q34 0 63.5 27t60.5 76z" />
    <glyph glyph-name="Emacron" unicode="&#x112;" horiz-adv-x="520" 
d="M539 692l-30 -108h-247l-25 -179h214l-13 -106h-215l-27 -191h264l-16 -108h-409l97 692h407zM499 784h-293l13 100h294z" />
    <glyph glyph-name="emacron" unicode="&#x113;" horiz-adv-x="529" 
d="M422.5 255.5q-93.5 -46.5 -247.5 -61.5q5 -103 99 -103q35 0 67 12t70 37l52 -86q-97 -70 -206 -70t-166.5 59.5t-57.5 162.5q0 80 30 158t96 130t168 52q90 0 139.5 -40.5t49.5 -102.5q0 -101 -93.5 -147.5zM327.5 321.5q46.5 29.5 46.5 75.5q0 21 -13.5 36t-43.5 15
q-57 0 -90 -47t-45 -117q99 8 145.5 37.5zM480 658h-293l13 100h294z" />
    <glyph glyph-name="Ebreve" unicode="&#x114;" horiz-adv-x="520" 
d="M539 692l-30 -108h-247l-25 -179h214l-13 -106h-215l-27 -191h264l-16 -108h-409l97 692h407zM266.5 773q-33.5 21 -49.5 56.5t-14 77.5l79 12q5 -31 23 -48.5t50 -17.5q34 0 58.5 19t38.5 50l80 -19q-15 -65 -64.5 -108t-119.5 -43q-48 0 -81.5 21z" />
    <glyph glyph-name="ebreve" unicode="&#x115;" horiz-adv-x="529" 
d="M422.5 255.5q-93.5 -46.5 -247.5 -61.5q5 -103 99 -103q35 0 67 12t70 37l52 -86q-97 -70 -206 -70t-166.5 59.5t-57.5 162.5q0 80 30 158t96 130t168 52q90 0 139.5 -40.5t49.5 -102.5q0 -101 -93.5 -147.5zM327.5 321.5q46.5 29.5 46.5 75.5q0 21 -13.5 36t-43.5 15
q-57 0 -90 -47t-45 -117q99 8 145.5 37.5zM215 681.5q-38 46.5 -34 118.5l81 11q8 -76 71 -76q34 0 59.5 21t39.5 58l78 -18q-15 -72 -64.5 -116.5t-120.5 -44.5q-72 0 -110 46.5z" />
    <glyph glyph-name="Edotaccent" unicode="&#x116;" horiz-adv-x="520" 
d="M539 692l-30 -108h-247l-25 -179h214l-13 -106h-215l-27 -191h264l-16 -108h-409l97 692h407zM298 784q-21 21 -21 53q0 40 27 66t67 26q35 0 56 -20.5t21 -53.5q0 -40 -27 -66t-67 -26q-35 0 -56 21z" />
    <glyph glyph-name="edotaccent" unicode="&#x117;" horiz-adv-x="529" 
d="M422.5 255.5q-93.5 -46.5 -247.5 -61.5q5 -103 99 -103q35 0 67 12t70 37l52 -86q-97 -70 -206 -70t-166.5 59.5t-57.5 162.5q0 80 30 158t96 130t168 52q90 0 139.5 -40.5t49.5 -102.5q0 -101 -93.5 -147.5zM327.5 321.5q46.5 29.5 46.5 75.5q0 21 -13.5 36t-43.5 15
q-57 0 -90 -47t-45 -117q99 8 145.5 37.5zM278 658q-21 21 -21 53q0 40 27 66t67 26q35 0 56 -20.5t21 -53.5q0 -40 -27 -66t-67 -26q-35 0 -56 21z" />
    <glyph glyph-name="Eogonek" unicode="&#x118;" horiz-adv-x="520" 
d="M262 584l-25 -179h214l-13 -106h-215l-27 -191h264l-16 -108h-38q-135 -50 -135 -116q0 -35 45 -35q25 0 62 8l-20 -92q-37 -7 -67 -7q-57 0 -92 28t-35 74q0 85 99 140h-228l97 692h407l-30 -108h-247z" />
    <glyph glyph-name="eogonek" unicode="&#x119;" horiz-adv-x="529" 
d="M422.5 255.5q-93.5 -46.5 -247.5 -61.5q5 -103 99 -103q35 0 67 12t70 37l52 -86q-58 -42 -117 -58q-97 -42 -97 -99q0 -40 50 -40q30 0 62 7l-17 -91q-37 -7 -69 -7q-61 0 -97.5 28.5t-36.5 76.5q0 71 79 115q-91 10 -139 68t-48 152q0 80 30 158t96 130t168 52
q90 0 139.5 -40.5t49.5 -102.5q0 -101 -93.5 -147.5zM327.5 321.5q46.5 29.5 46.5 75.5q0 21 -13.5 36t-43.5 15q-57 0 -90 -47t-45 -117q99 8 145.5 37.5z" />
    <glyph glyph-name="Ecaron" unicode="&#x11a;" horiz-adv-x="520" 
d="M539 692l-30 -108h-247l-25 -179h214l-13 -106h-215l-27 -191h264l-16 -108h-409l97 692h407zM498 935l46 -60l-155 -124h-86l-122 124l58 60l117 -83z" />
    <glyph glyph-name="ecaron" unicode="&#x11b;" horiz-adv-x="529" 
d="M422.5 255.5q-93.5 -46.5 -247.5 -61.5q5 -103 99 -103q35 0 67 12t70 37l52 -86q-97 -70 -206 -70t-166.5 59.5t-57.5 162.5q0 80 30 158t96 130t168 52q90 0 139.5 -40.5t49.5 -102.5q0 -101 -93.5 -147.5zM327.5 321.5q46.5 29.5 46.5 75.5q0 21 -13.5 36t-43.5 15
q-57 0 -90 -47t-45 -117q99 8 145.5 37.5zM477 806l47 -60l-155 -131h-87l-121 131l56 60l117 -89z" />
    <glyph glyph-name="Gcircumflex" unicode="&#x11c;" horiz-adv-x="632" 
d="M629 622l-83 -74q-33 27 -63 39t-70 12q-78 0 -127.5 -53.5t-71 -134.5t-21.5 -166q0 -80 30.5 -115t93.5 -35q55 0 104 25l25 168h-96l1 107h251l-47 -339q-55 -35 -118.5 -53.5t-130.5 -18.5q-129 0 -196 70t-67 205q0 111 39.5 213.5t123 169t209.5 66.5
q131 0 214 -86zM288 756l-48 60l156 125h86l121 -125l-57 -60l-118 84z" />
    <glyph glyph-name="gcircumflex" unicode="&#x11d;" horiz-adv-x="578" 
d="M546 493l-67 -459q-20 -135 -85.5 -195t-185.5 -60q-48 0 -100.5 15t-94.5 41l48 96q76 -42 144 -42q54 0 89 26.5t46 101.5l8 55q-29 -33 -65 -52.5t-78 -19.5q-82 0 -127.5 55.5t-45.5 148.5q0 82 31.5 160.5t99.5 130t173 51.5q111 0 210 -53zM245 407
q-35 -36 -51 -90t-16 -110q0 -100 70 -100q56 0 113 79l38 245q-31 12 -66 12q-53 0 -88 -36zM217 624l-47 60l156 131h87l120 -131l-59 -60l-116 89z" />
    <glyph glyph-name="Gbreve" unicode="&#x11e;" horiz-adv-x="632" 
d="M629 622l-83 -74q-33 27 -63 39t-70 12q-78 0 -127.5 -53.5t-71 -134.5t-21.5 -166q0 -80 30.5 -115t93.5 -35q55 0 104 25l25 168h-96l1 107h251l-47 -339q-55 -35 -118.5 -53.5t-130.5 -18.5q-129 0 -196 70t-67 205q0 111 39.5 213.5t123 169t209.5 66.5
q131 0 214 -86zM338.5 773q-33.5 21 -49.5 56.5t-14 77.5l79 12q5 -31 23 -48.5t50 -17.5q34 0 58.5 19t38.5 50l80 -19q-15 -65 -64.5 -108t-119.5 -43q-48 0 -81.5 21z" />
    <glyph glyph-name="gbreve" unicode="&#x11f;" horiz-adv-x="578" 
d="M546 493l-67 -459q-20 -135 -85.5 -195t-185.5 -60q-48 0 -100.5 15t-94.5 41l48 96q76 -42 144 -42q54 0 89 26.5t46 101.5l8 55q-29 -33 -65 -52.5t-78 -19.5q-82 0 -127.5 55.5t-45.5 148.5q0 82 31.5 160.5t99.5 130t173 51.5q111 0 210 -53zM245 407
q-35 -36 -51 -90t-16 -110q0 -100 70 -100q56 0 113 79l38 245q-31 12 -66 12q-53 0 -88 -36zM233 681.5q-38 46.5 -34 118.5l81 11q8 -76 71 -76q34 0 59.5 21t39.5 58l78 -18q-15 -72 -64.5 -116.5t-120.5 -44.5q-72 0 -110 46.5z" />
    <glyph glyph-name="Gdotaccent" unicode="&#x120;" horiz-adv-x="632" 
d="M629 622l-83 -74q-33 27 -63 39t-70 12q-78 0 -127.5 -53.5t-71 -134.5t-21.5 -166q0 -80 30.5 -115t93.5 -35q55 0 104 25l25 168h-96l1 107h251l-47 -339q-55 -35 -118.5 -53.5t-130.5 -18.5q-129 0 -196 70t-67 205q0 111 39.5 213.5t123 169t209.5 66.5
q131 0 214 -86zM370 784q-21 21 -21 53q0 40 27 66t67 26q35 0 56 -20.5t21 -53.5q0 -40 -27 -66t-67 -26q-35 0 -56 21z" />
    <glyph glyph-name="gdotaccent" unicode="&#x121;" horiz-adv-x="578" 
d="M546 493l-67 -459q-20 -135 -85.5 -195t-185.5 -60q-48 0 -100.5 15t-94.5 41l48 96q76 -42 144 -42q54 0 89 26.5t46 101.5l8 55q-29 -33 -65 -52.5t-78 -19.5q-82 0 -127.5 55.5t-45.5 148.5q0 82 31.5 160.5t99.5 130t173 51.5q111 0 210 -53zM245 407
q-35 -36 -51 -90t-16 -110q0 -100 70 -100q56 0 113 79l38 245q-31 12 -66 12q-53 0 -88 -36zM296 658q-21 21 -21 53q0 40 27 66t67 26q35 0 56 -20.5t21 -53.5q0 -40 -27 -66t-67 -26q-35 0 -56 21z" />
    <glyph glyph-name="Gcommaaccent" unicode="&#x122;" horiz-adv-x="632" 
d="M629 622l-83 -74q-33 27 -63 39t-70 12q-78 0 -127.5 -53.5t-71 -134.5t-21.5 -166q0 -80 30.5 -115t93.5 -35q55 0 104 25l25 168h-96l1 107h251l-47 -339q-55 -35 -118.5 -53.5t-130.5 -18.5q-129 0 -196 70t-67 205q0 111 39.5 213.5t123 169t209.5 66.5
q131 0 214 -86zM344 -88.5q19 -18.5 19 -46.5q0 -22 -8.5 -41.5t-29.5 -51.5l-57 -90h-72l46 117q-25 20 -25 51q0 35 22.5 57.5t55.5 22.5q30 0 49 -18.5z" />
    <glyph glyph-name="gcommaaccent" unicode="&#x123;" horiz-adv-x="578" 
d="M546 493l-67 -459q-20 -135 -85.5 -195t-185.5 -60q-48 0 -100.5 15t-94.5 41l48 96q76 -42 144 -42q54 0 89 26.5t46 101.5l8 55q-29 -33 -65 -52.5t-78 -19.5q-82 0 -127.5 55.5t-45.5 148.5q0 82 31.5 160.5t99.5 130t173 51.5q111 0 210 -53zM245 407
q-35 -36 -51 -90t-16 -110q0 -100 70 -100q56 0 113 79l38 245q-31 12 -66 12q-53 0 -88 -36zM295 604.5q-19 18.5 -19 46.5q0 22 8.5 41.5t29.5 51.5l57 90h72l-46 -117q25 -20 25 -51q0 -35 -22.5 -57.5t-55.5 -22.5q-30 0 -49 18.5z" />
    <glyph glyph-name="Hcircumflex" unicode="&#x124;" horiz-adv-x="660" 
d="M180 0h-145l97 692h146l-39 -273h224l39 273h145l-97 -692h-145l42 303h-224zM268 756l-48 60l156 125h86l121 -125l-57 -60l-118 84z" />
    <glyph glyph-name="hcircumflex" unicode="&#x125;" horiz-adv-x="571" 
d="M492.5 512q32.5 -34 32.5 -95q0 -22 -2 -34l-54 -383h-140l50 355q2 20 2 26q0 27 -9.5 37.5t-27.5 10.5q-64 0 -132 -131l-41 -298h-140l104 741l142 15l-45 -317q30 49 74.5 78t95.5 29q58 0 90.5 -34zM229 805l-48 60l156 125h86l121 -125l-57 -60l-118 84z" />
    <glyph glyph-name="Hbar" unicode="&#x126;" horiz-adv-x="676" 
d="M699 588l-12 -86h-61l-70 -502h-145l42 303h-224l-43 -303h-145l70 502h-58l13 86h57l15 104h146l-15 -104h224l15 104h145l-15 -104h61zM469 419l12 83h-224l-12 -83h224z" />
    <glyph glyph-name="hbar" unicode="&#x127;" horiz-adv-x="579" 
d="M501.5 512q32.5 -34 32.5 -95q0 -22 -2 -34l-54 -383h-140l50 355q2 20 2 26q0 27 -9.5 37.5t-27.5 10.5q-64 0 -132 -131l-41 -298h-140l84 598h-64l12 88h64l8 55l142 15l-10 -70h142l-24 -88h-130l-23 -159q30 49 74.5 78t95.5 29q58 0 90.5 -34z" />
    <glyph glyph-name="Itilde" unicode="&#x128;" horiz-adv-x="291" 
d="M278 692l-97 -692h-146l97 692h146zM242.5 773q-15.5 7 -34.5 20q-13 9 -21.5 13.5t-17.5 4.5q-18 0 -31 -11t-30 -35l-68 39q26 49 61 79.5t74 30.5q22 0 37 -7t34 -21q12 -9 20 -13.5t17 -4.5q16 0 29.5 10.5t30.5 34.5l68 -39q-26 -50 -61 -79t-72 -29q-20 0 -35.5 7z
" />
    <glyph glyph-name="itilde" unicode="&#x129;" horiz-adv-x="278" 
d="M246 530l-74 -530h-140l74 530h140zM218.5 647q-15.5 7 -34.5 20q-13 9 -21.5 13.5t-17.5 4.5q-18 0 -31 -11t-30 -35l-68 39q26 49 61 79.5t74 30.5q22 0 37 -7t34 -21q12 -9 20 -13.5t17 -4.5q16 0 29.5 10.5t30.5 34.5l68 -39q-26 -50 -61 -79t-72 -29q-20 0 -35.5 7z
" />
    <glyph glyph-name="Imacron" unicode="&#x12a;" horiz-adv-x="291" 
d="M278 692l-97 -692h-146l97 692h146zM366 784h-293l13 100h294z" />
    <glyph glyph-name="imacron" unicode="&#x12b;" horiz-adv-x="278" 
d="M246 530l-74 -530h-140l74 530h140zM341 658h-293l13 100h294z" />
    <glyph glyph-name="Ibreve" unicode="&#x12c;" horiz-adv-x="291" 
d="M278 692l-97 -692h-146l97 692h146zM133.5 773q-33.5 21 -49.5 56.5t-14 77.5l79 12q5 -31 23 -48.5t50 -17.5q34 0 58.5 19t38.5 50l80 -19q-15 -65 -64.5 -108t-119.5 -43q-48 0 -81.5 21z" />
    <glyph glyph-name="ibreve" unicode="&#x12d;" horiz-adv-x="278" 
d="M246 530l-74 -530h-140l74 530h140zM76 681.5q-38 46.5 -34 118.5l81 11q8 -76 71 -76q34 0 59.5 21t39.5 58l78 -18q-15 -72 -64.5 -116.5t-120.5 -44.5q-72 0 -110 46.5z" />
    <glyph glyph-name="Iogonek" unicode="&#x12e;" horiz-adv-x="291" 
d="M278 692l-97 -692h-31q-135 -50 -135 -116q0 -35 45 -35q25 0 62 8l-20 -92q-37 -7 -67 -7q-57 0 -92 28t-35 74q0 97 129 155l95 677h146z" />
    <glyph glyph-name="iogonek" unicode="&#x12f;" horiz-adv-x="278" 
d="M268 782.5q21 -20.5 21 -53.5q0 -40 -27 -66t-67 -26q-35 0 -56 21t-21 53q0 40 27 66t67 26q35 0 56 -20.5zM106 530h140l-74 -530h-33q-135 -50 -135 -116q0 -35 45 -35q25 0 62 8l-20 -92q-37 -7 -67 -7q-57 0 -92 28t-35 74q0 100 138 158z" />
    <glyph glyph-name="Idotaccent" unicode="&#x130;" horiz-adv-x="291" 
d="M278 692l-97 -692h-146l97 692h146zM165 784q-21 21 -21 53q0 40 27 66t67 26q35 0 56 -20.5t21 -53.5q0 -40 -27 -66t-67 -26q-35 0 -56 21z" />
    <glyph glyph-name="dotlessi" unicode="&#x131;" horiz-adv-x="278" 
d="M246 530l-74 -530h-140l74 530h140z" />
    <glyph glyph-name="IJ" unicode="&#x132;" horiz-adv-x="599" 
d="M278 692l-97 -692h-146l97 692h146zM507 101q-11 -80 -45.5 -131.5t-83.5 -81t-116 -50.5l-27 106q46 17 71.5 39.5t37.5 52t18 75.5l82 581h146z" />
    <glyph glyph-name="ij" unicode="&#x133;" horiz-adv-x="555" 
d="M246 530l-74 -530h-140l74 530h140zM139 658q-21 21 -21 53q0 40 27 66t67 26q35 0 56 -20.5t21 -53.5q0 -40 -27 -66t-67 -26q-35 0 -56 21zM185 -118q41 17 66.5 36t41.5 49.5t23 79.5l67 483h140l-67 -479q-11 -80 -42 -131.5t-77 -82.5t-116 -57zM417 658
q-21 21 -21 53q0 40 27 66t67 26q35 0 56 -20.5t21 -53.5q0 -40 -27 -66t-67 -26q-35 0 -56 21z" />
    <glyph glyph-name="Jcircumflex" unicode="&#x134;" horiz-adv-x="308" 
d="M216 101q-11 -80 -45.5 -131.5t-83.5 -81t-116 -50.5l-27 106q46 17 71.5 39.5t37.5 52t18 75.5l82 581h146zM104 756l-48 60l156 125h86l121 -125l-57 -60l-118 84z" />
    <glyph glyph-name="jcircumflex" unicode="&#x135;" horiz-adv-x="277" 
d="M-93 -118q41 17 66.5 36t41.5 49.5t23 79.5l67 483h140l-67 -479q-11 -80 -42 -131.5t-77 -82.5t-116 -57zM60 624l-47 60l156 131h87l120 -131l-59 -60l-116 89z" />
    <glyph glyph-name="Kcommaaccent" unicode="&#x136;" horiz-adv-x="613" 
d="M35 0l97 692h146l-97 -692h-146zM419 0l-181 369l269 323h158l-274 -321l195 -371h-167zM321 -88.5q19 -18.5 19 -46.5q0 -22 -8.5 -41.5t-29.5 -51.5l-57 -90h-72l46 117q-25 20 -25 51q0 35 22.5 57.5t55.5 22.5q30 0 49 -18.5z" />
    <glyph glyph-name="kcommaaccent" unicode="&#x137;" horiz-adv-x="561" 
d="M235 455q75 91 177 91q63 0 101 -34.5t38 -90.5q0 -128 -148 -186l103 -235h-155l-103 257q86 26 122.5 60t36.5 81q0 22 -12.5 34.5t-35.5 12.5q-36 0 -73 -29.5t-69 -89.5l-45 -326h-141l104 741l142 16zM292 -88.5q19 -18.5 19 -46.5q0 -22 -8.5 -41.5t-29.5 -51.5
l-57 -90h-72l46 117q-25 20 -25 51q0 35 22.5 57.5t55.5 22.5q30 0 49 -18.5z" />
    <glyph glyph-name="kgreenlandic" unicode="&#x138;" horiz-adv-x="534" 
d="M246 530l-74 -530h-140l74 530h140zM562 530l-200 -249l141 -281h-155l-134 280l194 250h154z" />
    <glyph glyph-name="Lacute" unicode="&#x139;" horiz-adv-x="502" 
d="M278 692l-81 -573h270l-32 -119h-400l97 692h146zM321 940l44 -109l-239 -82l-30 71z" />
    <glyph glyph-name="lacute" unicode="&#x13a;" horiz-adv-x="288" 
d="M185 133l-1 -11q0 -24 23 -24q13 0 28 5l19 -100q-46 -19 -94 -19q-57 0 -87.5 29.5t-30.5 86.5q0 16 3 34l86 607l141 16zM317 989l44 -109l-239 -82l-30 71z" />
    <glyph glyph-name="Lcommaaccent" unicode="&#x13b;" horiz-adv-x="502" 
d="M278 692l-81 -573h270l-32 -119h-400l97 692h146zM275 -88.5q19 -18.5 19 -46.5q0 -22 -8.5 -41.5t-29.5 -51.5l-57 -90h-72l46 117q-25 20 -25 51q0 35 22.5 57.5t55.5 22.5q30 0 49 -18.5z" />
    <glyph glyph-name="lcommaaccent" unicode="&#x13c;" horiz-adv-x="288" 
d="M185 133l-1 -11q0 -24 23 -24q13 0 28 5l19 -100q-46 -19 -94 -19q-57 0 -87.5 29.5t-30.5 86.5q0 16 3 34l86 607l141 16zM187 -88.5q19 -18.5 19 -46.5q0 -22 -8.5 -41.5t-29.5 -51.5l-57 -90h-72l46 117q-25 20 -25 51q0 35 22.5 57.5t55.5 22.5q30 0 49 -18.5z" />
    <glyph glyph-name="Lcaron" unicode="&#x13d;" horiz-adv-x="502" 
d="M278 692l-81 -573h270l-32 -119h-400l97 692h146zM340 705l108 -13l-75 -208l-74 8z" />
    <glyph glyph-name="lcaron" unicode="&#x13e;" horiz-adv-x="339" 
d="M185 133l-1 -11q0 -24 23 -24q13 0 28 5l19 -100q-46 -19 -94 -19q-57 0 -87.5 29.5t-30.5 86.5q0 16 3 34l86 607l141 16zM325 754l108 -13l-75 -208l-74 8z" />
    <glyph glyph-name="Ldot" unicode="&#x13f;" horiz-adv-x="502" 
d="M278 692l-81 -573h270l-32 -119h-400l97 692h146zM343 334q-21 21 -21 53q0 40 27 66t67 26q35 0 56 -20.5t21 -53.5q0 -40 -27 -66t-67 -26q-35 0 -56 21z" />
    <glyph glyph-name="ldot" unicode="&#x140;" horiz-adv-x="407" 
d="M185 133l-1 -11q0 -24 23 -24q13 0 28 5l19 -100q-46 -19 -94 -19q-57 0 -87.5 29.5t-30.5 86.5q0 16 3 34l86 607l141 16zM285 314q-21 21 -21 53q0 40 27 66t67 26q35 0 56 -20.5t21 -53.5q0 -40 -27 -66t-67 -26q-35 0 -56 21z" />
    <glyph glyph-name="Lslash" unicode="&#x141;" horiz-adv-x="531" 
d="M225 119h270l-32 -119h-400l32 231l-45 -27l-38 80l99 57l49 351h146l-37 -259l147 85l39 -80l-201 -116z" />
    <glyph glyph-name="lslash" unicode="&#x142;" horiz-adv-x="326" 
d="M252 103l19 -100q-46 -19 -94 -19q-57 0 -87.5 29.5t-30.5 86.5q0 16 3 34l21 145l-47 -27l-25 90l88 51l49 348l141 16l-39 -277l71 41l24 -91l-110 -64l-33 -233l-1 -11q0 -24 23 -24q13 0 28 5z" />
    <glyph glyph-name="Nacute" unicode="&#x143;" horiz-adv-x="659" 
d="M550 0h-186l-143 569v-41q0 -132 -18 -266l-37 -262h-131l97 692h184l146 -569q-2 58 -2 83q0 85 14 190l42 296h131zM512 940l44 -109l-239 -82l-30 71z" />
    <glyph glyph-name="nacute" unicode="&#x144;" horiz-adv-x="570" 
d="M493.5 512q32.5 -34 32.5 -95q0 -16 -3 -36l-53 -381h-140l50 355q2 20 2 25q0 27 -10 38t-29 11q-61 0 -129 -131l-42 -298h-140l74 530h121l-4 -96q36 53 82 82.5t99 29.5q57 0 89.5 -34zM442 827l45 -109l-239 -92l-32 73z" />
    <glyph glyph-name="Ncommaaccent" unicode="&#x145;" horiz-adv-x="659" 
d="M550 0h-186l-143 569v-41q0 -132 -18 -266l-37 -262h-131l97 692h184l146 -569q-2 58 -2 83q0 85 14 190l42 296h131zM333 -88.5q19 -18.5 19 -46.5q0 -22 -8.5 -41.5t-29.5 -51.5l-57 -90h-72l46 117q-25 20 -25 51q0 35 22.5 57.5t55.5 22.5q30 0 49 -18.5z" />
    <glyph glyph-name="ncommaaccent" unicode="&#x146;" horiz-adv-x="570" 
d="M493.5 512q32.5 -34 32.5 -95q0 -16 -3 -36l-53 -381h-140l50 355q2 20 2 25q0 27 -10 38t-29 11q-61 0 -129 -131l-42 -298h-140l74 530h121l-4 -96q36 53 82 82.5t99 29.5q57 0 89.5 -34zM286 -88.5q19 -18.5 19 -46.5q0 -22 -8.5 -41.5t-29.5 -51.5l-57 -90h-72
l46 117q-25 20 -25 51q0 35 22.5 57.5t55.5 22.5q30 0 49 -18.5z" />
    <glyph glyph-name="Ncaron" unicode="&#x147;" horiz-adv-x="659" 
d="M550 0h-186l-143 569v-41q0 -132 -18 -266l-37 -262h-131l97 692h184l146 -569q-2 58 -2 83q0 85 14 190l42 296h131zM556 935l46 -60l-155 -124h-86l-122 124l58 60l117 -83z" />
    <glyph glyph-name="ncaron" unicode="&#x148;" horiz-adv-x="570" 
d="M493.5 512q32.5 -34 32.5 -95q0 -16 -3 -36l-53 -381h-140l50 355q2 20 2 25q0 27 -10 38t-29 11q-61 0 -129 -131l-42 -298h-140l74 530h121l-4 -96q36 53 82 82.5t99 29.5q57 0 89.5 -34zM487 806l47 -60l-155 -131h-87l-121 131l56 60l117 -89z" />
    <glyph glyph-name="napostrophe" unicode="&#x149;" horiz-adv-x="691" 
d="M210 741.5q17 -16.5 17 -41.5q0 -7 -1 -11q-1 -14 -8.5 -29.5t-24.5 -43.5l-52 -82h-66l41 106q-21 19 -21 47q0 29 21.5 50t50.5 21q26 0 43 -16.5zM614.5 512q32.5 -34 32.5 -95q0 -16 -3 -36l-53 -381h-140l50 355q2 20 2 25q0 27 -10 38t-29 11q-61 0 -129 -131
l-42 -298h-140l74 530h121l-4 -96q36 53 82 82.5t99 29.5q57 0 89.5 -34z" />
    <glyph glyph-name="Eng" unicode="&#x14a;" horiz-adv-x="659" 
d="M647 692l-97 -692l-6 -40q-14 -89 -68.5 -134.5t-139.5 -45.5q-77 0 -130 43l59 87q18 -11 32 -16t33 -5q58 0 68 66l6 45h-40l-143 569v-41q0 -132 -18 -266l-37 -262h-131l97 692h184l146 -569q-2 58 -2 83q0 85 14 190l42 296h131z" />
    <glyph glyph-name="eng" unicode="&#x14b;" horiz-adv-x="570" 
d="M493.5 512q32.5 -34 32.5 -95q0 -16 -3 -36l-53 -381l-6 -40q-13 -89 -67.5 -134.5t-137.5 -45.5q-75 0 -130 43l58 83q18 -11 32 -15.5t33 -4.5q30 0 48.5 16.5t22.5 49.5l7 48l50 355q2 20 2 25q0 27 -10 38t-29 11q-61 0 -129 -131l-42 -298h-140l74 530h121l-4 -96
q36 53 82 82.5t99 29.5q57 0 89.5 -34z" />
    <glyph glyph-name="Omacron" unicode="&#x14c;" horiz-adv-x="682" 
d="M592.5 634q68.5 -74 68.5 -209q0 -104 -35 -204.5t-115 -168.5t-206 -68q-124 0 -192.5 74t-68.5 208q0 103 35 204t115.5 169.5t206.5 68.5q123 0 191.5 -74zM274 542q-44 -56 -62 -134t-18 -151q0 -85 30.5 -123.5t89.5 -38.5q74 0 118 56t61.5 134t17.5 152
q0 84 -30 122.5t-90 38.5q-73 0 -117 -56zM564 784h-293l13 100h294z" />
    <glyph glyph-name="omacron" unicode="&#x14d;" horiz-adv-x="575" 
d="M90 43.5q-57 59.5 -57 164.5q0 80 29 157.5t94.5 129t167.5 51.5q103 0 160 -59t57 -162q0 -80 -28 -158t-93 -130.5t-169 -52.5t-161 59.5zM365 167q31 76 32 165q0 56 -20.5 82t-61.5 26q-52 0 -82.5 -39.5t-42.5 -95t-12 -107.5q0 -55 20.5 -81t61.5 -26q74 0 105 76z
M485 658h-293l13 100h294z" />
    <glyph glyph-name="Obreve" unicode="&#x14e;" horiz-adv-x="682" 
d="M592.5 634q68.5 -74 68.5 -209q0 -104 -35 -204.5t-115 -168.5t-206 -68q-124 0 -192.5 74t-68.5 208q0 103 35 204t115.5 169.5t206.5 68.5q123 0 191.5 -74zM274 542q-44 -56 -62 -134t-18 -151q0 -85 30.5 -123.5t89.5 -38.5q74 0 118 56t61.5 134t17.5 152
q0 84 -30 122.5t-90 38.5q-73 0 -117 -56zM331.5 773q-33.5 21 -49.5 56.5t-14 77.5l79 12q5 -31 23 -48.5t50 -17.5q34 0 58.5 19t38.5 50l80 -19q-15 -65 -64.5 -108t-119.5 -43q-48 0 -81.5 21z" />
    <glyph glyph-name="obreve" unicode="&#x14f;" horiz-adv-x="575" 
d="M90 43.5q-57 59.5 -57 164.5q0 80 29 157.5t94.5 129t167.5 51.5q103 0 160 -59t57 -162q0 -80 -28 -158t-93 -130.5t-169 -52.5t-161 59.5zM365 167q31 76 32 165q0 56 -20.5 82t-61.5 26q-52 0 -82.5 -39.5t-42.5 -95t-12 -107.5q0 -55 20.5 -81t61.5 -26q74 0 105 76z
M220 681.5q-38 46.5 -34 118.5l81 11q8 -76 71 -76q34 0 59.5 21t39.5 58l78 -18q-15 -72 -64.5 -116.5t-120.5 -44.5q-72 0 -110 46.5z" />
    <glyph glyph-name="Ohungarumlaut" unicode="&#x150;" horiz-adv-x="682" 
d="M592.5 634q68.5 -74 68.5 -209q0 -104 -35 -204.5t-115 -168.5t-206 -68q-124 0 -192.5 74t-68.5 208q0 103 35 204t115.5 169.5t206.5 68.5q123 0 191.5 -74zM274 542q-44 -56 -62 -134t-18 -151q0 -85 30.5 -123.5t89.5 -38.5q74 0 118 56t61.5 134t17.5 152
q0 84 -30 122.5t-90 38.5q-73 0 -117 -56zM397 979l92 -48l-130 -173l-73 32zM564 979l92 -50l-140 -176l-71 35z" />
    <glyph glyph-name="ohungarumlaut" unicode="&#x151;" horiz-adv-x="575" 
d="M90 43.5q-57 59.5 -57 164.5q0 80 29 157.5t94.5 129t167.5 51.5q103 0 160 -59t57 -162q0 -80 -28 -158t-93 -130.5t-169 -52.5t-161 59.5zM365 167q31 76 32 165q0 56 -20.5 82t-61.5 26q-52 0 -82.5 -39.5t-42.5 -95t-12 -107.5q0 -55 20.5 -81t61.5 -26q74 0 105 76z
M322 853l92 -48l-130 -173l-73 32zM489 853l92 -50l-140 -176l-71 35z" />
    <glyph glyph-name="OE" unicode="&#x152;" horiz-adv-x="889" 
d="M878 584h-282q42 -69 42 -173v-6h183l-14 -106h-180q-22 -115 -94 -191h296l-15 -108h-433q-42 -16 -92 -16q-114 0 -179.5 73.5t-65.5 207.5q0 101 35 203t111.5 171t194.5 69q51 0 90 -16h433zM303 95q69 0 111 54t59.5 133.5t17.5 164.5q0 151 -111 151
q-68 0 -109.5 -54t-59 -133t-17.5 -161q0 -155 109 -155z" />
    <glyph glyph-name="oe" unicode="&#x153;" horiz-adv-x="885" 
d="M778.5 255q-93.5 -46 -247.5 -61q5 -103 99 -103q35 0 67 12t70 37l52 -86q-97 -70 -206 -70q-119 0 -176 85q-66 -85 -185 -85q-104 0 -161.5 59.5t-57.5 164.5q0 80 29 157.5t93.5 129t164.5 51.5q57 0 99.5 -24t69.5 -64q74 88 194 88q90 0 139.5 -40.5t49.5 -102.5
q0 -102 -93.5 -148zM682.5 322q47.5 30 47.5 74q0 21 -14 36.5t-45 15.5q-59 0 -91.5 -45.5t-43.5 -118.5q99 8 146.5 38zM366.5 167q31.5 76 32.5 165q0 108 -83 108q-52 0 -82.5 -39.5t-43 -95t-12.5 -107.5q0 -55 20.5 -81t62.5 -26q74 0 105.5 76z" />
    <glyph glyph-name="Racute" unicode="&#x154;" horiz-adv-x="605" 
d="M557.5 384.5q-36.5 -55.5 -125.5 -89.5l133 -295h-160l-109 271h-78l-37 -271h-146l97 692h213q123 0 186 -47t63 -134q0 -71 -36.5 -126.5zM233 375h78q70 0 101 38.5t31 91.5q0 43 -27 62t-86 19h-68zM477 940l44 -109l-239 -82l-30 71z" />
    <glyph glyph-name="racute" unicode="&#x155;" horiz-adv-x="390" 
d="M428 537l-40 -138q-22 7 -45 7q-46 0 -77.5 -39t-57.5 -113l-36 -254h-140l74 530h121l-3 -101q28 57 67.5 86.5t83.5 29.5q27 0 53 -8zM385 827l45 -109l-239 -92l-32 73z" />
    <glyph glyph-name="Rcommaaccent" unicode="&#x156;" horiz-adv-x="605" 
d="M557.5 384.5q-36.5 -55.5 -125.5 -89.5l133 -295h-160l-109 271h-78l-37 -271h-146l97 692h213q123 0 186 -47t63 -134q0 -71 -36.5 -126.5zM233 375h78q70 0 101 38.5t31 91.5q0 43 -27 62t-86 19h-68zM309 -88.5q19 -18.5 19 -46.5q0 -22 -8.5 -41.5t-29.5 -51.5
l-57 -90h-72l46 117q-25 20 -25 51q0 35 22.5 57.5t55.5 22.5q30 0 49 -18.5z" />
    <glyph glyph-name="rcommaaccent" unicode="&#x157;" horiz-adv-x="390" 
d="M428 537l-40 -138q-22 7 -45 7q-46 0 -77.5 -39t-57.5 -113l-36 -254h-140l74 530h121l-3 -101q28 57 67.5 86.5t83.5 29.5q27 0 53 -8zM137 -88.5q19 -18.5 19 -46.5q0 -22 -8.5 -41.5t-29.5 -51.5l-57 -90h-72l46 117q-25 20 -25 51q0 35 22.5 57.5t55.5 22.5
q30 0 49 -18.5z" />
    <glyph glyph-name="Rcaron" unicode="&#x158;" horiz-adv-x="605" 
d="M557.5 384.5q-36.5 -55.5 -125.5 -89.5l133 -295h-160l-109 271h-78l-37 -271h-146l97 692h213q123 0 186 -47t63 -134q0 -71 -36.5 -126.5zM233 375h78q70 0 101 38.5t31 91.5q0 43 -27 62t-86 19h-68zM521 935l46 -60l-155 -124h-86l-122 124l58 60l117 -83z" />
    <glyph glyph-name="rcaron" unicode="&#x159;" horiz-adv-x="390" 
d="M428 537l-40 -138q-22 7 -45 7q-46 0 -77.5 -39t-57.5 -113l-36 -254h-140l74 530h121l-3 -101q28 57 67.5 86.5t83.5 29.5q27 0 53 -8zM430 806l47 -60l-155 -131h-87l-121 131l56 60l117 -89z" />
    <glyph glyph-name="Sacute" unicode="&#x15a;" horiz-adv-x="557" 
d="M559 619l-80 -79q-31 30 -65.5 44t-75.5 14q-50 0 -81.5 -23t-31.5 -63q0 -22 10.5 -37t35.5 -28t73 -29q88 -28 133 -73t45 -122q0 -61 -30 -115.5t-95 -89t-165 -34.5q-81 0 -142 27t-102 72l85 84q33 -34 72.5 -51.5t90.5 -17.5q61 0 97 28t36 76q0 37 -24.5 59
t-88.5 44q-97 33 -140 77.5t-43 113.5q0 54 29.5 102.5t88.5 79t143 30.5q139 0 225 -89zM462 940l44 -109l-239 -82l-30 71z" />
    <glyph glyph-name="sacute" unicode="&#x15b;" horiz-adv-x="471" 
d="M373 528q48 -18 85 -49l-63 -79q-28 21 -61 32t-65 11q-38 0 -58.5 -13.5t-20.5 -36.5q0 -15 9.5 -25.5t30 -19.5t63.5 -23q71 -22 106 -60.5t35 -99.5q0 -52 -27 -93t-79.5 -64.5t-126.5 -23.5q-67 0 -123 23.5t-92 61.5l72 75q65 -56 145 -56q45 0 67.5 18t22.5 43
q0 20 -9 32t-30.5 22t-66.5 25q-71 24 -104 59.5t-33 92.5q0 44 25 82t74.5 61t119.5 23q56 0 104 -18zM395 827l45 -109l-239 -92l-32 73z" />
    <glyph glyph-name="Scircumflex" unicode="&#x15c;" horiz-adv-x="557" 
d="M559 619l-80 -79q-31 30 -65.5 44t-75.5 14q-50 0 -81.5 -23t-31.5 -63q0 -22 10.5 -37t35.5 -28t73 -29q88 -28 133 -73t45 -122q0 -61 -30 -115.5t-95 -89t-165 -34.5q-81 0 -142 27t-102 72l85 84q33 -34 72.5 -51.5t90.5 -17.5q61 0 97 28t36 76q0 37 -24.5 59
t-88.5 44q-97 33 -140 77.5t-43 113.5q0 54 29.5 102.5t88.5 79t143 30.5q139 0 225 -89zM224 756l-48 60l156 125h86l121 -125l-57 -60l-118 84z" />
    <glyph glyph-name="scircumflex" unicode="&#x15d;" horiz-adv-x="471" 
d="M373 528q48 -18 85 -49l-63 -79q-28 21 -61 32t-65 11q-38 0 -58.5 -13.5t-20.5 -36.5q0 -15 9.5 -25.5t30 -19.5t63.5 -23q71 -22 106 -60.5t35 -99.5q0 -52 -27 -93t-79.5 -64.5t-126.5 -23.5q-67 0 -123 23.5t-92 61.5l72 75q65 -56 145 -56q45 0 67.5 18t22.5 43
q0 20 -9 32t-30.5 22t-66.5 25q-71 24 -104 59.5t-33 92.5q0 44 25 82t74.5 61t119.5 23q56 0 104 -18zM162 624l-47 60l156 131h87l120 -131l-59 -60l-116 89z" />
    <glyph glyph-name="Scedilla" unicode="&#x15e;" horiz-adv-x="557" 
d="M477 345q45 -45 45 -122q0 -56 -25 -106.5t-80 -86t-138 -44.5l-6 -36q43 -4 66 -27.5t23 -60.5q0 -30 -16.5 -57t-51 -44.5t-85.5 -17.5q-63 0 -105 31l42 65q27 -16 61 -16q23 0 37 9t14 26q1 19 -18 26t-67 7l23 94q-128 11 -208 98l85 84q33 -34 72.5 -51.5
t90.5 -17.5q61 0 97 28t36 76q0 37 -24.5 59t-88.5 44q-97 33 -140 77.5t-43 113.5q0 54 29.5 102.5t88.5 79t143 30.5q139 0 225 -89l-80 -79q-31 30 -65.5 44t-75.5 14q-50 0 -81.5 -23t-31.5 -63q0 -22 10.5 -37t35.5 -28t73 -29q88 -28 133 -73z" />
    <glyph glyph-name="scedilla" unicode="&#x15f;" horiz-adv-x="471" 
d="M399 264.5q35 -38.5 35 -99.5q0 -73 -52.5 -122.5t-146.5 -57.5l-6 -35q43 -4 66 -27.5t23 -60.5q0 -30 -16.5 -57t-51 -44.5t-85.5 -17.5q-63 0 -105 31l42 65q27 -16 61 -16q23 0 37 9t14 26q1 19 -18 26t-67 7l24 96q-52 7 -95 29t-72 53l72 75q65 -56 145 -56
q45 0 67.5 18t22.5 43q0 20 -9 32t-30.5 22t-66.5 25q-71 24 -104 59.5t-33 92.5q0 44 25 82t74.5 61t119.5 23q56 0 104 -18t85 -49l-63 -79q-28 21 -61 32t-65 11q-38 0 -58.5 -13.5t-20.5 -36.5q0 -15 9.5 -25.5t30 -19.5t63.5 -23q71 -22 106 -60.5z" />
    <glyph glyph-name="Scaron" unicode="&#x160;" horiz-adv-x="557" 
d="M559 619l-80 -79q-31 30 -65.5 44t-75.5 14q-50 0 -81.5 -23t-31.5 -63q0 -22 10.5 -37t35.5 -28t73 -29q88 -28 133 -73t45 -122q0 -61 -30 -115.5t-95 -89t-165 -34.5q-81 0 -142 27t-102 72l85 84q33 -34 72.5 -51.5t90.5 -17.5q61 0 97 28t36 76q0 37 -24.5 59
t-88.5 44q-97 33 -140 77.5t-43 113.5q0 54 29.5 102.5t88.5 79t143 30.5q139 0 225 -89zM506 935l46 -60l-155 -124h-86l-122 124l58 60l117 -83z" />
    <glyph glyph-name="scaron" unicode="&#x161;" horiz-adv-x="471" 
d="M373 528q48 -18 85 -49l-63 -79q-28 21 -61 32t-65 11q-38 0 -58.5 -13.5t-20.5 -36.5q0 -15 9.5 -25.5t30 -19.5t63.5 -23q71 -22 106 -60.5t35 -99.5q0 -52 -27 -93t-79.5 -64.5t-126.5 -23.5q-67 0 -123 23.5t-92 61.5l72 75q65 -56 145 -56q45 0 67.5 18t22.5 43
q0 20 -9 32t-30.5 22t-66.5 25q-71 24 -104 59.5t-33 92.5q0 44 25 82t74.5 61t119.5 23q56 0 104 -18zM440 806l47 -60l-155 -131h-87l-121 131l56 60l117 -89z" />
    <glyph glyph-name="uni0162" unicode="&#x162;" horiz-adv-x="526" 
d="M584 692l-32 -115h-173l-81 -577h1l-8 -50q44 -4 66 -27t22 -59q0 -29 -16 -56.5t-51 -46t-88 -18.5q-32 0 -58.5 8.5t-44.5 22.5l42 65q27 -16 58 -16q24 0 39 9.5t15 27.5q0 17 -19 24t-66 7l27 109h-64l81 577h-181l16 115h515z" />
    <glyph glyph-name="uni0163" unicode="&#x163;" horiz-adv-x="371" 
d="M207 167q-2 -20 -2 -25q0 -24 10 -34t30 -10q26 0 64 18l38 -93q-51 -31 -109 -37l-6 -36q43 -4 66 -27.5t23 -60.5q0 -30 -16.5 -57t-51 -44.5t-85.5 -17.5q-63 0 -105 31l42 65q27 -16 61 -16q23 0 37 9t14 26q1 19 -18 26t-67 7l25 99q-46 13 -70 48t-24 91q0 18 3 39
l37 261h-78l14 101h84l33 119l119 14l-18 -133h122l-29 -101h-107z" />
    <glyph glyph-name="Tcaron" unicode="&#x164;" horiz-adv-x="526" 
d="M584 692l-32 -115h-173l-81 -577h-145l81 577h-181l16 115h515zM483 935l46 -60l-155 -124h-86l-122 124l58 60l117 -83z" />
    <glyph glyph-name="tcaron" unicode="&#x165;" horiz-adv-x="371" 
d="M452 775l-75 -208l-74 8l41 213zM257 530h122l-29 -101h-107l-36 -262q-2 -20 -2 -25q0 -24 10 -34t30 -10q26 0 64 18l38 -93q-31 -19 -67.5 -29t-70.5 -10q-71 0 -108.5 37.5t-37.5 107.5q0 18 3 39l37 261h-78l14 101h84l33 119l119 14z" />
    <glyph glyph-name="Tbar" unicode="&#x166;" horiz-adv-x="526" 
d="M552 577h-173l-26 -187h114l-12 -87h-114l-43 -303h-145l43 303h-114l11 87h115l26 187h-181l16 115h515z" />
    <glyph glyph-name="tbar" unicode="&#x167;" horiz-adv-x="371" 
d="M243 429l-10 -69h109l-28 -96h-94l-13 -97q-2 -20 -2 -25q0 -24 10 -34t30 -10q26 0 64 18l38 -93q-31 -19 -67.5 -29t-70.5 -10q-71 0 -108.5 37.5t-37.5 107.5q0 18 3 39l14 96h-66l13 96h66l10 69h-78l14 101h84l33 119l119 14l-18 -133h122l-29 -101h-107z" />
    <glyph glyph-name="Utilde" unicode="&#x168;" horiz-adv-x="645" 
d="M577 226q-10 -71 -47 -125.5t-99.5 -85.5t-145.5 -31q-114 0 -172.5 54.5t-58.5 147.5q0 22 3 44l65 462h146l-65 -459q-3 -22 -3 -40q0 -49 23 -72.5t72 -23.5q61 0 94 34.5t43 105.5l65 455h145zM419.5 773q-15.5 7 -34.5 20q-13 9 -21.5 13.5t-17.5 4.5q-18 0 -31 -11
t-30 -35l-68 39q26 49 61 79.5t74 30.5q22 0 37 -7t34 -21q12 -9 20 -13.5t17 -4.5q16 0 29.5 10.5t30.5 34.5l68 -39q-26 -50 -61 -79t-72 -29q-20 0 -35.5 7z" />
    <glyph glyph-name="utilde" unicode="&#x169;" horiz-adv-x="566" 
d="M77.5 19q-33.5 35 -33.5 97q0 18 3 36l54 378h140l-50 -358q-2 -20 -2 -27q0 -27 10 -37.5t31 -10.5q31 0 59.5 25.5t56.5 67.5l48 340h140l-74 -530h-122l5 83q-37 -48 -79 -73.5t-91 -25.5q-62 0 -95.5 35zM360.5 647q-15.5 7 -34.5 20q-13 9 -21.5 13.5t-17.5 4.5
q-18 0 -31 -11t-30 -35l-68 39q26 49 61 79.5t74 30.5q22 0 37 -7t34 -21q12 -9 20 -13.5t17 -4.5q16 0 29.5 10.5t30.5 34.5l68 -39q-26 -50 -61 -79t-72 -29q-20 0 -35.5 7z" />
    <glyph glyph-name="Umacron" unicode="&#x16a;" horiz-adv-x="645" 
d="M577 226q-10 -71 -47 -125.5t-99.5 -85.5t-145.5 -31q-114 0 -172.5 54.5t-58.5 147.5q0 22 3 44l65 462h146l-65 -459q-3 -22 -3 -40q0 -49 23 -72.5t72 -23.5q61 0 94 34.5t43 105.5l65 455h145zM543 784h-293l13 100h294z" />
    <glyph glyph-name="umacron" unicode="&#x16b;" horiz-adv-x="566" 
d="M77.5 19q-33.5 35 -33.5 97q0 18 3 36l54 378h140l-50 -358q-2 -20 -2 -27q0 -27 10 -37.5t31 -10.5q31 0 59.5 25.5t56.5 67.5l48 340h140l-74 -530h-122l5 83q-37 -48 -79 -73.5t-91 -25.5q-62 0 -95.5 35zM483 658h-293l13 100h294z" />
    <glyph glyph-name="Ubreve" unicode="&#x16c;" horiz-adv-x="645" 
d="M577 226q-10 -71 -47 -125.5t-99.5 -85.5t-145.5 -31q-114 0 -172.5 54.5t-58.5 147.5q0 22 3 44l65 462h146l-65 -459q-3 -22 -3 -40q0 -49 23 -72.5t72 -23.5q61 0 94 34.5t43 105.5l65 455h145zM310.5 773q-33.5 21 -49.5 56.5t-14 77.5l79 12q5 -31 23 -48.5
t50 -17.5q34 0 58.5 19t38.5 50l80 -19q-15 -65 -64.5 -108t-119.5 -43q-48 0 -81.5 21z" />
    <glyph glyph-name="ubreve" unicode="&#x16d;" horiz-adv-x="566" 
d="M77.5 19q-33.5 35 -33.5 97q0 18 3 36l54 378h140l-50 -358q-2 -20 -2 -27q0 -27 10 -37.5t31 -10.5q31 0 59.5 25.5t56.5 67.5l48 340h140l-74 -530h-122l5 83q-37 -48 -79 -73.5t-91 -25.5q-62 0 -95.5 35zM218 681.5q-38 46.5 -34 118.5l81 11q8 -76 71 -76
q34 0 59.5 21t39.5 58l78 -18q-15 -72 -64.5 -116.5t-120.5 -44.5q-72 0 -110 46.5z" />
    <glyph glyph-name="Uring" unicode="&#x16e;" horiz-adv-x="645" 
d="M577 226q-10 -71 -47 -125.5t-99.5 -85.5t-145.5 -31q-114 0 -172.5 54.5t-58.5 147.5q0 22 3 44l65 462h146l-65 -459q-3 -22 -3 -40q0 -49 23 -72.5t72 -23.5q61 0 94 34.5t43 105.5l65 455h145zM507 954q32 -32 32 -81q0 -37 -19 -68.5t-52.5 -50.5t-75.5 -19
q-54 0 -86 32t-32 81q0 36 19 68t52.5 51t75.5 19q54 0 86 -32zM373.5 894q-15.5 -19 -15.5 -43q0 -20 10.5 -31t29.5 -11q26 0 41.5 18.5t15.5 42.5q0 21 -10.5 32t-29.5 11q-26 0 -41.5 -19z" />
    <glyph glyph-name="uring" unicode="&#x16f;" horiz-adv-x="566" 
d="M77.5 19q-33.5 35 -33.5 97q0 18 3 36l54 378h140l-50 -358q-2 -20 -2 -27q0 -27 10 -37.5t31 -10.5q31 0 59.5 25.5t56.5 67.5l48 340h140l-74 -530h-122l5 83q-37 -48 -79 -73.5t-91 -25.5q-62 0 -95.5 35zM447 828q32 -32 32 -81q0 -37 -19 -68.5t-52.5 -50.5
t-75.5 -19q-54 0 -86 32t-32 81q0 36 19 68t52.5 51t75.5 19q54 0 86 -32zM313.5 768q-15.5 -19 -15.5 -43q0 -20 10.5 -31t29.5 -11q26 0 41.5 18.5t15.5 42.5q0 21 -10.5 32t-29.5 11q-26 0 -41.5 -19z" />
    <glyph glyph-name="Uhungarumlaut" unicode="&#x170;" horiz-adv-x="645" 
d="M577 226q-10 -71 -47 -125.5t-99.5 -85.5t-145.5 -31q-114 0 -172.5 54.5t-58.5 147.5q0 22 3 44l65 462h146l-65 -459q-3 -22 -3 -40q0 -49 23 -72.5t72 -23.5q61 0 94 34.5t43 105.5l65 455h145zM376 979l92 -48l-130 -173l-73 32zM543 979l92 -50l-140 -176l-71 35z
" />
    <glyph glyph-name="uhungarumlaut" unicode="&#x171;" horiz-adv-x="566" 
d="M77.5 19q-33.5 35 -33.5 97q0 18 3 36l54 378h140l-50 -358q-2 -20 -2 -27q0 -27 10 -37.5t31 -10.5q31 0 59.5 25.5t56.5 67.5l48 340h140l-74 -530h-122l5 83q-37 -48 -79 -73.5t-91 -25.5q-62 0 -95.5 35zM320 853l92 -48l-130 -173l-73 32zM487 853l92 -50l-140 -176
l-71 35z" />
    <glyph glyph-name="Uogonek" unicode="&#x172;" horiz-adv-x="645" 
d="M642 692l-65 -466q-11 -85 -62.5 -146t-135.5 -84q-66 -27 -90.5 -53t-24.5 -54q0 -40 50 -40q30 0 62 7l-17 -91q-37 -7 -69 -7q-61 0 -97.5 28.5t-36.5 76.5q0 41 25 72t70 50q-97 8 -147 61.5t-50 138.5q0 23 3 45l65 462h146l-65 -459q-3 -22 -3 -40q0 -49 23 -72.5
t72 -23.5q61 0 94 34.5t43 105.5l65 455h145z" />
    <glyph glyph-name="uogonek" unicode="&#x173;" horiz-adv-x="566" 
d="M325 -116q0 -35 45 -35q25 0 62 8l-20 -92q-37 -7 -67 -7q-57 0 -92 28t-35 74q0 94 121 151l4 72q-37 -48 -79 -73.5t-91 -25.5q-62 0 -95.5 35t-33.5 97q0 18 3 36l54 378h140l-50 -358q-2 -20 -2 -27q0 -27 10 -37.5t31 -10.5q31 0 59.5 25.5t56.5 67.5l48 340h140
l-74 -530q-135 -50 -135 -116z" />
    <glyph glyph-name="Wcircumflex" unicode="&#x174;" horiz-adv-x="833" 
d="M879 692l-217 -692h-189l-19 540l-174 -540h-184l-21 692h142l-3 -578l184 578h155l18 -578l169 578h139zM356 756l-48 60l156 125h86l121 -125l-57 -60l-118 84z" />
    <glyph glyph-name="wcircumflex" unicode="&#x175;" horiz-adv-x="732" 
d="M761 530l-185 -530h-170l-18 403l-132 -403h-169l-40 530h140l5 -425l146 425h140l18 -425l130 425h135zM288 624l-47 60l156 131h87l120 -131l-59 -60l-116 89z" />
    <glyph glyph-name="Ycircumflex" unicode="&#x176;" horiz-adv-x="574" 
d="M639 692l-279 -431l-37 -261h-146l37 260l-159 432h156l91 -314l181 314h156zM227 756l-48 60l156 125h86l121 -125l-57 -60l-118 84z" />
    <glyph glyph-name="ycircumflex" unicode="&#x177;" horiz-adv-x="502" 
d="M306 -3q-45 -100 -122 -154.5t-195 -62.5l-4 102q77 10 117 36t72 82h-50l-89 530h147l44 -435l170 435h147zM173 624l-47 60l156 131h87l120 -131l-59 -60l-116 89z" />
    <glyph glyph-name="Ydieresis" unicode="&#x178;" horiz-adv-x="574" 
d="M639 692l-279 -431l-37 -261h-146l37 260l-159 432h156l91 -314l181 314h156zM200 788.5q-19 18.5 -19 47.5q0 35 24 58t60 23q31 0 50 -18t19 -47q0 -35 -24.5 -58.5t-59.5 -23.5q-31 0 -50 18.5zM424 788.5q-19 18.5 -19 47.5q0 35 24 58t60 23q31 0 49.5 -18t18.5 -47
q0 -35 -24.5 -58.5t-59.5 -23.5q-30 0 -49 18.5z" />
    <glyph glyph-name="Zacute" unicode="&#x179;" horiz-adv-x="530" 
d="M-18 0l15 112l376 464h-277l16 116h444l-15 -113l-372 -460h310l-31 -119h-466zM447 940l44 -109l-239 -82l-30 71z" />
    <glyph glyph-name="zacute" unicode="&#x17a;" horiz-adv-x="445" 
d="M458 530l-13 -102l-279 -318h238l-29 -110h-398l13 102l280 319h-213l16 109h385zM382 827l45 -109l-239 -92l-32 73z" />
    <glyph glyph-name="Zdotaccent" unicode="&#x17b;" horiz-adv-x="530" 
d="M-18 0l15 112l376 464h-277l16 116h444l-15 -113l-372 -460h310l-31 -119h-466zM291 784q-21 21 -21 53q0 40 27 66t67 26q35 0 56 -20.5t21 -53.5q0 -40 -27 -66t-67 -26q-35 0 -56 21z" />
    <glyph glyph-name="zdotaccent" unicode="&#x17c;" horiz-adv-x="445" 
d="M458 530l-13 -102l-279 -318h238l-29 -110h-398l13 102l280 319h-213l16 109h385zM228 658q-21 21 -21 53q0 40 27 66t67 26q35 0 56 -20.5t21 -53.5q0 -40 -27 -66t-67 -26q-35 0 -56 21z" />
    <glyph glyph-name="Zcaron" unicode="&#x17d;" horiz-adv-x="530" 
d="M-18 0l15 112l376 464h-277l16 116h444l-15 -113l-372 -460h310l-31 -119h-466zM491 935l46 -60l-155 -124h-86l-122 124l58 60l117 -83z" />
    <glyph glyph-name="zcaron" unicode="&#x17e;" horiz-adv-x="445" 
d="M458 530l-13 -102l-279 -318h238l-29 -110h-398l13 102l280 319h-213l16 109h385zM427 806l47 -60l-155 -131h-87l-121 131l56 60l117 -89z" />
    <glyph glyph-name="longs" unicode="&#x17f;" horiz-adv-x="342" 
d="M481 714l-50 -86q-34 22 -81 22q-37 0 -56.5 -17.5t-24.5 -55.5l-81 -577h-140l60 429h-82l14 101h82l8 55q10 77 64.5 124.5t144.5 47.5q76 0 142 -43z" />
    <glyph glyph-name="uni0180" unicode="&#x180;" horiz-adv-x="591" 
d="M516 492q42 -54 42 -153q0 -86 -28 -166.5t-96 -134.5t-179 -54q-54 0 -104 10.5t-106 31.5l80 572h-65l12 88h65l8 55l142 16l-10 -71h141l-24 -88h-129l-16 -115q31 30 69 46.5t78 16.5q78 0 120 -54zM351.5 128.5q32.5 38.5 47.5 95.5t15 115q0 55 -18.5 78t-51.5 23
q-57 0 -110 -65l-38 -272q35 -13 73 -13q50 0 82.5 38.5z" />
    <glyph glyph-name="uni0181" unicode="&#x181;" horiz-adv-x="732" 
d="M657.5 321q37.5 -33 37.5 -101q0 -100 -75 -160t-245 -60h-214l82 585h-26q-56 0 -56 -61q0 -20 8 -50l-99 -40q-12 25 -19 47.5t-7 48.5q0 74 50 118t136 44h228q119 0 185.5 -37.5t66.5 -119.5q0 -69 -43.5 -111.5t-109.5 -57.5q63 -12 100.5 -45zM388 586l-24 -175h69
q62 0 94.5 29.5t32.5 80.5q0 36 -25.5 50.5t-74.5 14.5h-72zM510.5 140.5q34.5 31.5 34.5 89.5q0 81 -112 81h-83l-28 -202h65q89 0 123.5 31.5z" />
    <glyph glyph-name="uni0182" unicode="&#x182;" horiz-adv-x="583" 
d="M498 394.5q63 -47.5 63 -139.5q0 -64 -29.5 -122t-96.5 -95.5t-174 -37.5h-226l97 692h414l-31 -113h-253l-20 -137h76q117 0 180 -47.5zM374 148q34 39 34 101q0 89 -111 89h-69l-32 -229h69q75 0 109 39z" />
    <glyph glyph-name="uni0183" unicode="&#x183;" horiz-adv-x="582" 
d="M506.5 483q41.5 -54 41.5 -154q0 -81 -28.5 -159.5t-96 -132t-178.5 -53.5q-54 0 -104 10.5t-106 31.5l100 715h359l-31 -102h-203l-23 -165q32 30 71 46.5t79 16.5q78 0 119.5 -54zM341 127.5q33 37.5 48 93t15 107.5q0 56 -18.5 79.5t-52.5 23.5q-57 0 -110 -65
l-37 -263q35 -13 73 -13q49 0 82 37.5z" />
    <glyph glyph-name="uni0184" unicode="&#x184;" horiz-adv-x="591" 
d="M508.5 402.5q63.5 -49.5 63.5 -144.5q0 -67 -30.5 -125.5t-98 -95.5t-172.5 -37h-226l71 499l-67 49q63 57 116 144h123l-34 -240h75q116 0 179.5 -49.5zM386.5 150.5q32.5 41.5 32.5 99.5q0 97 -111 97h-69l-33 -238h69q79 0 111.5 41.5z" />
    <glyph glyph-name="uni0185" unicode="&#x185;" horiz-adv-x="525" 
d="M443 321.5q53 -42.5 53 -120.5q0 -53 -26 -102.5t-82.5 -82t-144.5 -32.5q-95 0 -196 32l46 331l-67 49q67 60 115 134h118l-23 -166h42q112 0 165 -42.5zM328 115.5q26 35.5 26 83.5q0 34 -20.5 52.5t-67.5 18.5h-43l-26 -183q31 -7 48 -7q57 0 83 35.5z" />
    <glyph glyph-name="uni0186" unicode="&#x186;" horiz-adv-x="562" 
d="M472.5 633.5q67.5 -74.5 67.5 -210.5q0 -119 -42.5 -219.5t-123.5 -160t-191 -59.5q-118 0 -202 88l76 83q32 -27 61 -41t69 -14q68 0 113.5 47.5t67 122.5t21.5 156q0 171 -118 171q-37 0 -71 -13t-71 -38l-63 89q50 37 103 55t120 18q116 0 183.5 -74.5z" />
    <glyph glyph-name="uni0187" unicode="&#x187;" horiz-adv-x="571" 
d="M783 808l-53 -87q-17 10 -31 14.5t-33 4.5q-56 0 -65 -66l-6 -46l-67 -69q-62 38 -128 38q-73 0 -119 -52t-66 -128t-20 -150q0 -85 34 -126t94 -41q40 0 71.5 15t73.5 44l58 -90q-43 -37 -99 -61t-121 -24q-122 0 -192.5 74t-70.5 211q0 101 38 202.5t115 169t186 67.5
q53 0 94 -19q12 76 58.5 117t123.5 41q70 0 125 -39z" />
    <glyph glyph-name="uni0188" unicode="&#x188;" horiz-adv-x="471" 
d="M685 718l-53 -87q-15 10 -30 14.5t-34 4.5q-56 0 -65 -66l-14 -103l-60 -72q-52 26 -105 26q-77 0 -110.5 -71t-33.5 -160q0 -57 23 -81.5t66 -24.5q28 0 52.5 9t56.5 29l53 -93q-85 -59 -179 -59q-103 0 -161 60.5t-58 165.5q0 75 30.5 153t92 130.5t150.5 52.5
q31 0 64 -10l7 56q12 81 58.5 123t124.5 42q72 0 125 -39z" />
    <glyph glyph-name="uni0189" unicode="&#x189;" horiz-adv-x="651" 
d="M546 634.5q85 -57.5 85 -204.5q0 -120 -38.5 -216.5t-125 -155t-225.5 -58.5h-197l43 307h-69l12 92h70l41 293h178q141 0 226 -57.5zM431 204q50 96 50 226q0 89 -39.5 121.5t-111.5 32.5h-58l-26 -185h139l-13 -92h-138l-28 -199h58q117 0 167 96z" />
    <glyph glyph-name="uni018A" unicode="&#x18a;" horiz-adv-x="768" 
d="M662 634.5q85 -57.5 85 -204.5q0 -120 -38.5 -216.5t-125 -155t-225.5 -58.5h-197l82 585h-26q-56 0 -56 -61q0 -20 8 -50l-99 -40q-12 25 -19 47.5t-7 48.5q0 74 50 118t136 44h206q141 0 226 -57.5zM547 204q50 96 50 226q0 89 -39.5 121.5t-111.5 32.5h-58l-66 -476
h58q117 0 167 96z" />
    <glyph glyph-name="uni018B" unicode="&#x18b;" horiz-adv-x="586" 
d="M476 0h-229q-107 0 -170.5 50t-63.5 153q0 114 81 176.5t220 62.5h79l19 137h-262l16 113h407zM346 109l32 229h-65q-73 0 -110 -35t-37 -96q0 -53 26 -75.5t83 -22.5h71z" />
    <glyph glyph-name="uni018C" unicode="&#x18c;" horiz-adv-x="586" 
d="M480 0h-124l1 78q-29 -43 -68.5 -68.5t-89.5 -25.5q-82 0 -124.5 56.5t-42.5 156.5q0 79 26.5 157t83 130.5t142.5 52.5q39 0 70.5 -15t52.5 -40l22 157h-211l15 102h351zM394 386q-16 23 -35.5 34t-45.5 11q-48 0 -78 -37.5t-43.5 -92t-13.5 -107.5q0 -56 17 -80t49 -24
q34 0 63 27t60 76z" />
    <glyph glyph-name="uni018D" unicode="&#x18d;" horiz-adv-x="571" 
d="M109.5 -203q-44.5 18 -78.5 52l72 71q26 -22 52 -32t60 -10q39 0 59.5 17t20.5 44q0 23 -18 38.5t-71 38.5q-88 39 -129.5 89.5t-41.5 128.5q0 66 29 138.5t93.5 123t163.5 50.5q66 0 115.5 -28t76 -76.5t26.5 -109.5q0 -93 -42.5 -161t-144.5 -109q43 -29 61 -59t18 -65
q0 -40 -24 -76.5t-72.5 -59.5t-117.5 -23q-63 0 -107.5 18zM369.5 203.5q24.5 57.5 24.5 132.5q0 49 -21 76.5t-61 27.5q-47 0 -76.5 -34t-42 -82t-12.5 -95q0 -45 21.5 -73t75.5 -55q67 45 91.5 102.5z" />
    <glyph glyph-name="uni018E" unicode="&#x18e;" horiz-adv-x="519" 
d="M102 692h403l-96 -692h-409l15 108h263l27 191h-215l14 106h215l26 179h-258z" />
    <glyph glyph-name="uni018F" unicode="&#x18f;" horiz-adv-x="633" 
d="M547 639.5q67 -68.5 67 -200.5q0 -126 -38.5 -229.5t-115 -164.5t-185.5 -61q-118 0 -180.5 69.5t-62.5 195.5q0 37 5.5 79.5t14.5 73.5h414q3 27 3 50q0 77 -31.5 111.5t-93.5 34.5q-48 0 -89 -16.5t-81 -45.5l-59 86q57 44 116.5 65t129.5 21q119 0 186 -68.5zM387 141
q43 48 63 154l-277 -1q-5 -38 -5 -62q0 -139 111 -139q65 0 108 48z" />
    <glyph glyph-name="uni0190" unicode="&#x190;" horiz-adv-x="528" 
d="M461.5 685q52.5 -23 94.5 -69l-80 -74q-57 57 -129 57q-54 0 -84 -28.5t-30 -73.5q0 -38 24.5 -58t71.5 -20h74l-33 -108h-51q-71 0 -110.5 -32t-39.5 -91q0 -92 108 -92q44 0 81 16t73 48l71 -81q-100 -95 -246 -95q-71 0 -125 23.5t-83.5 67t-29.5 100.5
q0 85 52.5 134.5t142.5 59.5q-62 13 -94.5 49t-32.5 90q0 59 34 104.5t92 70.5t126 25q71 0 123.5 -23z" />
    <glyph glyph-name="uni0191" unicode="&#x191;" horiz-adv-x="480" 
d="M262 584l-27 -195h206l-15 -107h-206l-39 -282l-6 -40q-14 -89 -68.5 -134.5t-139.5 -45.5q-77 0 -130 43l59 87q18 -11 32 -16t33 -5q58 0 68 66l6 45l97 692h397l-31 -108h-236z" />
    <glyph glyph-name="florin" unicode="&#x192;" horiz-adv-x="342" 
d="M293.5 632.5q-19.5 -17.5 -24.5 -55.5l-7 -47h125l-30 -101h-109l-53 -378q-11 -80 -42 -131.5t-77 -82.5t-116 -57l-36 104q61 24 91 58t40 105l53 382h-82l14 101h82l8 55q10 77 64.5 124.5t144.5 47.5q76 0 142 -43l-50 -86q-34 22 -81 22q-37 0 -56.5 -17.5z" />
    <glyph glyph-name="uni0193" unicode="&#x193;" horiz-adv-x="606" 
d="M818 808l-53 -87q-16 10 -30.5 14.5t-33.5 4.5q-57 0 -66 -66l-6 -52l-74 -66q-68 43 -142 43q-79 0 -128 -53.5t-70.5 -134t-21.5 -166.5q0 -80 30.5 -115t92.5 -35q55 0 105 25l24 168h-96l1 107h251l-46 -339q-55 -35 -119 -53.5t-131 -18.5q-128 0 -195.5 70
t-67.5 205q0 108 41 211.5t123 170.5t198 67q62 0 107 -21q11 77 57.5 118.5t124.5 41.5q70 0 125 -39z" />
    <glyph glyph-name="uni0194" unicode="&#x194;" horiz-adv-x="559" 
d="M330 82q22 -50 32.5 -85.5t10.5 -72.5q0 -69 -42 -106.5t-116 -37.5q-63 0 -95.5 30t-32.5 81q0 43 22.5 88t69.5 108l-128 605h151l65 -508l210 508h151zM245 8q-46 -69 -46 -106q0 -26 25 -26q18 0 27.5 12.5t9.5 32.5q0 36 -16 87z" />
    <glyph glyph-name="uni0195" unicode="&#x195;" horiz-adv-x="859" 
d="M397.5 30q-45.5 46 -45.5 116q0 9 2 29l25 180q2 20 2 26q0 27 -9.5 37.5t-27.5 10.5q-63 0 -131 -131l-42 -298h-140l104 741l142 15l-45 -317q30 49 74.5 78t95.5 29q58 0 90.5 -34t32.5 -95q0 -22 -2 -34l-28 -205q-2 -18 -2 -25q0 -29 13 -45.5t41 -16.5
q80 0 109.5 104t29.5 238q0 57 -5 97h133q8 -59 8 -119q0 -197 -64 -312t-224 -115q-91 0 -136.5 46z" />
    <glyph glyph-name="uni0196" unicode="&#x196;" horiz-adv-x="374" 
d="M348 24q-60 -40 -136 -40q-78 0 -122.5 38t-44.5 110q0 17 3 36l5 36h1l69 488h146l-70 -488l-7 -49q-1 -6 -1 -17q0 -45 44 -45q22 0 37 5t37 16z" />
    <glyph glyph-name="uni0197" unicode="&#x197;" horiz-adv-x="326" 
d="M337 414l-15 -109h-79l-43 -305h-146l43 305h-81l15 109h81l39 278h146l-39 -278h79z" />
    <glyph glyph-name="uni0198" unicode="&#x198;" horiz-adv-x="641" 
d="M238 369l183 233q45 59 83 82.5t93 23.5q37 0 62 -10.5t48 -30.5l-55 -81q-12 8 -21 11t-22 3q-20 0 -35.5 -11t-42.5 -44l-139 -173l194 -372h-168zM35 0l97 692h146l-97 -692h-146z" />
    <glyph glyph-name="uni0199" unicode="&#x199;" horiz-adv-x="561" 
d="M403 235l103 -235h-155l-103 257q86 26 122.5 60t36.5 81q0 22 -12.5 34.5t-35.5 12.5q-36 0 -73 -29.5t-69 -89.5l-45 -326h-141l75 529h-1l8 56q11 77 66 124.5t146 47.5q73 0 136 -33l-49 -93q-37 19 -80 19q-37 0 -55.5 -17.5t-23.5 -55.5l-7 -48l-10 -74
q74 91 176 91q63 0 101 -34.5t38 -90.5q0 -128 -148 -186z" />
    <glyph glyph-name="uni019A" unicode="&#x19a;" horiz-adv-x="328" 
d="M212 133l-1 -11q0 -24 23 -24q13 0 28 5l19 -100q-46 -19 -94 -19q-57 0 -87.5 29.5t-30.5 86.5q0 16 3 34l26 187h-81l15 101h81l45 319l141 16l-47 -335h86l-15 -101h-85z" />
    <glyph glyph-name="uni019B" unicode="&#x19b;" horiz-adv-x="513" 
d="M430.5 185q21.5 -84 64.5 -156l-139 -44q-28 54 -44.5 103t-26 118.5t-12.5 176.5l-162 -399l-136 34l235 478l60 -11q-3 54 -15 90l-66 -51l-72 47l85 71q-27 16 -81 24l26 92q48 -8 82.5 -20t60.5 -31l80 65l52 -68l-76 -62q37 -72 49 -211q14 -162 35.5 -246z" />
    <glyph glyph-name="uni019C" unicode="&#x19c;" horiz-adv-x="907" 
d="M894 692l-97 -692h-127l-1 69q-40 -45 -79.5 -65t-85.5 -20q-51 0 -85 24.5t-48 68.5q-42 -49 -86 -71t-94 -22q-69 0 -106 42.5t-37 114.5q0 20 3 41l71 510h146l-72 -508q-2 -16 -2 -23q0 -32 13.5 -48.5t38.5 -16.5q31 0 58 17.5t59 56.5q0 8 1 12l71 510h146
l-71 -508q-2 -18 -2 -25q0 -30 13 -46.5t38 -16.5q31 0 58 17.5t59 56.5l73 522h145z" />
    <glyph glyph-name="uni019D" unicode="&#x19d;" horiz-adv-x="659" 
d="M647 692l-97 -692h-186l-143 569v-41q0 -132 -18 -266l-37 -262l-6 -40q-13 -90 -63 -135t-130 -45q-77 0 -130 43l59 82q17 -11 31 -15.5t34 -4.5q59 0 68 70l6 45l97 692h184l146 -569q-2 58 -2 83q0 85 14 190l42 296h131z" />
    <glyph glyph-name="uni019E" unicode="&#x19e;" horiz-adv-x="570" 
d="M493.5 512q32.5 -34 32.5 -95q0 -16 -3 -36l-83 -587l-143 -16l85 577q2 20 2 25q0 49 -40 49q-33 0 -66.5 -35.5t-64.5 -95.5l-41 -298h-140l74 530h121l-4 -96q35 52 82 82t99 30q57 0 89.5 -34z" />
    <glyph glyph-name="uni019F" unicode="&#x19f;" horiz-adv-x="682" 
d="M592.5 634q68.5 -74 68.5 -209q0 -104 -35 -204.5t-115 -168.5t-206 -68q-124 0 -192.5 74t-68.5 208q0 103 35 204t115.5 169.5t206.5 68.5q123 0 191.5 -74zM269 542q-46 -58 -66 -147h313q1 14 1 40q0 86 -30.5 125.5t-93.5 39.5q-78 0 -124 -58zM439.5 153
q46.5 61 65.5 154h-315q-2 -34 -2 -48q0 -88 31 -127.5t93 -39.5q81 0 127.5 61z" />
    <glyph glyph-name="Ohorn" unicode="&#x1a0;" horiz-adv-x="702" 
d="M722 616q-30 -37 -87 -48q26 -61 26 -143q0 -104 -35 -204.5t-115 -168.5t-206 -68q-124 0 -192.5 74t-68.5 208q0 103 35 204t115.5 169.5t206.5 68.5q121 0 190 -72q32 3 47 22t15 55q0 24 -5 47l95 11q9 -25 9 -57q0 -61 -30 -98zM432 151q44 56 61.5 134t17.5 152
q0 84 -30 122.5t-90 38.5q-73 0 -117 -56t-62 -134t-18 -151q0 -85 30.5 -123.5t89.5 -38.5q74 0 118 56z" />
    <glyph glyph-name="ohorn" unicode="&#x1a1;" horiz-adv-x="613" 
d="M623 449.5q-32 -37.5 -92 -46.5q10 -36 10 -81q0 -80 -28.5 -157t-93.5 -129t-168 -52q-104 0 -161 59.5t-57 164.5q0 80 29 157.5t94.5 129t167.5 51.5q57 0 101 -19t72 -55q31 4 45 23t14 54q0 28 -6 49l96 11q9 -31 9 -60q0 -62 -32 -99.5zM365 167q31 76 32 165
q0 56 -20.5 82t-61.5 26q-52 0 -82.5 -39.5t-42.5 -95t-12 -107.5q0 -55 20.5 -81t61.5 -26q74 0 105 76z" />
    <glyph glyph-name="uni01A2" unicode="&#x1a2;" horiz-adv-x="939" 
d="M862 670.5q44 -38.5 44 -110.5q0 -17 -3 -37l-103 -731h-145l104 737q2 16 2 22q0 26 -12 39.5t-40 13.5q-41 0 -82 -21q34 -66 34 -158q0 -104 -35 -204.5t-115 -168.5t-206 -68q-124 0 -192.5 74t-68.5 208q0 103 35 204t115.5 169.5t206.5 68.5q100 0 166 -52
q76 53 168 53q83 0 127 -38.5zM432 151q44 56 61.5 134t17.5 152q0 84 -30 122.5t-90 38.5q-73 0 -117 -56t-62 -134t-18 -151q0 -85 30.5 -123.5t89.5 -38.5q74 0 118 56z" />
    <glyph glyph-name="uni01A3" unicode="&#x1a3;" horiz-adv-x="803" 
d="M713.5 506.5q41.5 -39.5 41.5 -109.5q0 -17 -3 -37l-79 -566l-142 -15l83 595q1 7 1 19q0 48 -49 48q-21 0 -48 -8q23 -48 23 -111q0 -80 -28.5 -157t-93.5 -129t-168 -52q-104 0 -161 59.5t-57 164.5q0 80 29 157.5t94.5 129t167.5 51.5q75 0 128 -36q35 19 68.5 27.5
t73.5 8.5q78 0 119.5 -39.5zM365 167q31 76 32 165q0 56 -20.5 82t-61.5 26q-52 0 -82.5 -39.5t-42.5 -95t-12 -107.5q0 -55 20.5 -81t61.5 -26q74 0 105 76z" />
    <glyph glyph-name="uni01A4" unicode="&#x1a4;" horiz-adv-x="713" 
d="M655.5 643.5q66.5 -48.5 66.5 -142.5q0 -68 -31 -128t-99 -98.5t-174 -38.5h-78l-33 -236h-146l82 585h-26q-56 0 -56 -61q0 -20 8 -50l-99 -40q-12 25 -19 47.5t-7 48.5q0 74 50 118t136 44h238q121 0 187.5 -48.5zM535.5 388.5q34.5 44.5 34.5 107.5q0 90 -115 90h-67
l-33 -242h63q83 0 117.5 44.5z" />
    <glyph glyph-name="uni01A5" unicode="&#x1a5;" horiz-adv-x="582" 
d="M508 492q42 -54 42 -153q0 -84 -28.5 -165.5t-91.5 -135.5t-161 -54q-54 0 -97 16l-29 -205l-141 -16l104 750h-1l8 56q11 77 66 124.5t146 47.5q73 0 136 -33l-49 -93q-37 19 -80 19q-37 0 -55.5 -17.5t-23.5 -55.5l-7 -48h1l-6 -50q59 67 146 67q79 0 121 -54z
M343 128.5q32 38.5 47 95.5t15 115q0 55 -18.5 78t-52.5 23q-55 0 -108 -65l-38 -272q33 -13 73 -13q50 0 82 38.5z" />
    <glyph glyph-name="uni01A6" unicode="&#x1a6;" horiz-adv-x="605" 
d="M541.5 270.5q-36.5 -56.5 -125.5 -91.5l133 -295h-158l-112 270l-76 1l-22 -155h-146l97 692h146l-16 -116h67q249 0 249 -175q0 -74 -36.5 -130.5zM217 259h78q71 0 101.5 39t30.5 93q0 42 -27.5 60.5t-85.5 18.5h-67z" />
    <glyph glyph-name="uni01A7" unicode="&#x1a7;" horiz-adv-x="548" 
d="M495.5 663q57.5 -45 57.5 -122q0 -92 -59 -145.5t-178 -89.5q-85 -25 -118 -55t-33 -78q0 -36 26 -56t71 -20q91 0 182 68l65 -86q-112 -95 -265 -95q-71 0 -122.5 23.5t-79 65.5t-27.5 96q0 96 57 153.5t173 92.5q60 18 93.5 33.5t49.5 35.5t16 51q0 63 -81 63
q-45 0 -84.5 -14.5t-81.5 -44.5l-60 84q54 43 114 64t132 21q95 0 152.5 -45z" />
    <glyph glyph-name="uni01A8" unicode="&#x1a8;" horiz-adv-x="469" 
d="M398.5 507q50.5 -39 50.5 -100q0 -58 -38.5 -103.5t-134.5 -73.5q-54 -16 -81.5 -30.5t-35.5 -28t-8 -32.5q0 -23 18 -36.5t51 -13.5q39 0 79 14.5t72 39.5l62 -84q-44 -35 -105 -55t-126 -20q-88 0 -143.5 41.5t-55.5 111.5q0 63 43 107.5t151 76.5q69 20 89.5 38
t20.5 41q0 20 -16 31.5t-45 11.5q-62 0 -130 -44l-49 83q41 31 92.5 47.5t104.5 16.5q84 0 134.5 -39z" />
    <glyph glyph-name="uni01A9" unicode="&#x1a9;" horiz-adv-x="496" 
d="M530 692l-15 -110h-287l144 -213l-7 -65l-199 -193h283l-16 -111h-444l15 109l229 232l-162 242l15 109h444z" />
    <glyph glyph-name="uni01AA" unicode="&#x1aa;" horiz-adv-x="378" 
d="M422 -180q-62 -40 -138 -40t-119.5 38.5t-43.5 111.5q0 23 2 35l5 35l62 445q-31 -13 -63 -13q-53 0 -89 38t-37 99q0 55 25.5 98t69.5 66.5t98 23.5q74 0 115 -39.5t41 -112.5q0 -18 -3 -41l-79 -564l-7 -52q-1 -5 -1 -14q0 -26 12 -37t36 -11q21 0 36.5 4.5t37.5 15.5z
M203 538l8 58q2 18 2 24q0 19 -7.5 27.5t-23.5 8.5q-28 0 -42.5 -24t-13.5 -59q0 -41 40 -41q17 0 37 6z" />
    <glyph glyph-name="uni01AB" unicode="&#x1ab;" horiz-adv-x="371" 
d="M206 160q-2 -16 -2 -23q0 -23 10.5 -33t33.5 -10q30 0 64 13l35 -84l-9 -62q-14 -90 -66 -135t-136 -45q-43 0 -77 12t-56 31l58 83q19 -11 36 -16t41 -5q30 0 50 16.5t25 49.5l5 32h-12q-71 1 -107 37t-36 105q0 20 3 42l37 261h-78l14 101h84l33 119l119 14l-18 -133
h121l-28 -101h-107z" />
    <glyph glyph-name="uni01AC" unicode="&#x1ac;" horiz-adv-x="577" 
d="M603 577h-173l-81 -577h-145l80 577h-70q-26 0 -39.5 -14.5t-13.5 -39.5q0 -19 8 -49l-99 -40q-12 25 -19 47.5t-7 48.5q0 74 48.5 118t128.5 44h414z" />
    <glyph glyph-name="uni01AD" unicode="&#x1ad;" horiz-adv-x="371" 
d="M286.5 638.5q-16.5 -16.5 -20.5 -49.5l-9 -59h121l-28 -101h-107l-36 -262q-2 -18 -2 -25q0 -24 9.5 -34t30.5 -10q31 0 64 20l38 -95q-31 -19 -67.5 -29t-71.5 -10q-72 1 -108.5 37t-36.5 105q0 20 3 42l37 261h-78l14 101h78l7 52q11 81 62.5 128t132.5 47
q68 0 123 -39l-53 -82q-32 19 -61 19q-25 0 -41.5 -16.5z" />
    <glyph glyph-name="uni01AE" unicode="&#x1ae;" horiz-adv-x="526" 
d="M291 -49q-1 -6 -1 -17q0 -45 44 -45q22 0 37 5t37 16l39 -90q-60 -40 -136 -40q-78 0 -122.5 38t-44.5 110q0 16 3 36l5 36h1l81 577h-181l16 115h515l-32 -115h-173l-81 -577z" />
    <glyph glyph-name="Uhorn" unicode="&#x1af;" horiz-adv-x="700" 
d="M740.5 604.5q-40.5 -38.5 -116.5 -40.5l-47 -338q-10 -71 -47 -125.5t-99.5 -85.5t-145.5 -31q-114 0 -172.5 54.5t-58.5 147.5q0 22 3 44l65 462h146l-65 -459q-3 -22 -3 -40q0 -49 23 -72.5t72 -23.5q61 0 94 34.5t43 105.5l65 455h145l-7 -53q47 11 47 74q0 24 -5 47
l95 11q9 -25 9 -57q0 -71 -40.5 -109.5z" />
    <glyph glyph-name="uhorn" unicode="&#x1b0;" horiz-adv-x="630" 
d="M631.5 440.5q-40.5 -38.5 -115.5 -40.5l-56 -400h-122l5 83q-37 -48 -79 -73.5t-91 -25.5q-62 0 -95.5 35t-33.5 97q0 18 3 36l54 378h140l-50 -358q-2 -20 -2 -27q0 -27 10 -37.5t31 -10.5q31 0 59.5 25.5t56.5 67.5l48 340h140l-8 -55q47 11 47 74q0 28 -6 49l96 11
q9 -31 9 -60q0 -70 -40.5 -108.5z" />
    <glyph glyph-name="uni01B1" unicode="&#x1b1;" horiz-adv-x="682" 
d="M162.5 17.5q-59.5 33.5 -91 93.5t-31.5 138q0 218 177 336h-112l14 107h225l-14 -105q-70 -65 -104 -153.5t-34 -186.5q0 -76 31 -114t91 -38q65 0 108 42t63.5 109.5t20.5 145.5q0 69 -15.5 114t-45.5 84l14 102h223l-14 -110h-109q95 -76 95 -211q0 -109 -43.5 -197.5
t-123 -139t-182.5 -50.5q-83 0 -142.5 33.5z" />
    <glyph glyph-name="uni01B2" unicode="&#x1b2;" horiz-adv-x="633" 
d="M591 677q33 -31 33 -93q0 -19 -3 -40l-34 -252q-21 -147 -105.5 -227.5t-213.5 -80.5q-101 0 -158.5 54t-57.5 141q0 18 3 36l68 477h145l-67 -479q-2 -22 -2 -30q0 -42 20 -64t60 -22q63 0 105 49t57 150l36 264q1 5 1 13q0 26 -23 26q-13 0 -31 -5l-15 97q40 17 87 17
q62 0 95 -31z" />
    <glyph glyph-name="uni01B3" unicode="&#x1b3;" horiz-adv-x="610" 
d="M214 260l-159 432h156l92 -314l110 201q37 72 75.5 100.5t102.5 28.5q69 0 116 -40l-52 -82q-27 16 -51 16q-22 0 -36.5 -11.5t-33.5 -42.5l-174 -287l-37 -261h-146z" />
    <glyph glyph-name="uni01B4" unicode="&#x1b4;" horiz-adv-x="511" 
d="M-15 -118q77 10 117 36t72 82h-50l-89 530h147l44 -436l130 359q23 68 57.5 97.5t94.5 29.5q44 0 78 -16l-36 -94q-13 5 -28 5q-17 0 -28 -10t-21 -34l-160 -411q-44 -117 -123 -174.5t-201 -65.5z" />
    <glyph glyph-name="uni01B5" unicode="&#x1b5;" horiz-adv-x="530" 
d="M556 692l-15 -113l-152 -184h78l-15 -96h-143l-149 -180h319l-31 -119h-466l15 112l156 187h-85l15 96h150l151 181h-288l16 116h444z" />
    <glyph glyph-name="uni01B6" unicode="&#x1b6;" horiz-adv-x="444" 
d="M457 530l-13 -97l-107 -119h65l-13 -87h-131l-110 -122h255l-28 -105h-399l13 97l117 130h-70l14 87h135l101 112h-230l16 104h385z" />
    <glyph glyph-name="uni01B7" unicode="&#x1b7;" horiz-adv-x="535" 
d="M518 586l-207 -184q91 -4 139.5 -48t48.5 -121q0 -76 -38.5 -132.5t-105 -86.5t-149.5 -30q-80 0 -133 25.5t-89 75.5l84 73q29 -34 60.5 -48.5t76.5 -14.5q64 0 103.5 36.5t39.5 96.5q0 46 -29 65.5t-87 19.5h-97l12 86l202 184h-259l15 109h427z" />
    <glyph glyph-name="uni01B8" unicode="&#x1b8;" horiz-adv-x="537" 
d="M534 583h-268l158 -186l-11 -84h-94q-69 0 -109 -34.5t-40 -94.5q0 -43 26 -66t73 -23q49 0 87 15.5t78 49.5l68 -78q-49 -48 -109.5 -73t-139.5 -25q-110 0 -171.5 53t-61.5 142q0 65 32.5 115.5t90 78.5t128.5 29l-163 184l15 106h426z" />
    <glyph glyph-name="uni01B9" unicode="&#x1b9;" horiz-adv-x="497" 
d="M491 422h-269l155 -214l-11 -84l-2 1l1 -1h-86q-73 0 -112 -35.5t-39 -100.5q0 -49 26.5 -73.5t74.5 -24.5q44 0 80 15t78 48l65 -75q-96 -98 -240 -98q-108 0 -169.5 55t-61.5 146q0 67 32 118t89.5 80.5t133.5 31.5h3l-164 220l13 99h417z" />
    <glyph glyph-name="uni01BA" unicode="&#x1ba;" horiz-adv-x="494" 
d="M15 -162q-35 35 -35 79q0 61 47.5 93.5t140.5 50.5q78 15 109 32t31 54q0 24 -17 34.5t-54 10.5h-137l11 81l184 154h-249l14 103h415l-12 -94l-197 -158h29q75 0 116.5 -33.5t41.5 -94.5q0 -80 -57 -123t-162 -63q-75 -14 -99.5 -26t-24.5 -29q0 -14 11.5 -25.5
t35.5 -24.5l-45 -79q-62 23 -97 58z" />
    <glyph glyph-name="uni01BB" unicode="&#x1bb;" horiz-adv-x="503" 
d="M474 428q-15 -40 -55 -89h67l-14 -96h-145q-64 -60 -159 -134l279 2l-31 -111h-423l14 104l45 40q87 79 108 99h-86l14 96h170q50 53 67.5 87.5t17.5 72.5t-21.5 58t-58.5 20q-36 0 -67 -17t-68 -54l-79 74q51 53 108.5 80t127.5 27q96 0 150 -49t54 -127q0 -43 -15 -83z
" />
    <glyph glyph-name="uni01BC" unicode="&#x1bc;" horiz-adv-x="526" 
d="M-10 83l87 71q22 -30 54.5 -45.5t71.5 -15.5q75 0 108.5 51t33.5 117q0 89 -81 89q-24 0 -45.5 -6t-49.5 -19l-100 2l51 365h403l-31 -103h-252l-23 -163q52 24 107 24q75 0 120.5 -48.5t45.5 -134.5q0 -67 -29 -131.5t-94.5 -108t-168.5 -43.5q-132 0 -208 99z" />
    <glyph glyph-name="uni01BD" unicode="&#x1bd;" horiz-adv-x="467" 
d="M407 424h-198l-15 -95q34 18 86 18q64 0 104.5 -39t40.5 -108q0 -64 -32.5 -113t-88.5 -76t-125 -27q-65 0 -107 20t-80 60l81 75q27 -24 51.5 -35t58.5 -11q44 0 72 27t28 73q0 28 -15.5 42t-41.5 14q-36 0 -76 -17l-94 1l41 297h344z" />
    <glyph glyph-name="uni01BE" unicode="&#x1be;" horiz-adv-x="504" 
d="M425.5 371.5q36.5 -42.5 36.5 -117.5q0 -77 -35 -138.5t-97.5 -96t-140.5 -34.5q-65 0 -115.5 23t-91.5 68l79 71q29 -29 57.5 -42.5t63.5 -13.5q64 0 99.5 44.5t35.5 117.5q0 52 -24 81t-76 43l-58 12l20 144h-71l12 87h72l17 121l140 15l-19 -136h104l-12 -87h-105
l-13 -94l27 -8q58 -17 94.5 -59.5z" />
    <glyph glyph-name="uni01BF" unicode="&#x1bf;" horiz-adv-x="585" 
d="M517 501.5q44 -44.5 44 -122.5q0 -88 -41 -153.5t-109 -112t-169 -94.5l-73 -33l-27 -190l-141 -16l105 750h123l-1 -64q77 80 173 80q72 0 116 -44.5zM365 230q48 61 48 142q0 70 -62 70q-65 0 -127 -62l-40 -289l46 28q87 50 135 111z" />
    <glyph glyph-name="uni01C0" unicode="&#x1c0;" horiz-adv-x="268" 
d="M264 755l-107 -755h-122l104 741z" />
    <glyph glyph-name="uni01C1" unicode="&#x1c1;" horiz-adv-x="464" 
d="M264 755l-107 -755h-122l104 741zM460 755l-107 -755h-122l104 741z" />
    <glyph glyph-name="uni01C2" unicode="&#x1c2;" horiz-adv-x="326" 
d="M335 400h-92l-10 -66h93l-12 -83h-92l-36 -251h-122l35 251h-92l12 83h92l9 66h-92l12 83h92l36 258l125 14l-39 -272h93z" />
    <glyph glyph-name="uni01C3" unicode="&#x1c3;" horiz-adv-x="313" 
d="M285 755l-74 -526h-122l71 512zM66.5 6q-21.5 22 -21.5 55q0 39 27.5 66.5t66.5 27.5q33 0 54 -21.5t21 -54.5q0 -39 -27 -67t-66 -28q-33 0 -54.5 22z" />
    <glyph glyph-name="uni01C4" unicode="&#x1c4;" horiz-adv-x="1146" 
d="M536 634.5q85 -57.5 85 -204.5q0 -120 -38.5 -216.5t-125 -155t-225.5 -58.5h-197l97 692h178q141 0 226 -57.5zM262 584l-66 -476h58q117 0 167 96t50 226q0 89 -39.5 121.5t-111.5 32.5h-58zM598 0l15 112l376 464h-277l16 116h444l-15 -113l-372 -460h310l-31 -119
h-466zM1107 935l46 -60l-155 -124h-86l-122 124l58 60l117 -83z" />
    <glyph glyph-name="uni01C5" unicode="&#x1c5;" horiz-adv-x="1076" 
d="M536 634.5q85 -57.5 85 -204.5q0 -120 -38.5 -216.5t-125 -155t-225.5 -58.5h-197l97 692h178q141 0 226 -57.5zM262 584l-66 -476h58q117 0 167 96t50 226q0 89 -39.5 121.5t-111.5 32.5h-58zM1089 530l-13 -102l-279 -318h238l-29 -110h-398l13 102l280 319h-213
l16 109h385zM1058 806l47 -60l-155 -131h-87l-121 131l56 60l117 -89z" />
    <glyph glyph-name="uni01C6" unicode="&#x1c6;" horiz-adv-x="1031" 
d="M584 741l-104 -741h-124l1 78q-29 -43 -68.5 -68.5t-89.5 -25.5q-82 0 -124.5 56.5t-42.5 156.5q0 79 27 159.5t83.5 135t141.5 54.5q39 0 71 -15t54 -40l37 265zM234.5 401.5q-30.5 -39.5 -43.5 -96.5t-13 -111q0 -56 17 -80t48 -24q34 0 63.5 27t60.5 76l29 204
q-33 44 -82 44t-79.5 -39.5zM1044 530l-13 -102l-279 -318h238l-29 -110h-398l13 102l280 319h-213l16 109h385zM1013 806l47 -60l-155 -131h-87l-121 131l56 60l117 -89z" />
    <glyph glyph-name="uni01C7" unicode="&#x1c7;" horiz-adv-x="788" 
d="M278 692l-81 -573h270l-32 -119h-400l97 692h146zM696 101q-11 -80 -45.5 -131.5t-83.5 -81t-116 -50.5l-27 106q46 17 71.5 39.5t37.5 52t18 75.5l82 581h146z" />
    <glyph glyph-name="uni01C8" unicode="&#x1c8;" horiz-adv-x="764" 
d="M278 692l-81 -573h270l-32 -119h-400l97 692h146zM394 -118q41 17 66.5 36t41.5 49.5t23 79.5l67 483h140l-67 -479q-11 -80 -42 -131.5t-77 -82.5t-116 -57zM626 658q-21 21 -21 53q0 40 27 66t67 26q35 0 56 -20.5t21 -53.5q0 -40 -27 -66t-67 -26q-35 0 -56 21z" />
    <glyph glyph-name="uni01C9" unicode="&#x1c9;" horiz-adv-x="565" 
d="M185 133l-1 -11q0 -24 23 -24q13 0 28 5l19 -100q-46 -19 -94 -19q-57 0 -87.5 29.5t-30.5 86.5q0 16 3 34l86 607l141 16zM195 -118q41 17 66.5 36t41.5 49.5t23 79.5l67 483h140l-67 -479q-11 -80 -42 -131.5t-77 -82.5t-116 -57zM427 658q-21 21 -21 53q0 40 27 66
t67 26q35 0 56 -20.5t21 -53.5q0 -40 -27 -66t-67 -26q-35 0 -56 21z" />
    <glyph glyph-name="uni01CA" unicode="&#x1ca;" horiz-adv-x="967" 
d="M550 0h-186l-143 569v-41q0 -132 -18 -266l-37 -262h-131l97 692h184l146 -569q-2 58 -2 83q0 85 14 190l42 296h131zM875 101q-11 -80 -45.5 -131.5t-83.5 -81t-116 -50.5l-27 106q46 17 71.5 39.5t37.5 52t18 75.5l82 581h146z" />
    <glyph glyph-name="uni01CB" unicode="&#x1cb;" horiz-adv-x="936" 
d="M550 0h-186l-143 569v-41q0 -132 -18 -266l-37 -262h-131l97 692h184l146 -569q-2 58 -2 83q0 85 14 190l42 296h131zM566 -118q41 17 66.5 36t41.5 49.5t23 79.5l67 483h140l-67 -479q-11 -80 -42 -131.5t-77 -82.5t-116 -57zM798 658q-21 21 -21 53q0 40 27 66t67 26
q35 0 56 -20.5t21 -53.5q0 -40 -27 -66t-67 -26q-35 0 -56 21z" />
    <glyph glyph-name="uni01CC" unicode="&#x1cc;" horiz-adv-x="847" 
d="M493.5 512q32.5 -34 32.5 -95q0 -16 -3 -36l-53 -381h-140l50 355q2 20 2 25q0 27 -10 38t-29 11q-61 0 -129 -131l-42 -298h-140l74 530h121l-4 -96q36 53 82 82.5t99 29.5q57 0 89.5 -34zM477 -118q41 17 66.5 36t41.5 49.5t23 79.5l67 483h140l-67 -479
q-11 -80 -42 -131.5t-77 -82.5t-116 -57zM709 658q-21 21 -21 53q0 40 27 66t67 26q35 0 56 -20.5t21 -53.5q0 -40 -27 -66t-67 -26q-35 0 -56 21z" />
    <glyph glyph-name="uni01CD" unicode="&#x1cd;" horiz-adv-x="577" 
d="M396 0l-17 155h-215l-60 -155h-151l307 692h177l112 -692h-153zM206 264h161l-35 326zM509 935l46 -60l-155 -124h-86l-122 124l58 60l117 -83z" />
    <glyph glyph-name="uni01CE" unicode="&#x1ce;" horiz-adv-x="571" 
d="M540 493l-50 -348q-2 -18 -2 -24q0 -16 6.5 -25.5t22.5 -16.5l-40 -93q-98 10 -116 88q-65 -90 -158 -90q-82 0 -127 56.5t-45 152.5q0 83 31 164t98.5 135t170.5 54q110 0 209 -53zM242 405q-34 -38 -49.5 -95.5t-15.5 -116.5q0 -103 68 -103q31 0 57 20t53 59l38 262
q-29 12 -65 12q-52 0 -86 -38zM504 806l47 -60l-155 -131h-87l-121 131l56 60l117 -89z" />
    <glyph glyph-name="uni01CF" unicode="&#x1cf;" horiz-adv-x="291" 
d="M278 692l-97 -692h-146l97 692h146zM365 935l46 -60l-155 -124h-86l-122 124l58 60l117 -83z" />
    <glyph glyph-name="uni01D0" unicode="&#x1d0;" horiz-adv-x="278" 
d="M246 530l-74 -530h-140l74 530h140zM338 806l47 -60l-155 -131h-87l-121 131l56 60l117 -89z" />
    <glyph glyph-name="uni01D1" unicode="&#x1d1;" horiz-adv-x="682" 
d="M592.5 634q68.5 -74 68.5 -209q0 -104 -35 -204.5t-115 -168.5t-206 -68q-124 0 -192.5 74t-68.5 208q0 103 35 204t115.5 169.5t206.5 68.5q123 0 191.5 -74zM274 542q-44 -56 -62 -134t-18 -151q0 -85 30.5 -123.5t89.5 -38.5q74 0 118 56t61.5 134t17.5 152
q0 84 -30 122.5t-90 38.5q-73 0 -117 -56zM563 935l46 -60l-155 -124h-86l-122 124l58 60l117 -83z" />
    <glyph glyph-name="uni01D2" unicode="&#x1d2;" horiz-adv-x="575" 
d="M90 43.5q-57 59.5 -57 164.5q0 80 29 157.5t94.5 129t167.5 51.5q103 0 160 -59t57 -162q0 -80 -28 -158t-93 -130.5t-169 -52.5t-161 59.5zM365 167q31 76 32 165q0 56 -20.5 82t-61.5 26q-52 0 -82.5 -39.5t-42.5 -95t-12 -107.5q0 -55 20.5 -81t61.5 -26q74 0 105 76z
M482 806l47 -60l-155 -131h-87l-121 131l56 60l117 -89z" />
    <glyph glyph-name="uni01D3" unicode="&#x1d3;" horiz-adv-x="645" 
d="M577 226q-10 -71 -47 -125.5t-99.5 -85.5t-145.5 -31q-114 0 -172.5 54.5t-58.5 147.5q0 22 3 44l65 462h146l-65 -459q-3 -22 -3 -40q0 -49 23 -72.5t72 -23.5q61 0 94 34.5t43 105.5l65 455h145zM542 935l46 -60l-155 -124h-86l-122 124l58 60l117 -83z" />
    <glyph glyph-name="uni01D4" unicode="&#x1d4;" horiz-adv-x="566" 
d="M77.5 19q-33.5 35 -33.5 97q0 18 3 36l54 378h140l-50 -358q-2 -20 -2 -27q0 -27 10 -37.5t31 -10.5q31 0 59.5 25.5t56.5 67.5l48 340h140l-74 -530h-122l5 83q-37 -48 -79 -73.5t-91 -25.5q-62 0 -95.5 35zM480 806l47 -60l-155 -131h-87l-121 131l56 60l117 -89z" />
    <glyph glyph-name="uni01D5" unicode="&#x1d5;" horiz-adv-x="645" 
d="M577 226q-10 -71 -47 -125.5t-99.5 -85.5t-145.5 -31q-114 0 -172.5 54.5t-58.5 147.5q0 22 3 44l65 462h146l-65 -459q-3 -22 -3 -40q0 -49 23 -72.5t72 -23.5q61 0 94 34.5t43 105.5l65 455h145zM225 764.5q-19 18.5 -19 47.5q0 35 24 58t60 23q31 0 50 -18t19 -47
q0 -35 -24.5 -58.5t-59.5 -23.5q-31 0 -50 18.5zM449 764.5q-19 18.5 -19 47.5q0 35 24 58t60 23q31 0 49.5 -18t18.5 -47q0 -35 -24.5 -58.5t-59.5 -23.5q-30 0 -49 18.5zM554 932h-293l13 100h294z" />
    <glyph glyph-name="uni01D6" unicode="&#x1d6;" horiz-adv-x="566" 
d="M77.5 19q-33.5 35 -33.5 97q0 18 3 36l54 378h140l-50 -358q-2 -20 -2 -27q0 -27 10 -37.5t31 -10.5q31 0 59.5 25.5t56.5 67.5l48 340h140l-74 -530h-122l5 83q-37 -48 -79 -73.5t-91 -25.5q-62 0 -95.5 35zM170 625.5q-19 18.5 -19 47.5q0 35 24 58t60 23q31 0 50 -18
t19 -47q0 -35 -24.5 -58.5t-59.5 -23.5q-31 0 -50 18.5zM394 625.5q-19 18.5 -19 47.5q0 35 24 58t60 23q31 0 49.5 -18t18.5 -47q0 -35 -24.5 -58.5t-59.5 -23.5q-30 0 -49 18.5zM498 799h-293l13 100h294z" />
    <glyph glyph-name="uni01D7" unicode="&#x1d7;" horiz-adv-x="645" 
d="M577 226q-10 -71 -47 -125.5t-99.5 -85.5t-145.5 -31q-114 0 -172.5 54.5t-58.5 147.5q0 22 3 44l65 462h146l-65 -459q-3 -22 -3 -40q0 -49 23 -72.5t72 -23.5q61 0 94 34.5t43 105.5l65 455h145zM502 1078l70 -77l-168 -137l-50 49zM225 766.5q-19 18.5 -19 47.5
q0 35 24 58t60 23q30 0 49 -18.5t19 -46.5q0 -35 -24 -58.5t-60 -23.5q-30 0 -49 18.5zM458 766.5q-19 18.5 -19 47.5q0 35 24 58t60 23q30 0 49 -18.5t19 -46.5q0 -35 -24.5 -58.5t-59.5 -23.5q-30 0 -49 18.5z" />
    <glyph glyph-name="uni01D8" unicode="&#x1d8;" horiz-adv-x="566" 
d="M77.5 19q-33.5 35 -33.5 97q0 18 3 36l54 378h140l-50 -358q-2 -20 -2 -27q0 -27 10 -37.5t31 -10.5q31 0 59.5 25.5t56.5 67.5l48 340h140l-74 -530h-122l5 83q-37 -48 -79 -73.5t-91 -25.5q-62 0 -95.5 35zM434 937l70 -77l-168 -137l-50 49zM158 625.5
q-19 18.5 -19 47.5q0 35 24 58t59 23q30 0 49.5 -18.5t19.5 -46.5q0 -35 -24.5 -58.5t-59.5 -23.5q-30 0 -49 18.5zM391 625.5q-19 18.5 -19 47.5q0 35 24 58t60 23q30 0 49 -18.5t19 -46.5q0 -35 -24 -58.5t-60 -23.5q-30 0 -49 18.5z" />
    <glyph glyph-name="uni01D9" unicode="&#x1d9;" horiz-adv-x="645" 
d="M577 226q-10 -71 -47 -125.5t-99.5 -85.5t-145.5 -31q-114 0 -172.5 54.5t-58.5 147.5q0 22 3 44l65 462h146l-65 -459q-3 -22 -3 -40q0 -49 23 -72.5t72 -23.5q61 0 94 34.5t43 105.5l65 455h145zM555 1080l46 -60l-155 -124h-86l-122 124l58 60l117 -83zM224 766.5
q-19 18.5 -19 47.5q0 35 24 58t60 23q30 0 49 -18.5t19 -46.5q0 -35 -24.5 -58.5t-59.5 -23.5q-30 0 -49 18.5zM456 766.5q-19 18.5 -19 47.5q0 35 24 58t60 23q30 0 49 -18.5t19 -46.5q0 -35 -24 -58.5t-59 -23.5q-31 0 -50 18.5z" />
    <glyph glyph-name="uni01DA" unicode="&#x1da;" horiz-adv-x="566" 
d="M77.5 19q-33.5 35 -33.5 97q0 18 3 36l54 378h140l-50 -358q-2 -20 -2 -27q0 -27 10 -37.5t31 -10.5q31 0 59.5 25.5t56.5 67.5l48 340h140l-74 -530h-122l5 83q-37 -48 -79 -73.5t-91 -25.5q-62 0 -95.5 35zM488 939l46 -60l-155 -124h-86l-122 124l58 60l117 -83z
M156 625.5q-19 18.5 -19 47.5q0 35 24 58t60 23q30 0 49 -18.5t19 -46.5q0 -35 -24.5 -58.5t-59.5 -23.5q-30 0 -49 18.5zM389 625.5q-19 18.5 -19 47.5q0 35 24 58t60 23q30 0 49.5 -18.5t19.5 -46.5q0 -35 -24.5 -58.5t-59.5 -23.5q-31 0 -50 18.5z" />
    <glyph glyph-name="uni01DB" unicode="&#x1db;" horiz-adv-x="645" 
d="M577 226q-10 -71 -47 -125.5t-99.5 -85.5t-145.5 -31q-114 0 -172.5 54.5t-58.5 147.5q0 22 3 44l65 462h146l-65 -459q-3 -22 -3 -40q0 -49 23 -72.5t72 -23.5q61 0 94 34.5t43 105.5l65 455h145zM353 1075l104 -166l-57 -45l-132 141zM224 766.5q-19 18.5 -19 47.5
q0 35 24 58t60 23q30 0 49 -18.5t19 -46.5q0 -35 -24 -58.5t-60 -23.5q-30 0 -49 18.5zM457 766.5q-19 18.5 -19 47.5q0 35 24 58t60 23q30 0 49 -18.5t19 -46.5q0 -35 -24.5 -58.5t-59.5 -23.5q-30 0 -49 18.5z" />
    <glyph glyph-name="uni01DC" unicode="&#x1dc;" horiz-adv-x="566" 
d="M77.5 19q-33.5 35 -33.5 97q0 18 3 36l54 378h140l-50 -358q-2 -20 -2 -27q0 -27 10 -37.5t31 -10.5q31 0 59.5 25.5t56.5 67.5l48 340h140l-74 -530h-122l5 83q-37 -48 -79 -73.5t-91 -25.5q-62 0 -95.5 35zM288 934l104 -166l-57 -45l-132 141zM161 625.5
q-19 18.5 -19 47.5q0 35 24 58t59 23q30 0 49.5 -18.5t19.5 -46.5q0 -35 -24.5 -58.5t-59.5 -23.5q-30 0 -49 18.5zM394 625.5q-19 18.5 -19 47.5q0 35 24 58t60 23q30 0 49 -18.5t19 -46.5q0 -35 -24 -58.5t-60 -23.5q-30 0 -49 18.5z" />
    <glyph glyph-name="uni01DD" unicode="&#x1dd;" horiz-adv-x="529" 
d="M438.5 486.5q57.5 -59.5 57.5 -162.5q0 -80 -30 -158t-96 -130t-168 -52q-90 0 -139.5 40.5t-49.5 102.5q0 101 93.5 147.5t247.5 61.5q-5 103 -99 103q-35 0 -67 -12t-70 -37l-52 86q97 70 206 70t166.5 -59.5zM302 129q33 47 45 117q-99 -8 -145.5 -37.5t-46.5 -75.5
q0 -21 13.5 -36t43.5 -15q57 0 90 47z" />
    <glyph glyph-name="uni01DE" unicode="&#x1de;" horiz-adv-x="577" 
d="M396 0l-17 155h-215l-60 -155h-151l307 692h177l112 -692h-153zM206 264h161l-35 326zM192 764.5q-19 18.5 -19 47.5q0 35 24 58t60 23q31 0 50 -18t19 -47q0 -35 -24.5 -58.5t-59.5 -23.5q-31 0 -50 18.5zM416 764.5q-19 18.5 -19 47.5q0 35 24 58t60 23q31 0 49.5 -18
t18.5 -47q0 -35 -24.5 -58.5t-59.5 -23.5q-30 0 -49 18.5zM521 932h-293l13 100h294z" />
    <glyph glyph-name="uni01DF" unicode="&#x1df;" horiz-adv-x="571" 
d="M540 493l-50 -348q-2 -18 -2 -24q0 -16 6.5 -25.5t22.5 -16.5l-40 -93q-98 10 -116 88q-65 -90 -158 -90q-82 0 -127 56.5t-45 152.5q0 83 31 164t98.5 135t170.5 54q110 0 209 -53zM242 405q-34 -38 -49.5 -95.5t-15.5 -116.5q0 -103 68 -103q31 0 57 20t53 59l38 262
q-29 12 -65 12q-52 0 -86 -38zM194 625.5q-19 18.5 -19 47.5q0 35 24 58t60 23q31 0 50 -18t19 -47q0 -35 -24.5 -58.5t-59.5 -23.5q-31 0 -50 18.5zM418 625.5q-19 18.5 -19 47.5q0 35 24 58t60 23q31 0 49.5 -18t18.5 -47q0 -35 -24.5 -58.5t-59.5 -23.5q-30 0 -49 18.5z
M522 799h-293l13 100h294z" />
    <glyph glyph-name="uni01E0" unicode="&#x1e0;" horiz-adv-x="577" 
d="M396 0l-17 155h-215l-60 -155h-151l307 692h177l112 -692h-153zM206 264h161l-35 326zM298 758q-21 21 -21 53q0 40 27 66t67 26q35 0 56 -20.5t21 -53.5q0 -40 -27 -66t-67 -26q-35 0 -56 21zM526 932h-293l13 100h294z" />
    <glyph glyph-name="uni01E1" unicode="&#x1e1;" horiz-adv-x="571" 
d="M540 493l-50 -348q-2 -18 -2 -24q0 -16 6.5 -25.5t22.5 -16.5l-40 -93q-98 10 -116 88q-65 -90 -158 -90q-82 0 -127 56.5t-45 152.5q0 83 31 164t98.5 135t170.5 54q110 0 209 -53zM242 405q-34 -38 -49.5 -95.5t-15.5 -116.5q0 -103 68 -103q31 0 57 20t53 59l38 262
q-29 12 -65 12q-52 0 -86 -38zM296 618q-21 21 -21 53q0 40 27 66t67 26q35 0 56 -20.5t21 -53.5q0 -40 -27 -66t-67 -26q-35 0 -56 21zM523 795h-293l13 100h294z" />
    <glyph glyph-name="uni01E2" unicode="&#x1e2;" horiz-adv-x="826" 
d="M782 584h-277l14 -181h243l-13 -106h-222l15 -189h226l-15 -108h-342l-8 155h-229l-74 -155h-156l359 692h510zM227 264h170l-17 319zM696 784h-293l13 100h294z" />
    <glyph glyph-name="uni01E3" unicode="&#x1e3;" horiz-adv-x="829" 
d="M387 527q38 -19 60 -55q31 33 78 53.5t102 20.5q60 0 103 -19t65 -51.5t22 -72.5q0 -101 -94.5 -147t-249.5 -60q2 -57 28.5 -81t72.5 -24q35 0 67 12t70 37l52 -86q-97 -70 -206 -70q-66 0 -113.5 23t-74.5 66q-42 -48 -89.5 -68.5t-104.5 -20.5q-74 0 -118 39.5
t-44 103.5q0 82 62.5 136.5t208.5 54.5h65q8 37 18 59q-4 29 -31 45.5t-69 16.5q-63 0 -142 -25l-22 96q95 36 184 36q62 0 100 -19zM525.5 401q-33.5 -47 -45.5 -116q99 9 146.5 38t47.5 73q0 21 -13.5 36.5t-44.5 15.5q-57 0 -90.5 -47zM289 234q-126 0 -126 -92
q0 -56 57 -56q33 0 61 17.5t58 52.5q-2 11 -3 35t0 43h-47zM622 658h-293l13 100h294z" />
    <glyph glyph-name="uni01E4" unicode="&#x1e4;" horiz-adv-x="660" 
d="M640 175h-68l-17 -119q-55 -35 -118.5 -53.5t-130.5 -18.5q-129 0 -196 70t-67 205q0 111 39.5 213.5t123 169t209.5 66.5q131 0 214 -86l-85 -76q-31 28 -61 40.5t-70 12.5q-78 0 -127.5 -53.5t-71 -134.5t-21.5 -166q0 -80 30.5 -115t93.5 -35q60 0 109 25l8 55h-101
l13 91h101l6 46h-101v94h252l-20 -140h68z" />
    <glyph glyph-name="uni01E5" unicode="&#x1e5;" horiz-adv-x="547" 
d="M472 -8h63l-8 -63h-73q-32 -78 -91.5 -114t-150.5 -36q-51 0 -103 15t-95 41l46 90q76 -42 149 -42q37 0 63.5 10t42.5 36h-115l8 63h129l1 6l15 93q-29 -33 -66.5 -52t-78.5 -19q-83 0 -128.5 55.5t-45.5 145.5q0 75 31.5 150t99.5 125t171 50q111 0 211 -53l-67 -459
q-2 -17 -8 -42zM366 206l34 225q-17 7 -31.5 9.5t-34.5 2.5q-52 0 -86.5 -33t-51 -83t-16.5 -101t18 -75.5t51 -24.5q60 0 117 80z" />
    <glyph glyph-name="Gcaron" unicode="&#x1e6;" horiz-adv-x="632" 
d="M629 622l-83 -74q-33 27 -63 39t-70 12q-78 0 -127.5 -53.5t-71 -134.5t-21.5 -166q0 -80 30.5 -115t93.5 -35q55 0 104 25l25 168h-96l1 107h251l-47 -339q-55 -35 -118.5 -53.5t-130.5 -18.5q-129 0 -196 70t-67 205q0 111 39.5 213.5t123 169t209.5 66.5
q131 0 214 -86zM570 935l46 -60l-155 -124h-86l-122 124l58 60l117 -83z" />
    <glyph glyph-name="gcaron" unicode="&#x1e7;" horiz-adv-x="578" 
d="M546 493l-67 -459q-20 -135 -85.5 -195t-185.5 -60q-48 0 -100.5 15t-94.5 41l48 96q76 -42 144 -42q54 0 89 26.5t46 101.5l8 55q-29 -33 -65 -52.5t-78 -19.5q-82 0 -127.5 55.5t-45.5 148.5q0 82 31.5 160.5t99.5 130t173 51.5q111 0 210 -53zM245 407
q-35 -36 -51 -90t-16 -110q0 -100 70 -100q56 0 113 79l38 245q-31 12 -66 12q-53 0 -88 -36zM495 806l47 -60l-155 -131h-87l-121 131l56 60l117 -89z" />
    <glyph glyph-name="uni01E8" unicode="&#x1e8;" horiz-adv-x="613" 
d="M35 0l97 692h146l-97 -692h-146zM419 0l-181 369l269 323h158l-274 -321l195 -371h-167zM545 935l46 -60l-155 -124h-86l-122 124l58 60l117 -83z" />
    <glyph glyph-name="uni01E9" unicode="&#x1e9;" horiz-adv-x="561" 
d="M235 455q75 91 177 91q63 0 101 -34.5t38 -90.5q0 -128 -148 -186l103 -235h-155l-103 257q86 26 122.5 60t36.5 81q0 22 -12.5 34.5t-35.5 12.5q-36 0 -73 -29.5t-69 -89.5l-45 -326h-141l104 741l142 16zM528 984l46 -60l-155 -124h-86l-122 124l58 60l117 -83z" />
    <glyph glyph-name="uni01EA" unicode="&#x1ea;" horiz-adv-x="682" 
d="M277 -116q0 -35 45 -35q25 0 62 8l-20 -92q-37 -7 -67 -7q-57 0 -92 28t-35 74q0 77 80 128q-99 16 -152.5 88t-53.5 190q0 103 35 204t115.5 169.5t206.5 68.5q123 0 191.5 -74t68.5 -209q0 -88 -25.5 -176t-83 -157.5t-148.5 -94.5q-127 -49 -127 -113zM224.5 133.5
q30.5 -38.5 89.5 -38.5q74 0 118 56t61.5 134t17.5 152q0 84 -30 122.5t-90 38.5q-73 0 -117 -56t-62 -134t-18 -151q0 -85 30.5 -123.5z" />
    <glyph glyph-name="uni01EB" unicode="&#x1eb;" horiz-adv-x="575" 
d="M484 487q57 -59 57 -162q0 -67 -19.5 -133.5t-64.5 -119.5t-115 -75q-127 -49 -127 -113q0 -35 45 -35q25 0 62 8l-20 -92q-37 -7 -67 -7q-57 0 -92 28t-35 74q0 78 82 130q-76 16 -116.5 73t-40.5 145q0 80 29 157.5t94.5 129t167.5 51.5q103 0 160 -59zM365 167
q31 76 32 165q0 56 -20.5 82t-61.5 26q-52 0 -82.5 -39.5t-42.5 -95t-12 -107.5q0 -55 20.5 -81t61.5 -26q74 0 105 76z" />
    <glyph glyph-name="uni01EC" unicode="&#x1ec;" horiz-adv-x="682" 
d="M578 884l-14 -100h-293l13 100h294zM277 -116q0 -35 45 -35q25 0 62 8l-20 -92q-37 -7 -67 -7q-57 0 -92 28t-35 74q0 77 80 128q-99 16 -152.5 88t-53.5 190q0 103 35 204t115.5 169.5t206.5 68.5q123 0 191.5 -74t68.5 -209q0 -88 -25.5 -176t-83 -157.5t-148.5 -94.5
q-127 -49 -127 -113zM224.5 133.5q30.5 -38.5 89.5 -38.5q74 0 118 56t61.5 134t17.5 152q0 84 -30 122.5t-90 38.5q-73 0 -117 -56t-62 -134t-18 -151q0 -85 30.5 -123.5z" />
    <glyph glyph-name="uni01ED" unicode="&#x1ed;" horiz-adv-x="575" 
d="M499 758l-14 -100h-293l13 100h294zM484 487q57 -59 57 -162q0 -67 -19.5 -133.5t-64.5 -119.5t-115 -75q-127 -49 -127 -113q0 -35 45 -35q25 0 62 8l-20 -92q-37 -7 -67 -7q-57 0 -92 28t-35 74q0 78 82 130q-76 16 -116.5 73t-40.5 145q0 80 29 157.5t94.5 129
t167.5 51.5q103 0 160 -59zM365 167q31 76 32 165q0 56 -20.5 82t-61.5 26q-52 0 -82.5 -39.5t-42.5 -95t-12 -107.5q0 -55 20.5 -81t61.5 -26q74 0 105 76z" />
    <glyph glyph-name="uni01EE" unicode="&#x1ee;" horiz-adv-x="535" 
d="M518 586l-207 -184q91 -4 139.5 -48t48.5 -121q0 -76 -38.5 -132.5t-105 -86.5t-149.5 -30q-80 0 -133 25.5t-89 75.5l84 73q29 -34 60.5 -48.5t76.5 -14.5q64 0 103.5 36.5t39.5 96.5q0 46 -29 65.5t-87 19.5h-97l12 86l202 184h-259l15 109h427zM479 935l46 -60
l-155 -124h-86l-122 124l58 60l117 -83z" />
    <glyph glyph-name="uni01EF" unicode="&#x1ef;" horiz-adv-x="494" 
d="M469 431l-218 -220q92 -5 140.5 -49.5t48.5 -121.5t-37 -136t-103 -91.5t-149 -32.5q-140 0 -215 101l84 72q32 -34 62 -48.5t71 -14.5q66 0 104.5 41t38.5 108q0 47 -28 66t-89 19h-90l1 1l11 85l205 212h-258l16 108h417zM435 806l47 -60l-155 -131h-87l-121 131l56 60
l117 -89z" />
    <glyph glyph-name="uni01F0" unicode="&#x1f0;" horiz-adv-x="277" 
d="M-93 -118q41 17 66.5 36t41.5 49.5t23 79.5l67 483h140l-67 -479q-11 -80 -42 -131.5t-77 -82.5t-116 -57zM338 806l47 -60l-155 -131h-87l-121 131l56 60l117 -89z" />
    <glyph glyph-name="uni01F1" unicode="&#x1f1;" horiz-adv-x="1146" 
d="M536 634.5q85 -57.5 85 -204.5q0 -120 -38.5 -216.5t-125 -155t-225.5 -58.5h-197l97 692h178q141 0 226 -57.5zM262 584l-66 -476h58q117 0 167 96t50 226q0 89 -39.5 121.5t-111.5 32.5h-58zM598 0l15 112l376 464h-277l16 116h444l-15 -113l-372 -460h310l-31 -119
h-466z" />
    <glyph glyph-name="uni01F2" unicode="&#x1f2;" horiz-adv-x="1076" 
d="M536 634.5q85 -57.5 85 -204.5q0 -120 -38.5 -216.5t-125 -155t-225.5 -58.5h-197l97 692h178q141 0 226 -57.5zM262 584l-66 -476h58q117 0 167 96t50 226q0 89 -39.5 121.5t-111.5 32.5h-58zM1089 530l-13 -102l-279 -318h238l-29 -110h-398l13 102l280 319h-213
l16 109h385z" />
    <glyph glyph-name="uni01F3" unicode="&#x1f3;" horiz-adv-x="1031" 
d="M584 741l-104 -741h-124l1 78q-29 -43 -68.5 -68.5t-89.5 -25.5q-82 0 -124.5 56.5t-42.5 156.5q0 79 27 159.5t83.5 135t141.5 54.5q39 0 71 -15t54 -40l37 265zM234.5 401.5q-30.5 -39.5 -43.5 -96.5t-13 -111q0 -56 17 -80t48 -24q34 0 63.5 27t60.5 76l29 204
q-33 44 -82 44t-79.5 -39.5zM1044 530l-13 -102l-279 -318h238l-29 -110h-398l13 102l280 319h-213l16 109h385z" />
    <glyph glyph-name="uni01F4" unicode="&#x1f4;" horiz-adv-x="632" 
d="M629 622l-83 -74q-33 27 -63 39t-70 12q-78 0 -127.5 -53.5t-71 -134.5t-21.5 -166q0 -80 30.5 -115t93.5 -35q55 0 104 25l25 168h-96l1 107h251l-47 -339q-55 -35 -118.5 -53.5t-130.5 -18.5q-129 0 -196 70t-67 205q0 111 39.5 213.5t123 169t209.5 66.5
q131 0 214 -86zM526 940l44 -109l-239 -82l-30 71z" />
    <glyph glyph-name="uni01F5" unicode="&#x1f5;" horiz-adv-x="578" 
d="M546 493l-67 -459q-20 -135 -85.5 -195t-185.5 -60q-48 0 -100.5 15t-94.5 41l48 96q76 -42 144 -42q54 0 89 26.5t46 101.5l8 55q-29 -33 -65 -52.5t-78 -19.5q-82 0 -127.5 55.5t-45.5 148.5q0 82 31.5 160.5t99.5 130t173 51.5q111 0 210 -53zM245 407
q-35 -36 -51 -90t-16 -110q0 -100 70 -100q56 0 113 79l38 245q-31 12 -66 12q-53 0 -88 -36zM450 827l45 -109l-239 -92l-32 73z" />
    <glyph glyph-name="uni01F6" unicode="&#x1f6;" horiz-adv-x="940" 
d="M475 30.5q-47 46.5 -47 116.5q0 10 2 28l17 128h-224l-42 -303h-146l97 692h146l-39 -273h225l38 273h146l-72 -514q-2 -18 -2 -26q0 -61 53 -61q80 0 110 104t30 238q0 57 -5 97h133q8 -59 8 -119q0 -198 -63.5 -312.5t-224.5 -114.5q-93 0 -140 46.5z" />
    <glyph glyph-name="uni01F7" unicode="&#x1f7;" horiz-adv-x="587" 
d="M553.5 663q47.5 -45 47.5 -123q0 -81 -40 -139t-106.5 -97t-162.5 -73l-83 -29l-28 -202h-146l97 692h146l-6 -43q67 59 160 59q74 0 121.5 -45zM449 526q0 37 -18.5 55t-52.5 18q-64 0 -120 -46l-34 -245l53 22q172 76 172 196z" />
    <glyph glyph-name="uni01F8" unicode="&#x1f8;" horiz-adv-x="659" 
d="M550 0h-186l-143 569v-41q0 -132 -18 -266l-37 -262h-131l97 692h184l146 -569q-2 58 -2 83q0 85 14 190l42 296h131zM353 939l196 -119l-38 -71l-218 81z" />
    <glyph glyph-name="uni01F9" unicode="&#x1f9;" horiz-adv-x="570" 
d="M493.5 512q32.5 -34 32.5 -95q0 -16 -3 -36l-53 -381h-140l50 355q2 20 2 25q0 27 -10 38t-29 11q-61 0 -129 -131l-42 -298h-140l74 530h121l-4 -96q36 53 82 82.5t99 29.5q57 0 89.5 -34zM293 827l196 -130l-40 -69l-218 90z" />
    <glyph glyph-name="Aringacute" unicode="&#x1fa;" horiz-adv-x="577" 
d="M396 0l-17 155h-215l-60 -155h-151l307 692h177l112 -692h-153zM206 264h161l-35 326zM467 946q32 -32 32 -81q0 -37 -19 -68.5t-52.5 -50.5t-75.5 -19q-54 0 -86 32t-32 81q0 36 19 68t52.5 51t75.5 19q54 0 86 -32zM333.5 886q-15.5 -19 -15.5 -43q0 -20 10.5 -31
t29.5 -11q26 0 41.5 18.5t15.5 42.5q0 21 -10.5 32t-29.5 11q-26 0 -41.5 -19zM471 1168l44 -109l-239 -82l-30 71z" />
    <glyph glyph-name="aringacute" unicode="&#x1fb;" horiz-adv-x="571" 
d="M540 493l-50 -348q-2 -18 -2 -24q0 -16 6.5 -25.5t22.5 -16.5l-40 -93q-98 10 -116 88q-65 -90 -158 -90q-82 0 -127 56.5t-45 152.5q0 83 31 164t98.5 135t170.5 54q110 0 209 -53zM242 405q-34 -38 -49.5 -95.5t-15.5 -116.5q0 -103 68 -103q31 0 57 20t53 59l38 262
q-29 12 -65 12q-52 0 -86 -38zM466 798q32 -32 32 -81q0 -37 -19 -68.5t-52.5 -50.5t-75.5 -19q-54 0 -86 32t-32 81q0 36 19 68t52.5 51t75.5 19q54 0 86 -32zM332.5 738q-15.5 -19 -15.5 -43q0 -20 10.5 -31t29.5 -11q26 0 41.5 18.5t15.5 42.5q0 21 -10.5 32t-29.5 11
q-26 0 -41.5 -19zM473 1022l44 -109l-239 -82l-30 71z" />
    <glyph glyph-name="AEacute" unicode="&#x1fc;" horiz-adv-x="826" 
d="M782 584h-277l14 -181h243l-13 -106h-222l15 -189h226l-15 -108h-342l-8 155h-229l-74 -155h-156l359 692h510zM227 264h170l-17 319zM651 940l44 -109l-239 -82l-30 71z" />
    <glyph glyph-name="aeacute" unicode="&#x1fd;" horiz-adv-x="829" 
d="M387 527q38 -19 60 -55q31 33 78 53.5t102 20.5q60 0 103 -19t65 -51.5t22 -72.5q0 -101 -94.5 -147t-249.5 -60q2 -57 28.5 -81t72.5 -24q35 0 67 12t70 37l52 -86q-97 -70 -206 -70q-66 0 -113.5 23t-74.5 66q-42 -48 -89.5 -68.5t-104.5 -20.5q-74 0 -118 39.5
t-44 103.5q0 82 62.5 136.5t208.5 54.5h65q8 37 18 59q-4 29 -31 45.5t-69 16.5q-63 0 -142 -25l-22 96q95 36 184 36q62 0 100 -19zM525.5 401q-33.5 -47 -45.5 -116q99 9 146.5 38t47.5 73q0 21 -13.5 36.5t-44.5 15.5q-57 0 -90.5 -47zM289 234q-126 0 -126 -92
q0 -56 57 -56q33 0 61 17.5t58 52.5q-2 11 -3 35t0 43h-47zM574 827l45 -109l-239 -92l-32 73z" />
    <glyph glyph-name="Oslashacute" unicode="&#x1fe;" horiz-adv-x="682" 
d="M634.5 569q26.5 -61 26.5 -144q0 -104 -35 -204.5t-115 -168.5t-206 -68q-31 0 -55 4l-52 -121l-109 30l59 130q-51 36 -77.5 96t-26.5 143q0 103 35 204t115.5 169.5t206.5 68.5q31 0 52 -4l55 122l108 -30l-59 -131q51 -35 77.5 -96zM273 541.5q-45 -56.5 -63 -136
t-18 -154.5q0 -82 26 -119l203 464q-18 2 -30 2q-73 0 -118 -56.5zM432.5 151.5q44.5 56.5 62.5 136.5t18 157q0 82 -26 117l-202 -465q9 -2 29 -2q74 0 118.5 56.5zM519 970l44 -109l-239 -82l-30 71z" />
    <glyph glyph-name="oslashacute" unicode="&#x1ff;" horiz-adv-x="575" 
d="M520 430.5q21 -46.5 21 -104.5q0 -81 -28 -159t-93 -130.5t-169 -52.5q-21 0 -39 3l-54 -121l-101 31l58 127q-40 29 -61 76t-21 108q0 80 29 157.5t94.5 129t167.5 51.5q21 0 39 -3l55 121l102 -31l-60 -127q39 -29 60 -75.5zM228.5 400.5q-33.5 -39.5 -47 -94.5
t-13.5 -105q0 -54 17 -78l148 316q-5 1 -16 1q-55 0 -88.5 -39.5zM346.5 130.5q33.5 39.5 47 93.5t13.5 104q0 48 -16 77l-147 -313q5 -1 15 -1q54 0 87.5 39.5zM440 832l45 -109l-239 -92l-32 73z" />
    <glyph glyph-name="uni0200" unicode="&#x200;" horiz-adv-x="577" 
d="M396 0l-17 155h-215l-60 -155h-151l307 692h177l112 -692h-153zM206 264h161l-35 326zM261 979l66 -191l-78 -35l-93 176zM428 979l58 -189l-79 -32l-84 173z" />
    <glyph glyph-name="uni0201" unicode="&#x201;" horiz-adv-x="571" 
d="M540 493l-50 -348q-2 -18 -2 -24q0 -16 6.5 -25.5t22.5 -16.5l-40 -93q-98 10 -116 88q-65 -90 -158 -90q-82 0 -127 56.5t-45 152.5q0 83 31 164t98.5 135t170.5 54q110 0 209 -53zM242 405q-34 -38 -49.5 -95.5t-15.5 -116.5q0 -103 68 -103q31 0 57 20t53 59l38 262
q-29 12 -65 12q-52 0 -86 -38zM262 853l66 -191l-78 -35l-93 176zM429 853l58 -189l-79 -32l-84 173z" />
    <glyph glyph-name="uni0202" unicode="&#x202;" horiz-adv-x="577" 
d="M396 0l-17 155h-215l-60 -155h-151l307 692h177l112 -692h-153zM206 264h161l-35 326zM194 783q16 72 66 116.5t122 44.5q73 0 111.5 -46.5t34.5 -118.5l-81 -11q-9 76 -74 76q-68 0 -99 -79z" />
    <glyph glyph-name="uni0203" unicode="&#x203;" horiz-adv-x="571" 
d="M540 493l-50 -348q-2 -18 -2 -24q0 -16 6.5 -25.5t22.5 -16.5l-40 -93q-98 10 -116 88q-65 -90 -158 -90q-82 0 -127 56.5t-45 152.5q0 83 31 164t98.5 135t170.5 54q110 0 209 -53zM242 405q-34 -38 -49.5 -95.5t-15.5 -116.5q0 -103 68 -103q31 0 57 20t53 59l38 262
q-29 12 -65 12q-52 0 -86 -38zM187 621q16 72 66 116.5t122 44.5q73 0 111.5 -46.5t34.5 -118.5l-81 -11q-9 76 -74 76q-68 0 -99 -79z" />
    <glyph glyph-name="uni0204" unicode="&#x204;" horiz-adv-x="520" 
d="M539 692l-30 -108h-247l-25 -179h214l-13 -106h-215l-27 -191h264l-16 -108h-409l97 692h407zM250 979l66 -191l-78 -35l-93 176zM417 979l58 -189l-79 -32l-84 173z" />
    <glyph glyph-name="uni0205" unicode="&#x205;" horiz-adv-x="529" 
d="M422.5 255.5q-93.5 -46.5 -247.5 -61.5q5 -103 99 -103q35 0 67 12t70 37l52 -86q-97 -70 -206 -70t-166.5 59.5t-57.5 162.5q0 80 30 158t96 130t168 52q90 0 139.5 -40.5t49.5 -102.5q0 -101 -93.5 -147.5zM327.5 321.5q46.5 29.5 46.5 75.5q0 21 -13.5 36t-43.5 15
q-57 0 -90 -47t-45 -117q99 8 145.5 37.5zM235 853l66 -191l-78 -35l-93 176zM402 853l58 -189l-79 -32l-84 173z" />
    <glyph glyph-name="uni0206" unicode="&#x206;" horiz-adv-x="520" 
d="M539 692l-30 -108h-247l-25 -179h214l-13 -106h-215l-27 -191h264l-16 -108h-409l97 692h407zM183 783q16 72 66 116.5t122 44.5q73 0 111.5 -46.5t34.5 -118.5l-81 -11q-9 76 -74 76q-68 0 -99 -79z" />
    <glyph glyph-name="uni0207" unicode="&#x207;" horiz-adv-x="529" 
d="M422.5 255.5q-93.5 -46.5 -247.5 -61.5q5 -103 99 -103q35 0 67 12t70 37l52 -86q-97 -70 -206 -70t-166.5 59.5t-57.5 162.5q0 80 30 158t96 130t168 52q90 0 139.5 -40.5t49.5 -102.5q0 -101 -93.5 -147.5zM327.5 321.5q46.5 29.5 46.5 75.5q0 21 -13.5 36t-43.5 15
q-57 0 -90 -47t-45 -117q99 8 145.5 37.5zM160 621q16 72 66 116.5t122 44.5q73 0 111.5 -46.5t34.5 -118.5l-81 -11q-9 76 -74 76q-68 0 -99 -79z" />
    <glyph glyph-name="uni0208" unicode="&#x208;" horiz-adv-x="291" 
d="M278 692l-97 -692h-146l97 692h146zM117 979l66 -191l-78 -35l-93 176zM284 979l58 -189l-79 -32l-84 173z" />
    <glyph glyph-name="uni0209" unicode="&#x209;" horiz-adv-x="278" 
d="M246 530l-74 -530h-140l74 530h140zM96 853l66 -191l-78 -35l-93 176zM263 853l58 -189l-79 -32l-84 173z" />
    <glyph glyph-name="uni020A" unicode="&#x20a;" horiz-adv-x="291" 
d="M278 692l-97 -692h-146l97 692h146zM50 783q16 72 66 116.5t122 44.5q73 0 111.5 -46.5t34.5 -118.5l-81 -11q-9 76 -74 76q-68 0 -99 -79z" />
    <glyph glyph-name="uni020B" unicode="&#x20b;" horiz-adv-x="278" 
d="M246 530l-74 -530h-140l74 530h140zM21 621q16 72 66 116.5t122 44.5q73 0 111.5 -46.5t34.5 -118.5l-81 -11q-9 76 -74 76q-68 0 -99 -79z" />
    <glyph glyph-name="uni020C" unicode="&#x20c;" horiz-adv-x="682" 
d="M592.5 634q68.5 -74 68.5 -209q0 -104 -35 -204.5t-115 -168.5t-206 -68q-124 0 -192.5 74t-68.5 208q0 103 35 204t115.5 169.5t206.5 68.5q123 0 191.5 -74zM274 542q-44 -56 -62 -134t-18 -151q0 -85 30.5 -123.5t89.5 -38.5q74 0 118 56t61.5 134t17.5 152
q0 84 -30 122.5t-90 38.5q-73 0 -117 -56zM315 979l66 -191l-78 -35l-93 176zM482 979l58 -189l-79 -32l-84 173z" />
    <glyph glyph-name="uni020D" unicode="&#x20d;" horiz-adv-x="575" 
d="M90 43.5q-57 59.5 -57 164.5q0 80 29 157.5t94.5 129t167.5 51.5q103 0 160 -59t57 -162q0 -80 -28 -158t-93 -130.5t-169 -52.5t-161 59.5zM365 167q31 76 32 165q0 56 -20.5 82t-61.5 26q-52 0 -82.5 -39.5t-42.5 -95t-12 -107.5q0 -55 20.5 -81t61.5 -26q74 0 105 76z
M240 853l66 -191l-78 -35l-93 176zM407 853l58 -189l-79 -32l-84 173z" />
    <glyph glyph-name="uni020E" unicode="&#x20e;" horiz-adv-x="682" 
d="M592.5 634q68.5 -74 68.5 -209q0 -104 -35 -204.5t-115 -168.5t-206 -68q-124 0 -192.5 74t-68.5 208q0 103 35 204t115.5 169.5t206.5 68.5q123 0 191.5 -74zM274 542q-44 -56 -62 -134t-18 -151q0 -85 30.5 -123.5t89.5 -38.5q74 0 118 56t61.5 134t17.5 152
q0 84 -30 122.5t-90 38.5q-73 0 -117 -56zM248 783q16 72 66 116.5t122 44.5q73 0 111.5 -46.5t34.5 -118.5l-81 -11q-9 76 -74 76q-68 0 -99 -79z" />
    <glyph glyph-name="uni020F" unicode="&#x20f;" horiz-adv-x="575" 
d="M90 43.5q-57 59.5 -57 164.5q0 80 29 157.5t94.5 129t167.5 51.5q103 0 160 -59t57 -162q0 -80 -28 -158t-93 -130.5t-169 -52.5t-161 59.5zM365 167q31 76 32 165q0 56 -20.5 82t-61.5 26q-52 0 -82.5 -39.5t-42.5 -95t-12 -107.5q0 -55 20.5 -81t61.5 -26q74 0 105 76z
M165 621q16 72 66 116.5t122 44.5q73 0 111.5 -46.5t34.5 -118.5l-81 -11q-9 76 -74 76q-68 0 -99 -79z" />
    <glyph glyph-name="uni0210" unicode="&#x210;" horiz-adv-x="605" 
d="M557.5 384.5q-36.5 -55.5 -125.5 -89.5l133 -295h-160l-109 271h-78l-37 -271h-146l97 692h213q123 0 186 -47t63 -134q0 -71 -36.5 -126.5zM233 375h78q70 0 101 38.5t31 91.5q0 43 -27 62t-86 19h-68zM273 979l66 -191l-78 -35l-93 176zM440 979l58 -189l-79 -32
l-84 173z" />
    <glyph glyph-name="uni0211" unicode="&#x211;" horiz-adv-x="390" 
d="M428 537l-40 -138q-22 7 -45 7q-46 0 -77.5 -39t-57.5 -113l-36 -254h-140l74 530h121l-3 -101q28 57 67.5 86.5t83.5 29.5q27 0 53 -8zM188 853l66 -191l-78 -35l-93 176zM355 853l58 -189l-79 -32l-84 173z" />
    <glyph glyph-name="uni0212" unicode="&#x212;" horiz-adv-x="605" 
d="M557.5 384.5q-36.5 -55.5 -125.5 -89.5l133 -295h-160l-109 271h-78l-37 -271h-146l97 692h213q123 0 186 -47t63 -134q0 -71 -36.5 -126.5zM233 375h78q70 0 101 38.5t31 91.5q0 43 -27 62t-86 19h-68zM206 783q16 72 66 116.5t122 44.5q73 0 111.5 -46.5t34.5 -118.5
l-81 -11q-9 76 -74 76q-68 0 -99 -79z" />
    <glyph glyph-name="uni0213" unicode="&#x213;" horiz-adv-x="390" 
d="M428 537l-40 -138q-22 7 -45 7q-46 0 -77.5 -39t-57.5 -113l-36 -254h-140l74 530h121l-3 -101q28 57 67.5 86.5t83.5 29.5q27 0 53 -8zM113 621q16 72 66 116.5t122 44.5q73 0 111.5 -46.5t34.5 -118.5l-81 -11q-9 76 -74 76q-68 0 -99 -79z" />
    <glyph glyph-name="uni0214" unicode="&#x214;" horiz-adv-x="645" 
d="M577 226q-10 -71 -47 -125.5t-99.5 -85.5t-145.5 -31q-114 0 -172.5 54.5t-58.5 147.5q0 22 3 44l65 462h146l-65 -459q-3 -22 -3 -40q0 -49 23 -72.5t72 -23.5q61 0 94 34.5t43 105.5l65 455h145zM294 979l66 -191l-78 -35l-93 176zM461 979l58 -189l-79 -32l-84 173z
" />
    <glyph glyph-name="uni0215" unicode="&#x215;" horiz-adv-x="566" 
d="M77.5 19q-33.5 35 -33.5 97q0 18 3 36l54 378h140l-50 -358q-2 -20 -2 -27q0 -27 10 -37.5t31 -10.5q31 0 59.5 25.5t56.5 67.5l48 340h140l-74 -530h-122l5 83q-37 -48 -79 -73.5t-91 -25.5q-62 0 -95.5 35zM238 853l66 -191l-78 -35l-93 176zM405 853l58 -189l-79 -32
l-84 173z" />
    <glyph glyph-name="uni0216" unicode="&#x216;" horiz-adv-x="645" 
d="M577 226q-10 -71 -47 -125.5t-99.5 -85.5t-145.5 -31q-114 0 -172.5 54.5t-58.5 147.5q0 22 3 44l65 462h146l-65 -459q-3 -22 -3 -40q0 -49 23 -72.5t72 -23.5q61 0 94 34.5t43 105.5l65 455h145zM227 783q16 72 66 116.5t122 44.5q73 0 111.5 -46.5t34.5 -118.5
l-81 -11q-9 76 -74 76q-68 0 -99 -79z" />
    <glyph glyph-name="uni0217" unicode="&#x217;" horiz-adv-x="566" 
d="M77.5 19q-33.5 35 -33.5 97q0 18 3 36l54 378h140l-50 -358q-2 -20 -2 -27q0 -27 10 -37.5t31 -10.5q31 0 59.5 25.5t56.5 67.5l48 340h140l-74 -530h-122l5 83q-37 -48 -79 -73.5t-91 -25.5q-62 0 -95.5 35zM163 621q16 72 66 116.5t122 44.5q73 0 111.5 -46.5
t34.5 -118.5l-81 -11q-9 76 -74 76q-68 0 -99 -79z" />
    <glyph glyph-name="Scommaaccent" unicode="&#x218;" horiz-adv-x="557" 
d="M559 619l-80 -79q-31 30 -65.5 44t-75.5 14q-50 0 -81.5 -23t-31.5 -63q0 -22 10.5 -37t35.5 -28t73 -29q88 -28 133 -73t45 -122q0 -61 -30 -115.5t-95 -89t-165 -34.5q-81 0 -142 27t-102 72l85 84q33 -34 72.5 -51.5t90.5 -17.5q61 0 97 28t36 76q0 37 -24.5 59
t-88.5 44q-97 33 -140 77.5t-43 113.5q0 54 29.5 102.5t88.5 79t143 30.5q139 0 225 -89zM278 -88.5q19 -18.5 19 -46.5q0 -22 -8.5 -41.5t-29.5 -51.5l-57 -90h-72l46 117q-25 20 -25 51q0 35 22.5 57.5t55.5 22.5q30 0 49 -18.5z" />
    <glyph glyph-name="scommaaccent" unicode="&#x219;" horiz-adv-x="471" 
d="M373 528q48 -18 85 -49l-63 -79q-28 21 -61 32t-65 11q-38 0 -58.5 -13.5t-20.5 -36.5q0 -15 9.5 -25.5t30 -19.5t63.5 -23q71 -22 106 -60.5t35 -99.5q0 -52 -27 -93t-79.5 -64.5t-126.5 -23.5q-67 0 -123 23.5t-92 61.5l72 75q65 -56 145 -56q45 0 67.5 18t22.5 43
q0 20 -9 32t-30.5 22t-66.5 25q-71 24 -104 59.5t-33 92.5q0 44 25 82t74.5 61t119.5 23q56 0 104 -18zM234 -88.5q19 -18.5 19 -46.5q0 -22 -8.5 -41.5t-29.5 -51.5l-57 -90h-72l46 117q-25 20 -25 51q0 35 22.5 57.5t55.5 22.5q30 0 49 -18.5z" />
    <glyph glyph-name="uni021A" unicode="&#x21a;" horiz-adv-x="526" 
d="M584 692l-32 -115h-173l-81 -577h-145l81 577h-181l16 115h515zM266 -88.5q19 -18.5 19 -46.5q0 -22 -8.5 -41.5t-29.5 -51.5l-57 -90h-72l46 117q-25 20 -25 51q0 35 22.5 57.5t55.5 22.5q30 0 49 -18.5z" />
    <glyph glyph-name="uni021B" unicode="&#x21b;" horiz-adv-x="371" 
d="M207 167q-2 -20 -2 -25q0 -24 10 -34t30 -10q26 0 64 18l38 -93q-31 -19 -67.5 -29t-70.5 -10q-71 0 -108.5 37.5t-37.5 107.5q0 18 3 39l37 261h-78l14 101h84l33 119l119 14l-18 -133h122l-29 -101h-107zM237 -88.5q19 -18.5 19 -46.5q0 -22 -8.5 -41.5t-29.5 -51.5
l-57 -90h-72l46 117q-25 20 -25 51q0 35 22.5 57.5t55.5 22.5q30 0 49 -18.5z" />
    <glyph glyph-name="uni021C" unicode="&#x21c;" horiz-adv-x="509" 
d="M440.5 661q54.5 -47 54.5 -123q0 -70 -44 -115.5t-127 -64.5q68 -4 108 -40t40 -100q0 -128 -127.5 -210.5t-326.5 -118.5v109q146 37 223.5 87.5t77.5 134.5q0 42 -27.5 61.5t-86.5 19.5h-71l31 108h55q57 0 91 31.5t34 85.5q0 73 -81 73q-72 0 -151 -58l-63 78
q107 89 239 89q97 0 151.5 -47z" />
    <glyph glyph-name="uni021D" unicode="&#x21d;" horiz-adv-x="481" 
d="M388.5 509q52.5 -37 52.5 -104q0 -99 -131 -133q59 0 91.5 -26t32.5 -71q0 -103 -112 -174t-300 -109l-4 98q136 40 203 83t67 99q0 24 -16.5 34t-47.5 10h-99l22 95h53q44 0 71 20.5t27 59.5q0 28 -18 41.5t-50 13.5q-35 0 -64 -9.5t-65 -29.5l-54 79q48 31 97.5 45.5
t106.5 14.5q85 0 137.5 -37z" />
    <glyph glyph-name="uni021E" unicode="&#x21e;" horiz-adv-x="660" 
d="M180 0h-145l97 692h146l-39 -273h224l39 273h145l-97 -692h-145l42 303h-224zM550 935l46 -60l-155 -124h-86l-122 124l58 60l117 -83z" />
    <glyph glyph-name="uni021F" unicode="&#x21f;" horiz-adv-x="571" 
d="M492.5 512q32.5 -34 32.5 -95q0 -22 -2 -34l-54 -383h-140l50 355q2 20 2 26q0 27 -9.5 37.5t-27.5 10.5q-64 0 -132 -131l-41 -298h-140l104 741l142 15l-45 -317q30 49 74.5 78t95.5 29q58 0 90.5 -34zM511 984l46 -60l-155 -124h-86l-122 124l58 60l117 -83z" />
    <glyph glyph-name="uni0220" unicode="&#x220;" horiz-adv-x="647" 
d="M577.5 665q41.5 -43 41.5 -115q0 -18 -3 -36l-100 -722h-145l98 706q2 22 2 30q0 35 -16 51.5t-50 16.5q-40 0 -73.5 -18t-77.5 -56l-74 -522h-145l97 692h127l2 -66q47 42 93 62t103 20q79 0 120.5 -43z" />
    <glyph glyph-name="uni0221" unicode="&#x221;" horiz-adv-x="767" 
d="M728 213q30 -27 30 -72q0 -74 -57 -115.5t-145 -41.5q-29 0 -57 5l-42 -71l-68 30l42 67q-44 27 -62 76q-72 -107 -170 -107q-82 0 -124.5 56.5t-42.5 156.5q0 80 26.5 160t84 134.5t145.5 54.5q37 0 68 -15t53 -40l37 265l138 -15l-81 -577q-2 -13 -2 -32l2 3
q28 52 63 78.5t84 26.5q48 0 78 -27zM395 396q-16 23 -35 34t-46 11q-49 0 -79.5 -39.5t-43.5 -96.5t-13 -111q0 -56 17 -80t49 -24q33 0 62.5 27t60.5 76zM637 102q21 13 21 36q0 22 -24 22q-19 0 -35 -15t-42 -55q7 -1 25 -1q34 0 55 13z" />
    <glyph glyph-name="uni0222" unicode="&#x222;" horiz-adv-x="641" 
d="M487 392q54 -21 82.5 -59.5t28.5 -93.5q0 -72 -39 -130t-110 -91.5t-163 -33.5q-81 0 -139 27t-88 73t-30 104q0 74 43 126.5t119 78.5q-74 39 -74 126q0 9 2 31l20 142h145l-21 -150q-3 -16 -3 -30q0 -36 20 -53.5t63 -17.5q101 0 115 105l21 146h146l-21 -146
q-16 -109 -117 -154zM406 133.5q41 38.5 41 103.5q0 46 -28.5 71.5t-85.5 25.5q-69 0 -110.5 -39t-41.5 -103q0 -47 28.5 -72t84.5 -25q71 0 112 38.5z" />
    <glyph glyph-name="uni0223" unicode="&#x223;" horiz-adv-x="570" 
d="M502 471.5q-27 -36.5 -71 -58.5q97 -40 97 -154q0 -77 -36 -140t-100 -99t-144 -36q-105 0 -162 56t-57 146q0 82 39 140.5t110 85.5q-64 37 -64 116q0 21 2 32l26 181h139l-29 -204q-2 -16 -2 -24q0 -59 59 -59q37 0 59 23.5t27 63.5l28 200h139l-26 -185
q-7 -48 -34 -84.5zM352.5 140q31.5 50 31.5 121q0 49 -20.5 73t-63.5 24q-62 0 -94.5 -51.5t-32.5 -120.5q0 -96 83 -96q65 0 96.5 50z" />
    <glyph glyph-name="uni0224" unicode="&#x224;" horiz-adv-x="526" 
d="M541 579l-370 -460h301l-18 -119l-6 -44q-15 -87 -67.5 -131.5t-134.5 -44.5q-75 0 -130 43l58 84q17 -11 31.5 -15.5t35.5 -4.5q57 0 67 68l7 45h-333l15 112l376 464h-277l16 116h444z" />
    <glyph glyph-name="uni0225" unicode="&#x225;" horiz-adv-x="441" 
d="M445 428l-279 -318h230l-15 -110l-5 -42q-12 -88 -64.5 -133t-134.5 -45q-77 0 -130 43l58 83q18 -11 32 -15.5t33 -4.5q29 0 48 16.5t23 49.5l7 48h-271l13 102l280 319h-213l16 109h385z" />
    <glyph glyph-name="uni0226" unicode="&#x226;" horiz-adv-x="577" 
d="M396 0l-17 155h-215l-60 -155h-151l307 692h177l112 -692h-153zM206 264h161l-35 326zM309 784q-21 21 -21 53q0 40 27 66t67 26q35 0 56 -20.5t21 -53.5q0 -40 -27 -66t-67 -26q-35 0 -56 21z" />
    <glyph glyph-name="uni0227" unicode="&#x227;" horiz-adv-x="571" 
d="M540 493l-50 -348q-2 -18 -2 -24q0 -16 6.5 -25.5t22.5 -16.5l-40 -93q-98 10 -116 88q-65 -90 -158 -90q-82 0 -127 56.5t-45 152.5q0 83 31 164t98.5 135t170.5 54q110 0 209 -53zM242 405q-34 -38 -49.5 -95.5t-15.5 -116.5q0 -103 68 -103q31 0 57 20t53 59l38 262
q-29 12 -65 12q-52 0 -86 -38zM305 658q-21 21 -21 53q0 40 27 66t67 26q35 0 56 -20.5t21 -53.5q0 -40 -27 -66t-67 -26q-35 0 -56 21z" />
    <glyph glyph-name="uni0228" unicode="&#x228;" horiz-adv-x="520" 
d="M262 584l-25 -179h214l-13 -106h-215l-27 -191h264l-16 -108h-163l-8 -50q44 -4 66.5 -27t22.5 -60q0 -29 -16 -56.5t-51 -45.5t-88 -18q-61 0 -103 31l42 64q27 -15 62 -15q23 0 36.5 9t13.5 26q0 19 -18.5 26t-66.5 7l27 109h-165l97 692h407l-30 -108h-247z" />
    <glyph glyph-name="uni0229" unicode="&#x229;" horiz-adv-x="529" 
d="M422.5 255.5q-93.5 -46.5 -247.5 -61.5q5 -103 99 -103q35 0 67 12t70 37l52 -86q-83 -60 -174 -68l-6 -36q43 -4 66 -27.5t23 -60.5q0 -30 -16.5 -57t-51 -44.5t-85.5 -17.5q-63 0 -105 31l42 65q27 -16 61 -16q23 0 37 9t14 26q1 19 -18 26t-67 7l24 97
q-85 13 -129.5 70.5t-44.5 147.5q0 80 30 158t96 130t168 52q90 0 139.5 -40.5t49.5 -102.5q0 -101 -93.5 -147.5zM327.5 321.5q46.5 29.5 46.5 75.5q0 21 -13.5 36t-43.5 15q-57 0 -90 -47t-45 -117q99 8 145.5 37.5z" />
    <glyph glyph-name="uni022A" unicode="&#x22a;" horiz-adv-x="682" 
d="M592.5 634q68.5 -74 68.5 -209q0 -104 -35 -204.5t-115 -168.5t-206 -68q-124 0 -192.5 74t-68.5 208q0 103 35 204t115.5 169.5t206.5 68.5q123 0 191.5 -74zM274 542q-44 -56 -62 -134t-18 -151q0 -85 30.5 -123.5t89.5 -38.5q74 0 118 56t61.5 134t17.5 152
q0 84 -30 122.5t-90 38.5q-73 0 -117 -56zM246 764.5q-19 18.5 -19 47.5q0 35 24 58t60 23q31 0 50 -18t19 -47q0 -35 -24.5 -58.5t-59.5 -23.5q-31 0 -50 18.5zM470 764.5q-19 18.5 -19 47.5q0 35 24 58t60 23q31 0 49.5 -18t18.5 -47q0 -35 -24.5 -58.5t-59.5 -23.5
q-30 0 -49 18.5zM575 932h-293l13 100h294z" />
    <glyph glyph-name="uni022B" unicode="&#x22b;" horiz-adv-x="575" 
d="M90 43.5q-57 59.5 -57 164.5q0 80 29 157.5t94.5 129t167.5 51.5q103 0 160 -59t57 -162q0 -80 -28 -158t-93 -130.5t-169 -52.5t-161 59.5zM365 167q31 76 32 165q0 56 -20.5 82t-61.5 26q-52 0 -82.5 -39.5t-42.5 -95t-12 -107.5q0 -55 20.5 -81t61.5 -26q74 0 105 76z
M172 625.5q-19 18.5 -19 47.5q0 35 24 58t60 23q31 0 50 -18t19 -47q0 -35 -24.5 -58.5t-59.5 -23.5q-31 0 -50 18.5zM396 625.5q-19 18.5 -19 47.5q0 35 24 58t60 23q31 0 49.5 -18t18.5 -47q0 -35 -24.5 -58.5t-59.5 -23.5q-30 0 -49 18.5zM500 799h-293l13 100h294z" />
    <glyph glyph-name="uni022C" unicode="&#x22c;" horiz-adv-x="682" 
d="M574 935h-293l13 100h294zM433.5 763q-15.5 7 -34.5 20q-13 9 -21.5 13.5t-17.5 4.5q-18 0 -31 -11t-30 -35l-68 39q26 49 61 79.5t74 30.5q22 0 37 -7t34 -21q12 -9 20 -13.5t17 -4.5q16 0 29.5 10.5t30.5 34.5l68 -39q-26 -50 -61 -79t-72 -29q-20 0 -35.5 7z
M592.5 634q68.5 -74 68.5 -209q0 -104 -35 -204.5t-115 -168.5t-206 -68q-124 0 -192.5 74t-68.5 208q0 103 35 204t115.5 169.5t206.5 68.5q123 0 191.5 -74zM274 542q-44 -56 -62 -134t-18 -151q0 -85 30.5 -123.5t89.5 -38.5q74 0 118 56t61.5 134t17.5 152
q0 84 -30 122.5t-90 38.5q-73 0 -117 -56z" />
    <glyph glyph-name="uni022D" unicode="&#x22d;" horiz-adv-x="575" 
d="M90 43.5q-57 59.5 -57 164.5q0 80 29 157.5t94.5 129t167.5 51.5q103 0 160 -59t57 -162q0 -80 -28 -158t-93 -130.5t-169 -52.5t-161 59.5zM365 167q31 76 32 165q0 56 -20.5 82t-61.5 26q-52 0 -82.5 -39.5t-42.5 -95t-12 -107.5q0 -55 20.5 -81t61.5 -26q74 0 105 76z
M344.5 601q-15.5 7 -34.5 20q-13 9 -21.5 13.5t-17.5 4.5q-18 0 -31 -11t-30 -35l-68 39q26 49 61 79.5t74 30.5q22 0 37 -7t34 -21q12 -9 20 -13.5t17 -4.5q16 0 29.5 10.5t30.5 34.5l68 -39q-26 -50 -61 -79t-72 -29q-20 0 -35.5 7zM489 775h-293l13 100h294z" />
    <glyph glyph-name="uni022E" unicode="&#x22e;" horiz-adv-x="682" 
d="M592.5 634q68.5 -74 68.5 -209q0 -104 -35 -204.5t-115 -168.5t-206 -68q-124 0 -192.5 74t-68.5 208q0 103 35 204t115.5 169.5t206.5 68.5q123 0 191.5 -74zM274 542q-44 -56 -62 -134t-18 -151q0 -85 30.5 -123.5t89.5 -38.5q74 0 118 56t61.5 134t17.5 152
q0 84 -30 122.5t-90 38.5q-73 0 -117 -56zM363 784q-21 21 -21 53q0 40 27 66t67 26q35 0 56 -20.5t21 -53.5q0 -40 -27 -66t-67 -26q-35 0 -56 21z" />
    <glyph glyph-name="uni022F" unicode="&#x22f;" horiz-adv-x="575" 
d="M90 43.5q-57 59.5 -57 164.5q0 80 29 157.5t94.5 129t167.5 51.5q103 0 160 -59t57 -162q0 -80 -28 -158t-93 -130.5t-169 -52.5t-161 59.5zM365 167q31 76 32 165q0 56 -20.5 82t-61.5 26q-52 0 -82.5 -39.5t-42.5 -95t-12 -107.5q0 -55 20.5 -81t61.5 -26q74 0 105 76z
M283 658q-21 21 -21 53q0 40 27 66t67 26q35 0 56 -20.5t21 -53.5q0 -40 -27 -66t-67 -26q-35 0 -56 21z" />
    <glyph glyph-name="uni0230" unicode="&#x230;" horiz-adv-x="682" 
d="M592.5 634q68.5 -74 68.5 -209q0 -104 -35 -204.5t-115 -168.5t-206 -68q-124 0 -192.5 74t-68.5 208q0 103 35 204t115.5 169.5t206.5 68.5q123 0 191.5 -74zM274 542q-44 -56 -62 -134t-18 -151q0 -85 30.5 -123.5t89.5 -38.5q74 0 118 56t61.5 134t17.5 152
q0 84 -30 122.5t-90 38.5q-73 0 -117 -56zM352 758q-21 21 -21 53q0 40 27 66t67 26q35 0 56 -20.5t21 -53.5q0 -40 -27 -66t-67 -26q-35 0 -56 21zM580 932h-293l13 100h294z" />
    <glyph glyph-name="uni0231" unicode="&#x231;" horiz-adv-x="575" 
d="M90 43.5q-57 59.5 -57 164.5q0 80 29 157.5t94.5 129t167.5 51.5q103 0 160 -59t57 -162q0 -80 -28 -158t-93 -130.5t-169 -52.5t-161 59.5zM365 167q31 76 32 165q0 56 -20.5 82t-61.5 26q-52 0 -82.5 -39.5t-42.5 -95t-12 -107.5q0 -55 20.5 -81t61.5 -26q74 0 105 76z
M274 618q-21 21 -21 53q0 40 27 66t67 26q35 0 56 -20.5t21 -53.5q0 -40 -27 -66t-67 -26q-35 0 -56 21zM501 795h-293l13 100h294z" />
    <glyph glyph-name="uni0232" unicode="&#x232;" horiz-adv-x="574" 
d="M639 692l-279 -431l-37 -261h-146l37 260l-159 432h156l91 -314l181 314h156zM510 784h-293l13 100h294z" />
    <glyph glyph-name="uni0233" unicode="&#x233;" horiz-adv-x="502" 
d="M306 -3q-45 -100 -122 -154.5t-195 -62.5l-4 102q77 10 117 36t72 82h-50l-89 530h147l44 -435l170 435h147zM454 658h-293l13 100h294z" />
    <glyph glyph-name="uni0234" unicode="&#x234;" horiz-adv-x="453" 
d="M414.5 213q30.5 -27 30.5 -72q0 -74 -57.5 -115.5t-145.5 -41.5q-28 0 -58 5l-41 -71l-67 30l39 64q-67 40 -67 126q0 22 2 33l81 570l141 16l-84 -602q-2 -18 -2 -24q33 56 67.5 82.5t82.5 26.5t78.5 -27zM323 102q21 13 21 36q0 22 -24 22q-19 0 -35 -14.5t-42 -55.5
q8 -1 25 -1q34 0 55 13z" />
    <glyph glyph-name="uni0235" unicode="&#x235;" horiz-adv-x="757" 
d="M718 213q30 -27 30 -72q0 -74 -57 -115.5t-145 -41.5q-28 0 -58 5l-41 -71l-68 30l40 65q-66 40 -66 125q0 21 2 33l27 184q2 20 2 25q0 49 -40 49q-33 0 -66.5 -35.5t-64.5 -95.5l-41 -298h-140l74 530h121l-4 -96q35 52 82 82t99 30q57 0 89.5 -34t32.5 -95
q0 -16 -3 -36l-32 -226q-2 -17 -1 -24q31 56 66.5 82.5t83.5 26.5t78 -27zM627 102q21 13 21 36q0 10 -6.5 16t-17.5 6q-19 0 -35 -14.5t-42 -55.5q7 -1 25 -1q34 0 55 13z" />
    <glyph glyph-name="uni0236" unicode="&#x236;" horiz-adv-x="471" 
d="M431.5 213q30.5 -27 30.5 -73q0 -73 -57.5 -114.5t-144.5 -41.5q-30 0 -58 5l-41 -71l-68 30l39 65q-67 39 -67 127q0 9 2 31l36 258h-78l14 101h84l33 119l119 14l-19 -133h123l-29 -101h-108l-38 -274q-2 -19 -1 -27q33 59 68.5 85.5t82.5 26.5t77.5 -27zM341 102
q21 13 21 36q0 10 -6.5 16t-17.5 6q-19 0 -35.5 -15t-41.5 -55q7 -1 25 -1q34 0 55 13z" />
    <glyph glyph-name="uni0237" unicode="&#x237;" horiz-adv-x="277" 
d="M-93 -118q41 17 66.5 36t41.5 49.5t23 79.5l67 483h140l-67 -479q-11 -80 -42 -131.5t-77 -82.5t-116 -57z" />
    <glyph glyph-name="uni0238" unicode="&#x238;" horiz-adv-x="851" 
d="M780 492.5q39 -53.5 39 -151.5q0 -91 -29 -173t-83 -133t-127 -51q-78 0 -117 82l-19 -66h-108l1 72q-30 -43 -68 -65.5t-80 -22.5q-74 0 -115.5 56.5t-41.5 153.5q0 89 29.5 170t84.5 131.5t127 50.5q36 0 65.5 -17.5t48.5 -50.5l37 263l142 16l-40 -283q61 72 143 72
q72 0 111 -53.5zM292.5 109q25.5 19 51.5 61l30 216q-29 55 -74 55q-41 0 -68.5 -38.5t-40.5 -95t-13 -110.5q0 -58 16.5 -82.5t45.5 -24.5q27 0 52.5 19zM621 129.5q27 39.5 40 97t13 110.5q0 57 -16 80t-45 23t-53 -17t-47 -47l-31 -220q14 -35 30.5 -50.5t41.5 -15.5
q40 0 67 39.5z" />
    <glyph glyph-name="uni0239" unicode="&#x239;" horiz-adv-x="850" 
d="M779 493q40 -53 40 -147q0 -93 -28.5 -176t-83 -134.5t-127.5 -51.5q-35 0 -64.5 19.5t-47.5 60.5l-37 -268l-143 -16l39 279q-58 -75 -141 -75q-71 0 -113 56.5t-42 152.5q0 90 30 171.5t86 131.5t129 50q38 0 68.5 -19t50.5 -56l16 59h105l-1 -60q35 40 71.5 58
t78.5 18q74 0 114 -53zM342 166l30 215q-14 31 -31.5 45.5t-40.5 14.5q-41 0 -68.5 -39t-41 -96t-13.5 -111q0 -105 62 -105q53 0 103 76zM620.5 131q27.5 40 40.5 99t13 115q0 51 -15 73t-44 22q-26 0 -53 -18t-51 -49l-29 -210q12 -39 29 -55.5t41 -16.5q41 0 68.5 40z
" />
    <glyph glyph-name="uni023A" unicode="&#x23a;" horiz-adv-x="577" 
d="M410 0l-20 155h-120l-93 -228l-54 13l87 215h-55l-62 -155h-140l307 692h169l25 62l54 -13l-56 -139l97 -602h-139zM196 257h56l95 234l-14 110zM311 257h66l-16 123z" />
    <glyph glyph-name="uni023B" unicode="&#x23b;" horiz-adv-x="563" 
d="M396 115q33 15 72 43l58 -89q-99 -85 -222 -85q-40 0 -75 9l-27 -66l-54 13l29 72q-63 31 -98 97t-35 160q0 104 36.5 204.5t115 167.5t198.5 67q34 0 64 -6l21 52l54 -13l-22 -54q46 -20 84 -59l-79 -77q-25 20 -48 31l-193 -474q24 -8 49 -8q39 0 72 15zM229 140
l186 456q-6 1 -17 1q-72 0 -117.5 -52t-65.5 -128t-20 -150q0 -85 34 -127z" />
    <glyph glyph-name="uni023C" unicode="&#x23c;" horiz-adv-x="471" 
d="M321.5 107q24.5 9 56.5 29l53 -93q-85 -59 -179 -59q-29 0 -49 4l-25 -61l-51 13l26 62q-58 25 -89 78.5t-31 129.5t30.5 153.5t95.5 130t164 52.5q24 0 51 -5l24 58l50 -13l-25 -60q39 -18 66 -45l-70 -83q-22 19 -38 25l-132 -324q6 -1 20 -1q28 0 52.5 9zM202 123
l129 312h-7q-77 0 -110.5 -71t-33.5 -160q0 -54 22 -81z" />
    <glyph glyph-name="uni023D" unicode="&#x23d;" horiz-adv-x="517" 
d="M212 119h270l-32 -119h-400l43 307h-77l15 112h78l38 273h146l-39 -273h83l-15 -112h-83z" />
    <glyph glyph-name="uni023E" unicode="&#x23e;" horiz-adv-x="526" 
d="M553 581h-90l-123 -227l-49 -354h-130l4 29l-55 -102l-44 20l118 219l58 415h-188l15 111h400l33 62l43 -20l-23 -42h62zM359 490l50 91h-37z" />
    <glyph glyph-name="uni023F" unicode="&#x23f;" horiz-adv-x="479" 
d="M408 264.5q35 -38.5 35 -99.5q0 -51 -27.5 -92.5t-76 -65t-107.5 -23.5q-27 0 -54 6q24 -12 38.5 -26t32.5 -36t31 -31.5t36 -9.5q28 0 55 11l22 -89q-42 -28 -104 -28q-43 0 -72.5 16.5t-48 41.5t-44.5 71q-31 54 -58.5 90.5t-70.5 68.5l62 74q39 -26 76 -40.5t81 -14.5
q43 0 65.5 18t22.5 43q0 20 -9 32t-30.5 22t-67.5 25q-71 24 -103.5 59.5t-32.5 92.5q0 44 25 82t74.5 61t118.5 23q56 0 104 -18t85 -49l-62 -79q-29 21 -61.5 32t-64.5 11q-38 0 -58.5 -13.5t-20.5 -36.5q0 -15 9 -25.5t30 -19.5t64 -23q71 -22 106 -60.5z" />
    <glyph glyph-name="uni0240" unicode="&#x240;" horiz-adv-x="445" 
d="M-10 102l285 319h-218l16 109h385l-13 -102l-323 -356q48 -15 74 -43t52 -73q21 -36 38 -52.5t44 -16.5q17 0 29 2.5t28 8.5l22 -91q-46 -26 -103 -26q-41 0 -68.5 13t-44 32.5t-37.5 53.5q-23 36 -42.5 58.5t-53 40t-83.5 21.5z" />
    <glyph glyph-name="uni0241" unicode="&#x241;" horiz-adv-x="499" 
d="M159 328l60 16q70 20 105.5 59.5t35.5 103.5q0 44 -22.5 68t-66.5 24q-39 0 -74.5 -15t-73.5 -45l-64 80q51 44 108 66.5t127 22.5q101 0 159.5 -51.5t58.5 -139.5q0 -179 -187 -232l-27 -8l-39 -277h-145z" />
    <glyph glyph-name="uni0242" unicode="&#x242;" horiz-adv-x="456" 
d="M106 201l57 16q63 19 95 52.5t32 87.5q0 38 -20.5 59.5t-58.5 21.5q-34 0 -61.5 -12.5t-60.5 -37.5l-61 78q47 40 96 60t110 20q60 0 105.5 -23t70 -64t24.5 -94q0 -80 -42.5 -132t-121.5 -74l-31 -8l-21 -151h-140z" />
    <glyph glyph-name="uni0243" unicode="&#x243;" horiz-adv-x="617" 
d="M542.5 321q37.5 -33 37.5 -101q0 -100 -75 -160t-245 -60h-214l24 174h-70l12 77h69l62 441h200q119 0 185.5 -37.5t66.5 -119.5q0 -69 -43.5 -111.5t-109.5 -57.5q63 -12 100.5 -45zM273 586l-24 -175h69q62 0 94.5 29.5t32.5 80.5q0 36 -25.5 50.5t-74.5 14.5h-72z
M395.5 140.5q34.5 31.5 34.5 89.5q0 81 -112 81h-83l-8 -60h124l-11 -77h-124l-9 -65h65q89 0 123.5 31.5z" />
    <glyph glyph-name="uni0244" unicode="&#x244;" horiz-adv-x="681" 
d="M692 502h-60l-38 -276q-10 -71 -47 -125.5t-99.5 -85.5t-145.5 -31q-114 0 -172.5 54.5t-58.5 147.5q0 22 3 44l38 272h-58l12 86h58l15 104h146l-15 -104h229l15 104h145l-15 -104h60zM487 502h-229l-38 -269q-3 -22 -3 -40q0 -49 23 -72.5t72 -23.5q61 0 94 34.5
t43 105.5z" />
    <glyph glyph-name="uni0245" unicode="&#x245;" horiz-adv-x="577" 
d="M437 692l112 -692h-151l-65 582l-226 -582h-154l307 692h177z" />
    <glyph glyph-name="uni0246" unicode="&#x246;" horiz-adv-x="520" 
d="M509 584h-53l-73 -179h68l-13 -106h-98l-77 -191h197l-16 -108h-225l-30 -73l-54 13l24 60h-124l97 692h308l25 62l55 -13l-20 -49h39zM324 405l72 179h-134l-25 -179h87zM203 108l78 191h-58l-27 -191h7z" />
    <glyph glyph-name="uni0247" unicode="&#x247;" horiz-adv-x="529" 
d="M447.5 271q-68.5 -46 -184.5 -65l-43 -105q21 -10 54 -10q35 0 67 12t70 37l52 -86q-97 -70 -206 -70q-42 0 -80 10l-28 -67l-51 13l30 74q-47 27 -71 76.5t-24 115.5q0 80 30 158t96 130t168 52q13 0 20 -1l22 54l50 -13l-20 -48q57 -15 87 -51.5t30 -83.5
q0 -86 -68.5 -132zM218 396.5q-32 -48.5 -42 -117.5q27 1 64 7l69 166q-59 -7 -91 -55.5zM361 444l-58 -142q80 30 80 97q0 31 -22 45zM204 197l-34 -3q1 -30 11 -52z" />
    <glyph glyph-name="uni0248" unicode="&#x248;" horiz-adv-x="325" 
d="M324 287h-80l-26 -186q-11 -80 -45.5 -131.5t-83.5 -81t-116 -50.5l-27 106q46 17 71.5 39.5t37.5 52t18 75.5l25 176h-80l15 112h81l41 293h146l-41 -293h79z" />
    <glyph glyph-name="uni0249" unicode="&#x249;" horiz-adv-x="331" 
d="M313 201h-82l-21 -150q-11 -80 -42 -131.5t-77 -82.5t-116 -57l-36 102q41 17 66.5 36t41.5 49.5t23 79.5l21 154h-84l14 101h84l32 228h140l-32 -228h82zM171 658q-21 21 -21 53q0 40 27 66t67 26q35 0 56 -20.5t21 -53.5q0 -40 -27 -66t-67 -26q-35 0 -56 21z" />
    <glyph glyph-name="uni024A" unicode="&#x24a;" horiz-adv-x="666" 
d="M703 -180q-60 -40 -136 -40q-78 0 -122.5 38t-44.5 110q0 16 3 36l5 36l6 42q-61 -58 -151 -58q-101 0 -161 71.5t-60 199.5q0 114 39.5 218.5t113 169.5t168.5 65q47 0 82 -16.5t63 -45.5l13 46h130l-97 -692l-7 -49q-1 -6 -1 -17q0 -45 44 -45q22 0 37 5t37 16z
M428 143l57 408q-20 24 -45 35.5t-60 11.5q-62 0 -104.5 -53t-63 -133.5t-20.5 -162.5q0 -84 29 -120.5t83 -36.5q67 0 124 51z" />
    <glyph glyph-name="uni024B" unicode="&#x24b;" horiz-adv-x="575" 
d="M513 -102l18 -101q-39 -17 -90 -17q-57 0 -88.5 30t-31.5 85q0 20 2 31l11 75l7 49q-21 -26 -58 -46t-81 -20q-82 0 -126.5 56t-44.5 153q0 85 31 165.5t99 134t171 53.5q111 0 211 -53l-69 -492l-11 -75q-1 -4 -1 -11q0 -12 5 -17t16 -5q12 0 30 5zM303.5 110
q25.5 20 52.5 59l39 262q-17 7 -31.5 9.5t-34.5 2.5q-52 0 -86 -38t-50 -95.5t-16 -116.5q0 -103 71 -103q30 0 55.5 20z" />
    <glyph glyph-name="uni024C" unicode="&#x24c;" horiz-adv-x="617" 
d="M569.5 384.5q-36.5 -55.5 -125.5 -89.5l133 -295h-160l-109 271h-78l-37 -271h-146l38 271h-71l14 104h72l44 317h213q123 0 186 -47t63 -134q0 -71 -36.5 -126.5zM323 375q70 0 101 38.5t31 91.5q0 43 -27 62t-86 19h-68l-29 -211h78z" />
    <glyph glyph-name="uni024D" unicode="&#x24d;" horiz-adv-x="411" 
d="M449 537l-40 -138q-22 7 -45 7q-41 0 -71 -31.5t-53 -90.5h80l-15 -101h-86l-26 -183h-140l26 183h-80l15 101h79l34 246h121l-3 -101q28 57 67.5 86.5t83.5 29.5q27 0 53 -8z" />
    <glyph glyph-name="uni024E" unicode="&#x24e;" horiz-adv-x="575" 
d="M640 692l-52 -80h41l-12 -87h-85l-171 -264l-37 -261h-146l37 260l-98 265h-82l12 87h38l-29 80h146l25 -80h219l47 80h147zM302 369l92 156h-140z" />
    <glyph glyph-name="uni024F" unicode="&#x24f;" horiz-adv-x="528" 
d="M495 393h42l-13 -92h-70l-135 -304q-45 -100 -122 -154.5t-195 -62.5l-4 102q77 10 117 36t72 82h-50l-51 301h-71l13 92h43l-23 137h147l14 -137h146l54 137h147zM239 95l81 206h-102z" />
    <glyph glyph-name="uni0250" unicode="&#x250;" horiz-adv-x="535" 
d="M191 175q-2 -18 -2 -25q0 -33 17 -46.5t60 -13.5q58 0 141 27l26 -95q-100 -38 -196 -38q-188 0 -188 149q0 18 3 39l30 214q2 16 2 22q0 17 -6.5 27t-22.5 17l40 93q45 -5 72 -22.5t38 -54.5q61 78 165 78q71 0 111.5 -39.5t40.5 -105.5q0 -97 -73.5 -147t-192.5 -50
h-61zM219 382l-13 -97h43q63 0 97 26.5t34 77.5q0 27 -14.5 41t-41.5 14q-62 0 -105 -62z" />
    <glyph glyph-name="uni0251" unicode="&#x251;" horiz-adv-x="571" 
d="M488 121q0 -16 6.5 -25.5t22.5 -16.5l-40 -93q-98 10 -116 88q-65 -90 -157 -90q-84 0 -128.5 56.5t-44.5 153.5q0 87 33 168.5t93.5 132.5t139.5 51q44 0 74.5 -17t48.5 -54l24 55h102l-56 -385q-2 -18 -2 -24zM387 379q-13 34 -33 49t-48 15q-41 0 -70.5 -35.5
t-44 -92.5t-14.5 -121q0 -104 69 -104q30 0 56 20t53 59z" />
    <glyph glyph-name="uni0252" unicode="&#x252;" horiz-adv-x="571" 
d="M495.5 489.5q44.5 -56.5 44.5 -153.5q0 -87 -33 -168.5t-93.5 -132.5t-139.5 -51q-44 0 -74.5 17t-48.5 54l-24 -55h-102l56 385q2 18 2 24q0 16 -6.5 25.5t-22.5 16.5l40 93q98 -10 116 -88q65 90 157 90q84 0 128.5 -56.5zM335.5 122.5q29.5 35.5 44 92.5t14.5 121
q0 104 -69 104q-30 0 -56 -20t-53 -59l-32 -210q13 -34 33 -49t48 -15q41 0 70.5 35.5z" />
    <glyph glyph-name="uni0253" unicode="&#x253;" horiz-adv-x="581" 
d="M506.5 492.5q41.5 -53.5 41.5 -153.5q0 -86 -28 -166.5t-96 -134.5t-179 -54q-54 0 -104 10.5t-106 31.5l71 503h-1l8 56q11 77 66 124.5t146 47.5q73 0 136 -33l-49 -93q-37 19 -80 19q-37 0 -55.5 -17.5t-23.5 -55.5l-7 -48l-6 -46q30 30 68 46.5t78 16.5
q79 0 120.5 -53.5zM341.5 128.5q32.5 38.5 47.5 95.5t15 115q0 55 -18.5 78t-52.5 23q-56 0 -109 -65l-38 -272q35 -13 73 -13q50 0 82.5 38.5z" />
    <glyph glyph-name="uni0254" unicode="&#x254;" horiz-adv-x="468" 
d="M50.5 -0.5q-39.5 15.5 -72.5 45.5l72 81q23 -19 44.5 -27t50.5 -8q73 0 108.5 70t35.5 162q0 62 -21 89.5t-65 27.5q-53 0 -109 -37l-53 83q79 60 181 60q101 0 156.5 -58.5t55.5 -164.5q0 -97 -35 -174t-100.5 -121t-154.5 -44q-54 0 -93.5 15.5z" />
    <glyph glyph-name="uni0255" unicode="&#x255;" horiz-adv-x="494" 
d="M431 222q31 -28 31 -78q0 -76 -57.5 -118t-145.5 -42q-33 0 -71 8l-43 -74l-67 30l43 74q-43 27 -65.5 75t-22.5 114q0 76 30.5 153.5t96 129.5t163.5 52q99 0 166 -65l-70 -83q-22 20 -44.5 28.5t-50.5 8.5q-77 0 -110.5 -70t-33.5 -161q0 -42 11 -67q33 60 70.5 86.5
t87.5 26.5q51 0 82 -28zM340.5 103.5q20.5 14.5 20.5 40.5q0 12 -7 18.5t-20 6.5q-22 0 -42 -17t-45 -58q15 -5 38 -5q35 0 55.5 14.5z" />
    <glyph glyph-name="uni0256" unicode="&#x256;" horiz-adv-x="592" 
d="M634 -180q-62 -40 -138 -40t-119.5 38.5t-43.5 111.5q0 23 2 35l5 35l11 71q-24 -38 -63 -62.5t-89 -24.5q-82 0 -124.5 56.5t-42.5 156.5q0 80 26.5 160t84 134.5t145.5 54.5q37 0 68 -15t53 -40l37 265l138 -15l-104 -741l-7 -52q-1 -5 -1 -14q0 -26 12 -37t36 -11
q21 0 36.5 4.5t37.5 15.5zM307 117q29 27 60 76l28 203q-16 23 -35 34t-46 11q-49 0 -79.5 -39.5t-43.5 -96.5t-13 -111q0 -56 17 -80t49 -24q34 0 63 27z" />
    <glyph glyph-name="uni0257" unicode="&#x257;" horiz-adv-x="586" 
d="M745 718l-53 -87q-16 10 -30.5 14.5t-33.5 4.5q-56 0 -66 -66l-8 -54l-74 -530h-124l1 78q-29 -43 -68.5 -68.5t-89.5 -25.5q-82 0 -124.5 56.5t-42.5 156.5q0 80 26.5 160t84 134.5t145.5 54.5q37 0 68 -15t53 -40l5 39l8 52q11 81 62.5 128t134.5 47q71 0 126 -39z
M395 396q-16 23 -35 34t-46 11q-49 0 -79.5 -39.5t-43.5 -96.5t-13 -111q0 -56 17 -80t49 -24q34 0 63 27t60 76z" />
    <glyph glyph-name="uni0258" unicode="&#x258;" horiz-adv-x="532" 
d="M442.5 481q54.5 -65 53.5 -168q1 -94 -34 -169t-100.5 -117.5t-155.5 -42.5q-116 0 -195 72l67 79q30 -23 59.5 -33.5t68.5 -10.5q95 0 131 103q-139 8 -215 48t-76 125q0 51 28.5 91.5t79.5 64t116 23.5q118 0 172.5 -65zM229.5 309q39.5 -22 124.5 -26q2 28 2 43
q0 122 -89 122q-35 0 -56 -20.5t-21 -55.5q0 -41 39.5 -63z" />
    <glyph glyph-name="uni0259" unicode="&#x259;" horiz-adv-x="529" 
d="M438.5 486.5q57.5 -59.5 57.5 -162.5q0 -80 -30 -158t-96 -130t-168 -52q-90 0 -139.5 40.5t-49.5 102.5q0 101 93.5 147.5t247.5 61.5q-5 103 -99 103q-35 0 -67 -12t-70 -37l-52 86q97 70 206 70t166.5 -59.5zM302 129q33 47 45 117q-99 -8 -145.5 -37.5t-46.5 -75.5
q0 -21 13.5 -36t43.5 -15q57 0 90 47z" />
    <glyph glyph-name="uni025A" unicode="&#x25a;" horiz-adv-x="794" 
d="M819 344q-57 -36 -125 -36q-69 0 -103.5 33t-34.5 89l1 8l-71 -38q10 -33 10 -76q0 -80 -30 -158t-96 -130t-168 -52q-90 0 -139.5 40.5t-49.5 102.5q0 101 93.5 147.5t247.5 61.5q-5 103 -99 103q-35 0 -67 -12t-70 -37l-52 86q97 70 206 70q120 0 178 -72l114 56h119
l-8 -64q-1 -5 -1 -15q0 -41 43 -41q21 0 35.5 4.5t33.5 13.5zM302 129q33 47 45 117q-99 -8 -145.5 -37.5t-46.5 -75.5q0 -21 13.5 -36t43.5 -15q57 0 90 47z" />
    <glyph glyph-name="uni025B" unicode="&#x25b;" horiz-adv-x="486" 
d="M78 25.5q-57 41.5 -57 113.5q0 59 40 97.5t119 46.5q-102 26 -102 109q0 43 25 78t73 55.5t116 20.5q118 0 186 -64l-66 -71q-26 18 -51 26.5t-58 8.5q-41 0 -63.5 -18.5t-22.5 -48.5q0 -27 18 -42.5t53 -15.5h66l-28 -95h-55q-105 0 -105 -78q0 -28 22 -44t66 -16
q33 0 64 10.5t72 34.5l49 -83q-41 -31 -95.5 -48.5t-114.5 -17.5q-94 0 -151 41.5z" />
    <glyph glyph-name="uni025C" unicode="&#x25c;" horiz-adv-x="488" 
d="M394 510q52 -36 52 -99q0 -48 -33.5 -82t-96.5 -47q59 -7 90.5 -38.5t31.5 -81.5q0 -47 -26 -87.5t-81.5 -65.5t-139.5 -25q-125 0 -205 66l69 80q32 -22 64 -32t69 -10q53 0 79 21.5t26 56.5q0 60 -92 60h-80l22 95h57q50 0 76.5 20t26.5 52q0 27 -18 40t-50 13
q-36 0 -64 -9.5t-64 -29.5l-55 79q91 60 210 60q80 0 132 -36z" />
    <glyph glyph-name="uni025D" unicode="&#x25d;" horiz-adv-x="749" 
d="M774 344q-57 -36 -125 -36q-69 0 -103.5 33t-34.5 89l1 8l-66 -35q-3 -45 -36.5 -77t-93.5 -44q59 -7 90.5 -38.5t31.5 -81.5q0 -47 -26 -87.5t-81.5 -65.5t-139.5 -25q-125 0 -205 66l69 80q32 -22 64 -32t69 -10q53 0 79 21.5t26 56.5q0 60 -92 60h-80l22 95h57
q50 0 76.5 20t26.5 52q0 27 -18 40t-50 13q-36 0 -64 -9.5t-64 -29.5l-55 79q91 60 210 60q53 0 95 -16.5t65 -46.5l97 47h119l-8 -64q-1 -5 -1 -15q0 -41 43 -41q21 0 35.5 4.5t33.5 13.5z" />
    <glyph glyph-name="uni025E" unicode="&#x25e;" horiz-adv-x="562" 
d="M91 41.5q-58 57.5 -58 163.5q0 98 36 175.5t103 121.5t158 44q82 0 136 -38t54 -99q0 -49 -33 -81.5t-97 -45.5q59 -7 90.5 -38.5t31.5 -81.5q0 -47 -26.5 -87.5t-83 -65.5t-141.5 -25q-112 0 -170 57.5zM343.5 110q25.5 22 25.5 58q0 31 -23.5 44.5t-70.5 13.5h-28
l22 95h5q52 0 78.5 20.5t26.5 52.5q0 25 -16 38.5t-47 13.5q-49 0 -81.5 -37t-47 -93.5t-14.5 -114.5q0 -61 21.5 -87t70.5 -26q53 0 78.5 22z" />
    <glyph glyph-name="uni025F" unicode="&#x25f;" horiz-adv-x="331" 
d="M313 201h-82l-21 -150q-11 -80 -42 -131.5t-77 -82.5t-116 -57l-36 102q41 17 66.5 36t41.5 49.5t23 79.5l21 154h-84l14 101h84l32 228h140l-32 -228h82z" />
    <glyph glyph-name="uni0260" unicode="&#x260;" horiz-adv-x="583" 
d="M742 718l-53 -87q-16 10 -30.5 14.5t-33.5 4.5q-56 0 -66 -66l-8 -54h1l-73 -496q-20 -135 -85.5 -195t-185.5 -60q-48 0 -100.5 15t-94.5 41l48 96q76 -42 144 -42q54 0 89 26.5t46 101.5l8 55q-29 -33 -65 -52.5t-77 -19.5q-84 0 -129 55t-45 149q0 82 31 160.5
t98.5 130t168.5 51.5q41 0 82 -11l7 47q11 81 62.5 128t134.5 47q71 0 126 -39zM361 186l36 246q-30 11 -64 11q-53 0 -88 -36t-51 -90t-16 -110q0 -100 70 -100q56 0 113 79z" />
    <glyph glyph-name="uni0261" unicode="&#x261;" horiz-adv-x="578" 
d="M546 493l-67 -459q-20 -135 -85.5 -195t-185.5 -60q-48 0 -100.5 15t-94.5 41l48 96q76 -42 144 -42q54 0 89 26.5t46 101.5l8 55q-29 -33 -65 -52.5t-78 -19.5q-82 0 -127.5 55.5t-45.5 148.5q0 82 31.5 160.5t99.5 130t173 51.5q111 0 210 -53zM245 407
q-35 -36 -51 -90t-16 -110q0 -100 70 -100q56 0 113 79l38 245q-31 12 -66 12q-53 0 -88 -36z" />
    <glyph glyph-name="uni0262" unicode="&#x262;" horiz-adv-x="553" 
d="M445.5 527.5q44.5 -18.5 82.5 -53.5l-78 -74q-27 22 -53.5 32t-59.5 10q-78 0 -118.5 -71t-40.5 -171q0 -60 22 -85.5t67 -25.5q43 0 82 16l14 107h-73l-1 96h220l-36 -262q-98 -60 -219 -60q-109 0 -165.5 54.5t-56.5 160.5q0 97 39 176t108 124t158 45
q64 0 108.5 -18.5z" />
    <glyph glyph-name="uni0263" unicode="&#x263;" horiz-adv-x="499" 
d="M294 76q23 -48 34 -83t11 -72q0 -68 -39.5 -104.5t-111.5 -36.5q-59 0 -91.5 28t-32.5 75q0 43 23.5 89.5t69.5 106.5l1 1l-123 450h150l53 -360l153 360h149l-245 -453zM216 -3q-45 -67 -45 -102q0 -24 24 -24q19 0 28.5 13.5t9.5 33.5q0 31 -17 79z" />
    <glyph glyph-name="uni0264" unicode="&#x264;" horiz-adv-x="551" 
d="M548 538q21 -8 42 -23l-50 -80q-8 4 -16 7t-18 3q-16 0 -27.5 -9t-26.5 -32l-114 -169q22 -38 32 -66.5t10 -59.5q0 -54 -36 -89.5t-104 -35.5q-54 0 -84.5 27.5t-30.5 71.5q0 37 20 74.5t59 81.5l-63 172q-7 19 -15 26.5t-22 7.5q-20 0 -40 -11l-32 84q46 28 96 28
q52 0 78.5 -29t43.5 -92l32 -105l64 112q34 61 67 87.5t85 26.5q29 0 50 -8zM263 170q-18 -24 -27 -41.5t-9 -33.5q0 -22 21 -22q14 0 22.5 9.5t8.5 26.5q0 24 -16 61z" />
    <glyph glyph-name="uni0265" unicode="&#x265;" horiz-adv-x="566" 
d="M339 86q-32 -46 -75.5 -74t-93.5 -28q-59 0 -92 35t-33 96q0 21 2 33l54 382h140l-50 -354q-2 -20 -2 -26q0 -49 37 -49q63 0 131 122l42 307h140l-103 -736l-140 -15z" />
    <glyph glyph-name="uni0266" unicode="&#x266;" horiz-adv-x="571" 
d="M492.5 512q32.5 -34 32.5 -95q0 -22 -2 -34l-54 -383h-140l52 355q2 10 2 27q0 26 -10 36.5t-28 10.5q-64 0 -132 -131l-42 -298h-140l75 529h-1l8 56q11 77 66 124.5t146 47.5q73 0 136 -33l-49 -93q-37 19 -80 19q-37 0 -55.5 -17.5t-23.5 -55.5l-7 -48l-13 -91
q29 49 73.5 78.5t94.5 29.5q59 0 91.5 -34z" />
    <glyph glyph-name="uni0267" unicode="&#x267;" horiz-adv-x="571" 
d="M492.5 512q32.5 -34 32.5 -95q0 -22 -2 -34l-54 -383l-6 -40q-13 -89 -67.5 -134.5t-137.5 -45.5q-75 0 -130 43l58 83q18 -11 32 -15.5t33 -4.5q30 0 48.5 16.5t22.5 49.5l7 48l52 355q2 10 2 27q0 26 -10 36.5t-28 10.5q-64 0 -132 -131l-42 -298h-140l75 529h-1l8 56
q11 77 66 124.5t146 47.5q73 0 136 -33l-49 -93q-37 19 -80 19q-37 0 -55.5 -17.5t-23.5 -55.5l-7 -48l-13 -91q29 49 73.5 78.5t94.5 29.5q59 0 91.5 -34z" />
    <glyph glyph-name="uni0268" unicode="&#x268;" horiz-adv-x="326" 
d="M163 658q-21 21 -21 53q0 40 27 66t67 26q35 0 56 -20.5t21 -53.5q0 -40 -27 -66t-67 -26q-35 0 -56 21zM326 332l-15 -101h-83l-32 -231h-140l32 231h-83l15 101h82l28 198h140l-28 -198h84z" />
    <glyph glyph-name="uni0269" unicode="&#x269;" horiz-adv-x="288" 
d="M101 530h140l-56 -397q-1 -4 -1 -12q0 -23 23 -23q12 0 29 5l18 -100q-44 -19 -93 -19q-57 0 -87.5 29.5t-30.5 86.5q0 16 3 34z" />
    <glyph glyph-name="uni026A" unicode="&#x26a;" horiz-adv-x="326" 
d="M335 429h-79l-46 -328h78l-14 -101h-297l15 101h77l47 328h-78l14 101h296z" />
    <glyph glyph-name="uni026B" unicode="&#x26b;" horiz-adv-x="441" 
d="M263 133l-1 -11q0 -24 23 -24q13 0 28 5l19 -100q-46 -19 -94 -19q-57 0 -87.5 29.5t-30.5 86.5q0 16 3 34l29 207q-3 1 -10 1q-26 0 -44 -14.5t-35 -41.5l-73 45q74 118 168 118h10l41 292l141 16l-51 -368q3 -1 11 -1q25 0 42.5 14t34.5 39l73 -45q-32 -51 -71.5 -83
t-93.5 -32h-11z" />
    <glyph glyph-name="uni026C" unicode="&#x26c;" horiz-adv-x="415" 
d="M327 103l19 -100q-46 -19 -94 -19q-57 0 -87.5 29.5t-30.5 86.5q0 16 3 34l16 110q-69 3 -105 32.5t-36 79.5q0 55 38 87.5t98 32.5q17 0 37 -4l38 269l141 16l-60 -431h1q23 1 76 11l1 -76q-42 -11 -88 -14h-1l-16 -114l-1 -11q0 -24 23 -24q13 0 28 5zM164 324l11 75
q-12 3 -24 3q-19 0 -30.5 -11t-11.5 -30q0 -37 55 -37z" />
    <glyph glyph-name="uni026D" unicode="&#x26d;" horiz-adv-x="277" 
d="M325 -180q-62 -40 -138 -40t-119.5 38.5t-43.5 111.5q0 23 2 35l5 35l105 741l141 16l-106 -757l-7 -52q-1 -5 -1 -14q0 -26 12 -37t36 -11q21 0 36.5 4.5t37.5 15.5z" />
    <glyph glyph-name="uni026E" unicode="&#x26e;" horiz-adv-x="688" 
d="M662 431l-217 -220q92 -5 140.5 -49.5t48.5 -121.5t-37.5 -136t-103 -91.5t-148.5 -32.5q-126 0 -197 81l77 80q28 -28 56 -39.5t66 -11.5q66 0 104.5 41t38.5 108q0 47 -28 66t-89 19h-90l1 1l11 85l205 212h-275l-40 -289l-1 -11q0 -24 23 -24q13 0 28 5l19 -100
q-46 -19 -94 -19q-57 0 -87.5 29.5t-30.5 86.5q0 16 3 34l86 607l141 16l-32 -227h435z" />
    <glyph glyph-name="uni026F" unicode="&#x26f;" horiz-adv-x="835" 
d="M803 530l-74 -530h-121l4 90q-34 -50 -76.5 -78t-91.5 -28q-47 0 -78 26t-38 75q-33 -48 -76.5 -74.5t-89.5 -26.5q-54 0 -85.5 34t-31.5 94q0 22 2 34l54 384h140l-51 -355q-2 -11 -2 -28q0 -26 10 -36t28 -10q53 0 113 125l43 304h140l-50 -355q-2 -20 -2 -26
q0 -27 10 -37.5t29 -10.5q28 0 57.5 35.5t54.5 94.5l42 299h140z" />
    <glyph glyph-name="uni0270" unicode="&#x270;" horiz-adv-x="831" 
d="M804 530l-103 -736l-142 -15l41 294q-31 -42 -71 -65.5t-83 -23.5q-44 0 -77 25.5t-41 73.5q-35 -47 -77.5 -73t-86.5 -26q-56 0 -87.5 34t-31.5 95q0 22 2 34l54 383h140l-52 -355q-2 -20 -2 -27q0 -26 10.5 -36.5t28.5 -10.5q28 0 57.5 33.5t57.5 91.5l42 304h140
l-52 -355q-2 -20 -2 -27q0 -26 10.5 -36.5t28.5 -10.5q28 0 58 34t56 91l42 304h140z" />
    <glyph glyph-name="uni0271" unicode="&#x271;" horiz-adv-x="835" 
d="M758.5 512q31.5 -34 31.5 -94q0 -22 -2 -34l-54 -384l-6 -40q-13 -89 -67.5 -134.5t-137.5 -45.5q-75 0 -130 43l58 83q18 -11 32 -15.5t33 -4.5q30 0 48.5 16.5t22.5 49.5l7 48l51 355q2 11 2 28q0 27 -9.5 36.5t-28.5 9.5q-53 0 -113 -125l-43 -304h-140l50 355
q2 20 2 26q0 27 -10 37.5t-29 10.5q-28 0 -57.5 -35.5t-54.5 -94.5l-42 -299h-140l74 530h121l-4 -90q34 50 76.5 78t91.5 28q47 0 78 -26t38 -75q33 48 76.5 74.5t89.5 26.5q54 0 85.5 -34z" />
    <glyph glyph-name="uni0272" unicode="&#x272;" horiz-adv-x="570" 
d="M493.5 512q32.5 -34 32.5 -95q0 -16 -3 -36l-53 -381h-140l50 355q2 20 2 25q0 27 -10 38t-29 11q-61 0 -129 -131l-42 -298l-6 -40q-13 -89 -67.5 -134.5t-137.5 -45.5q-75 0 -130 43l58 83q18 -11 32 -15.5t33 -4.5q30 0 48.5 16.5t22.5 49.5l7 48l74 530h121l-4 -96
q36 53 82 82.5t99 29.5q57 0 89.5 -34z" />
    <glyph glyph-name="uni0273" unicode="&#x273;" horiz-adv-x="570" 
d="M624 -180q-62 -40 -138 -40t-119.5 38.5t-43.5 111.5q0 23 2 35l5 35l50 355q2 20 2 25q0 27 -10 38t-29 11q-61 0 -129 -131l-42 -298h-140l74 530h121l-4 -96q36 53 82 82.5t99 29.5q57 0 89.5 -34t32.5 -95q0 -16 -3 -36l-53 -381l-7 -52q-1 -5 -1 -14q0 -26 12 -37
t36 -11q21 0 36.5 4.5t37.5 15.5z" />
    <glyph glyph-name="uni0274" unicode="&#x274;" horiz-adv-x="580" 
d="M475 0h-170l-112 402v-41q0 -100 -13 -199l-23 -162h-125l74 530h168l114 -402q-1 22 -1 64q0 65 10 139l27 199h125z" />
    <glyph glyph-name="uni0275" unicode="&#x275;" horiz-adv-x="575" 
d="M484 487q57 -59 57 -162q0 -80 -28 -158t-93 -130.5t-169 -52.5t-161 59.5t-57 164.5q0 80 29 157.5t94.5 129t167.5 51.5q103 0 160 -59zM231 406q-32 -36 -46 -94h218v19q1 57 -20.5 84t-66.5 27q-53 0 -85 -36zM345 127q32 39 47 100h-219q-1 -9 -1 -27q0 -58 21 -85
t65 -27q55 0 87 39z" />
    <glyph glyph-name="uni0276" unicode="&#x276;" horiz-adv-x="754" 
d="M502 430q29 -48 34 -112h159l-14 -98h-155q-19 -71 -68 -120h247l-15 -100h-350q-43 -16 -91 -16q-102 0 -159 59.5t-57 164.5q0 80 29 157.5t94 129t167 51.5q44 0 92 -16h351l-29 -100h-235zM198.5 117q20.5 -26 61.5 -26q74 0 105 76t32 165q0 56 -20.5 82t-61.5 26
q-52 0 -82.5 -39.5t-42.5 -95t-12 -107.5q0 -55 20.5 -81z" />
    <glyph glyph-name="uni0277" unicode="&#x277;" horiz-adv-x="755" 
d="M639 481q78 -65 78 -187q0 -82 -26.5 -152.5t-79 -114t-125.5 -43.5q-122 0 -131 118q-24 -63 -62.5 -90.5t-99.5 -27.5q-75 0 -119.5 48.5t-44.5 143.5q0 117 47 200t133.5 126.5t206.5 43.5q145 0 223 -65zM553.5 147q26.5 56 26.5 142q0 77 -41 116.5t-134 39.5
q-121 0 -179.5 -69t-58.5 -198q0 -46 13.5 -66.5t42.5 -20.5q64 0 78 96l16 113l133 18l-19 -140q-3 -16 -3 -30q0 -57 49 -57q50 0 76.5 56z" />
    <glyph glyph-name="uni0278" unicode="&#x278;" horiz-adv-x="647" 
d="M587.5 161q-31.5 -68 -91 -109.5t-142.5 -47.5l-29 -208l-141 -16l32 225q-85 9 -137 62.5t-52 145.5q0 88 31.5 156.5t90.5 109.5t141 47l29 215l141 15l-31 -231q86 -9 138 -62.5t52 -146.5q0 -87 -31.5 -155zM183.5 131q18.5 -27 56.5 -32l47 333q-62 -10 -92 -71
t-30 -150q0 -53 18.5 -80zM450.5 168.5q30.5 61.5 30.5 152.5q0 54 -19 80.5t-57 30.5l-48 -333q63 8 93.5 69.5z" />
    <glyph glyph-name="uni0279" unicode="&#x279;" horiz-adv-x="390" 
d="M-38 -7l40 138q22 -7 45 -7q46 0 77.5 39t57.5 113l36 254h140l-74 -530h-121l3 101q-28 -57 -67.5 -86.5t-83.5 -29.5q-27 0 -53 8z" />
    <glyph glyph-name="uni027A" unicode="&#x27a;" horiz-adv-x="390" 
d="M388 741l-30 -211l-74 -530h-121l3 101q-28 -57 -67.5 -86.5t-83.5 -29.5q-27 0 -53 8l40 138q22 -7 45 -7q46 0 77.5 39t57.5 113l36 254l31 226z" />
    <glyph glyph-name="uni027B" unicode="&#x27b;" horiz-adv-x="390" 
d="M438 -180q-62 -40 -138 -40t-119.5 38.5t-43.5 111.5q0 23 2 35l5 35l12 82q-26 -46 -63 -71t-78 -25q-27 0 -53 8l40 137q24 -6 44 -6q47 0 79 39t57 113l36 253h140l-74 -530l-7 -52q-1 -5 -1 -14q0 -26 12 -37t36 -11q21 0 36.5 4.5t37.5 15.5z" />
    <glyph glyph-name="uni027C" unicode="&#x27c;" horiz-adv-x="390" 
d="M429 537l-41 -138q-22 7 -44 7q-46 0 -78.5 -39.5t-57.5 -113.5l-67 -458l-140 -16l105 751h122l-3 -101q27 55 67.5 85.5t83.5 30.5q26 0 53 -8z" />
    <glyph glyph-name="uni027D" unicode="&#x27d;" horiz-adv-x="390" 
d="M428 537l-40 -138q-22 7 -45 7q-46 0 -77.5 -39t-57.5 -113l-36 -254l-7 -52q-1 -5 -1 -14q0 -26 12 -37t36 -11q21 0 36.5 4.5t37.5 15.5l40 -86q-62 -40 -138 -40t-119.5 38.5t-43.5 111.5q0 23 2 35l5 35l74 530h121l-3 -101q28 57 67.5 86.5t83.5 29.5q27 0 53 -8z
" />
    <glyph glyph-name="uni027E" unicode="&#x27e;" horiz-adv-x="380" 
d="M413 505l-58 -83q-18 11 -32 15.5t-33 4.5q-30 0 -48.5 -16.5t-22.5 -49.5l-7 -48l-45 -328h-140l45 328l6 40q13 89 67.5 134.5t137.5 45.5q75 0 130 -43z" />
    <glyph glyph-name="uni027F" unicode="&#x27f;" horiz-adv-x="383" 
d="M291.5 509.5q43.5 -38.5 43.5 -111.5q0 -23 -2 -35l-5 -35l-45 -328h-140l45 328l7 52q1 5 1 14q0 26 -12 37t-36 11q-21 0 -36.5 -4.5t-37.5 -15.5l-40 86q62 40 138 40t119.5 -38.5z" />
    <glyph glyph-name="uni0280" unicode="&#x280;" horiz-adv-x="529" 
d="M368 211l105 -211h-146l-81 188h-53l-26 -188h-135l74 530h175q101 0 154 -38t53 -113q0 -119 -120 -168zM207 284h43q47 0 72.5 24t25.5 64q0 33 -19.5 46t-60.5 13h-41z" />
    <glyph glyph-name="uni0281" unicode="&#x281;" horiz-adv-x="530" 
d="M461 193q0 -96 -67 -144.5t-183 -48.5h-179l74 530h135l-26 -187h54l133 187h146l-163 -211q76 -38 76 -126zM294.5 121q27.5 22 27.5 67q0 31 -19 44.5t-57 13.5h-45l-20 -147h37q49 0 76.5 22z" />
    <glyph glyph-name="uni0282" unicode="&#x282;" horiz-adv-x="471" 
d="M400 264.5q35 -37.5 35 -100.5q0 -52 -27 -92.5t-80 -64t-127 -23.5q-51 0 -100 18l-7 -55q-1 -5 -1 -15q0 -25 13.5 -36t40.5 -11q25 0 42.5 5.5t40.5 16.5l39 -88q-60 -40 -139 -40q-77 0 -119 37.5t-42 108.5q0 18 3 38l15 106l64 69q73 -50 151 -50q46 0 69 18t23 43
q0 20 -9 31.5t-30.5 21.5t-67.5 26q-69 23 -102.5 60.5t-33.5 91.5q0 44 25.5 82t75 61t120.5 23q54 0 103.5 -18t82.5 -49l-63 -81q-25 22 -58.5 33.5t-64.5 11.5q-40 0 -60.5 -13t-20.5 -37q0 -16 9 -26.5t30 -19t64 -22.5q71 -23 106 -60.5z" />
    <glyph glyph-name="uni0283" unicode="&#x283;" horiz-adv-x="278" 
d="M436 718l-53 -87q-16 10 -30.5 14.5t-33.5 4.5q-56 0 -66 -66l-8 -54h1l-74 -530l-6 -40q-13 -89 -67.5 -134.5t-137.5 -45.5q-75 0 -130 43l58 83q18 -11 32 -15.5t33 -4.5q30 0 48.5 16.5t22.5 49.5l7 48l74 530h-1l8 52q11 81 62.5 128t134.5 47q71 0 126 -39z" />
    <glyph glyph-name="uni0284" unicode="&#x284;" horiz-adv-x="330" 
d="M466 718l-53 -87q-16 10 -30.5 14.5t-33.5 4.5q-56 0 -66 -66l-8 -54h1l-60 -429h80l-15 -101h-82q-23 -89 -77 -137t-149 -83l-34 99q56 24 83 48.5t39 72.5h-86l14 101h87l60 429h-1l8 52q11 81 62.5 128t134.5 47q71 0 126 -39z" />
    <glyph glyph-name="uni0285" unicode="&#x285;" horiz-adv-x="484" 
d="M457 24q-62 -40 -138 -40t-119.5 38.5t-43.5 111.5q0 23 2 35l5 35l18 122l7 52q1 5 1 14q0 26 -12 37t-36 11q-21 0 -36.5 -4.5t-37.5 -15.5l-40 86q62 40 138 40t119.5 -38.5t43.5 -111.5q0 -23 -2 -35l-5 -35l-18 -122l-7 -52q-1 -5 -1 -14q0 -26 12 -37t36 -11
q21 0 36.5 4.5t37.5 15.5z" />
    <glyph glyph-name="uni0286" unicode="&#x286;" horiz-adv-x="329" 
d="M487 718l-53 -87q-16 10 -30.5 14.5t-33.5 4.5q-56 0 -66 -66l-8 -54l-73 -523l-2 -14q54 -16 95 -39l-32 -61q-36 17 -81 30q-25 -71 -75 -106.5t-130 -35.5q-61 0 -95.5 30t-34.5 81q0 59 44.5 94.5t112.5 35.5q39 0 60 -3l71 511l8 52q11 81 62.5 128t134.5 47
q71 0 126 -39zM47 -120q18 21 27 67q-19 3 -48 3q-34 0 -52 -14.5t-18 -39.5q0 -18 10.5 -27.5t30.5 -9.5q32 0 50 21z" />
    <glyph glyph-name="uni0287" unicode="&#x287;" horiz-adv-x="371" 
d="M332 0h-84l-33 -119l-119 -14l18 133h-122l29 101h107l36 262q2 20 2 25q0 24 -10 34t-30 10q-26 0 -64 -18l-38 93q31 19 67.5 29t70.5 10q71 0 108.5 -37.5t37.5 -107.5q0 -18 -3 -39l-37 -261h78z" />
    <glyph glyph-name="uni0288" unicode="&#x288;" horiz-adv-x="371" 
d="M176 -52q-1 -5 -1 -14q0 -26 12 -37t36 -11q21 0 36.5 4.5t37.5 15.5l40 -86q-62 -40 -138 -40t-119.5 38.5t-43.5 111.5q0 23 2 35l5 35l60 429h-78l14 101h84l33 119l119 14l-18 -133h121l-28 -101h-107l-60 -429z" />
    <glyph glyph-name="uni0289" unicode="&#x289;" horiz-adv-x="608" 
d="M602 301h-78l-42 -301h-122l5 83q-37 -48 -79 -73.5t-91 -25.5q-62 0 -95.5 35t-33.5 97q0 18 3 36l21 149h-77l13 92h77l20 137h140l-19 -137h153l19 137h140l-19 -137h78zM384 301h-153l-18 -129q-2 -20 -2 -27q0 -27 10 -37.5t31 -10.5q31 0 59.5 25.5t56.5 67.5z" />
    <glyph glyph-name="uni028A" unicode="&#x28a;" horiz-adv-x="579" 
d="M132.5 11q-50.5 27 -76.5 74t-26 106q0 76 34 137t97 103h-86l14 99h191l-13 -95q-46 -49 -69.5 -110.5t-23.5 -127.5q0 -109 86 -109q68 0 102 59t34 143q0 91 -39 148l12 92h191l-14 -99h-87q37 -33 58 -72.5t21 -92.5q0 -80 -37 -144.5t-102.5 -101t-146.5 -36.5
q-69 0 -119.5 27z" />
    <glyph glyph-name="uni028B" unicode="&#x28b;" horiz-adv-x="562" 
d="M98.5 24.5q-49.5 40.5 -49.5 115.5q0 21 2 33l50 357h140l-50 -353q-2 -20 -2 -26q0 -60 54 -60q47 0 81 38t45 123l22 152q2 18 -3.5 25.5t-19.5 7.5q-12 0 -23 -4l-16 98q39 15 82 15q57 0 89 -30.5t32 -88.5q0 -21 -2 -33l-20 -141q-19 -138 -97 -203.5t-186 -65.5
q-79 0 -128.5 40.5z" />
    <glyph glyph-name="uni028C" unicode="&#x28c;" horiz-adv-x="499" 
d="M-41 0l240 530h168l97 -530h-151l-45 418l-160 -418h-149z" />
    <glyph glyph-name="uni028D" unicode="&#x28d;" horiz-adv-x="732" 
d="M-29 0l185 530h170l18 -403l132 403h169l40 -530h-140l-5 425l-146 -425h-140l-18 425l-130 -425h-135z" />
    <glyph glyph-name="uni028E" unicode="&#x28e;" horiz-adv-x="502" 
d="M196 533q47 105 124.5 161t195.5 64l4 -101q-78 -11 -119 -39t-73 -89l50 1l89 -530h-146l-44 436l-171 -436h-146z" />
    <glyph glyph-name="uni028F" unicode="&#x28f;" horiz-adv-x="494" 
d="M534 530l-226 -336l-28 -194h-140l28 193l-133 337h148l67 -238l133 238h151z" />
    <glyph glyph-name="uni0290" unicode="&#x290;" horiz-adv-x="445" 
d="M537 -180q-62 -40 -138 -40t-119.5 38.5t-43.5 111.5q0 23 2 35l5 35h-266l13 102l280 319h-213l16 109h385l-13 -102l-279 -318h232l-15 -110l-7 -52q-1 -5 -1 -14q0 -26 12 -37t36 -11q21 0 36.5 4.5t37.5 15.5z" />
    <glyph glyph-name="uni0291" unicode="&#x291;" horiz-adv-x="511" 
d="M489 227q30 -26 30 -72q0 -81 -59 -118t-160 -37l11 45v-1l-11 -37q-9 -27 -15 -63t-11 -73l-84 4q8 58 22 125h-235l13 102l289 319h-222l16 109h384l-12 -97l-292 -323h90q53 143 167 143q49 0 79 -26zM397 120q23 10 23 34q0 10 -6.5 16t-18.5 6q-41 0 -65 -66
q44 0 67 10z" />
    <glyph glyph-name="uni0292" unicode="&#x292;" horiz-adv-x="494" 
d="M469 431l-218 -220q92 -5 140.5 -49.5t48.5 -121.5t-37 -136t-103 -91.5t-149 -32.5q-140 0 -215 101l84 72q32 -34 62 -48.5t71 -14.5q66 0 104.5 41t38.5 108q0 47 -28 66t-89 19h-90l1 1l11 85l205 212h-258l16 108h417z" />
    <glyph glyph-name="uni0293" unicode="&#x293;" horiz-adv-x="498" 
d="M473 431l-219 -215q93 -4 142 -49t49 -125q0 -91 -53 -155.5t-147 -90.5l17 -54l-77 -30l-21 70q-30 -2 -45 -2q-91 0 -141 35.5t-50 99.5q0 60 39.5 97.5t96.5 37.5t89.5 -33t55.5 -114q91 33 91 138q0 49 -27.5 68.5t-88.5 19.5h-90l12 86l206 207h-259l15 108h418z
M50 -99.5q20 -10.5 69 -10.5h14q-14 46 -28 62.5t-37 16.5q-17 0 -27.5 -10.5t-10.5 -25.5q0 -22 20 -32.5z" />
    <glyph glyph-name="uni0294" unicode="&#x294;" horiz-adv-x="469" 
d="M144 352l47 15q75 24 111 70t36 115q0 48 -24 73t-70 25q-36 0 -68 -14t-70 -43l-62 75q54 46 106.5 67.5t119.5 21.5q102 0 159 -54t57 -147q0 -96 -47 -156t-141 -91l-21 -7l-42 -302h-140z" />
    <glyph glyph-name="uni0295" unicode="&#x295;" horiz-adv-x="465" 
d="M157 0l43 302l-17 8q-61 27 -95 66.5t-34 109.5q0 77 35 139t98 97t143 35q65 0 113.5 -23t89.5 -69l-78 -70q-28 28 -56 41.5t-64 13.5q-62 0 -99.5 -45.5t-37.5 -118.5q0 -48 25.5 -76t76.5 -44l46 -14l-49 -352h-140z" />
    <glyph glyph-name="uni0296" unicode="&#x296;" horiz-adv-x="504" 
d="M349 756l-45 -317l27 -8q58 -17 94.5 -59.5t36.5 -117.5q0 -77 -35 -138.5t-97.5 -96t-140.5 -34.5q-65 0 -115.5 23t-91.5 68l79 71q29 -29 57.5 -42.5t63.5 -13.5q64 0 99.5 44.5t35.5 117.5q0 52 -24 81t-76 43l-58 12l50 352z" />
    <glyph glyph-name="uni0297" unicode="&#x297;" horiz-adv-x="483" 
d="M502 481l-68 -80q-21 18 -42 26t-47 8q-58 0 -97 -60.5t-57 -149t-18 -173.5t21.5 -121t63.5 -36q26 0 49.5 9t54.5 29l52 -91q-81 -61 -172 -61q-104 0 -159.5 71.5t-55.5 201.5q0 126 36.5 239t109 183t173.5 70q94 0 156 -65z" />
    <glyph glyph-name="uni0298" unicode="&#x298;" horiz-adv-x="786" 
d="M617.5 672q70.5 -36 108.5 -103.5t38 -159.5q0 -120 -51 -217t-143.5 -152.5t-211.5 -55.5q-95 0 -165.5 36t-109 104t-38.5 160q0 120 52 216.5t144.5 152t210.5 55.5q95 0 165.5 -36zM300 563q-59 -44 -88.5 -118.5t-29.5 -165.5q0 -98 48 -145.5t135 -47.5
q86 0 145 43.5t88.5 117t29.5 164.5q0 99 -48.5 147.5t-134.5 48.5t-145 -44zM350 290q-19 19 -19 48q0 36 24.5 60t60.5 24q32 0 51 -18.5t19 -48.5q0 -36 -24.5 -60t-60.5 -24q-32 0 -51 19z" />
    <glyph glyph-name="uni0299" unicode="&#x299;" horiz-adv-x="536" 
d="M383 290q58 -7 87 -34.5t29 -73.5q0 -92 -68.5 -137t-183.5 -45h-215l73 525q113 21 198 21q97 0 151.5 -33t54.5 -94q0 -103 -126 -129zM344 342q24 21 24 59q0 27 -17.5 39t-54.5 12q-32 0 -59 -4l-18 -127h59q42 0 66 21zM325 118q31 22 31 71q0 29 -20 40.5t-58 11.5
h-71l-21 -145h60q48 0 79 22z" />
    <glyph glyph-name="uni029A" unicode="&#x29a;" horiz-adv-x="565" 
d="M78.5 25.5q-57.5 41.5 -57.5 115.5q0 57 40.5 95.5t120.5 46.5q-100 26 -100 106q0 42 26 78t76.5 57.5t119.5 21.5q109 0 167.5 -61t58.5 -167q0 -98 -35 -173.5t-102 -118t-161 -42.5q-96 0 -153.5 41.5zM356.5 155q34.5 67 34.5 162q0 68 -23 98.5t-69 30.5
q-38 0 -59 -18.5t-21 -47.5q0 -28 17 -43.5t52 -15.5h33l-27 -95h-23q-56 0 -80.5 -21.5t-24.5 -56.5q0 -29 20.5 -44.5t61.5 -15.5q74 0 108.5 67z" />
    </font>
</defs>
</svg>
