<?xml version="1.0" standalone="no"?>
<!DOCTYPE svg PUBLIC "-//W3C//DTD SVG 1.1//EN" "http://www.w3.org/Graphics/SVG/1.1/DTD/svg11.dtd" >
<svg xmlns="http://www.w3.org/2000/svg" xmlns:xlink="http://www.w3.org/1999/xlink" version="1.1">
<metadata>
Created by FontForge 20190801 at Tue Oct 31 15:58:48 2017
 By Jimmy Wärting
Copyright 2011 The Montserrat Project Authors (https://github.com/JulietaUla/Montserrat)
</metadata>
<defs>
<font id="Montserrat-BoldItalic" horiz-adv-x="0" >
  <font-face 
    font-family="Montserrat"
    font-weight="700"
    font-style="italic"
    font-stretch="normal"
    units-per-em="1000"
    panose-1="0 0 8 0 0 0 0 0 0 0"
    ascent="800"
    descent="-200"
    x-height="538"
    cap-height="700"
    bbox="-859 -266 2051.94 1076"
    underline-thickness="50"
    underline-position="-100"
    slope="-11.3"
    unicode-range="U+000D-FB02"
  />
<missing-glyph horiz-adv-x="587" 
d="M126 700h507l-140 -700h-507zM427 70l112 560h-347l-112 -560h347z" />
    <glyph glyph-name="fi" unicode="fi" horiz-adv-x="767" 
d="M327.5 607.5q-20.5 -19.5 -28.5 -61.5l-4 -20h137l-24 -120h-133l-81 -406h-156l81 406h-84l24 120h84l6 31q19 90 78.5 141.5t155.5 51.5q36 0 68.5 -8t55.5 -22l-61 -112q-25 19 -62 19q-36 0 -56.5 -19.5zM593 538h155l-107 -538h-155zM631.5 636.5
q-25.5 23.5 -25.5 57.5q0 40 28.5 66.5t74.5 26.5q41 0 66.5 -22.5t25.5 -55.5q0 -43 -29 -69.5t-75 -26.5q-40 0 -65.5 23.5z" />
    <glyph glyph-name="fl" unicode="fl" horiz-adv-x="688" 
d="M327.5 607.5q-20.5 -19.5 -28.5 -61.5l-4 -20h137l-24 -120h-133l-81 -406h-156l81 406h-84l24 120h84l6 31q19 90 78.5 141.5t155.5 51.5q36 0 68.5 -8t55.5 -22l-61 -112q-25 19 -62 19q-36 0 -56.5 -19.5zM554 742h156l-148 -742h-156z" />
    <glyph glyph-name=".notdef" horiz-adv-x="587" 
d="M126 700h507l-140 -700h-507zM427 70l112 560h-347l-112 -560h347z" />
    <glyph glyph-name="NULL" 
 />
    <glyph glyph-name="NULL" 
 />
    <glyph glyph-name="nonmarkingreturn" unicode="&#xd;" horiz-adv-x="283" 
 />
    <glyph glyph-name="space" unicode=" " horiz-adv-x="283" 
 />
    <glyph glyph-name="A" unicode="A" horiz-adv-x="766" 
d="M527 150h-326l-91 -150h-173l453 700h160l172 -700h-162zM500 273l-59 270l-165 -270h224z" />
    <glyph glyph-name="Aacute" unicode="&#xc1;" horiz-adv-x="766" 
d="M527 150h-326l-91 -150h-173l453 700h160l172 -700h-162zM500 273l-59 270l-165 -270h224zM537 901h172l-196 -144h-126z" />
    <glyph glyph-name="Abreve" unicode="&#x102;" horiz-adv-x="766" 
d="M527 150h-326l-91 -150h-173l453 700h160l172 -700h-162zM500 273l-59 270l-165 -270h224zM370 786.5q-47 37.5 -47 99.5q0 10 1 15h95q-1 -32 20.5 -51.5t58.5 -19.5t62 19.5t31 51.5h101q-13 -70 -68 -111t-135 -41q-72 0 -119 37.5z" />
    <glyph glyph-name="uni1EAE" unicode="&#x1eae;" horiz-adv-x="766" 
d="M527 150h-326l-91 -150h-173l453 700h160l172 -700h-162zM500 273l-59 270l-165 -270h224zM364.5 782q-47.5 33 -46.5 89h91q2 -22 25.5 -35t61.5 -13q39 0 63 12.5t31 35.5h97q-12 -56 -65.5 -89t-130.5 -33q-79 0 -126.5 33zM543 1022h163l-170 -121h-117z" />
    <glyph glyph-name="uni1EB6" unicode="&#x1eb6;" horiz-adv-x="766" 
d="M527 150h-326l-91 -150h-173l453 700h160l172 -700h-162zM500 273l-59 270l-165 -270h224zM247.5 -193q-17.5 17 -17.5 45q0 31 23 53t53 22q27 0 45.5 -17t18.5 -43q0 -35 -21.5 -56t-54.5 -21q-29 0 -46.5 17zM370 786.5q-47 37.5 -47 99.5q0 10 1 15h95
q-1 -32 20.5 -51.5t58.5 -19.5t62 19.5t31 51.5h101q-13 -70 -68 -111t-135 -41q-72 0 -119 37.5z" />
    <glyph glyph-name="uni1EB0" unicode="&#x1eb0;" horiz-adv-x="766" 
d="M527 150h-326l-91 -150h-173l453 700h160l172 -700h-162zM500 273l-59 270l-165 -270h224zM364.5 782q-47.5 33 -46.5 89h91q2 -22 25.5 -35t61.5 -13q39 0 63 12.5t31 35.5h97q-12 -56 -65.5 -89t-130.5 -33q-79 0 -126.5 33zM348 1022h160l86 -121h-113z" />
    <glyph glyph-name="uni1EB2" unicode="&#x1eb2;" horiz-adv-x="766" 
d="M527 150h-326l-91 -150h-173l453 700h160l172 -700h-162zM500 273l-59 270l-165 -270h224zM364.5 782q-47.5 33 -46.5 89h91q2 -22 25.5 -35t61.5 -13q39 0 63 12.5t31 35.5h97q-12 -56 -65.5 -89t-130.5 -33q-79 0 -126.5 33zM475 910q43 19 43 47q0 11 -7.5 17.5
t-21.5 6.5q-23 0 -47 -12l-19 49q39 21 84 21q38 0 61 -19t23 -50q0 -33 -22.5 -58t-59.5 -39z" />
    <glyph glyph-name="uni1EB4" unicode="&#x1eb4;" horiz-adv-x="766" 
d="M527 150h-326l-91 -150h-173l453 700h160l172 -700h-162zM500 273l-59 270l-165 -270h224zM364.5 782q-47.5 33 -46.5 89h91q2 -22 25.5 -35t61.5 -13q39 0 63 12.5t31 35.5h97q-12 -56 -65.5 -89t-130.5 -33q-79 0 -126.5 33zM540.5 907.5q-19.5 8.5 -41.5 23.5
q-27 20 -44 20q-20 0 -33 -12.5t-17 -33.5h-81q9 60 43.5 92.5t87.5 32.5q26 0 45.5 -8.5t40.5 -23.5q15 -10 25 -15t21 -5q20 0 33.5 12.5t18.5 32.5h78q-9 -58 -43 -91t-88 -33q-26 0 -45.5 8.5z" />
    <glyph glyph-name="uni01CD" unicode="&#x1cd;" horiz-adv-x="766" 
d="M527 150h-326l-91 -150h-173l453 700h160l172 -700h-162zM500 273l-59 270l-165 -270h224zM703 901l-151 -144h-138l-112 144h111l77 -75l97 75h116z" />
    <glyph glyph-name="Acircumflex" unicode="&#xc2;" horiz-adv-x="766" 
d="M527 150h-326l-91 -150h-173l453 700h160l172 -700h-162zM500 273l-59 270l-165 -270h224zM570 757l-77 75l-97 -75h-117l152 144h137l113 -144h-111z" />
    <glyph glyph-name="uni1EA4" unicode="&#x1ea4;" horiz-adv-x="766" 
d="M527 150h-326l-91 -150h-173l453 700h160l172 -700h-162zM500 273l-59 270l-165 -270h224zM568 757l-77 57l-95 -57h-117l150 114h135l117 -114h-113zM721 974h163l-170 -121h-117z" />
    <glyph glyph-name="uni1EAC" unicode="&#x1eac;" horiz-adv-x="766" 
d="M527 150h-326l-91 -150h-173l453 700h160l172 -700h-162zM500 273l-59 270l-165 -270h224zM247.5 -193q-17.5 17 -17.5 45q0 31 23 53t53 22q27 0 45.5 -17t18.5 -43q0 -35 -21.5 -56t-54.5 -21q-29 0 -46.5 17zM570 757l-77 75l-97 -75h-117l152 144h137l113 -144h-111z
" />
    <glyph glyph-name="uni1EA6" unicode="&#x1ea6;" horiz-adv-x="766" 
d="M527 150h-326l-91 -150h-173l453 700h160l172 -700h-162zM500 273l-59 270l-165 -270h224zM568 757l-77 57l-95 -57h-117l150 114h135l117 -114h-113zM526 974h160l86 -121h-113z" />
    <glyph glyph-name="uni1EA8" unicode="&#x1ea8;" horiz-adv-x="766" 
d="M527 150h-326l-91 -150h-173l453 700h160l172 -700h-162zM500 273l-59 270l-165 -270h224zM568 757l-77 57l-95 -57h-117l150 114h135l117 -114h-113zM628 871q43 19 43 47q0 11 -7.5 17.5t-21.5 6.5q-23 0 -47 -12l-19 49q39 21 84 21q38 0 61 -19t23 -50
q0 -33 -22.5 -58t-59.5 -39z" />
    <glyph glyph-name="uni1EAA" unicode="&#x1eaa;" horiz-adv-x="766" 
d="M527 150h-326l-91 -150h-173l453 700h160l172 -700h-162zM500 273l-59 270l-165 -270h224zM568 757l-77 57l-95 -57h-117l150 114h135l117 -114h-113zM541.5 914.5q-19.5 8.5 -41.5 23.5q-27 20 -44 20q-20 0 -33 -12.5t-17 -33.5h-81q9 60 43.5 92.5t87.5 32.5
q26 0 45.5 -8.5t40.5 -23.5q15 -10 25 -15t21 -5q20 0 33.5 12.5t18.5 32.5h78q-9 -58 -43 -91t-88 -33q-26 0 -45.5 8.5z" />
    <glyph glyph-name="uni0200" unicode="&#x200;" horiz-adv-x="766" 
d="M527 150h-326l-91 -150h-173l453 700h160l172 -700h-162zM500 273l-59 270l-165 -270h224zM249 901h140l44 -144h-108zM451 901h140l44 -144h-108z" />
    <glyph glyph-name="Adieresis" unicode="&#xc4;" horiz-adv-x="766" 
d="M527 150h-326l-91 -150h-173l453 700h160l172 -700h-162zM500 273l-59 270l-165 -270h224zM341.5 779q-18.5 17 -18.5 45q0 33 22 54.5t52 21.5q28 0 47 -17t19 -45q0 -33 -22.5 -54.5t-52.5 -21.5q-28 0 -46.5 17zM544.5 779q-18.5 17 -18.5 45q0 34 21.5 55t52.5 21
q28 0 46.5 -17t18.5 -45q0 -33 -22 -54.5t-52 -21.5q-28 0 -46.5 17z" />
    <glyph glyph-name="uni1EA0" unicode="&#x1ea0;" horiz-adv-x="766" 
d="M527 150h-326l-91 -150h-173l453 700h160l172 -700h-162zM500 273l-59 270l-165 -270h224zM247.5 -193q-17.5 17 -17.5 45q0 31 23 53t53 22q27 0 45.5 -17t18.5 -43q0 -35 -21.5 -56t-54.5 -21q-29 0 -46.5 17z" />
    <glyph glyph-name="Agrave" unicode="&#xc0;" horiz-adv-x="766" 
d="M527 150h-326l-91 -150h-173l453 700h160l172 -700h-162zM500 273l-59 270l-165 -270h224zM297 901h167l106 -144h-121z" />
    <glyph glyph-name="uni1EA2" unicode="&#x1ea2;" horiz-adv-x="766" 
d="M527 150h-326l-91 -150h-173l453 700h160l172 -700h-162zM500 273l-59 270l-165 -270h224zM473 799q60 25 60 67q0 17 -11.5 27t-30.5 10q-30 0 -60 -20l-27 64q46 33 113 33q50 0 79 -25t29 -68q0 -92 -111 -141z" />
    <glyph glyph-name="uni0202" unicode="&#x202;" horiz-adv-x="766" 
d="M527 150h-326l-91 -150h-173l453 700h160l172 -700h-162zM500 273l-59 270l-165 -270h224zM363.5 868.5q55.5 41.5 135.5 41.5q77 0 124 -42t41 -111h-96q2 33 -19.5 52.5t-58.5 19.5t-62 -19.5t-32 -52.5h-101q13 70 68.5 111.5z" />
    <glyph glyph-name="Amacron" unicode="&#x100;" horiz-adv-x="766" 
d="M527 150h-326l-91 -150h-173l453 700h160l172 -700h-162zM500 273l-59 270l-165 -270h224zM318 873h369l-17 -88h-369z" />
    <glyph glyph-name="Aogonek" unicode="&#x104;" horiz-adv-x="766" 
d="M527 150h-326l-91 -150h-173l453 700h160l172 -700h-162zM500 273l-59 270l-165 -270h224zM515 -205.5q-34 26.5 -34 72.5q0 57 48 101t136 75l57 -43q-138 -49 -138 -111q0 -20 13 -31t35 -11q34 0 64 15l11 -71q-48 -23 -101 -23q-57 0 -91 26.5z" />
    <glyph glyph-name="Aring" unicode="&#xc5;" horiz-adv-x="766" 
d="M527 150h-326l-91 -150h-173l453 700h160l172 -700h-162zM500 273l-59 270l-165 -270h224zM415 789q-36 35 -36 86q0 50 36 85.5t88 35.5q53 0 89 -35t36 -86t-36 -86t-89 -35q-52 0 -88 35zM546.5 831.5q17.5 17.5 17.5 43.5t-17.5 43.5t-43.5 17.5q-25 0 -42.5 -17.5
t-17.5 -43.5t17 -43.5t43 -17.5t43.5 17.5z" />
    <glyph glyph-name="Aringacute" unicode="&#x1fa;" horiz-adv-x="766" 
d="M527 150h-326l-91 -150h-173l453 700h160l172 -700h-162zM500 273l-59 270l-165 -270h224zM611 938q17 -29 17 -63q0 -51 -36 -86t-89 -35q-52 0 -88 35t-36 86q0 50 36 85.5t88 35.5q27 0 52 -11l87 91l77 -60zM546.5 831.5q17.5 17.5 17.5 43.5t-17.5 43.5t-43.5 17.5
q-25 0 -42.5 -17.5t-17.5 -43.5t17 -43.5t43 -17.5t43.5 17.5z" />
    <glyph glyph-name="Atilde" unicode="&#xc3;" horiz-adv-x="766" 
d="M527 150h-326l-91 -150h-173l453 700h160l172 -700h-162zM500 273l-59 270l-165 -270h224zM517.5 764q-19.5 10 -42.5 28q-19 14 -29 19.5t-22 5.5q-20 0 -34 -15t-19 -41h-79q11 71 46 108.5t87 37.5q26 0 45.5 -10t42.5 -28q18 -14 28.5 -20t22.5 -6q21 0 34.5 14.5
t18.5 39.5h79q-11 -68 -45.5 -105.5t-86.5 -37.5q-27 0 -46.5 10z" />
    <glyph glyph-name="AE" unicode="&#xc6;" horiz-adv-x="1082" 
d="M715 570l-30 -152h325l-25 -126h-326l-32 -162h382l-26 -130h-542l30 150h-246l-111 -150h-178l530 700h643l-26 -130h-368zM496 273l59 298h-18l-221 -298h180z" />
    <glyph glyph-name="AEacute" unicode="&#x1fc;" horiz-adv-x="1082" 
d="M715 570l-30 -152h325l-25 -126h-326l-32 -162h382l-26 -130h-542l30 150h-246l-111 -150h-178l530 700h643l-26 -130h-368zM496 273l59 298h-18l-221 -298h180zM729 901h172l-196 -144h-126z" />
    <glyph glyph-name="B" unicode="B" horiz-adv-x="765" 
d="M686.5 307.5q24.5 -35.5 24.5 -86.5q0 -109 -86 -165t-229 -56h-367l140 700h338q113 0 174 -41.5t61 -118.5q0 -64 -33.5 -109.5t-91.5 -69.5q45 -18 69.5 -53.5zM305 578l-33 -165h165q64 0 99.5 25.5t35.5 73.5q0 66 -103 66h-164zM512 148q38 26 38 75q0 72 -105 72
h-196l-34 -173h191q68 0 106 26z" />
    <glyph glyph-name="C" unicode="C" horiz-adv-x="733" 
d="M213.5 26q-78.5 38 -120.5 107t-42 159q0 119 54.5 214.5t153.5 150.5t227 55q94 0 166 -32t109 -92l-117 -96q-56 82 -169 82q-77 0 -136 -36t-91.5 -98t-32.5 -138q0 -81 51.5 -128.5t144.5 -47.5q111 0 186 81l96 -98q-104 -121 -296 -121q-105 0 -183.5 38z" />
    <glyph glyph-name="Cacute" unicode="&#x106;" horiz-adv-x="733" 
d="M213.5 26q-78.5 38 -120.5 107t-42 159q0 119 54.5 214.5t153.5 150.5t227 55q94 0 166 -32t109 -92l-117 -96q-56 82 -169 82q-77 0 -136 -36t-91.5 -98t-32.5 -138q0 -81 51.5 -128.5t144.5 -47.5q111 0 186 81l96 -98q-104 -121 -296 -121q-105 0 -183.5 38zM568 901
h172l-196 -144h-126z" />
    <glyph glyph-name="Ccaron" unicode="&#x10c;" horiz-adv-x="733" 
d="M213.5 26q-78.5 38 -120.5 107t-42 159q0 119 54.5 214.5t153.5 150.5t227 55q94 0 166 -32t109 -92l-117 -96q-56 82 -169 82q-77 0 -136 -36t-91.5 -98t-32.5 -138q0 -81 51.5 -128.5t144.5 -47.5q111 0 186 81l96 -98q-104 -121 -296 -121q-105 0 -183.5 38zM734 901
l-151 -144h-138l-112 144h111l77 -75l97 75h116z" />
    <glyph glyph-name="Ccedilla" unicode="&#xc7;" horiz-adv-x="733" 
d="M213.5 26q-78.5 38 -120.5 107t-42 159q0 119 54.5 214.5t153.5 150.5t227 55q94 0 166 -32t109 -92l-117 -96q-56 82 -169 82q-77 0 -136 -36t-91.5 -98t-32.5 -138q0 -81 51.5 -128.5t144.5 -47.5q111 0 186 81l96 -98q-104 -121 -296 -121q-105 0 -183.5 38zM188 -211
l34 67q30 -15 67 -15q27 0 40.5 9t14.5 24q3 28 -43 28h-35l48 106h83l-25 -58q33 -4 51.5 -23.5t18.5 -45.5q0 -53 -43.5 -83t-116.5 -30q-55 0 -94 21z" />
    <glyph glyph-name="uni1E08" unicode="&#x1e08;" horiz-adv-x="733" 
d="M213.5 26q-78.5 38 -120.5 107t-42 159q0 119 54.5 214.5t153.5 150.5t227 55q94 0 166 -32t109 -92l-117 -96q-56 82 -169 82q-77 0 -136 -36t-91.5 -98t-32.5 -138q0 -81 51.5 -128.5t144.5 -47.5q111 0 186 81l96 -98q-104 -121 -296 -121q-105 0 -183.5 38zM188 -211
l34 67q30 -15 67 -15q27 0 40.5 9t14.5 24q3 28 -43 28h-35l48 106h83l-25 -58q33 -4 51.5 -23.5t18.5 -45.5q0 -53 -43.5 -83t-116.5 -30q-55 0 -94 21zM568 901h172l-196 -144h-126z" />
    <glyph glyph-name="Ccircumflex" unicode="&#x108;" horiz-adv-x="733" 
d="M213.5 26q-78.5 38 -120.5 107t-42 159q0 119 54.5 214.5t153.5 150.5t227 55q94 0 166 -32t109 -92l-117 -96q-56 82 -169 82q-77 0 -136 -36t-91.5 -98t-32.5 -138q0 -81 51.5 -128.5t144.5 -47.5q111 0 186 81l96 -98q-104 -121 -296 -121q-105 0 -183.5 38zM601 757
l-77 75l-97 -75h-117l152 144h137l113 -144h-111z" />
    <glyph glyph-name="Cdotaccent" unicode="&#x10a;" horiz-adv-x="733" 
d="M213.5 26q-78.5 38 -120.5 107t-42 159q0 119 54.5 214.5t153.5 150.5t227 55q94 0 166 -32t109 -92l-117 -96q-56 82 -169 82q-77 0 -136 -36t-91.5 -98t-32.5 -138q0 -81 51.5 -128.5t144.5 -47.5q111 0 186 81l96 -98q-104 -121 -296 -121q-105 0 -183.5 38zM466 783
q-22 21 -22 53q0 42 26 68.5t65 26.5q35 0 56.5 -21t21.5 -54q0 -41 -26 -67.5t-64 -26.5q-35 0 -57 21z" />
    <glyph glyph-name="D" unicode="D" horiz-adv-x="826" 
d="M169 700h293q107 0 184.5 -35.5t119 -101.5t41.5 -155q0 -122 -55 -214.5t-153.5 -143t-227.5 -50.5h-342zM376 133q82 0 142.5 34.5t92.5 95t32 136.5q0 79 -51 123.5t-148 44.5h-139l-87 -434h158z" />
    <glyph glyph-name="uni01C4" unicode="&#x1c4;" horiz-adv-x="1449" 
d="M169 700h293q107 0 184.5 -35.5t119 -101.5t41.5 -155q0 -122 -55 -214.5t-153.5 -143t-227.5 -50.5h-342zM376 133q82 0 142.5 34.5t92.5 95t32 136.5q0 79 -51 123.5t-148 44.5h-139l-87 -434h158zM1478 595l-471 -463h392l-27 -132h-612l21 105l472 463h-369l27 132
h588zM1441 901l-151 -144h-138l-112 144h111l77 -75l97 75h116z" />
    <glyph glyph-name="Eth" unicode="&#xd0;" horiz-adv-x="839" 
d="M182 700h293q107 0 184.5 -35.5t119 -101.5t41.5 -155q0 -122 -55 -214.5t-153.5 -143t-227.5 -50.5h-342zM389 133q82 0 142.5 34.5t92.5 95t32 136.5q0 79 -51 123.5t-148 44.5h-139l-87 -434h158zM29 410h432l-21 -108h-433z" />
    <glyph glyph-name="Dcaron" unicode="&#x10e;" horiz-adv-x="826" 
d="M169 700h293q107 0 184.5 -35.5t119 -101.5t41.5 -155q0 -122 -55 -214.5t-153.5 -143t-227.5 -50.5h-342zM376 133q82 0 142.5 34.5t92.5 95t32 136.5q0 79 -51 123.5t-148 44.5h-139l-87 -434h158zM688 900l-151 -144h-138l-112 144h111l77 -75l97 75h116z" />
    <glyph glyph-name="Dcroat" unicode="&#x110;" horiz-adv-x="839" 
d="M182 700h293q107 0 184.5 -35.5t119 -101.5t41.5 -155q0 -122 -55 -214.5t-153.5 -143t-227.5 -50.5h-342zM389 133q82 0 142.5 34.5t92.5 95t32 136.5q0 79 -51 123.5t-148 44.5h-139l-87 -434h158zM29 410h432l-21 -108h-433z" />
    <glyph glyph-name="uni1E0C" unicode="&#x1e0c;" horiz-adv-x="826" 
d="M169 700h293q107 0 184.5 -35.5t119 -101.5t41.5 -155q0 -122 -55 -214.5t-153.5 -143t-227.5 -50.5h-342zM376 133q82 0 142.5 34.5t92.5 95t32 136.5q0 79 -51 123.5t-148 44.5h-139l-87 -434h158zM235.5 -193q-17.5 17 -17.5 45q0 31 23 53t53 22q27 0 45.5 -17
t18.5 -43q0 -35 -21.5 -56t-54.5 -21q-29 0 -46.5 17z" />
    <glyph glyph-name="uni1E0E" unicode="&#x1e0e;" horiz-adv-x="826" 
d="M169 700h293q107 0 184.5 -35.5t119 -101.5t41.5 -155q0 -122 -55 -214.5t-153.5 -143t-227.5 -50.5h-342zM376 133q82 0 142.5 34.5t92.5 95t32 136.5q0 79 -51 123.5t-148 44.5h-139l-87 -434h158zM112 -95h370l-16 -87h-370z" />
    <glyph glyph-name="uni01C5" unicode="&#x1c5;" horiz-adv-x="1369" 
d="M169 700h293q107 0 184.5 -35.5t119 -101.5t41.5 -155q0 -122 -55 -214.5t-153.5 -143t-227.5 -50.5h-342zM376 133q82 0 142.5 34.5t92.5 95t32 136.5q0 79 -51 123.5t-148 44.5h-139l-87 -434h158zM1367 444l-332 -324h276l-24 -120h-480l19 94l332 324h-259l24 120
h462zM1391 751l-151 -144h-138l-112 144h111l77 -75l97 75h116z" />
    <glyph glyph-name="E" unicode="E" horiz-adv-x="671" 
d="M304 570l-30 -152h325l-25 -126h-326l-32 -162h382l-27 -130h-542l140 700h529l-27 -130h-367z" />
    <glyph glyph-name="Eacute" unicode="&#xc9;" horiz-adv-x="671" 
d="M304 570l-30 -152h325l-25 -126h-326l-32 -162h382l-27 -130h-542l140 700h529l-27 -130h-367zM502 901h172l-196 -144h-126z" />
    <glyph glyph-name="Ebreve" unicode="&#x114;" horiz-adv-x="671" 
d="M304 570l-30 -152h325l-25 -126h-326l-32 -162h382l-27 -130h-542l140 700h529l-27 -130h-367zM335 786.5q-47 37.5 -47 99.5q0 10 1 15h95q-1 -32 20.5 -51.5t58.5 -19.5t62 19.5t31 51.5h101q-13 -70 -68 -111t-135 -41q-72 0 -119 37.5z" />
    <glyph glyph-name="Ecaron" unicode="&#x11a;" horiz-adv-x="671" 
d="M304 570l-30 -152h325l-25 -126h-326l-32 -162h382l-27 -130h-542l140 700h529l-27 -130h-367zM668 901l-151 -144h-138l-112 144h111l77 -75l97 75h116z" />
    <glyph glyph-name="uni1E1C" unicode="&#x1e1c;" horiz-adv-x="671" 
d="M304 570l-30 -152h325l-25 -126h-326l-32 -162h382l-27 -130h-542l140 700h529l-27 -130h-367zM134 -211l34 67q30 -15 67 -15q27 0 40.5 9t14.5 24q3 28 -43 28h-35l48 106h83l-25 -58q33 -4 51.5 -23.5t18.5 -45.5q0 -53 -43.5 -83t-116.5 -30q-55 0 -94 21zM335 786.5
q-47 37.5 -47 99.5q0 10 1 15h95q-1 -32 20.5 -51.5t58.5 -19.5t62 19.5t31 51.5h101q-13 -70 -68 -111t-135 -41q-72 0 -119 37.5z" />
    <glyph glyph-name="Ecircumflex" unicode="&#xca;" horiz-adv-x="671" 
d="M304 570l-30 -152h325l-25 -126h-326l-32 -162h382l-27 -130h-542l140 700h529l-27 -130h-367zM535 757l-77 75l-97 -75h-117l152 144h137l113 -144h-111z" />
    <glyph glyph-name="uni1EBE" unicode="&#x1ebe;" horiz-adv-x="671" 
d="M304 570l-30 -152h325l-25 -126h-326l-32 -162h382l-27 -130h-542l140 700h529l-27 -130h-367zM533 757l-77 57l-95 -57h-117l150 114h135l117 -114h-113zM686 974h163l-170 -121h-117z" />
    <glyph glyph-name="uni1EC6" unicode="&#x1ec6;" horiz-adv-x="671" 
d="M304 570l-30 -152h325l-25 -126h-326l-32 -162h382l-27 -130h-542l140 700h529l-27 -130h-367zM218.5 -193q-17.5 17 -17.5 45q0 31 23 53t53 22q27 0 45.5 -17t18.5 -43q0 -35 -21.5 -56t-54.5 -21q-29 0 -46.5 17zM535 757l-77 75l-97 -75h-117l152 144h137l113 -144
h-111z" />
    <glyph glyph-name="uni1EC0" unicode="&#x1ec0;" horiz-adv-x="671" 
d="M304 570l-30 -152h325l-25 -126h-326l-32 -162h382l-27 -130h-542l140 700h529l-27 -130h-367zM533 757l-77 57l-95 -57h-117l150 114h135l117 -114h-113zM491 974h160l86 -121h-113z" />
    <glyph glyph-name="uni1EC2" unicode="&#x1ec2;" horiz-adv-x="671" 
d="M304 570l-30 -152h325l-25 -126h-326l-32 -162h382l-27 -130h-542l140 700h529l-27 -130h-367zM533 757l-77 57l-95 -57h-117l150 114h135l117 -114h-113zM593 871q43 19 43 47q0 11 -7.5 17.5t-21.5 6.5q-23 0 -47 -12l-19 49q39 21 84 21q38 0 61 -19t23 -50
q0 -33 -22.5 -58t-59.5 -39z" />
    <glyph glyph-name="uni1EC4" unicode="&#x1ec4;" horiz-adv-x="671" 
d="M304 570l-30 -152h325l-25 -126h-326l-32 -162h382l-27 -130h-542l140 700h529l-27 -130h-367zM533 757l-77 57l-95 -57h-117l150 114h135l117 -114h-113zM506.5 914.5q-19.5 8.5 -41.5 23.5q-27 20 -44 20q-20 0 -33 -12.5t-17 -33.5h-81q9 60 43.5 92.5t87.5 32.5
q26 0 45.5 -8.5t40.5 -23.5q15 -10 25 -15t21 -5q20 0 33.5 12.5t18.5 32.5h78q-9 -58 -43 -91t-88 -33q-26 0 -45.5 8.5z" />
    <glyph glyph-name="uni0204" unicode="&#x204;" horiz-adv-x="671" 
d="M304 570l-30 -152h325l-25 -126h-326l-32 -162h382l-27 -130h-542l140 700h529l-27 -130h-367zM214 901h140l44 -144h-108zM416 901h140l44 -144h-108z" />
    <glyph glyph-name="Edieresis" unicode="&#xcb;" horiz-adv-x="671" 
d="M304 570l-30 -152h325l-25 -126h-326l-32 -162h382l-27 -130h-542l140 700h529l-27 -130h-367zM306.5 779q-18.5 17 -18.5 45q0 33 22 54.5t52 21.5q28 0 47 -17t19 -45q0 -33 -22.5 -54.5t-52.5 -21.5q-28 0 -46.5 17zM509.5 779q-18.5 17 -18.5 45q0 34 21.5 55
t52.5 21q28 0 46.5 -17t18.5 -45q0 -33 -22 -54.5t-52 -21.5q-28 0 -46.5 17z" />
    <glyph glyph-name="Edotaccent" unicode="&#x116;" horiz-adv-x="671" 
d="M304 570l-30 -152h325l-25 -126h-326l-32 -162h382l-27 -130h-542l140 700h529l-27 -130h-367zM400 783q-22 21 -22 53q0 42 26 68.5t65 26.5q35 0 56.5 -21t21.5 -54q0 -41 -26 -67.5t-64 -26.5q-35 0 -57 21z" />
    <glyph glyph-name="uni1EB8" unicode="&#x1eb8;" horiz-adv-x="671" 
d="M304 570l-30 -152h325l-25 -126h-326l-32 -162h382l-27 -130h-542l140 700h529l-27 -130h-367zM218.5 -193q-17.5 17 -17.5 45q0 31 23 53t53 22q27 0 45.5 -17t18.5 -43q0 -35 -21.5 -56t-54.5 -21q-29 0 -46.5 17z" />
    <glyph glyph-name="Egrave" unicode="&#xc8;" horiz-adv-x="671" 
d="M304 570l-30 -152h325l-25 -126h-326l-32 -162h382l-27 -130h-542l140 700h529l-27 -130h-367zM262 901h167l106 -144h-121z" />
    <glyph glyph-name="uni1EBA" unicode="&#x1eba;" horiz-adv-x="671" 
d="M304 570l-30 -152h325l-25 -126h-326l-32 -162h382l-27 -130h-542l140 700h529l-27 -130h-367zM438 799q60 25 60 67q0 17 -11.5 27t-30.5 10q-30 0 -60 -20l-27 64q46 33 113 33q50 0 79 -25t29 -68q0 -92 -111 -141z" />
    <glyph glyph-name="uni0206" unicode="&#x206;" horiz-adv-x="671" 
d="M304 570l-30 -152h325l-25 -126h-326l-32 -162h382l-27 -130h-542l140 700h529l-27 -130h-367zM328.5 868.5q55.5 41.5 135.5 41.5q77 0 124 -42t41 -111h-96q2 33 -19.5 52.5t-58.5 19.5t-62 -19.5t-32 -52.5h-101q13 70 68.5 111.5z" />
    <glyph glyph-name="Emacron" unicode="&#x112;" horiz-adv-x="671" 
d="M304 570l-30 -152h325l-25 -126h-326l-32 -162h382l-27 -130h-542l140 700h529l-27 -130h-367zM283 873h369l-17 -88h-369z" />
    <glyph glyph-name="uni1E16" unicode="&#x1e16;" horiz-adv-x="671" 
d="M304 570l-30 -152h325l-25 -126h-326l-32 -162h382l-27 -130h-542l140 700h529l-27 -130h-367zM279 856h370l-16 -83h-370zM512 1039h163l-170 -121h-117z" />
    <glyph glyph-name="uni1E14" unicode="&#x1e14;" horiz-adv-x="671" 
d="M304 570l-30 -152h325l-25 -126h-326l-32 -162h382l-27 -130h-542l140 700h529l-27 -130h-367zM279 856h370l-16 -83h-370zM317 1039h160l86 -121h-113z" />
    <glyph glyph-name="Eogonek" unicode="&#x118;" horiz-adv-x="671" 
d="M304 570l-30 -152h325l-25 -126h-326l-32 -162h382l-27 -130h-542l140 700h529l-27 -130h-367zM364 -205.5q-34 26.5 -34 72.5q0 57 48 101t136 75l57 -43q-138 -49 -138 -111q0 -20 13 -31t35 -11q34 0 64 15l11 -71q-48 -23 -101 -23q-57 0 -91 26.5z" />
    <glyph glyph-name="uni1EBC" unicode="&#x1ebc;" horiz-adv-x="671" 
d="M304 570l-30 -152h325l-25 -126h-326l-32 -162h382l-27 -130h-542l140 700h529l-27 -130h-367zM482.5 764q-19.5 10 -42.5 28q-19 14 -29 19.5t-22 5.5q-20 0 -34 -15t-19 -41h-79q11 71 46 108.5t87 37.5q26 0 45.5 -10t42.5 -28q18 -14 28.5 -20t22.5 -6
q21 0 34.5 14.5t18.5 39.5h79q-11 -68 -45.5 -105.5t-86.5 -37.5q-27 0 -46.5 10z" />
    <glyph glyph-name="uni01B7" unicode="&#x1b7;" horiz-adv-x="616" 
d="M610 595l-196 -183q73 -17 113 -63t40 -114q0 -71 -41.5 -127t-115.5 -88t-168 -32q-77 0 -144 21t-112 60l78 119q35 -30 84.5 -47t104.5 -17q72 0 111 26.5t39 74.5q0 38 -28.5 56.5t-86.5 18.5h-74l21 107l174 163h-295l26 130h490z" />
    <glyph glyph-name="uni01EE" unicode="&#x1ee;" horiz-adv-x="616" 
d="M610 595l-196 -183q73 -17 113 -63t40 -114q0 -71 -41.5 -127t-115.5 -88t-168 -32q-77 0 -144 21t-112 60l78 119q35 -30 84.5 -47t104.5 -17q72 0 111 26.5t39 74.5q0 38 -28.5 56.5t-86.5 18.5h-74l21 107l174 163h-295l26 130h490zM609 901l-151 -144h-138l-112 144
h111l77 -75l97 75h116z" />
    <glyph glyph-name="F" unicode="F" horiz-adv-x="639" 
d="M305 570l-37 -185h325l-27 -130h-323l-51 -255h-163l140 700h529l-27 -130h-366z" />
    <glyph glyph-name="G" unicode="G" horiz-adv-x="771" 
d="M575 361h148l-58 -288q-53 -41 -123 -63t-145 -22q-105 0 -183 38t-120.5 107t-42.5 159q0 119 55 215t155 150.5t230 54.5q100 0 173.5 -31t118.5 -91l-116 -94q-35 41 -79 59.5t-104 18.5q-80 0 -141 -35.5t-94.5 -97.5t-33.5 -139q0 -81 52.5 -128.5t150.5 -47.5
q62 0 116 25z" />
    <glyph glyph-name="Gbreve" unicode="&#x11e;" horiz-adv-x="771" 
d="M575 361h148l-58 -288q-53 -41 -123 -63t-145 -22q-105 0 -183 38t-120.5 107t-42.5 159q0 119 55 215t155 150.5t230 54.5q100 0 173.5 -31t118.5 -91l-116 -94q-35 41 -79 59.5t-104 18.5q-80 0 -141 -35.5t-94.5 -97.5t-33.5 -139q0 -81 52.5 -128.5t150.5 -47.5
q62 0 116 25zM403 786.5q-47 37.5 -47 99.5q0 10 1 15h95q-1 -32 20.5 -51.5t58.5 -19.5t62 19.5t31 51.5h101q-13 -70 -68 -111t-135 -41q-72 0 -119 37.5z" />
    <glyph glyph-name="Gcaron" unicode="&#x1e6;" horiz-adv-x="771" 
d="M575 361h148l-58 -288q-53 -41 -123 -63t-145 -22q-105 0 -183 38t-120.5 107t-42.5 159q0 119 55 215t155 150.5t230 54.5q100 0 173.5 -31t118.5 -91l-116 -94q-35 41 -79 59.5t-104 18.5q-80 0 -141 -35.5t-94.5 -97.5t-33.5 -139q0 -81 52.5 -128.5t150.5 -47.5
q62 0 116 25zM736 901l-151 -144h-138l-112 144h111l77 -75l97 75h116z" />
    <glyph glyph-name="Gcircumflex" unicode="&#x11c;" horiz-adv-x="771" 
d="M575 361h148l-58 -288q-53 -41 -123 -63t-145 -22q-105 0 -183 38t-120.5 107t-42.5 159q0 119 55 215t155 150.5t230 54.5q100 0 173.5 -31t118.5 -91l-116 -94q-35 41 -79 59.5t-104 18.5q-80 0 -141 -35.5t-94.5 -97.5t-33.5 -139q0 -81 52.5 -128.5t150.5 -47.5
q62 0 116 25zM603 757l-77 75l-97 -75h-117l152 144h137l113 -144h-111z" />
    <glyph glyph-name="Gcommaaccent" unicode="&#x122;" horiz-adv-x="771" 
d="M575 361h148l-58 -288q-53 -41 -123 -63t-145 -22q-105 0 -183 38t-120.5 107t-42.5 159q0 119 55 215t155 150.5t230 54.5q100 0 173.5 -31t118.5 -91l-116 -94q-35 41 -79 59.5t-104 18.5q-80 0 -141 -35.5t-94.5 -97.5t-33.5 -139q0 -81 52.5 -128.5t150.5 -47.5
q62 0 116 25zM378.5 -88q17.5 -15 17.5 -38q0 -16 -6.5 -30.5t-24.5 -40.5l-49 -69h-71l41 81q-30 12 -30 44q0 30 19 49t54 19q32 0 49.5 -15z" />
    <glyph glyph-name="Gdotaccent" unicode="&#x120;" horiz-adv-x="771" 
d="M575 361h148l-58 -288q-53 -41 -123 -63t-145 -22q-105 0 -183 38t-120.5 107t-42.5 159q0 119 55 215t155 150.5t230 54.5q100 0 173.5 -31t118.5 -91l-116 -94q-35 41 -79 59.5t-104 18.5q-80 0 -141 -35.5t-94.5 -97.5t-33.5 -139q0 -81 52.5 -128.5t150.5 -47.5
q62 0 116 25zM468 783q-22 21 -22 53q0 42 26 68.5t65 26.5q35 0 56.5 -21t21.5 -54q0 -41 -26 -67.5t-64 -26.5q-35 0 -57 21z" />
    <glyph glyph-name="uni1E20" unicode="&#x1e20;" horiz-adv-x="771" 
d="M575 361h148l-58 -288q-53 -41 -123 -63t-145 -22q-105 0 -183 38t-120.5 107t-42.5 159q0 119 55 215t155 150.5t230 54.5q100 0 173.5 -31t118.5 -91l-116 -94q-35 41 -79 59.5t-104 18.5q-80 0 -141 -35.5t-94.5 -97.5t-33.5 -139q0 -81 52.5 -128.5t150.5 -47.5
q62 0 116 25zM351 873h369l-17 -88h-369z" />
    <glyph glyph-name="uni01E4" unicode="&#x1e4;" horiz-adv-x="811" 
d="M575 361h148l-58 -288q-53 -41 -123 -63t-145 -22q-105 0 -183 38t-120.5 107t-42.5 159q0 119 55 215t155 150.5t230 54.5q100 0 173.5 -31t118.5 -91l-116 -94q-35 41 -79 59.5t-104 18.5q-80 0 -141 -35.5t-94.5 -97.5t-33.5 -139q0 -81 52.5 -128.5t150.5 -47.5
q62 0 116 25zM334.773 305.557h398.408l-19.3672 -107.144h-399.33z" />
    <glyph glyph-name="H" unicode="H" horiz-adv-x="808" 
d="M811 700l-140 -700h-162l57 285h-317l-57 -285h-163l140 700h163l-55 -275h317l55 275h162z" />
    <glyph glyph-name="Hbar" unicode="&#x126;" horiz-adv-x="834" 
d="M824 700l-140 -700h-162l57 285h-317l-57 -285h-163l140 700h163l-55 -275h317l55 275h162zM69 618h834l-21 -108h-833z" />
    <glyph glyph-name="uni1E2A" unicode="&#x1e2a;" horiz-adv-x="808" 
d="M811 700l-140 -700h-162l57 285h-317l-57 -285h-163l140 700h163l-55 -275h317l55 275h162zM198 -180.5q-48 36.5 -48 92.5q0 9 1 14h95q-1 -31 20 -49t59 -18q37 0 62 18t31 49h100q-12 -66 -66.5 -104.5t-130.5 -38.5q-75 0 -123 36.5z" />
    <glyph glyph-name="uni021E" unicode="&#x21e;" horiz-adv-x="808" 
d="M811 700l-140 -700h-162l57 285h-317l-57 -285h-163l140 700h163l-55 -275h317l55 275h162zM724 901l-151 -144h-138l-112 144h111l77 -75l97 75h116z" />
    <glyph glyph-name="Hcircumflex" unicode="&#x124;" horiz-adv-x="808" 
d="M811 700l-140 -700h-162l57 285h-317l-57 -285h-163l140 700h163l-55 -275h317l55 275h162zM591 757l-77 75l-97 -75h-117l152 144h137l113 -144h-111z" />
    <glyph glyph-name="uni1E24" unicode="&#x1e24;" horiz-adv-x="808" 
d="M811 700l-140 -700h-162l57 285h-317l-57 -285h-163l140 700h163l-55 -275h317l55 275h162zM268.5 -193q-17.5 17 -17.5 45q0 31 23 53t53 22q27 0 45.5 -17t18.5 -43q0 -35 -21.5 -56t-54.5 -21q-29 0 -46.5 17z" />
    <glyph glyph-name="I" unicode="I" horiz-adv-x="328" 
d="M169 700h163l-140 -700h-163z" />
    <glyph glyph-name="IJ" unicode="&#x132;" horiz-adv-x="724" 
d="M22 66l80 123q91 -65 203 -65q80 0 124 43t63 140l78 393h163l-80 -400q-31 -158 -120 -235t-237 -77q-166 0 -274 78zM163 700h163l-76 -378h-163z" />
    <glyph glyph-name="Iacute" unicode="&#xcd;" horiz-adv-x="328" 
d="M169 700h163l-140 -700h-163zM318 901h172l-196 -144h-126z" />
    <glyph glyph-name="Ibreve" unicode="&#x12c;" horiz-adv-x="328" 
d="M169 700h163l-140 -700h-163zM151 786.5q-47 37.5 -47 99.5q0 10 1 15h95q-1 -32 20.5 -51.5t58.5 -19.5t62 19.5t31 51.5h101q-13 -70 -68 -111t-135 -41q-72 0 -119 37.5z" />
    <glyph glyph-name="Icircumflex" unicode="&#xce;" horiz-adv-x="328" 
d="M169 700h163l-140 -700h-163zM351 757l-77 75l-97 -75h-117l152 144h137l113 -144h-111z" />
    <glyph glyph-name="uni0208" unicode="&#x208;" horiz-adv-x="328" 
d="M169 700h163l-140 -700h-163zM30 901h140l44 -144h-108zM232 901h140l44 -144h-108z" />
    <glyph glyph-name="Idieresis" unicode="&#xcf;" horiz-adv-x="328" 
d="M169 700h163l-140 -700h-163zM122.5 779q-18.5 17 -18.5 45q0 33 22 54.5t52 21.5q28 0 47 -17t19 -45q0 -33 -22.5 -54.5t-52.5 -21.5q-28 0 -46.5 17zM325.5 779q-18.5 17 -18.5 45q0 34 21.5 55t52.5 21q28 0 46.5 -17t18.5 -45q0 -33 -22 -54.5t-52 -21.5
q-28 0 -46.5 17z" />
    <glyph glyph-name="uni1E2E" unicode="&#x1e2e;" horiz-adv-x="328" 
d="M169 700h163l-140 -700h-163zM128.5 778q-17.5 16 -17.5 43q0 32 20.5 52.5t49.5 20.5q27 0 44.5 -17t17.5 -44q0 -31 -20.5 -51t-49.5 -20q-27 0 -44.5 16zM323.5 778q-17.5 16 -17.5 43q0 31 21 52t50 21q27 0 44.5 -17t17.5 -44q0 -31 -21 -51t-50 -20q-27 0 -44.5 16
zM328 1039h163l-170 -121h-117z" />
    <glyph glyph-name="Idotaccent" unicode="&#x130;" horiz-adv-x="328" 
d="M169 700h163l-140 -700h-163zM216 783q-22 21 -22 53q0 42 26 68.5t65 26.5q35 0 56.5 -21t21.5 -54q0 -41 -26 -67.5t-64 -26.5q-35 0 -57 21z" />
    <glyph glyph-name="uni1ECA" unicode="&#x1eca;" horiz-adv-x="328" 
d="M169 700h163l-140 -700h-163zM28.5 -193q-17.5 17 -17.5 45q0 31 23 53t53 22q27 0 45.5 -17t18.5 -43q0 -35 -21.5 -56t-54.5 -21q-29 0 -46.5 17z" />
    <glyph glyph-name="Igrave" unicode="&#xcc;" horiz-adv-x="328" 
d="M169 700h163l-140 -700h-163zM78 901h167l106 -144h-121z" />
    <glyph glyph-name="uni1EC8" unicode="&#x1ec8;" horiz-adv-x="328" 
d="M169 700h163l-140 -700h-163zM254 799q60 25 60 67q0 17 -11.5 27t-30.5 10q-30 0 -60 -20l-27 64q46 33 113 33q50 0 79 -25t29 -68q0 -92 -111 -141z" />
    <glyph glyph-name="uni020A" unicode="&#x20a;" horiz-adv-x="328" 
d="M169 700h163l-140 -700h-163zM144.5 868.5q55.5 41.5 135.5 41.5q77 0 124 -42t41 -111h-96q2 33 -19.5 52.5t-58.5 19.5t-62 -19.5t-32 -52.5h-101q13 70 68.5 111.5z" />
    <glyph glyph-name="Imacron" unicode="&#x12a;" horiz-adv-x="328" 
d="M169 700h163l-140 -700h-163zM134 873h300l-17 -88h-300z" />
    <glyph glyph-name="Iogonek" unicode="&#x12e;" horiz-adv-x="328" 
d="M169 700h163l-140 -700h-163zM31 -205.5q-28 26.5 -28 69.5q0 56 40 101t108 77l41 -42q-86 -61 -86 -119q0 -16 9 -25t24 -9q18 0 35 10l9 -70q-29 -19 -72 -19q-52 0 -80 26.5z" />
    <glyph glyph-name="Itilde" unicode="&#x128;" horiz-adv-x="328" 
d="M169 700h163l-140 -700h-163zM298.5 764q-19.5 10 -42.5 28q-19 14 -29 19.5t-22 5.5q-20 0 -34 -15t-19 -41h-79q11 71 46 108.5t87 37.5q26 0 45.5 -10t42.5 -28q18 -14 28.5 -20t22.5 -6q21 0 34.5 14.5t18.5 39.5h79q-11 -68 -45.5 -105.5t-86.5 -37.5
q-27 0 -46.5 10z" />
    <glyph glyph-name="J" unicode="J" horiz-adv-x="541" 
d="M41 15q-58 27 -90 78l107 102q46 -74 123 -74q94 0 116 109l67 340h-245l26 130h406l-93 -462q-26 -134 -94 -192t-185 -58q-80 0 -138 27z" />
    <glyph glyph-name="Jcircumflex" unicode="&#x134;" horiz-adv-x="541" 
d="M41 15q-58 27 -90 78l107 102q46 -74 123 -74q94 0 116 109l67 340h-245l26 130h406l-93 -462q-26 -134 -94 -192t-185 -58q-80 0 -138 27zM449 757l-77 75l-97 -75h-117l152 144h137l113 -144h-111z" />
    <glyph glyph-name="K" unicode="K" horiz-adv-x="740" 
d="M457 376l243 -376h-182l-180 274l-113 -100l-35 -174h-161l140 700h161l-64 -321l363 321h196z" />
    <glyph glyph-name="uni01E8" unicode="&#x1e8;" horiz-adv-x="740" 
d="M457 376l243 -376h-182l-180 274l-113 -100l-35 -174h-161l140 700h161l-64 -321l363 321h196zM699 901l-151 -144h-138l-112 144h111l77 -75l97 75h116z" />
    <glyph glyph-name="Kcommaaccent" unicode="&#x136;" horiz-adv-x="740" 
d="M457 376l243 -376h-182l-180 274l-113 -100l-35 -174h-161l140 700h161l-64 -321l363 321h196zM350.5 -88q17.5 -15 17.5 -38q0 -16 -6.5 -30.5t-24.5 -40.5l-49 -69h-71l41 81q-30 12 -30 44q0 30 19 49t54 19q32 0 49.5 -15z" />
    <glyph glyph-name="L" unicode="L" horiz-adv-x="604" 
d="M169 700h163l-114 -568h351l-27 -132h-513z" />
    <glyph glyph-name="uni01C7" unicode="&#x1c7;" horiz-adv-x="1145" 
d="M169 700h163l-114 -568h351l-27 -132h-513zM645 15q-58 27 -90 78l107 102q46 -74 123 -74q94 0 116 109l67 340h-245l26 130h406l-93 -462q-26 -134 -94 -192t-185 -58q-80 0 -138 27z" />
    <glyph glyph-name="Lacute" unicode="&#x139;" horiz-adv-x="604" 
d="M169 700h163l-114 -568h351l-27 -132h-513zM319 901h172l-196 -144h-126z" />
    <glyph glyph-name="Lcaron" unicode="&#x13d;" horiz-adv-x="604" 
d="M169 700h163l-114 -568h351l-27 -132h-513zM526 741h117l-61 -201h-96z" />
    <glyph glyph-name="Lcommaaccent" unicode="&#x13b;" horiz-adv-x="604" 
d="M169 700h163l-114 -568h351l-27 -132h-513zM322.5 -88q17.5 -15 17.5 -38q0 -16 -6.5 -30.5t-24.5 -40.5l-49 -69h-71l41 81q-30 12 -30 44q0 30 19 49t54 19q32 0 49.5 -15z" />
    <glyph glyph-name="Ldot" unicode="&#x13f;" horiz-adv-x="604" 
d="M169 700h163l-114 -568h351l-27 -132h-513zM434 351.5q-23 22.5 -23 57.5q0 41 26.5 67.5t64.5 26.5q35 0 57.5 -22.5t22.5 -58.5q0 -41 -26.5 -67t-63.5 -26q-35 0 -58 22.5z" />
    <glyph glyph-name="uni1E36" unicode="&#x1e36;" horiz-adv-x="604" 
d="M169 700h163l-114 -568h351l-27 -132h-513zM215.5 -193q-17.5 17 -17.5 45q0 31 23 53t53 22q27 0 45.5 -17t18.5 -43q0 -35 -21.5 -56t-54.5 -21q-29 0 -46.5 17z" />
    <glyph glyph-name="uni01C8" unicode="&#x1c8;" horiz-adv-x="910" 
d="M169 700h163l-114 -568h351l-27 -132h-513zM424 -172l62 113q27 -19 65 -19q32 0 50.5 19t26.5 60l108 537h156l-107 -533q-41 -207 -232 -207q-78 0 -129 30zM774.5 636.5q-25.5 23.5 -25.5 57.5q0 40 28.5 66.5t74.5 26.5q41 0 66.5 -22.5t25.5 -55.5q0 -43 -29 -69.5
t-75 -26.5q-40 0 -65.5 23.5z" />
    <glyph glyph-name="uni1E3A" unicode="&#x1e3a;" horiz-adv-x="604" 
d="M169 700h163l-114 -568h351l-27 -132h-513zM92 -95h370l-16 -87h-370z" />
    <glyph glyph-name="Lslash" unicode="&#x141;" horiz-adv-x="617" 
d="M182 700h163l-114 -568h351l-27 -132h-513zM-13 304l432 283l52 -81l-431 -282z" />
    <glyph glyph-name="M" unicode="M" horiz-adv-x="955" 
d="M957 700l-139 -700h-152l82 416l-267 -342h-72l-144 346l-84 -420h-152l140 700h132l175 -436l342 436h139z" />
    <glyph glyph-name="uni1E42" unicode="&#x1e42;" horiz-adv-x="955" 
d="M957 700l-139 -700h-152l82 416l-267 -342h-72l-144 346l-84 -420h-152l140 700h132l175 -436l342 436h139zM341.5 -193q-17.5 17 -17.5 45q0 31 23 53t53 22q27 0 45.5 -17t18.5 -43q0 -35 -21.5 -56t-54.5 -21q-29 0 -46.5 17z" />
    <glyph glyph-name="N" unicode="N" horiz-adv-x="808" 
d="M811 700l-140 -700h-133l-261 438l-88 -438h-160l140 700h134l261 -439l87 439h160z" />
    <glyph glyph-name="uni01CA" unicode="&#x1ca;" horiz-adv-x="1349" 
d="M811 700l-140 -700h-133l-261 438l-88 -438h-160l140 700h134l261 -439l87 439h160zM849 15q-58 27 -90 78l107 102q46 -74 123 -74q94 0 116 109l67 340h-245l26 130h406l-93 -462q-26 -134 -94 -192t-185 -58q-80 0 -138 27z" />
    <glyph glyph-name="Nacute" unicode="&#x143;" horiz-adv-x="808" 
d="M811 700l-140 -700h-133l-261 438l-88 -438h-160l140 700h134l261 -439l87 439h160zM559 901h172l-196 -144h-126z" />
    <glyph glyph-name="Ncaron" unicode="&#x147;" horiz-adv-x="808" 
d="M811 700l-140 -700h-133l-261 438l-88 -438h-160l140 700h134l261 -439l87 439h160zM725 901l-151 -144h-138l-112 144h111l77 -75l97 75h116z" />
    <glyph glyph-name="Ncommaaccent" unicode="&#x145;" horiz-adv-x="808" 
d="M811 700l-140 -700h-133l-261 438l-88 -438h-160l140 700h134l261 -439l87 439h160zM376.5 -88q17.5 -15 17.5 -38q0 -16 -6.5 -30.5t-24.5 -40.5l-49 -69h-71l41 81q-30 12 -30 44q0 30 19 49t54 19q32 0 49.5 -15z" />
    <glyph glyph-name="uni1E44" unicode="&#x1e44;" horiz-adv-x="808" 
d="M811 700l-140 -700h-133l-261 438l-88 -438h-160l140 700h134l261 -439l87 439h160zM457 783q-22 21 -22 53q0 42 26 68.5t65 26.5q35 0 56.5 -21t21.5 -54q0 -41 -26 -67.5t-64 -26.5q-35 0 -57 21z" />
    <glyph glyph-name="uni1E46" unicode="&#x1e46;" horiz-adv-x="808" 
d="M811 700l-140 -700h-133l-261 438l-88 -438h-160l140 700h134l261 -439l87 439h160zM269.5 -193q-17.5 17 -17.5 45q0 31 23 53t53 22q27 0 45.5 -17t18.5 -43q0 -35 -21.5 -56t-54.5 -21q-29 0 -46.5 17z" />
    <glyph glyph-name="Eng" unicode="&#x14a;" horiz-adv-x="808" 
d="M811 700l-126 -633q-21 -103 -58.5 -161.5t-92 -83t-131.5 -24.5q-55 0 -106 18.5t-81 51.5l87 108q19 -21 45.5 -33t57.5 -12q46 0 73 23.5t39 78.5l-241 405l-88 -438h-160l140 700h134l261 -439l87 439h160z" />
    <glyph glyph-name="uni01CB" unicode="&#x1cb;" horiz-adv-x="1114" 
d="M811 700l-140 -700h-133l-261 438l-88 -438h-160l140 700h134l261 -439l87 439h160zM628 -172l62 113q27 -19 65 -19q32 0 50.5 19t26.5 60l108 537h156l-107 -533q-41 -207 -232 -207q-78 0 -129 30zM978.5 636.5q-25.5 23.5 -25.5 57.5q0 40 28.5 66.5t74.5 26.5
q41 0 66.5 -22.5t25.5 -55.5q0 -43 -29 -69.5t-75 -26.5q-40 0 -65.5 23.5z" />
    <glyph glyph-name="uni1E48" unicode="&#x1e48;" horiz-adv-x="808" 
d="M811 700l-140 -700h-133l-261 438l-88 -438h-160l140 700h134l261 -439l87 439h160zM146 -95h370l-16 -87h-370z" />
    <glyph glyph-name="Ntilde" unicode="&#xd1;" horiz-adv-x="808" 
d="M811 700l-140 -700h-133l-261 438l-88 -438h-160l140 700h134l261 -439l87 439h160zM539.5 764q-19.5 10 -42.5 28q-19 14 -29 19.5t-22 5.5q-20 0 -34 -15t-19 -41h-79q11 71 46 108.5t87 37.5q26 0 45.5 -10t42.5 -28q18 -14 28.5 -20t22.5 -6q21 0 34.5 14.5
t18.5 39.5h79q-11 -68 -45.5 -105.5t-86.5 -37.5q-27 0 -46.5 10z" />
    <glyph glyph-name="O" unicode="O" horiz-adv-x="844" 
d="M210 26q-77 38 -118 107t-41 159q0 119 54.5 214.5t153 150.5t225.5 55q105 0 182 -38t118 -107t41 -159q0 -119 -54.5 -214.5t-153 -150.5t-225.5 -55q-105 0 -182 38zM541 163q58 37 89 99t31 137q0 80 -50 127.5t-141 47.5q-77 0 -135 -37t-89 -99t-31 -137
q0 -80 50 -127.5t141 -47.5q77 0 135 37z" />
    <glyph glyph-name="Oacute" unicode="&#xd3;" horiz-adv-x="844" 
d="M210 26q-77 38 -118 107t-41 159q0 119 54.5 214.5t153 150.5t225.5 55q105 0 182 -38t118 -107t41 -159q0 -119 -54.5 -214.5t-153 -150.5t-225.5 -55q-105 0 -182 38zM541 163q58 37 89 99t31 137q0 80 -50 127.5t-141 47.5q-77 0 -135 -37t-89 -99t-31 -137
q0 -80 50 -127.5t141 -47.5q77 0 135 37zM576 901h172l-196 -144h-126z" />
    <glyph glyph-name="Obreve" unicode="&#x14e;" horiz-adv-x="844" 
d="M210 26q-77 38 -118 107t-41 159q0 119 54.5 214.5t153 150.5t225.5 55q105 0 182 -38t118 -107t41 -159q0 -119 -54.5 -214.5t-153 -150.5t-225.5 -55q-105 0 -182 38zM541 163q58 37 89 99t31 137q0 80 -50 127.5t-141 47.5q-77 0 -135 -37t-89 -99t-31 -137
q0 -80 50 -127.5t141 -47.5q77 0 135 37zM409 786.5q-47 37.5 -47 99.5q0 10 1 15h95q-1 -32 20.5 -51.5t58.5 -19.5t62 19.5t31 51.5h101q-13 -70 -68 -111t-135 -41q-72 0 -119 37.5z" />
    <glyph glyph-name="Ocircumflex" unicode="&#xd4;" horiz-adv-x="844" 
d="M210 26q-77 38 -118 107t-41 159q0 119 54.5 214.5t153 150.5t225.5 55q105 0 182 -38t118 -107t41 -159q0 -119 -54.5 -214.5t-153 -150.5t-225.5 -55q-105 0 -182 38zM541 163q58 37 89 99t31 137q0 80 -50 127.5t-141 47.5q-77 0 -135 -37t-89 -99t-31 -137
q0 -80 50 -127.5t141 -47.5q77 0 135 37zM609 757l-77 75l-97 -75h-117l152 144h137l113 -144h-111z" />
    <glyph glyph-name="uni1ED0" unicode="&#x1ed0;" horiz-adv-x="844" 
d="M210 26q-77 38 -118 107t-41 159q0 119 54.5 214.5t153 150.5t225.5 55q105 0 182 -38t118 -107t41 -159q0 -119 -54.5 -214.5t-153 -150.5t-225.5 -55q-105 0 -182 38zM541 163q58 37 89 99t31 137q0 80 -50 127.5t-141 47.5q-77 0 -135 -37t-89 -99t-31 -137
q0 -80 50 -127.5t141 -47.5q77 0 135 37zM607 757l-77 57l-95 -57h-117l150 114h135l117 -114h-113zM760 974h163l-170 -121h-117z" />
    <glyph glyph-name="uni1ED8" unicode="&#x1ed8;" horiz-adv-x="844" 
d="M210 26q-77 38 -118 107t-41 159q0 119 54.5 214.5t153 150.5t225.5 55q105 0 182 -38t118 -107t41 -159q0 -119 -54.5 -214.5t-153 -150.5t-225.5 -55q-105 0 -182 38zM541 163q58 37 89 99t31 137q0 80 -50 127.5t-141 47.5q-77 0 -135 -37t-89 -99t-31 -137
q0 -80 50 -127.5t141 -47.5q77 0 135 37zM286.5 -193q-17.5 17 -17.5 45q0 31 23 53t53 22q27 0 45.5 -17t18.5 -43q0 -35 -21.5 -56t-54.5 -21q-29 0 -46.5 17zM609 757l-77 75l-97 -75h-117l152 144h137l113 -144h-111z" />
    <glyph glyph-name="uni1ED2" unicode="&#x1ed2;" horiz-adv-x="844" 
d="M210 26q-77 38 -118 107t-41 159q0 119 54.5 214.5t153 150.5t225.5 55q105 0 182 -38t118 -107t41 -159q0 -119 -54.5 -214.5t-153 -150.5t-225.5 -55q-105 0 -182 38zM541 163q58 37 89 99t31 137q0 80 -50 127.5t-141 47.5q-77 0 -135 -37t-89 -99t-31 -137
q0 -80 50 -127.5t141 -47.5q77 0 135 37zM607 757l-77 57l-95 -57h-117l150 114h135l117 -114h-113zM565 974h160l86 -121h-113z" />
    <glyph glyph-name="uni1ED4" unicode="&#x1ed4;" horiz-adv-x="844" 
d="M210 26q-77 38 -118 107t-41 159q0 119 54.5 214.5t153 150.5t225.5 55q105 0 182 -38t118 -107t41 -159q0 -119 -54.5 -214.5t-153 -150.5t-225.5 -55q-105 0 -182 38zM541 163q58 37 89 99t31 137q0 80 -50 127.5t-141 47.5q-77 0 -135 -37t-89 -99t-31 -137
q0 -80 50 -127.5t141 -47.5q77 0 135 37zM607 757l-77 57l-95 -57h-117l150 114h135l117 -114h-113zM667 871q43 19 43 47q0 11 -7.5 17.5t-21.5 6.5q-23 0 -47 -12l-19 49q39 21 84 21q38 0 61 -19t23 -50q0 -33 -22.5 -58t-59.5 -39z" />
    <glyph glyph-name="uni1ED6" unicode="&#x1ed6;" horiz-adv-x="844" 
d="M210 26q-77 38 -118 107t-41 159q0 119 54.5 214.5t153 150.5t225.5 55q105 0 182 -38t118 -107t41 -159q0 -119 -54.5 -214.5t-153 -150.5t-225.5 -55q-105 0 -182 38zM541 163q58 37 89 99t31 137q0 80 -50 127.5t-141 47.5q-77 0 -135 -37t-89 -99t-31 -137
q0 -80 50 -127.5t141 -47.5q77 0 135 37zM607 757l-77 57l-95 -57h-117l150 114h135l117 -114h-113zM580.5 914.5q-19.5 8.5 -41.5 23.5q-27 20 -44 20q-20 0 -33 -12.5t-17 -33.5h-81q9 60 43.5 92.5t87.5 32.5q26 0 45.5 -8.5t40.5 -23.5q15 -10 25 -15t21 -5
q20 0 33.5 12.5t18.5 32.5h78q-9 -58 -43 -91t-88 -33q-26 0 -45.5 8.5z" />
    <glyph glyph-name="uni020C" unicode="&#x20c;" horiz-adv-x="844" 
d="M210 26q-77 38 -118 107t-41 159q0 119 54.5 214.5t153 150.5t225.5 55q105 0 182 -38t118 -107t41 -159q0 -119 -54.5 -214.5t-153 -150.5t-225.5 -55q-105 0 -182 38zM541 163q58 37 89 99t31 137q0 80 -50 127.5t-141 47.5q-77 0 -135 -37t-89 -99t-31 -137
q0 -80 50 -127.5t141 -47.5q77 0 135 37zM288 901h140l44 -144h-108zM490 901h140l44 -144h-108z" />
    <glyph glyph-name="Odieresis" unicode="&#xd6;" horiz-adv-x="844" 
d="M210 26q-77 38 -118 107t-41 159q0 119 54.5 214.5t153 150.5t225.5 55q105 0 182 -38t118 -107t41 -159q0 -119 -54.5 -214.5t-153 -150.5t-225.5 -55q-105 0 -182 38zM541 163q58 37 89 99t31 137q0 80 -50 127.5t-141 47.5q-77 0 -135 -37t-89 -99t-31 -137
q0 -80 50 -127.5t141 -47.5q77 0 135 37zM380.5 779q-18.5 17 -18.5 45q0 33 22 54.5t52 21.5q28 0 47 -17t19 -45q0 -33 -22.5 -54.5t-52.5 -21.5q-28 0 -46.5 17zM583.5 779q-18.5 17 -18.5 45q0 34 21.5 55t52.5 21q28 0 46.5 -17t18.5 -45q0 -33 -22 -54.5t-52 -21.5
q-28 0 -46.5 17z" />
    <glyph glyph-name="uni022A" unicode="&#x22a;" horiz-adv-x="844" 
d="M210 26q-77 38 -118 107t-41 159q0 119 54.5 214.5t153 150.5t225.5 55q105 0 182 -38t118 -107t41 -159q0 -119 -54.5 -214.5t-153 -150.5t-225.5 -55q-105 0 -182 38zM541 163q58 37 89 99t31 137q0 80 -50 127.5t-141 47.5q-77 0 -135 -37t-89 -99t-31 -137
q0 -80 50 -127.5t141 -47.5q77 0 135 37zM386.5 778q-17.5 16 -17.5 43q0 32 20.5 52.5t49.5 20.5q27 0 44.5 -17t17.5 -44q0 -31 -20.5 -51t-49.5 -20q-27 0 -44.5 16zM581.5 778q-17.5 16 -17.5 43q0 31 21 52t50 21q27 0 44.5 -17t17.5 -44q0 -31 -21 -51t-50 -20
q-27 0 -44.5 16zM385 1017h370l-16 -83h-370z" />
    <glyph glyph-name="uni0230" unicode="&#x230;" horiz-adv-x="844" 
d="M210 26q-77 38 -118 107t-41 159q0 119 54.5 214.5t153 150.5t225.5 55q105 0 182 -38t118 -107t41 -159q0 -119 -54.5 -214.5t-153 -150.5t-225.5 -55q-105 0 -182 38zM541 163q58 37 89 99t31 137q0 80 -50 127.5t-141 47.5q-77 0 -135 -37t-89 -99t-31 -137
q0 -80 50 -127.5t141 -47.5q77 0 135 37zM482 779q-18 17 -18 46q0 33 21.5 54t52.5 21q28 0 46.5 -17.5t18.5 -46.5q0 -32 -22 -53t-53 -21q-28 0 -46 17zM387 1024h370l-16 -83h-370z" />
    <glyph glyph-name="uni1ECC" unicode="&#x1ecc;" horiz-adv-x="844" 
d="M210 26q-77 38 -118 107t-41 159q0 119 54.5 214.5t153 150.5t225.5 55q105 0 182 -38t118 -107t41 -159q0 -119 -54.5 -214.5t-153 -150.5t-225.5 -55q-105 0 -182 38zM541 163q58 37 89 99t31 137q0 80 -50 127.5t-141 47.5q-77 0 -135 -37t-89 -99t-31 -137
q0 -80 50 -127.5t141 -47.5q77 0 135 37zM286.5 -193q-17.5 17 -17.5 45q0 31 23 53t53 22q27 0 45.5 -17t18.5 -43q0 -35 -21.5 -56t-54.5 -21q-29 0 -46.5 17z" />
    <glyph glyph-name="Ograve" unicode="&#xd2;" horiz-adv-x="844" 
d="M210 26q-77 38 -118 107t-41 159q0 119 54.5 214.5t153 150.5t225.5 55q105 0 182 -38t118 -107t41 -159q0 -119 -54.5 -214.5t-153 -150.5t-225.5 -55q-105 0 -182 38zM541 163q58 37 89 99t31 137q0 80 -50 127.5t-141 47.5q-77 0 -135 -37t-89 -99t-31 -137
q0 -80 50 -127.5t141 -47.5q77 0 135 37zM336 901h167l106 -144h-121z" />
    <glyph glyph-name="uni1ECE" unicode="&#x1ece;" horiz-adv-x="844" 
d="M210 26q-77 38 -118 107t-41 159q0 119 54.5 214.5t153 150.5t225.5 55q105 0 182 -38t118 -107t41 -159q0 -119 -54.5 -214.5t-153 -150.5t-225.5 -55q-105 0 -182 38zM541 163q58 37 89 99t31 137q0 80 -50 127.5t-141 47.5q-77 0 -135 -37t-89 -99t-31 -137
q0 -80 50 -127.5t141 -47.5q77 0 135 37zM512 799q60 25 60 67q0 17 -11.5 27t-30.5 10q-30 0 -60 -20l-27 64q46 33 113 33q50 0 79 -25t29 -68q0 -92 -111 -141z" />
    <glyph glyph-name="Ohorn" unicode="&#x1a0;" horiz-adv-x="844" 
d="M858.5 650q-35.5 -42 -95.5 -53q62 -77 62 -189q0 -119 -54.5 -214.5t-153 -150.5t-225.5 -55q-105 0 -182 38t-118 107t-41 159q0 119 54.5 214.5t153 150.5t225.5 55q35 0 68 -3.5t61 -7.5q60 -8 89 -8q41 0 64 19.5t23 50.5q0 35 -20 60l93 34q32 -44 32 -101
q0 -64 -35.5 -106zM541 163q58 37 89 99t31 137q0 80 -50 127.5t-141 47.5q-77 0 -135 -37t-89 -99t-31 -137q0 -80 50 -127.5t141 -47.5q77 0 135 37z" />
    <glyph glyph-name="uni1EDA" unicode="&#x1eda;" horiz-adv-x="844" 
d="M858.5 650q-35.5 -42 -95.5 -53q62 -77 62 -189q0 -119 -54.5 -214.5t-153 -150.5t-225.5 -55q-105 0 -182 38t-118 107t-41 159q0 119 54.5 214.5t153 150.5t225.5 55q35 0 68 -3.5t61 -7.5q60 -8 89 -8q41 0 64 19.5t23 50.5q0 35 -20 60l93 34q32 -44 32 -101
q0 -64 -35.5 -106zM541 163q58 37 89 99t31 137q0 80 -50 127.5t-141 47.5q-77 0 -135 -37t-89 -99t-31 -137q0 -80 50 -127.5t141 -47.5q77 0 135 37zM576 901h172l-196 -144h-126z" />
    <glyph glyph-name="uni1EE2" unicode="&#x1ee2;" horiz-adv-x="844" 
d="M858.5 650q-35.5 -42 -95.5 -53q62 -77 62 -189q0 -119 -54.5 -214.5t-153 -150.5t-225.5 -55q-105 0 -182 38t-118 107t-41 159q0 119 54.5 214.5t153 150.5t225.5 55q35 0 68 -3.5t61 -7.5q60 -8 89 -8q41 0 64 19.5t23 50.5q0 35 -20 60l93 34q32 -44 32 -101
q0 -64 -35.5 -106zM541 163q58 37 89 99t31 137q0 80 -50 127.5t-141 47.5q-77 0 -135 -37t-89 -99t-31 -137q0 -80 50 -127.5t141 -47.5q77 0 135 37zM286.5 -193q-17.5 17 -17.5 45q0 31 23 53t53 22q27 0 45.5 -17t18.5 -43q0 -35 -21.5 -56t-54.5 -21q-29 0 -46.5 17z
" />
    <glyph glyph-name="uni1EDC" unicode="&#x1edc;" horiz-adv-x="844" 
d="M858.5 650q-35.5 -42 -95.5 -53q62 -77 62 -189q0 -119 -54.5 -214.5t-153 -150.5t-225.5 -55q-105 0 -182 38t-118 107t-41 159q0 119 54.5 214.5t153 150.5t225.5 55q35 0 68 -3.5t61 -7.5q60 -8 89 -8q41 0 64 19.5t23 50.5q0 35 -20 60l93 34q32 -44 32 -101
q0 -64 -35.5 -106zM541 163q58 37 89 99t31 137q0 80 -50 127.5t-141 47.5q-77 0 -135 -37t-89 -99t-31 -137q0 -80 50 -127.5t141 -47.5q77 0 135 37zM336 901h167l106 -144h-121z" />
    <glyph glyph-name="uni1EDE" unicode="&#x1ede;" horiz-adv-x="844" 
d="M858.5 650q-35.5 -42 -95.5 -53q62 -77 62 -189q0 -119 -54.5 -214.5t-153 -150.5t-225.5 -55q-105 0 -182 38t-118 107t-41 159q0 119 54.5 214.5t153 150.5t225.5 55q35 0 68 -3.5t61 -7.5q60 -8 89 -8q41 0 64 19.5t23 50.5q0 35 -20 60l93 34q32 -44 32 -101
q0 -64 -35.5 -106zM541 163q58 37 89 99t31 137q0 80 -50 127.5t-141 47.5q-77 0 -135 -37t-89 -99t-31 -137q0 -80 50 -127.5t141 -47.5q77 0 135 37zM512 799q60 25 60 67q0 17 -11.5 27t-30.5 10q-30 0 -60 -20l-27 64q46 33 113 33q50 0 79 -25t29 -68q0 -92 -111 -141z
" />
    <glyph glyph-name="uni1EE0" unicode="&#x1ee0;" horiz-adv-x="844" 
d="M858.5 650q-35.5 -42 -95.5 -53q62 -77 62 -189q0 -119 -54.5 -214.5t-153 -150.5t-225.5 -55q-105 0 -182 38t-118 107t-41 159q0 119 54.5 214.5t153 150.5t225.5 55q35 0 68 -3.5t61 -7.5q60 -8 89 -8q41 0 64 19.5t23 50.5q0 35 -20 60l93 34q32 -44 32 -101
q0 -64 -35.5 -106zM541 163q58 37 89 99t31 137q0 80 -50 127.5t-141 47.5q-77 0 -135 -37t-89 -99t-31 -137q0 -80 50 -127.5t141 -47.5q77 0 135 37zM556.5 764q-19.5 10 -42.5 28q-19 14 -29 19.5t-22 5.5q-20 0 -34 -15t-19 -41h-79q11 71 46 108.5t87 37.5
q26 0 45.5 -10t42.5 -28q18 -14 28.5 -20t22.5 -6q21 0 34.5 14.5t18.5 39.5h79q-11 -68 -45.5 -105.5t-86.5 -37.5q-27 0 -46.5 10z" />
    <glyph glyph-name="Ohungarumlaut" unicode="&#x150;" horiz-adv-x="844" 
d="M210 26q-77 38 -118 107t-41 159q0 119 54.5 214.5t153 150.5t225.5 55q105 0 182 -38t118 -107t41 -159q0 -119 -54.5 -214.5t-153 -150.5t-225.5 -55q-105 0 -182 38zM541 163q58 37 89 99t31 137q0 80 -50 127.5t-141 47.5q-77 0 -135 -37t-89 -99t-31 -137
q0 -80 50 -127.5t141 -47.5q77 0 135 37zM447 901h150l-120 -144h-118zM649 901h150l-121 -144h-116z" />
    <glyph glyph-name="uni020E" unicode="&#x20e;" horiz-adv-x="844" 
d="M210 26q-77 38 -118 107t-41 159q0 119 54.5 214.5t153 150.5t225.5 55q105 0 182 -38t118 -107t41 -159q0 -119 -54.5 -214.5t-153 -150.5t-225.5 -55q-105 0 -182 38zM541 163q58 37 89 99t31 137q0 80 -50 127.5t-141 47.5q-77 0 -135 -37t-89 -99t-31 -137
q0 -80 50 -127.5t141 -47.5q77 0 135 37zM402.5 868.5q55.5 41.5 135.5 41.5q77 0 124 -42t41 -111h-96q2 33 -19.5 52.5t-58.5 19.5t-62 -19.5t-32 -52.5h-101q13 70 68.5 111.5z" />
    <glyph glyph-name="Omacron" unicode="&#x14c;" horiz-adv-x="844" 
d="M210 26q-77 38 -118 107t-41 159q0 119 54.5 214.5t153 150.5t225.5 55q105 0 182 -38t118 -107t41 -159q0 -119 -54.5 -214.5t-153 -150.5t-225.5 -55q-105 0 -182 38zM541 163q58 37 89 99t31 137q0 80 -50 127.5t-141 47.5q-77 0 -135 -37t-89 -99t-31 -137
q0 -80 50 -127.5t141 -47.5q77 0 135 37zM357 873h369l-17 -88h-369z" />
    <glyph glyph-name="uni1E52" unicode="&#x1e52;" horiz-adv-x="844" 
d="M210 26q-77 38 -118 107t-41 159q0 119 54.5 214.5t153 150.5t225.5 55q105 0 182 -38t118 -107t41 -159q0 -119 -54.5 -214.5t-153 -150.5t-225.5 -55q-105 0 -182 38zM541 163q58 37 89 99t31 137q0 80 -50 127.5t-141 47.5q-77 0 -135 -37t-89 -99t-31 -137
q0 -80 50 -127.5t141 -47.5q77 0 135 37zM353 856h370l-16 -83h-370zM586 1039h163l-170 -121h-117z" />
    <glyph glyph-name="uni1E50" unicode="&#x1e50;" horiz-adv-x="844" 
d="M210 26q-77 38 -118 107t-41 159q0 119 54.5 214.5t153 150.5t225.5 55q105 0 182 -38t118 -107t41 -159q0 -119 -54.5 -214.5t-153 -150.5t-225.5 -55q-105 0 -182 38zM541 163q58 37 89 99t31 137q0 80 -50 127.5t-141 47.5q-77 0 -135 -37t-89 -99t-31 -137
q0 -80 50 -127.5t141 -47.5q77 0 135 37zM353 856h370l-16 -83h-370zM391 1039h160l86 -121h-113z" />
    <glyph glyph-name="uni01EA" unicode="&#x1ea;" horiz-adv-x="844" 
d="M666 674q77 -38 118 -107t41 -159q0 -103 -41.5 -189t-117.5 -143.5t-175 -77.5q-87 -18 -125 -47.5t-38 -61.5q0 -20 13 -31t36 -11q33 0 63 15l12 -71q-48 -23 -101 -23q-57 0 -91.5 26.5t-34.5 72.5q0 76 82 128q-121 22 -188.5 101t-67.5 196q0 119 54.5 214.5
t153 150.5t225.5 55q105 0 182 -38zM541 163q58 37 89 99t31 137q0 80 -50 127.5t-141 47.5q-77 0 -135 -37t-89 -99t-31 -137q0 -80 50 -127.5t141 -47.5q77 0 135 37z" />
    <glyph glyph-name="Oslash" unicode="&#xd8;" horiz-adv-x="844" 
d="M210 26q-77 38 -118 107t-41 159q0 119 54.5 214.5t153 150.5t225.5 55q105 0 182 -38t118 -107t41 -159q0 -119 -54.5 -214.5t-153 -150.5t-225.5 -55q-105 0 -182 38zM541 163q58 37 89 99t31 137q0 80 -50 127.5t-141 47.5q-77 0 -135 -37t-89 -99t-31 -137
q0 -80 50 -127.5t141 -47.5q77 0 135 37zM766 770h108l-764 -840h-109z" />
    <glyph glyph-name="Oslashacute" unicode="&#x1fe;" horiz-adv-x="844" 
d="M210 26q-77 38 -118 107t-41 159q0 119 54.5 214.5t153 150.5t225.5 55q105 0 182 -38t118 -107t41 -159q0 -119 -54.5 -214.5t-153 -150.5t-225.5 -55q-105 0 -182 38zM541 163q58 37 89 99t31 137q0 80 -50 127.5t-141 47.5q-77 0 -135 -37t-89 -99t-31 -137
q0 -80 50 -127.5t141 -47.5q77 0 135 37zM766 770h108l-764 -840h-109zM576 901h172l-196 -144h-126z" />
    <glyph glyph-name="Otilde" unicode="&#xd5;" horiz-adv-x="844" 
d="M210 26q-77 38 -118 107t-41 159q0 119 54.5 214.5t153 150.5t225.5 55q105 0 182 -38t118 -107t41 -159q0 -119 -54.5 -214.5t-153 -150.5t-225.5 -55q-105 0 -182 38zM541 163q58 37 89 99t31 137q0 80 -50 127.5t-141 47.5q-77 0 -135 -37t-89 -99t-31 -137
q0 -80 50 -127.5t141 -47.5q77 0 135 37zM556.5 764q-19.5 10 -42.5 28q-19 14 -29 19.5t-22 5.5q-20 0 -34 -15t-19 -41h-79q11 71 46 108.5t87 37.5q26 0 45.5 -10t42.5 -28q18 -14 28.5 -20t22.5 -6q21 0 34.5 14.5t18.5 39.5h79q-11 -68 -45.5 -105.5t-86.5 -37.5
q-27 0 -46.5 10z" />
    <glyph glyph-name="uni1E4C" unicode="&#x1e4c;" horiz-adv-x="844" 
d="M210 26q-77 38 -118 107t-41 159q0 119 54.5 214.5t153 150.5t225.5 55q105 0 182 -38t118 -107t41 -159q0 -119 -54.5 -214.5t-153 -150.5t-225.5 -55q-105 0 -182 38zM541 163q58 37 89 99t31 137q0 80 -50 127.5t-141 47.5q-77 0 -135 -37t-89 -99t-31 -137
q0 -80 50 -127.5t141 -47.5q77 0 135 37zM551.5 763.5q-19.5 8.5 -41.5 23.5q-27 20 -44 20q-20 0 -33 -12.5t-17 -33.5h-81q9 60 43.5 92.5t87.5 32.5q26 0 45.5 -8.5t40.5 -23.5q15 -10 25 -15t21 -5q20 0 33.5 12.5t18.5 32.5h78q-9 -58 -43 -91t-88 -33q-26 0 -45.5 8.5
zM586 1039h163l-170 -121h-117z" />
    <glyph glyph-name="uni1E4E" unicode="&#x1e4e;" horiz-adv-x="844" 
d="M210 26q-77 38 -118 107t-41 159q0 119 54.5 214.5t153 150.5t225.5 55q105 0 182 -38t118 -107t41 -159q0 -119 -54.5 -214.5t-153 -150.5t-225.5 -55q-105 0 -182 38zM541 163q58 37 89 99t31 137q0 80 -50 127.5t-141 47.5q-77 0 -135 -37t-89 -99t-31 -137
q0 -80 50 -127.5t141 -47.5q77 0 135 37zM551.5 763.5q-19.5 8.5 -41.5 23.5q-27 20 -44 20q-20 0 -33 -12.5t-17 -33.5h-81q9 60 43.5 92.5t87.5 32.5q26 0 45.5 -8.5t40.5 -23.5q15 -10 25 -15t21 -5q20 0 33.5 12.5t18.5 32.5h78q-9 -58 -43 -91t-88 -33q-26 0 -45.5 8.5
zM418.5 939q-17.5 16 -17.5 43q0 32 20.5 52.5t49.5 20.5q27 0 44.5 -17t17.5 -44q0 -31 -20.5 -51t-49.5 -20q-27 0 -44.5 16zM613.5 939q-17.5 16 -17.5 43q0 31 21 52t50 21q27 0 44.5 -17t17.5 -44q0 -31 -21 -51t-50 -20q-27 0 -44.5 16z" />
    <glyph glyph-name="uni022C" unicode="&#x22c;" horiz-adv-x="844" 
d="M210 26q-77 38 -118 107t-41 159q0 119 54.5 214.5t153 150.5t225.5 55q105 0 182 -38t118 -107t41 -159q0 -119 -54.5 -214.5t-153 -150.5t-225.5 -55q-105 0 -182 38zM541 163q58 37 89 99t31 137q0 80 -50 127.5t-141 47.5q-77 0 -135 -37t-89 -99t-31 -137
q0 -80 50 -127.5t141 -47.5q77 0 135 37zM551.5 763.5q-19.5 8.5 -41.5 23.5q-27 20 -44 20q-20 0 -33 -12.5t-17 -33.5h-81q9 60 43.5 92.5t87.5 32.5q26 0 45.5 -8.5t40.5 -23.5q15 -10 25 -15t21 -5q20 0 33.5 12.5t18.5 32.5h78q-9 -58 -43 -91t-88 -33q-26 0 -45.5 8.5
zM385 1017h370l-16 -83h-370z" />
    <glyph glyph-name="OE" unicode="&#x152;" horiz-adv-x="1136" 
d="M769 570l-30 -152h325l-25 -126h-326l-32 -162h382l-27 -130h-640q-106 0 -184 35.5t-119.5 101.5t-41.5 155q0 122 55 214.5t154 143t227 50.5h676l-26 -130h-368zM521 133l86 434h-125q-82 0 -142.5 -34.5t-92.5 -95t-32 -136.5q0 -79 51 -123.5t148 -44.5h107z" />
    <glyph glyph-name="P" unicode="P" horiz-adv-x="732" 
d="M654.5 642.5q71.5 -57.5 71.5 -160.5q0 -88 -41.5 -153.5t-118 -100.5t-180.5 -35h-156l-38 -193h-163l140 700h283q131 0 202.5 -57.5zM518 362q44 37 44 106q0 50 -33.5 75t-96.5 25h-127l-49 -243h137q81 0 125 37z" />
    <glyph glyph-name="Thorn" unicode="&#xde;" horiz-adv-x="732" 
d="M640 566q71 -57 71 -161q0 -88 -41.5 -153t-118 -100.5t-180.5 -35.5h-156l-23 -116h-163l140 700h163l-15 -77h123q129 0 200 -57zM503 284.5q44 36.5 44 105.5q0 50 -33.5 75.5t-96.5 25.5h-127l-48 -243h136q81 0 125 36.5z" />
    <glyph glyph-name="Q" unicode="Q" horiz-adv-x="844" 
d="M661 -28.5q31 12.5 55 36.5l61 -97q-33 -35 -82.5 -53.5t-106.5 -18.5q-176 0 -272 155q-125 19 -195 99t-70 199t54.5 214.5t153 150.5t225.5 55q105 0 182 -38t118 -107t41 -159q0 -100 -39 -184t-110.5 -142t-167.5 -81q34 -42 90 -42q32 0 63 12.5zM265 173.5
q50 -47.5 141 -47.5q77 0 135 37t89 99t31 137q0 80 -50 127.5t-141 47.5q-77 0 -135 -37t-89 -99t-31 -137q0 -80 50 -127.5z" />
    <glyph glyph-name="R" unicode="R" horiz-adv-x="735" 
d="M675 315q-53 -70 -147 -99l122 -216h-171l-110 196h-138l-39 -196h-163l140 700h285q130 0 202 -57t72 -160q0 -98 -53 -168zM519.5 362q44.5 37 44.5 106q0 50 -34 75t-97 25h-128l-49 -243h138q81 0 125.5 37z" />
    <glyph glyph-name="Racute" unicode="&#x154;" horiz-adv-x="735" 
d="M675 315q-53 -70 -147 -99l122 -216h-171l-110 196h-138l-39 -196h-163l140 700h285q130 0 202 -57t72 -160q0 -98 -53 -168zM519.5 362q44.5 37 44.5 106q0 50 -34 75t-97 25h-128l-49 -243h138q81 0 125.5 37zM528 901h172l-196 -144h-126z" />
    <glyph glyph-name="Rcaron" unicode="&#x158;" horiz-adv-x="735" 
d="M675 315q-53 -70 -147 -99l122 -216h-171l-110 196h-138l-39 -196h-163l140 700h285q130 0 202 -57t72 -160q0 -98 -53 -168zM519.5 362q44.5 37 44.5 106q0 50 -34 75t-97 25h-128l-49 -243h138q81 0 125.5 37zM694 901l-151 -144h-138l-112 144h111l77 -75l97 75h116z
" />
    <glyph glyph-name="Rcommaaccent" unicode="&#x156;" horiz-adv-x="735" 
d="M675 315q-53 -70 -147 -99l122 -216h-171l-110 196h-138l-39 -196h-163l140 700h285q130 0 202 -57t72 -160q0 -98 -53 -168zM519.5 362q44.5 37 44.5 106q0 50 -34 75t-97 25h-128l-49 -243h138q81 0 125.5 37zM345.5 -88q17.5 -15 17.5 -38q0 -16 -6.5 -30.5
t-24.5 -40.5l-49 -69h-71l41 81q-30 12 -30 44q0 30 19 49t54 19q32 0 49.5 -15z" />
    <glyph glyph-name="uni0210" unicode="&#x210;" horiz-adv-x="735" 
d="M675 315q-53 -70 -147 -99l122 -216h-171l-110 196h-138l-39 -196h-163l140 700h285q130 0 202 -57t72 -160q0 -98 -53 -168zM519.5 362q44.5 37 44.5 106q0 50 -34 75t-97 25h-128l-49 -243h138q81 0 125.5 37zM240 901h140l44 -144h-108zM442 901h140l44 -144h-108z
" />
    <glyph glyph-name="uni1E5A" unicode="&#x1e5a;" horiz-adv-x="735" 
d="M675 315q-53 -70 -147 -99l122 -216h-171l-110 196h-138l-39 -196h-163l140 700h285q130 0 202 -57t72 -160q0 -98 -53 -168zM519.5 362q44.5 37 44.5 106q0 50 -34 75t-97 25h-128l-49 -243h138q81 0 125.5 37zM238.5 -193q-17.5 17 -17.5 45q0 31 23 53t53 22
q27 0 45.5 -17t18.5 -43q0 -35 -21.5 -56t-54.5 -21q-29 0 -46.5 17z" />
    <glyph glyph-name="uni0212" unicode="&#x212;" horiz-adv-x="735" 
d="M675 315q-53 -70 -147 -99l122 -216h-171l-110 196h-138l-39 -196h-163l140 700h285q130 0 202 -57t72 -160q0 -98 -53 -168zM519.5 362q44.5 37 44.5 106q0 50 -34 75t-97 25h-128l-49 -243h138q81 0 125.5 37zM354.5 868.5q55.5 41.5 135.5 41.5q77 0 124 -42t41 -111
h-96q2 33 -19.5 52.5t-58.5 19.5t-62 -19.5t-32 -52.5h-101q13 70 68.5 111.5z" />
    <glyph glyph-name="uni1E5E" unicode="&#x1e5e;" horiz-adv-x="735" 
d="M675 315q-53 -70 -147 -99l122 -216h-171l-110 196h-138l-39 -196h-163l140 700h285q130 0 202 -57t72 -160q0 -98 -53 -168zM519.5 362q44.5 37 44.5 106q0 50 -34 75t-97 25h-128l-49 -243h138q81 0 125.5 37zM115 -95h370l-16 -87h-370z" />
    <glyph glyph-name="S" unicode="S" horiz-adv-x="638" 
d="M114 10q-76 22 -122 56l66 125q48 -35 108 -54t123 -19q67 0 106 22t39 60q0 31 -31 47.5t-99 35.5q-68 20 -111 38.5t-74.5 55.5t-31.5 98q0 71 39.5 125t112 83t168.5 29q71 0 134 -15.5t108 -44.5l-61 -124q-39 27 -88 40.5t-102 13.5q-69 0 -109 -24t-40 -62
q0 -23 17 -38.5t43 -25t73 -22.5q67 -18 110 -36.5t73.5 -54t30.5 -93.5q0 -72 -40 -125.5t-113 -83t-170 -29.5q-83 0 -159 22z" />
    <glyph glyph-name="Sacute" unicode="&#x15a;" horiz-adv-x="638" 
d="M114 10q-76 22 -122 56l66 125q48 -35 108 -54t123 -19q67 0 106 22t39 60q0 31 -31 47.5t-99 35.5q-68 20 -111 38.5t-74.5 55.5t-31.5 98q0 71 39.5 125t112 83t168.5 29q71 0 134 -15.5t108 -44.5l-61 -124q-39 27 -88 40.5t-102 13.5q-69 0 -109 -24t-40 -62
q0 -23 17 -38.5t43 -25t73 -22.5q67 -18 110 -36.5t73.5 -54t30.5 -93.5q0 -72 -40 -125.5t-113 -83t-170 -29.5q-83 0 -159 22zM478 901h172l-196 -144h-126z" />
    <glyph glyph-name="uni1E64" unicode="&#x1e64;" horiz-adv-x="638" 
d="M114 10q-76 22 -122 56l66 125q48 -35 108 -54t123 -19q67 0 106 22t39 60q0 31 -31 47.5t-99 35.5q-68 20 -111 38.5t-74.5 55.5t-31.5 98q0 71 39.5 125t112 83t168.5 29q71 0 134 -15.5t108 -44.5l-61 -124q-39 27 -88 40.5t-102 13.5q-69 0 -109 -24t-40 -62
q0 -23 17 -38.5t43 -25t73 -22.5q67 -18 110 -36.5t73.5 -54t30.5 -93.5q0 -72 -40 -125.5t-113 -83t-170 -29.5q-83 0 -159 22zM456 878h163l-170 -121h-117zM416 940q-18 17 -18 46q0 33 21.5 54t52.5 21q28 0 46.5 -17.5t18.5 -46.5q0 -32 -22 -53t-53 -21q-28 0 -46 17z
" />
    <glyph glyph-name="uniA78B" unicode="&#xa78b;" horiz-adv-x="297" 
d="M154 700h160l-100 -403h-141z" />
    <glyph glyph-name="Scaron" unicode="&#x160;" horiz-adv-x="638" 
d="M114 10q-76 22 -122 56l66 125q48 -35 108 -54t123 -19q67 0 106 22t39 60q0 31 -31 47.5t-99 35.5q-68 20 -111 38.5t-74.5 55.5t-31.5 98q0 71 39.5 125t112 83t168.5 29q71 0 134 -15.5t108 -44.5l-61 -124q-39 27 -88 40.5t-102 13.5q-69 0 -109 -24t-40 -62
q0 -23 17 -38.5t43 -25t73 -22.5q67 -18 110 -36.5t73.5 -54t30.5 -93.5q0 -72 -40 -125.5t-113 -83t-170 -29.5q-83 0 -159 22zM644 901l-151 -144h-138l-112 144h111l77 -75l97 75h116z" />
    <glyph glyph-name="uni1E66" unicode="&#x1e66;" horiz-adv-x="638" 
d="M114 10q-76 22 -122 56l66 125q48 -35 108 -54t123 -19q67 0 106 22t39 60q0 31 -31 47.5t-99 35.5q-68 20 -111 38.5t-74.5 55.5t-31.5 98q0 71 39.5 125t112 83t168.5 29q71 0 134 -15.5t108 -44.5l-61 -124q-39 27 -88 40.5t-102 13.5q-69 0 -109 -24t-40 -62
q0 -23 17 -38.5t43 -25t73 -22.5q67 -18 110 -36.5t73.5 -54t30.5 -93.5q0 -72 -40 -125.5t-113 -83t-170 -29.5q-83 0 -159 22zM640 871l-149 -114h-136l-116 114h112l78 -56l94 56h117zM411 917q-18 17 -18 46q0 33 21.5 54t52.5 21q28 0 46.5 -17.5t18.5 -46.5
q0 -32 -22 -53t-53 -21q-28 0 -46 17z" />
    <glyph glyph-name="Scedilla" unicode="&#x15e;" horiz-adv-x="638" 
d="M114 10q-76 22 -122 56l66 125q48 -35 108 -54t123 -19q67 0 106 22t39 60q0 31 -31 47.5t-99 35.5q-68 20 -111 38.5t-74.5 55.5t-31.5 98q0 71 39.5 125t112 83t168.5 29q71 0 134 -15.5t108 -44.5l-61 -124q-39 27 -88 40.5t-102 13.5q-69 0 -109 -24t-40 -62
q0 -23 17 -38.5t43 -25t73 -22.5q67 -18 110 -36.5t73.5 -54t30.5 -93.5q0 -72 -40 -125.5t-113 -83t-170 -29.5q-83 0 -159 22zM104 -211l34 67q30 -15 67 -15q27 0 40.5 9t14.5 24q3 28 -43 28h-35l48 106h83l-25 -58q33 -4 51.5 -23.5t18.5 -45.5q0 -53 -43.5 -83
t-116.5 -30q-55 0 -94 21z" />
    <glyph glyph-name="Scircumflex" unicode="&#x15c;" horiz-adv-x="638" 
d="M114 10q-76 22 -122 56l66 125q48 -35 108 -54t123 -19q67 0 106 22t39 60q0 31 -31 47.5t-99 35.5q-68 20 -111 38.5t-74.5 55.5t-31.5 98q0 71 39.5 125t112 83t168.5 29q71 0 134 -15.5t108 -44.5l-61 -124q-39 27 -88 40.5t-102 13.5q-69 0 -109 -24t-40 -62
q0 -23 17 -38.5t43 -25t73 -22.5q67 -18 110 -36.5t73.5 -54t30.5 -93.5q0 -72 -40 -125.5t-113 -83t-170 -29.5q-83 0 -159 22zM511 757l-77 75l-97 -75h-117l152 144h137l113 -144h-111z" />
    <glyph glyph-name="Scommaaccent" unicode="&#x218;" horiz-adv-x="638" 
d="M114 10q-76 22 -122 56l66 125q48 -35 108 -54t123 -19q67 0 106 22t39 60q0 31 -31 47.5t-99 35.5q-68 20 -111 38.5t-74.5 55.5t-31.5 98q0 71 39.5 125t112 83t168.5 29q71 0 134 -15.5t108 -44.5l-61 -124q-39 27 -88 40.5t-102 13.5q-69 0 -109 -24t-40 -62
q0 -23 17 -38.5t43 -25t73 -22.5q67 -18 110 -36.5t73.5 -54t30.5 -93.5q0 -72 -40 -125.5t-113 -83t-170 -29.5q-83 0 -159 22zM295.5 -88q17.5 -15 17.5 -38q0 -16 -6.5 -30.5t-24.5 -40.5l-49 -69h-71l41 81q-30 12 -30 44q0 30 19 49t54 19q32 0 49.5 -15z" />
    <glyph glyph-name="uni1E60" unicode="&#x1e60;" horiz-adv-x="638" 
d="M114 10q-76 22 -122 56l66 125q48 -35 108 -54t123 -19q67 0 106 22t39 60q0 31 -31 47.5t-99 35.5q-68 20 -111 38.5t-74.5 55.5t-31.5 98q0 71 39.5 125t112 83t168.5 29q71 0 134 -15.5t108 -44.5l-61 -124q-39 27 -88 40.5t-102 13.5q-69 0 -109 -24t-40 -62
q0 -23 17 -38.5t43 -25t73 -22.5q67 -18 110 -36.5t73.5 -54t30.5 -93.5q0 -72 -40 -125.5t-113 -83t-170 -29.5q-83 0 -159 22zM376 783q-22 21 -22 53q0 42 26 68.5t65 26.5q35 0 56.5 -21t21.5 -54q0 -41 -26 -67.5t-64 -26.5q-35 0 -57 21z" />
    <glyph glyph-name="uni1E62" unicode="&#x1e62;" horiz-adv-x="638" 
d="M114 10q-76 22 -122 56l66 125q48 -35 108 -54t123 -19q67 0 106 22t39 60q0 31 -31 47.5t-99 35.5q-68 20 -111 38.5t-74.5 55.5t-31.5 98q0 71 39.5 125t112 83t168.5 29q71 0 134 -15.5t108 -44.5l-61 -124q-39 27 -88 40.5t-102 13.5q-69 0 -109 -24t-40 -62
q0 -23 17 -38.5t43 -25t73 -22.5q67 -18 110 -36.5t73.5 -54t30.5 -93.5q0 -72 -40 -125.5t-113 -83t-170 -29.5q-83 0 -159 22zM188.5 -193q-17.5 17 -17.5 45q0 31 23 53t53 22q27 0 45.5 -17t18.5 -43q0 -35 -21.5 -56t-54.5 -21q-29 0 -46.5 17z" />
    <glyph glyph-name="uni1E68" unicode="&#x1e68;" horiz-adv-x="638" 
d="M114 10q-76 22 -122 56l66 125q48 -35 108 -54t123 -19q67 0 106 22t39 60q0 31 -31 47.5t-99 35.5q-68 20 -111 38.5t-74.5 55.5t-31.5 98q0 71 39.5 125t112 83t168.5 29q71 0 134 -15.5t108 -44.5l-61 -124q-39 27 -88 40.5t-102 13.5q-69 0 -109 -24t-40 -62
q0 -23 17 -38.5t43 -25t73 -22.5q67 -18 110 -36.5t73.5 -54t30.5 -93.5q0 -72 -40 -125.5t-113 -83t-170 -29.5q-83 0 -159 22zM188.5 -193q-17.5 17 -17.5 45q0 31 23 53t53 22q27 0 45.5 -17t18.5 -43q0 -35 -21.5 -56t-54.5 -21q-29 0 -46.5 17zM376 783q-22 21 -22 53
q0 42 26 68.5t65 26.5q35 0 56.5 -21t21.5 -54q0 -41 -26 -67.5t-64 -26.5q-35 0 -57 21z" />
    <glyph glyph-name="uni1E9E" unicode="&#x1e9e;" horiz-adv-x="779" 
d="M688 345q39 -47 39 -114q0 -71 -35 -126t-99 -86t-149 -31q-43 0 -86.5 7.5t-72.5 19.5l41 124q52 -21 114 -21q56 0 90 28.5t34 77.5q0 39 -27.5 60.5t-77.5 21.5q-39 0 -69 -10l-15 71l206 198q-45 17 -100 17q-180 0 -216 -183l-79 -399h-163l82 407q31 153 127 229
t262 76q69 0 137 -18.5t112 -50.5l-19 -98l-141 -135q66 -18 105 -65z" />
    <glyph glyph-name="uni018F" unicode="&#x18f;" horiz-adv-x="817" 
d="M636.5 673.5q77.5 -38.5 119 -108t41.5 -161.5q0 -120 -52.5 -214.5t-146.5 -148t-214 -53.5q-101 0 -177.5 38t-117.5 105.5t-41 154.5q0 43 14 105h572v8q0 81 -50 128t-142 47q-60 0 -114.5 -19.5t-97.5 -57.5l-77 112q58 50 136.5 76.5t164.5 26.5q105 0 182.5 -38.5
zM530 163q56 46 83 118h-405q1 -76 48.5 -120t136.5 -44q81 0 137 46z" />
    <glyph glyph-name="T" unicode="T" horiz-adv-x="618" 
d="M287 568h-224l27 132h610l-27 -132h-223l-114 -568h-162z" />
    <glyph glyph-name="Tbar" unicode="&#x166;" horiz-adv-x="618" 
d="M287 568h-224l27 132h610l-27 -132h-223l-114 -568h-162zM116 382h432l-21 -108h-433z" />
    <glyph glyph-name="Tcaron" unicode="&#x164;" horiz-adv-x="618" 
d="M287 568h-224l27 132h610l-27 -132h-223l-114 -568h-162zM629 901l-151 -144h-138l-112 144h111l77 -75l97 75h116z" />
    <glyph glyph-name="uni0162" unicode="&#x162;" horiz-adv-x="618" 
d="M287 568h-224l27 132h610l-27 -132h-223l-114 -568h-162zM89 -211l34 67q30 -15 67 -15q27 0 40.5 9t14.5 24q3 28 -43 28h-35l48 106h83l-25 -58q33 -4 51.5 -23.5t18.5 -45.5q0 -53 -43.5 -83t-116.5 -30q-55 0 -94 21z" />
    <glyph glyph-name="uni021A" unicode="&#x21a;" horiz-adv-x="618" 
d="M287 568h-224l27 132h610l-27 -132h-223l-114 -568h-162zM280.5 -88q17.5 -15 17.5 -38q0 -16 -6.5 -30.5t-24.5 -40.5l-49 -69h-71l41 81q-30 12 -30 44q0 30 19 49t54 19q32 0 49.5 -15z" />
    <glyph glyph-name="uni1E6C" unicode="&#x1e6c;" horiz-adv-x="618" 
d="M287 568h-224l27 132h610l-27 -132h-223l-114 -568h-162zM173.5 -193q-17.5 17 -17.5 45q0 31 23 53t53 22q27 0 45.5 -17t18.5 -43q0 -35 -21.5 -56t-54.5 -21q-29 0 -46.5 17z" />
    <glyph glyph-name="uni1E6E" unicode="&#x1e6e;" horiz-adv-x="618" 
d="M287 568h-224l27 132h610l-27 -132h-223l-114 -568h-162zM50 -95h370l-16 -87h-370z" />
    <glyph glyph-name="U" unicode="U" horiz-adv-x="788" 
d="M152 53.5q-75 65.5 -75 179.5q0 33 8 75l78 392h163l-78 -389q-6 -33 -6 -59q0 -63 34.5 -94.5t100.5 -31.5q74 0 118 44t64 141l78 389h159l-79 -399q-64 -313 -358 -313q-132 0 -207 65.5z" />
    <glyph glyph-name="Uacute" unicode="&#xda;" horiz-adv-x="788" 
d="M152 53.5q-75 65.5 -75 179.5q0 33 8 75l78 392h163l-78 -389q-6 -33 -6 -59q0 -63 34.5 -94.5t100.5 -31.5q74 0 118 44t64 141l78 389h159l-79 -399q-64 -313 -358 -313q-132 0 -207 65.5zM549 901h172l-196 -144h-126z" />
    <glyph glyph-name="Ubreve" unicode="&#x16c;" horiz-adv-x="788" 
d="M152 53.5q-75 65.5 -75 179.5q0 33 8 75l78 392h163l-78 -389q-6 -33 -6 -59q0 -63 34.5 -94.5t100.5 -31.5q74 0 118 44t64 141l78 389h159l-79 -399q-64 -313 -358 -313q-132 0 -207 65.5zM382 786.5q-47 37.5 -47 99.5q0 10 1 15h95q-1 -32 20.5 -51.5t58.5 -19.5
t62 19.5t31 51.5h101q-13 -70 -68 -111t-135 -41q-72 0 -119 37.5z" />
    <glyph glyph-name="uni01D3" unicode="&#x1d3;" horiz-adv-x="788" 
d="M152 53.5q-75 65.5 -75 179.5q0 33 8 75l78 392h163l-78 -389q-6 -33 -6 -59q0 -63 34.5 -94.5t100.5 -31.5q74 0 118 44t64 141l78 389h159l-79 -399q-64 -313 -358 -313q-132 0 -207 65.5zM715 901l-151 -144h-138l-112 144h111l77 -75l97 75h116z" />
    <glyph glyph-name="Ucircumflex" unicode="&#xdb;" horiz-adv-x="788" 
d="M152 53.5q-75 65.5 -75 179.5q0 33 8 75l78 392h163l-78 -389q-6 -33 -6 -59q0 -63 34.5 -94.5t100.5 -31.5q74 0 118 44t64 141l78 389h159l-79 -399q-64 -313 -358 -313q-132 0 -207 65.5zM582 757l-77 75l-97 -75h-117l152 144h137l113 -144h-111z" />
    <glyph glyph-name="uni0214" unicode="&#x214;" horiz-adv-x="788" 
d="M152 53.5q-75 65.5 -75 179.5q0 33 8 75l78 392h163l-78 -389q-6 -33 -6 -59q0 -63 34.5 -94.5t100.5 -31.5q74 0 118 44t64 141l78 389h159l-79 -399q-64 -313 -358 -313q-132 0 -207 65.5zM261 901h140l44 -144h-108zM463 901h140l44 -144h-108z" />
    <glyph glyph-name="Udieresis" unicode="&#xdc;" horiz-adv-x="788" 
d="M152 53.5q-75 65.5 -75 179.5q0 33 8 75l78 392h163l-78 -389q-6 -33 -6 -59q0 -63 34.5 -94.5t100.5 -31.5q74 0 118 44t64 141l78 389h159l-79 -399q-64 -313 -358 -313q-132 0 -207 65.5zM353.5 779q-18.5 17 -18.5 45q0 33 22 54.5t52 21.5q28 0 47 -17t19 -45
q0 -33 -22.5 -54.5t-52.5 -21.5q-28 0 -46.5 17zM556.5 779q-18.5 17 -18.5 45q0 34 21.5 55t52.5 21q28 0 46.5 -17t18.5 -45q0 -33 -22 -54.5t-52 -21.5q-28 0 -46.5 17z" />
    <glyph glyph-name="uni1EE4" unicode="&#x1ee4;" horiz-adv-x="788" 
d="M152 53.5q-75 65.5 -75 179.5q0 33 8 75l78 392h163l-78 -389q-6 -33 -6 -59q0 -63 34.5 -94.5t100.5 -31.5q74 0 118 44t64 141l78 389h159l-79 -399q-64 -313 -358 -313q-132 0 -207 65.5zM259.5 -193q-17.5 17 -17.5 45q0 31 23 53t53 22q27 0 45.5 -17t18.5 -43
q0 -35 -21.5 -56t-54.5 -21q-29 0 -46.5 17z" />
    <glyph glyph-name="Ugrave" unicode="&#xd9;" horiz-adv-x="788" 
d="M152 53.5q-75 65.5 -75 179.5q0 33 8 75l78 392h163l-78 -389q-6 -33 -6 -59q0 -63 34.5 -94.5t100.5 -31.5q74 0 118 44t64 141l78 389h159l-79 -399q-64 -313 -358 -313q-132 0 -207 65.5zM309 901h167l106 -144h-121z" />
    <glyph glyph-name="uni1EE6" unicode="&#x1ee6;" horiz-adv-x="788" 
d="M152 53.5q-75 65.5 -75 179.5q0 33 8 75l78 392h163l-78 -389q-6 -33 -6 -59q0 -63 34.5 -94.5t100.5 -31.5q74 0 118 44t64 141l78 389h159l-79 -399q-64 -313 -358 -313q-132 0 -207 65.5zM485 799q60 25 60 67q0 17 -11.5 27t-30.5 10q-30 0 -60 -20l-27 64
q46 33 113 33q50 0 79 -25t29 -68q0 -92 -111 -141z" />
    <glyph glyph-name="Uhorn" unicode="&#x1af;" horiz-adv-x="802" 
d="M152 53.5q-75 65.5 -75 179.5q0 33 8 75l78 392h163l-78 -389q-6 -33 -6 -59q0 -63 34.5 -94.5t100.5 -31.5q74 0 118 44t64 141l78 389h159l-79 -399q-64 -313 -358 -313q-132 0 -207 65.5zM713 700h28q27 0 43.5 17.5t16.5 45.5q0 35 -20 60l92 34q32 -44 32 -100
q0 -74 -46 -117.5t-122 -43.5h-24v104z" />
    <glyph glyph-name="uni1EE8" unicode="&#x1ee8;" horiz-adv-x="802" 
d="M152 53.5q-75 65.5 -75 179.5q0 33 8 75l78 392h163l-78 -389q-6 -33 -6 -59q0 -63 34.5 -94.5t100.5 -31.5q74 0 118 44t64 141l78 389h159l-79 -399q-64 -313 -358 -313q-132 0 -207 65.5zM713 700h28q27 0 43.5 17.5t16.5 45.5q0 35 -20 60l92 34q32 -44 32 -100
q0 -74 -46 -117.5t-122 -43.5h-24v104zM549 901h172l-196 -144h-126z" />
    <glyph glyph-name="uni1EF0" unicode="&#x1ef0;" horiz-adv-x="802" 
d="M152 53.5q-75 65.5 -75 179.5q0 33 8 75l78 392h163l-78 -389q-6 -33 -6 -59q0 -63 34.5 -94.5t100.5 -31.5q74 0 118 44t64 141l78 389h159l-79 -399q-64 -313 -358 -313q-132 0 -207 65.5zM713 700h28q27 0 43.5 17.5t16.5 45.5q0 35 -20 60l92 34q32 -44 32 -100
q0 -74 -46 -117.5t-122 -43.5h-24v104zM259.5 -193q-17.5 17 -17.5 45q0 31 23 53t53 22q27 0 45.5 -17t18.5 -43q0 -35 -21.5 -56t-54.5 -21q-29 0 -46.5 17z" />
    <glyph glyph-name="uni1EEA" unicode="&#x1eea;" horiz-adv-x="802" 
d="M152 53.5q-75 65.5 -75 179.5q0 33 8 75l78 392h163l-78 -389q-6 -33 -6 -59q0 -63 34.5 -94.5t100.5 -31.5q74 0 118 44t64 141l78 389h159l-79 -399q-64 -313 -358 -313q-132 0 -207 65.5zM713 700h28q27 0 43.5 17.5t16.5 45.5q0 35 -20 60l92 34q32 -44 32 -100
q0 -74 -46 -117.5t-122 -43.5h-24v104zM309 901h167l106 -144h-121z" />
    <glyph glyph-name="uni1EEC" unicode="&#x1eec;" horiz-adv-x="802" 
d="M152 53.5q-75 65.5 -75 179.5q0 33 8 75l78 392h163l-78 -389q-6 -33 -6 -59q0 -63 34.5 -94.5t100.5 -31.5q74 0 118 44t64 141l78 389h159l-79 -399q-64 -313 -358 -313q-132 0 -207 65.5zM713 700h28q27 0 43.5 17.5t16.5 45.5q0 35 -20 60l92 34q32 -44 32 -100
q0 -74 -46 -117.5t-122 -43.5h-24v104zM485 799q60 25 60 67q0 17 -11.5 27t-30.5 10q-30 0 -60 -20l-27 64q46 33 113 33q50 0 79 -25t29 -68q0 -92 -111 -141z" />
    <glyph glyph-name="uni1EEE" unicode="&#x1eee;" horiz-adv-x="802" 
d="M152 53.5q-75 65.5 -75 179.5q0 33 8 75l78 392h163l-78 -389q-6 -33 -6 -59q0 -63 34.5 -94.5t100.5 -31.5q74 0 118 44t64 141l78 389h159l-79 -399q-64 -313 -358 -313q-132 0 -207 65.5zM713 700h28q27 0 43.5 17.5t16.5 45.5q0 35 -20 60l92 34q32 -44 32 -100
q0 -74 -46 -117.5t-122 -43.5h-24v104zM529.5 764q-19.5 10 -42.5 28q-19 14 -29 19.5t-22 5.5q-20 0 -34 -15t-19 -41h-79q11 71 46 108.5t87 37.5q26 0 45.5 -10t42.5 -28q18 -14 28.5 -20t22.5 -6q21 0 34.5 14.5t18.5 39.5h79q-11 -68 -45.5 -105.5t-86.5 -37.5
q-27 0 -46.5 10z" />
    <glyph glyph-name="Uhungarumlaut" unicode="&#x170;" horiz-adv-x="788" 
d="M152 53.5q-75 65.5 -75 179.5q0 33 8 75l78 392h163l-78 -389q-6 -33 -6 -59q0 -63 34.5 -94.5t100.5 -31.5q74 0 118 44t64 141l78 389h159l-79 -399q-64 -313 -358 -313q-132 0 -207 65.5zM420 901h150l-120 -144h-118zM622 901h150l-121 -144h-116z" />
    <glyph glyph-name="uni0216" unicode="&#x216;" horiz-adv-x="788" 
d="M152 53.5q-75 65.5 -75 179.5q0 33 8 75l78 392h163l-78 -389q-6 -33 -6 -59q0 -63 34.5 -94.5t100.5 -31.5q74 0 118 44t64 141l78 389h159l-79 -399q-64 -313 -358 -313q-132 0 -207 65.5zM375.5 868.5q55.5 41.5 135.5 41.5q77 0 124 -42t41 -111h-96q2 33 -19.5 52.5
t-58.5 19.5t-62 -19.5t-32 -52.5h-101q13 70 68.5 111.5z" />
    <glyph glyph-name="Umacron" unicode="&#x16a;" horiz-adv-x="788" 
d="M152 53.5q-75 65.5 -75 179.5q0 33 8 75l78 392h163l-78 -389q-6 -33 -6 -59q0 -63 34.5 -94.5t100.5 -31.5q74 0 118 44t64 141l78 389h159l-79 -399q-64 -313 -358 -313q-132 0 -207 65.5zM330 873h369l-17 -88h-369z" />
    <glyph glyph-name="uni1E7A" unicode="&#x1e7a;" horiz-adv-x="788" 
d="M152 53.5q-75 65.5 -75 179.5q0 33 8 75l78 392h163l-78 -389q-6 -33 -6 -59q0 -63 34.5 -94.5t100.5 -31.5q74 0 118 44t64 141l78 389h159l-79 -399q-64 -313 -358 -313q-132 0 -207 65.5zM326 857h370l-16 -83h-370zM391.5 940q-17.5 16 -17.5 43q0 32 20.5 52.5
t49.5 20.5q27 0 44.5 -17t17.5 -44q0 -31 -20.5 -51t-49.5 -20q-27 0 -44.5 16zM586.5 940q-17.5 16 -17.5 43q0 31 21 52t50 21q27 0 44.5 -17t17.5 -44q0 -31 -21 -51t-50 -20q-27 0 -44.5 16z" />
    <glyph glyph-name="Uogonek" unicode="&#x172;" horiz-adv-x="788" 
d="M796 700l-79 -399q-51 -254 -256 -302q-79 -18 -116.5 -47.5t-37.5 -62.5q0 -20 13 -31t35 -11q34 0 64 15l11 -71q-48 -23 -100 -23q-57 0 -91.5 26t-34.5 73q0 74 81 127q-98 17 -153 80t-55 160q0 32 8 74l78 392h163l-78 -389q-6 -33 -6 -59q0 -63 34.5 -94.5
t100.5 -31.5q74 0 118 44t64 141l78 389h159z" />
    <glyph glyph-name="Uring" unicode="&#x16e;" horiz-adv-x="788" 
d="M152 53.5q-75 65.5 -75 179.5q0 33 8 75l78 392h163l-78 -389q-6 -33 -6 -59q0 -63 34.5 -94.5t100.5 -31.5q74 0 118 44t64 141l78 389h159l-79 -399q-64 -313 -358 -313q-132 0 -207 65.5zM427 789q-36 35 -36 86q0 50 36 85.5t88 35.5q53 0 89 -35t36 -86t-36 -86
t-89 -35q-52 0 -88 35zM558.5 831.5q17.5 17.5 17.5 43.5t-17.5 43.5t-43.5 17.5q-25 0 -42.5 -17.5t-17.5 -43.5t17 -43.5t43 -17.5t43.5 17.5z" />
    <glyph glyph-name="Utilde" unicode="&#x168;" horiz-adv-x="788" 
d="M152 53.5q-75 65.5 -75 179.5q0 33 8 75l78 392h163l-78 -389q-6 -33 -6 -59q0 -63 34.5 -94.5t100.5 -31.5q74 0 118 44t64 141l78 389h159l-79 -399q-64 -313 -358 -313q-132 0 -207 65.5zM529.5 764q-19.5 10 -42.5 28q-19 14 -29 19.5t-22 5.5q-20 0 -34 -15t-19 -41
h-79q11 71 46 108.5t87 37.5q26 0 45.5 -10t42.5 -28q18 -14 28.5 -20t22.5 -6q21 0 34.5 14.5t18.5 39.5h79q-11 -68 -45.5 -105.5t-86.5 -37.5q-27 0 -46.5 10z" />
    <glyph glyph-name="uni1E78" unicode="&#x1e78;" horiz-adv-x="788" 
d="M152 53.5q-75 65.5 -75 179.5q0 33 8 75l78 392h163l-78 -389q-6 -33 -6 -59q0 -63 34.5 -94.5t100.5 -31.5q74 0 118 44t64 141l78 389h159l-79 -399q-64 -313 -358 -313q-132 0 -207 65.5zM524.5 763.5q-19.5 8.5 -41.5 23.5q-27 20 -44 20q-20 0 -33 -12.5t-17 -33.5
h-81q9 60 43.5 92.5t87.5 32.5q26 0 45.5 -8.5t40.5 -23.5q15 -10 25 -15t21 -5q20 0 33.5 12.5t18.5 32.5h78q-9 -58 -43 -91t-88 -33q-26 0 -45.5 8.5zM559 1039h163l-170 -121h-117z" />
    <glyph glyph-name="V" unicode="V" horiz-adv-x="746" 
d="M842 700l-443 -700h-159l-163 700h167l113 -499l317 499h168z" />
    <glyph glyph-name="W" unicode="W" horiz-adv-x="1163" 
d="M1228 700l-370 -700h-173l-61 471l-253 -471h-174l-89 700h160l62 -492l263 492h150l60 -496l264 496h161z" />
    <glyph glyph-name="Wacute" unicode="&#x1e82;" horiz-adv-x="1163" 
d="M1228 700l-370 -700h-173l-61 471l-253 -471h-174l-89 700h160l62 -492l263 492h150l60 -496l264 496h161zM735 901h172l-196 -144h-126z" />
    <glyph glyph-name="Wcircumflex" unicode="&#x174;" horiz-adv-x="1163" 
d="M1228 700l-370 -700h-173l-61 471l-253 -471h-174l-89 700h160l62 -492l263 492h150l60 -496l264 496h161zM768 757l-77 75l-97 -75h-117l152 144h137l113 -144h-111z" />
    <glyph glyph-name="Wdieresis" unicode="&#x1e84;" horiz-adv-x="1163" 
d="M1228 700l-370 -700h-173l-61 471l-253 -471h-174l-89 700h160l62 -492l263 492h150l60 -496l264 496h161zM539.5 779q-18.5 17 -18.5 45q0 33 22 54.5t52 21.5q28 0 47 -17t19 -45q0 -33 -22.5 -54.5t-52.5 -21.5q-28 0 -46.5 17zM742.5 779q-18.5 17 -18.5 45
q0 34 21.5 55t52.5 21q28 0 46.5 -17t18.5 -45q0 -33 -22 -54.5t-52 -21.5q-28 0 -46.5 17z" />
    <glyph glyph-name="Wgrave" unicode="&#x1e80;" horiz-adv-x="1163" 
d="M1228 700l-370 -700h-173l-61 471l-253 -471h-174l-89 700h160l62 -492l263 492h150l60 -496l264 496h161zM495 901h167l106 -144h-121z" />
    <glyph glyph-name="X" unicode="X" horiz-adv-x="714" 
d="M463 353l192 -353h-175l-124 238l-212 -238h-194l335 363l-181 337h173l117 -225l204 225h184z" />
    <glyph glyph-name="Y" unicode="Y" horiz-adv-x="676" 
d="M413 243l-48 -243h-162l49 250l-180 450h162l125 -312l251 312h167z" />
    <glyph glyph-name="Yacute" unicode="&#xdd;" horiz-adv-x="676" 
d="M413 243l-48 -243h-162l49 250l-180 450h162l125 -312l251 312h167zM492 901h172l-196 -144h-126z" />
    <glyph glyph-name="Ycircumflex" unicode="&#x176;" horiz-adv-x="676" 
d="M413 243l-48 -243h-162l49 250l-180 450h162l125 -312l251 312h167zM525 757l-77 75l-97 -75h-117l152 144h137l113 -144h-111z" />
    <glyph glyph-name="Ydieresis" unicode="&#x178;" horiz-adv-x="676" 
d="M413 243l-48 -243h-162l49 250l-180 450h162l125 -312l251 312h167zM296.5 779q-18.5 17 -18.5 45q0 33 22 54.5t52 21.5q28 0 47 -17t19 -45q0 -33 -22.5 -54.5t-52.5 -21.5q-28 0 -46.5 17zM499.5 779q-18.5 17 -18.5 45q0 34 21.5 55t52.5 21q28 0 46.5 -17t18.5 -45
q0 -33 -22 -54.5t-52 -21.5q-28 0 -46.5 17z" />
    <glyph glyph-name="uni1E8E" unicode="&#x1e8e;" horiz-adv-x="676" 
d="M413 243l-48 -243h-162l49 250l-180 450h162l125 -312l251 312h167zM390 783q-22 21 -22 53q0 42 26 68.5t65 26.5q35 0 56.5 -21t21.5 -54q0 -41 -26 -67.5t-64 -26.5q-35 0 -57 21z" />
    <glyph glyph-name="uni1EF4" unicode="&#x1ef4;" horiz-adv-x="676" 
d="M413 243l-48 -243h-162l49 250l-180 450h162l125 -312l251 312h167zM202.5 -193q-17.5 17 -17.5 45q0 31 23 53t53 22q27 0 45.5 -17t18.5 -43q0 -35 -21.5 -56t-54.5 -21q-29 0 -46.5 17z" />
    <glyph glyph-name="Ygrave" unicode="&#x1ef2;" horiz-adv-x="676" 
d="M413 243l-48 -243h-162l49 250l-180 450h162l125 -312l251 312h167zM252 901h167l106 -144h-121z" />
    <glyph glyph-name="uni1EF6" unicode="&#x1ef6;" horiz-adv-x="676" 
d="M413 243l-48 -243h-162l49 250l-180 450h162l125 -312l251 312h167zM428 799q60 25 60 67q0 17 -11.5 27t-30.5 10q-30 0 -60 -20l-27 64q46 33 113 33q50 0 79 -25t29 -68q0 -92 -111 -141z" />
    <glyph glyph-name="uni0232" unicode="&#x232;" horiz-adv-x="676" 
d="M413 243l-48 -243h-162l49 250l-180 450h162l125 -312l251 312h167zM273 873h369l-17 -88h-369z" />
    <glyph glyph-name="uni1EF8" unicode="&#x1ef8;" horiz-adv-x="676" 
d="M413 243l-48 -243h-162l49 250l-180 450h162l125 -312l251 312h167zM472.5 764q-19.5 10 -42.5 28q-19 14 -29 19.5t-22 5.5q-20 0 -34 -15t-19 -41h-79q11 71 46 108.5t87 37.5q26 0 45.5 -10t42.5 -28q18 -14 28.5 -20t22.5 -6q21 0 34.5 14.5t18.5 39.5h79
q-11 -68 -45.5 -105.5t-86.5 -37.5q-27 0 -46.5 10z" />
    <glyph glyph-name="Z" unicode="Z" horiz-adv-x="671" 
d="M701 595l-471 -463h392l-27 -132h-612l21 105l472 463h-369l27 132h588z" />
    <glyph glyph-name="Zacute" unicode="&#x179;" horiz-adv-x="671" 
d="M701 595l-471 -463h392l-27 -132h-612l21 105l472 463h-369l27 132h588zM498 901h172l-196 -144h-126z" />
    <glyph glyph-name="Zcaron" unicode="&#x17d;" horiz-adv-x="671" 
d="M701 595l-471 -463h392l-27 -132h-612l21 105l472 463h-369l27 132h588zM664 901l-151 -144h-138l-112 144h111l77 -75l97 75h116z" />
    <glyph glyph-name="Zdotaccent" unicode="&#x17b;" horiz-adv-x="671" 
d="M701 595l-471 -463h392l-27 -132h-612l21 105l472 463h-369l27 132h588zM396 783q-22 21 -22 53q0 42 26 68.5t65 26.5q35 0 56.5 -21t21.5 -54q0 -41 -26 -67.5t-64 -26.5q-35 0 -57 21z" />
    <glyph glyph-name="uni1E92" unicode="&#x1e92;" horiz-adv-x="671" 
d="M701 595l-471 -463h392l-27 -132h-612l21 105l472 463h-369l27 132h588zM212.5 -193q-17.5 17 -17.5 45q0 31 23 53t53 22q27 0 45.5 -17t18.5 -43q0 -35 -21.5 -56t-54.5 -21q-29 0 -46.5 17z" />
    <glyph glyph-name="Iacute_J.loclNLD" horiz-adv-x="724" 
d="M344 901h156l-210 -144h-109zM752 901h155l-209 -144h-109zM22 67l80 122q89 -65 199 -65q81 0 126.5 43t64.5 140l78 393h163l-80 -400q-32 -158 -121.5 -235t-237.5 -77q-163 0 -272 79zM163 700h163l-76 -378h-163z" />
    <glyph glyph-name="A.ss01" horiz-adv-x="796" 
d="M674 645.5q75 -66.5 75 -185.5q0 -43 -8 -82l-76 -378h-162l33 168h-319l-34 -168h-160l80 399q30 155 123.5 234t241.5 79q131 0 206 -66.5zM562 298l18 91q6 32 6 59q0 62 -34.5 94t-99.5 32q-78 0 -125 -42.5t-65 -135.5l-20 -98h320z" />
    <glyph glyph-name="Aacute.ss01" horiz-adv-x="796" 
d="M674 645.5q75 -66.5 75 -185.5q0 -43 -8 -82l-76 -378h-162l33 168h-319l-34 -168h-160l80 399q30 155 123.5 234t241.5 79q131 0 206 -66.5zM562 298l18 91q6 32 6 59q0 62 -34.5 94t-99.5 32q-78 0 -125 -42.5t-65 -135.5l-20 -98h320zM550 901h172l-196 -144h-126z
" />
    <glyph glyph-name="Abreve.ss01" horiz-adv-x="796" 
d="M674 645.5q75 -66.5 75 -185.5q0 -43 -8 -82l-76 -378h-162l33 168h-319l-34 -168h-160l80 399q30 155 123.5 234t241.5 79q131 0 206 -66.5zM562 298l18 91q6 32 6 59q0 62 -34.5 94t-99.5 32q-78 0 -125 -42.5t-65 -135.5l-20 -98h320zM383 786.5q-47 37.5 -47 99.5
q0 10 1 15h95q-1 -32 20.5 -51.5t58.5 -19.5t62 19.5t31 51.5h101q-13 -70 -68 -111t-135 -41q-72 0 -119 37.5z" />
    <glyph glyph-name="uni1EAE.ss01" horiz-adv-x="796" 
d="M674 645.5q75 -66.5 75 -185.5q0 -43 -8 -82l-76 -378h-162l33 168h-319l-34 -168h-160l80 399q30 155 123.5 234t241.5 79q131 0 206 -66.5zM562 298l18 91q6 32 6 59q0 62 -34.5 94t-99.5 32q-78 0 -125 -42.5t-65 -135.5l-20 -98h320zM377.5 782q-47.5 33 -46.5 89h91
q2 -22 25.5 -35t61.5 -13q39 0 63 12.5t31 35.5h97q-12 -56 -65.5 -89t-130.5 -33q-79 0 -126.5 33zM556 1022h163l-170 -121h-117z" />
    <glyph glyph-name="uni1EB6.ss01" horiz-adv-x="796" 
d="M674 645.5q75 -66.5 75 -185.5q0 -43 -8 -82l-76 -378h-162l33 168h-319l-34 -168h-160l80 399q30 155 123.5 234t241.5 79q131 0 206 -66.5zM562 298l18 91q6 32 6 59q0 62 -34.5 94t-99.5 32q-78 0 -125 -42.5t-65 -135.5l-20 -98h320zM262.5 -193q-17.5 17 -17.5 45
q0 31 23 53t53 22q27 0 45.5 -17t18.5 -43q0 -35 -21.5 -56t-54.5 -21q-29 0 -46.5 17zM383 786.5q-47 37.5 -47 99.5q0 10 1 15h95q-1 -32 20.5 -51.5t58.5 -19.5t62 19.5t31 51.5h101q-13 -70 -68 -111t-135 -41q-72 0 -119 37.5z" />
    <glyph glyph-name="uni1EB0.ss01" horiz-adv-x="796" 
d="M674 645.5q75 -66.5 75 -185.5q0 -43 -8 -82l-76 -378h-162l33 168h-319l-34 -168h-160l80 399q30 155 123.5 234t241.5 79q131 0 206 -66.5zM562 298l18 91q6 32 6 59q0 62 -34.5 94t-99.5 32q-78 0 -125 -42.5t-65 -135.5l-20 -98h320zM377.5 782q-47.5 33 -46.5 89h91
q2 -22 25.5 -35t61.5 -13q39 0 63 12.5t31 35.5h97q-12 -56 -65.5 -89t-130.5 -33q-79 0 -126.5 33zM361 1022h160l86 -121h-113z" />
    <glyph glyph-name="uni1EB2.ss01" horiz-adv-x="796" 
d="M674 645.5q75 -66.5 75 -185.5q0 -43 -8 -82l-76 -378h-162l33 168h-319l-34 -168h-160l80 399q30 155 123.5 234t241.5 79q131 0 206 -66.5zM562 298l18 91q6 32 6 59q0 62 -34.5 94t-99.5 32q-78 0 -125 -42.5t-65 -135.5l-20 -98h320zM377.5 782q-47.5 33 -46.5 89h91
q2 -22 25.5 -35t61.5 -13q39 0 63 12.5t31 35.5h97q-12 -56 -65.5 -89t-130.5 -33q-79 0 -126.5 33zM488 910q43 19 43 47q0 11 -7.5 17.5t-21.5 6.5q-23 0 -47 -12l-19 49q39 21 84 21q38 0 61 -19t23 -50q0 -33 -22.5 -58t-59.5 -39z" />
    <glyph glyph-name="uni1EB4.ss01" horiz-adv-x="796" 
d="M674 645.5q75 -66.5 75 -185.5q0 -43 -8 -82l-76 -378h-162l33 168h-319l-34 -168h-160l80 399q30 155 123.5 234t241.5 79q131 0 206 -66.5zM562 298l18 91q6 32 6 59q0 62 -34.5 94t-99.5 32q-78 0 -125 -42.5t-65 -135.5l-20 -98h320zM377.5 782q-47.5 33 -46.5 89h91
q2 -22 25.5 -35t61.5 -13q39 0 63 12.5t31 35.5h97q-12 -56 -65.5 -89t-130.5 -33q-79 0 -126.5 33zM553.5 907.5q-19.5 8.5 -41.5 23.5q-27 20 -44 20q-20 0 -33 -12.5t-17 -33.5h-81q9 60 43.5 92.5t87.5 32.5q26 0 45.5 -8.5t40.5 -23.5q15 -10 25 -15t21 -5
q20 0 33.5 12.5t18.5 32.5h78q-9 -58 -43 -91t-88 -33q-26 0 -45.5 8.5z" />
    <glyph glyph-name="uni01CD.ss01" horiz-adv-x="796" 
d="M674 645.5q75 -66.5 75 -185.5q0 -43 -8 -82l-76 -378h-162l33 168h-319l-34 -168h-160l80 399q30 155 123.5 234t241.5 79q131 0 206 -66.5zM562 298l18 91q6 32 6 59q0 62 -34.5 94t-99.5 32q-78 0 -125 -42.5t-65 -135.5l-20 -98h320zM716 901l-151 -144h-138
l-112 144h111l77 -75l97 75h116z" />
    <glyph glyph-name="Acircumflex.ss01" horiz-adv-x="796" 
d="M674 645.5q75 -66.5 75 -185.5q0 -43 -8 -82l-76 -378h-162l33 168h-319l-34 -168h-160l80 399q30 155 123.5 234t241.5 79q131 0 206 -66.5zM562 298l18 91q6 32 6 59q0 62 -34.5 94t-99.5 32q-78 0 -125 -42.5t-65 -135.5l-20 -98h320zM583 757l-77 75l-97 -75h-117
l152 144h137l113 -144h-111z" />
    <glyph glyph-name="uni1EA4.ss01" horiz-adv-x="796" 
d="M674 645.5q75 -66.5 75 -185.5q0 -43 -8 -82l-76 -378h-162l33 168h-319l-34 -168h-160l80 399q30 155 123.5 234t241.5 79q131 0 206 -66.5zM562 298l18 91q6 32 6 59q0 62 -34.5 94t-99.5 32q-78 0 -125 -42.5t-65 -135.5l-20 -98h320zM581 757l-77 57l-95 -57h-117
l150 114h135l117 -114h-113zM734 974h163l-170 -121h-117z" />
    <glyph glyph-name="uni1EAC.ss01" horiz-adv-x="796" 
d="M674 645.5q75 -66.5 75 -185.5q0 -43 -8 -82l-76 -378h-162l33 168h-319l-34 -168h-160l80 399q30 155 123.5 234t241.5 79q131 0 206 -66.5zM562 298l18 91q6 32 6 59q0 62 -34.5 94t-99.5 32q-78 0 -125 -42.5t-65 -135.5l-20 -98h320zM262.5 -193q-17.5 17 -17.5 45
q0 31 23 53t53 22q27 0 45.5 -17t18.5 -43q0 -35 -21.5 -56t-54.5 -21q-29 0 -46.5 17zM583 757l-77 75l-97 -75h-117l152 144h137l113 -144h-111z" />
    <glyph glyph-name="uni1EA6.ss01" horiz-adv-x="796" 
d="M674 645.5q75 -66.5 75 -185.5q0 -43 -8 -82l-76 -378h-162l33 168h-319l-34 -168h-160l80 399q30 155 123.5 234t241.5 79q131 0 206 -66.5zM562 298l18 91q6 32 6 59q0 62 -34.5 94t-99.5 32q-78 0 -125 -42.5t-65 -135.5l-20 -98h320zM581 757l-77 57l-95 -57h-117
l150 114h135l117 -114h-113zM539 974h160l86 -121h-113z" />
    <glyph glyph-name="uni1EA8.ss01" horiz-adv-x="796" 
d="M674 645.5q75 -66.5 75 -185.5q0 -43 -8 -82l-76 -378h-162l33 168h-319l-34 -168h-160l80 399q30 155 123.5 234t241.5 79q131 0 206 -66.5zM562 298l18 91q6 32 6 59q0 62 -34.5 94t-99.5 32q-78 0 -125 -42.5t-65 -135.5l-20 -98h320zM581 757l-77 57l-95 -57h-117
l150 114h135l117 -114h-113zM641 871q43 19 43 47q0 11 -7.5 17.5t-21.5 6.5q-23 0 -47 -12l-19 49q39 21 84 21q38 0 61 -19t23 -50q0 -33 -22.5 -58t-59.5 -39z" />
    <glyph glyph-name="uni1EAA.ss01" horiz-adv-x="796" 
d="M674 645.5q75 -66.5 75 -185.5q0 -43 -8 -82l-76 -378h-162l33 168h-319l-34 -168h-160l80 399q30 155 123.5 234t241.5 79q131 0 206 -66.5zM562 298l18 91q6 32 6 59q0 62 -34.5 94t-99.5 32q-78 0 -125 -42.5t-65 -135.5l-20 -98h320zM581 757l-77 57l-95 -57h-117
l150 114h135l117 -114h-113zM554.5 914.5q-19.5 8.5 -41.5 23.5q-27 20 -44 20q-20 0 -33 -12.5t-17 -33.5h-81q9 60 43.5 92.5t87.5 32.5q26 0 45.5 -8.5t40.5 -23.5q15 -10 25 -15t21 -5q20 0 33.5 12.5t18.5 32.5h78q-9 -58 -43 -91t-88 -33q-26 0 -45.5 8.5z" />
    <glyph glyph-name="uni0200.ss01" horiz-adv-x="796" 
d="M674 645.5q75 -66.5 75 -185.5q0 -43 -8 -82l-76 -378h-162l33 168h-319l-34 -168h-160l80 399q30 155 123.5 234t241.5 79q131 0 206 -66.5zM562 298l18 91q6 32 6 59q0 62 -34.5 94t-99.5 32q-78 0 -125 -42.5t-65 -135.5l-20 -98h320zM262 901h140l44 -144h-108z
M464 901h140l44 -144h-108z" />
    <glyph glyph-name="Adieresis.ss01" horiz-adv-x="796" 
d="M674 645.5q75 -66.5 75 -185.5q0 -43 -8 -82l-76 -378h-162l33 168h-319l-34 -168h-160l80 399q30 155 123.5 234t241.5 79q131 0 206 -66.5zM562 298l18 91q6 32 6 59q0 62 -34.5 94t-99.5 32q-78 0 -125 -42.5t-65 -135.5l-20 -98h320zM354.5 779q-18.5 17 -18.5 45
q0 33 22 54.5t52 21.5q28 0 47 -17t19 -45q0 -33 -22.5 -54.5t-52.5 -21.5q-28 0 -46.5 17zM557.5 779q-18.5 17 -18.5 45q0 34 21.5 55t52.5 21q28 0 46.5 -17t18.5 -45q0 -33 -22 -54.5t-52 -21.5q-28 0 -46.5 17z" />
    <glyph glyph-name="uni1EA0.ss01" horiz-adv-x="796" 
d="M674 645.5q75 -66.5 75 -185.5q0 -43 -8 -82l-76 -378h-162l33 168h-319l-34 -168h-160l80 399q30 155 123.5 234t241.5 79q131 0 206 -66.5zM562 298l18 91q6 32 6 59q0 62 -34.5 94t-99.5 32q-78 0 -125 -42.5t-65 -135.5l-20 -98h320zM262.5 -193q-17.5 17 -17.5 45
q0 31 23 53t53 22q27 0 45.5 -17t18.5 -43q0 -35 -21.5 -56t-54.5 -21q-29 0 -46.5 17z" />
    <glyph glyph-name="Agrave.ss01" horiz-adv-x="796" 
d="M674 645.5q75 -66.5 75 -185.5q0 -43 -8 -82l-76 -378h-162l33 168h-319l-34 -168h-160l80 399q30 155 123.5 234t241.5 79q131 0 206 -66.5zM562 298l18 91q6 32 6 59q0 62 -34.5 94t-99.5 32q-78 0 -125 -42.5t-65 -135.5l-20 -98h320zM310 901h167l106 -144h-121z" />
    <glyph glyph-name="uni1EA2.ss01" horiz-adv-x="796" 
d="M674 645.5q75 -66.5 75 -185.5q0 -43 -8 -82l-76 -378h-162l33 168h-319l-34 -168h-160l80 399q30 155 123.5 234t241.5 79q131 0 206 -66.5zM562 298l18 91q6 32 6 59q0 62 -34.5 94t-99.5 32q-78 0 -125 -42.5t-65 -135.5l-20 -98h320zM486 799q60 25 60 67
q0 17 -11.5 27t-30.5 10q-30 0 -60 -20l-27 64q46 33 113 33q50 0 79 -25t29 -68q0 -92 -111 -141z" />
    <glyph glyph-name="uni0202.ss01" horiz-adv-x="796" 
d="M674 645.5q75 -66.5 75 -185.5q0 -43 -8 -82l-76 -378h-162l33 168h-319l-34 -168h-160l80 399q30 155 123.5 234t241.5 79q131 0 206 -66.5zM562 298l18 91q6 32 6 59q0 62 -34.5 94t-99.5 32q-78 0 -125 -42.5t-65 -135.5l-20 -98h320zM376.5 868.5
q55.5 41.5 135.5 41.5q77 0 124 -42t41 -111h-96q2 33 -19.5 52.5t-58.5 19.5t-62 -19.5t-32 -52.5h-101q13 70 68.5 111.5z" />
    <glyph glyph-name="Amacron.ss01" horiz-adv-x="796" 
d="M674 645.5q75 -66.5 75 -185.5q0 -43 -8 -82l-76 -378h-162l33 168h-319l-34 -168h-160l80 399q30 155 123.5 234t241.5 79q131 0 206 -66.5zM562 298l18 91q6 32 6 59q0 62 -34.5 94t-99.5 32q-78 0 -125 -42.5t-65 -135.5l-20 -98h320zM331 873h369l-17 -88h-369z" />
    <glyph glyph-name="Aogonek.ss01" horiz-adv-x="796" 
d="M674 645.5q75 -66.5 75 -185.5q0 -43 -8 -82l-76 -378h-162l33 168h-319l-34 -168h-160l80 399q30 155 123.5 234t241.5 79q131 0 206 -66.5zM562 298l18 91q6 32 6 59q0 62 -34.5 94t-99.5 32q-78 0 -125 -42.5t-65 -135.5l-20 -98h320zM458 -205.5q-34 26.5 -34 72.5
q0 57 48 101t136 75l57 -43q-138 -49 -138 -111q0 -20 13 -31t35 -11q34 0 64 15l11 -71q-48 -23 -101 -23q-57 0 -91 26.5z" />
    <glyph glyph-name="Aring.ss01" horiz-adv-x="796" 
d="M674 645.5q75 -66.5 75 -185.5q0 -43 -8 -82l-76 -378h-162l33 168h-319l-34 -168h-160l80 399q30 155 123.5 234t241.5 79q131 0 206 -66.5zM562 298l18 91q6 32 6 59q0 62 -34.5 94t-99.5 32q-78 0 -125 -42.5t-65 -135.5l-20 -98h320zM428 789q-36 35 -36 86
q0 50 36 85.5t88 35.5q53 0 89 -35t36 -86t-36 -86t-89 -35q-52 0 -88 35zM559.5 831.5q17.5 17.5 17.5 43.5t-17.5 43.5t-43.5 17.5q-25 0 -42.5 -17.5t-17.5 -43.5t17 -43.5t43 -17.5t43.5 17.5z" />
    <glyph glyph-name="Aringacute.ss01" horiz-adv-x="796" 
d="M674 645.5q75 -66.5 75 -185.5q0 -43 -8 -82l-76 -378h-162l33 168h-319l-34 -168h-160l80 399q30 155 123.5 234t241.5 79q131 0 206 -66.5zM562 298l18 91q6 32 6 59q0 62 -34.5 94t-99.5 32q-78 0 -125 -42.5t-65 -135.5l-20 -98h320zM624 938q17 -29 17 -63
q0 -51 -36 -86t-89 -35q-52 0 -88 35t-36 86q0 50 36 85.5t88 35.5q27 0 52 -11l87 91l77 -60zM559.5 831.5q17.5 17.5 17.5 43.5t-17.5 43.5t-43.5 17.5q-25 0 -42.5 -17.5t-17.5 -43.5t17 -43.5t43 -17.5t43.5 17.5z" />
    <glyph glyph-name="Atilde.ss01" horiz-adv-x="796" 
d="M674 645.5q75 -66.5 75 -185.5q0 -43 -8 -82l-76 -378h-162l33 168h-319l-34 -168h-160l80 399q30 155 123.5 234t241.5 79q131 0 206 -66.5zM562 298l18 91q6 32 6 59q0 62 -34.5 94t-99.5 32q-78 0 -125 -42.5t-65 -135.5l-20 -98h320zM530.5 764q-19.5 10 -42.5 28
q-19 14 -29 19.5t-22 5.5q-20 0 -34 -15t-19 -41h-79q11 71 46 108.5t87 37.5q26 0 45.5 -10t42.5 -28q18 -14 28.5 -20t22.5 -6q21 0 34.5 14.5t18.5 39.5h79q-11 -68 -45.5 -105.5t-86.5 -37.5q-27 0 -46.5 10z" />
    <glyph glyph-name="AE.ss01" horiz-adv-x="1092" 
d="M727 571l-31 -154h327l-25 -123h-326l-34 -165h383l-26 -129h-542l35 177h-274l-35 -177h-163l78 391q31 152 125.5 230.5t246.5 78.5h656l-26 -129h-369zM514 305l51 257h-102q-85 0 -138 -47.5t-71 -139.5l-14 -70h274z" />
    <glyph glyph-name="AEacute.ss01" horiz-adv-x="1092" 
d="M727 571l-31 -154h327l-25 -123h-326l-34 -165h383l-26 -129h-542l35 177h-274l-35 -177h-163l78 391q31 152 125.5 230.5t246.5 78.5h656l-26 -129h-369zM514 305l51 257h-102q-85 0 -138 -47.5t-71 -139.5l-14 -70h274zM694 901h172l-196 -144h-126z" />
    <glyph glyph-name="uni01C4.ss01" horiz-adv-x="1449" 
d="M169 700h293q107 0 184.5 -35.5t119 -101.5t41.5 -155q0 -122 -55 -214.5t-153.5 -143t-227.5 -50.5h-342zM376 133q82 0 142.5 34.5t92.5 95t32 136.5q0 79 -51 123.5t-148 44.5h-139l-87 -434h158zM1484 602l-191 -188h97l-24 -120h-194l-166 -164h398l-27 -130h-612
l20 99l200 197h-104l24 121h203l156 153h-374l26 130h588zM1446 901l-151 -144h-138l-112 144h111l77 -75l97 75h116z" />
    <glyph glyph-name="uni01C5.ss01" horiz-adv-x="1379" 
d="M169 700h293q107 0 184.5 -35.5t119 -101.5t41.5 -155q0 -122 -55 -214.5t-153.5 -143t-227.5 -50.5h-342zM376 133q82 0 142.5 34.5t92.5 95t32 136.5q0 79 -51 123.5t-148 44.5h-139l-87 -434h158zM1372 444l-124 -121h75l-20 -104h-162l-102 -99h277l-24 -120h-480
l19 94l129 126h-68l21 104h154l97 94h-260l24 120h462zM1394 751l-151 -144h-138l-112 144h111l77 -75l97 75h116z" />
    <glyph glyph-name="E.ss01" horiz-adv-x="667" 
d="M321.5 554q-43.5 -27 -43.5 -72q0 -31 24 -47.5t72 -16.5h187l-26 -128h-210q-62 0 -99 -23.5t-37 -65.5q0 -82 158 -82q67 0 128.5 16.5t104.5 44.5l42 -121q-54 -33 -133.5 -52t-164.5 -19q-140 0 -220.5 50.5t-80.5 140.5q0 67 40.5 116.5t109.5 71.5q-28 19 -43 47.5
t-15 64.5q0 70 42 123t119.5 81.5t179.5 28.5q74 0 137 -13.5t107 -38.5l-53 -122q-86 43 -202 43q-80 0 -123.5 -27z" />
    <glyph glyph-name="Eacute.ss01" horiz-adv-x="667" 
d="M321.5 554q-43.5 -27 -43.5 -72q0 -31 24 -47.5t72 -16.5h187l-26 -128h-210q-62 0 -99 -23.5t-37 -65.5q0 -82 158 -82q67 0 128.5 16.5t104.5 44.5l42 -121q-54 -33 -133.5 -52t-164.5 -19q-140 0 -220.5 50.5t-80.5 140.5q0 67 40.5 116.5t109.5 71.5q-28 19 -43 47.5
t-15 64.5q0 70 42 123t119.5 81.5t179.5 28.5q74 0 137 -13.5t107 -38.5l-53 -122q-86 43 -202 43q-80 0 -123.5 -27zM517 901h172l-196 -144h-126z" />
    <glyph glyph-name="Ebreve.ss01" horiz-adv-x="667" 
d="M321.5 554q-43.5 -27 -43.5 -72q0 -31 24 -47.5t72 -16.5h187l-26 -128h-210q-62 0 -99 -23.5t-37 -65.5q0 -82 158 -82q67 0 128.5 16.5t104.5 44.5l42 -121q-54 -33 -133.5 -52t-164.5 -19q-140 0 -220.5 50.5t-80.5 140.5q0 67 40.5 116.5t109.5 71.5q-28 19 -43 47.5
t-15 64.5q0 70 42 123t119.5 81.5t179.5 28.5q74 0 137 -13.5t107 -38.5l-53 -122q-86 43 -202 43q-80 0 -123.5 -27zM350 786.5q-47 37.5 -47 99.5q0 10 1 15h95q-1 -32 20.5 -51.5t58.5 -19.5t62 19.5t31 51.5h101q-13 -70 -68 -111t-135 -41q-72 0 -119 37.5z" />
    <glyph glyph-name="Ecaron.ss01" horiz-adv-x="667" 
d="M321.5 554q-43.5 -27 -43.5 -72q0 -31 24 -47.5t72 -16.5h187l-26 -128h-210q-62 0 -99 -23.5t-37 -65.5q0 -82 158 -82q67 0 128.5 16.5t104.5 44.5l42 -121q-54 -33 -133.5 -52t-164.5 -19q-140 0 -220.5 50.5t-80.5 140.5q0 67 40.5 116.5t109.5 71.5q-28 19 -43 47.5
t-15 64.5q0 70 42 123t119.5 81.5t179.5 28.5q74 0 137 -13.5t107 -38.5l-53 -122q-86 43 -202 43q-80 0 -123.5 -27zM683 901l-151 -144h-138l-112 144h111l77 -75l97 75h116z" />
    <glyph glyph-name="uni1E1C.ss01" horiz-adv-x="667" 
d="M321.5 554q-43.5 -27 -43.5 -72q0 -31 24 -47.5t72 -16.5h187l-26 -128h-210q-62 0 -99 -23.5t-37 -65.5q0 -82 158 -82q67 0 128.5 16.5t104.5 44.5l42 -121q-54 -33 -133.5 -52t-164.5 -19q-140 0 -220.5 50.5t-80.5 140.5q0 67 40.5 116.5t109.5 71.5q-28 19 -43 47.5
t-15 64.5q0 70 42 123t119.5 81.5t179.5 28.5q74 0 137 -13.5t107 -38.5l-53 -122q-86 43 -202 43q-80 0 -123.5 -27zM143 -211l34 67q30 -15 67 -15q27 0 40.5 9t14.5 24q3 28 -43 28h-35l48 106h83l-25 -58q33 -4 51.5 -23.5t18.5 -45.5q0 -53 -43.5 -83t-116.5 -30
q-55 0 -94 21zM350 786.5q-47 37.5 -47 99.5q0 10 1 15h95q-1 -32 20.5 -51.5t58.5 -19.5t62 19.5t31 51.5h101q-13 -70 -68 -111t-135 -41q-72 0 -119 37.5z" />
    <glyph glyph-name="Ecircumflex.ss01" horiz-adv-x="667" 
d="M321.5 554q-43.5 -27 -43.5 -72q0 -31 24 -47.5t72 -16.5h187l-26 -128h-210q-62 0 -99 -23.5t-37 -65.5q0 -82 158 -82q67 0 128.5 16.5t104.5 44.5l42 -121q-54 -33 -133.5 -52t-164.5 -19q-140 0 -220.5 50.5t-80.5 140.5q0 67 40.5 116.5t109.5 71.5q-28 19 -43 47.5
t-15 64.5q0 70 42 123t119.5 81.5t179.5 28.5q74 0 137 -13.5t107 -38.5l-53 -122q-86 43 -202 43q-80 0 -123.5 -27zM550 757l-77 75l-97 -75h-117l152 144h137l113 -144h-111z" />
    <glyph glyph-name="uni1EBE.ss01" horiz-adv-x="667" 
d="M321.5 554q-43.5 -27 -43.5 -72q0 -31 24 -47.5t72 -16.5h187l-26 -128h-210q-62 0 -99 -23.5t-37 -65.5q0 -82 158 -82q67 0 128.5 16.5t104.5 44.5l42 -121q-54 -33 -133.5 -52t-164.5 -19q-140 0 -220.5 50.5t-80.5 140.5q0 67 40.5 116.5t109.5 71.5q-28 19 -43 47.5
t-15 64.5q0 70 42 123t119.5 81.5t179.5 28.5q74 0 137 -13.5t107 -38.5l-53 -122q-86 43 -202 43q-80 0 -123.5 -27zM548 757l-77 57l-95 -57h-117l150 114h135l117 -114h-113zM701 974h163l-170 -121h-117z" />
    <glyph glyph-name="uni1EC6.ss01" horiz-adv-x="667" 
d="M321.5 554q-43.5 -27 -43.5 -72q0 -31 24 -47.5t72 -16.5h187l-26 -128h-210q-62 0 -99 -23.5t-37 -65.5q0 -82 158 -82q67 0 128.5 16.5t104.5 44.5l42 -121q-54 -33 -133.5 -52t-164.5 -19q-140 0 -220.5 50.5t-80.5 140.5q0 67 40.5 116.5t109.5 71.5q-28 19 -43 47.5
t-15 64.5q0 70 42 123t119.5 81.5t179.5 28.5q74 0 137 -13.5t107 -38.5l-53 -122q-86 43 -202 43q-80 0 -123.5 -27zM227.5 -193q-17.5 17 -17.5 45q0 31 23 53t53 22q27 0 45.5 -17t18.5 -43q0 -35 -21.5 -56t-54.5 -21q-29 0 -46.5 17zM550 757l-77 75l-97 -75h-117
l152 144h137l113 -144h-111z" />
    <glyph glyph-name="uni1EC0.ss01" horiz-adv-x="667" 
d="M321.5 554q-43.5 -27 -43.5 -72q0 -31 24 -47.5t72 -16.5h187l-26 -128h-210q-62 0 -99 -23.5t-37 -65.5q0 -82 158 -82q67 0 128.5 16.5t104.5 44.5l42 -121q-54 -33 -133.5 -52t-164.5 -19q-140 0 -220.5 50.5t-80.5 140.5q0 67 40.5 116.5t109.5 71.5q-28 19 -43 47.5
t-15 64.5q0 70 42 123t119.5 81.5t179.5 28.5q74 0 137 -13.5t107 -38.5l-53 -122q-86 43 -202 43q-80 0 -123.5 -27zM548 757l-77 57l-95 -57h-117l150 114h135l117 -114h-113zM506 974h160l86 -121h-113z" />
    <glyph glyph-name="uni1EC2.ss01" horiz-adv-x="667" 
d="M321.5 554q-43.5 -27 -43.5 -72q0 -31 24 -47.5t72 -16.5h187l-26 -128h-210q-62 0 -99 -23.5t-37 -65.5q0 -82 158 -82q67 0 128.5 16.5t104.5 44.5l42 -121q-54 -33 -133.5 -52t-164.5 -19q-140 0 -220.5 50.5t-80.5 140.5q0 67 40.5 116.5t109.5 71.5q-28 19 -43 47.5
t-15 64.5q0 70 42 123t119.5 81.5t179.5 28.5q74 0 137 -13.5t107 -38.5l-53 -122q-86 43 -202 43q-80 0 -123.5 -27zM548 757l-77 57l-95 -57h-117l150 114h135l117 -114h-113zM608 871q43 19 43 47q0 11 -7.5 17.5t-21.5 6.5q-23 0 -47 -12l-19 49q39 21 84 21
q38 0 61 -19t23 -50q0 -33 -22.5 -58t-59.5 -39z" />
    <glyph glyph-name="uni1EC4.ss01" horiz-adv-x="667" 
d="M321.5 554q-43.5 -27 -43.5 -72q0 -31 24 -47.5t72 -16.5h187l-26 -128h-210q-62 0 -99 -23.5t-37 -65.5q0 -82 158 -82q67 0 128.5 16.5t104.5 44.5l42 -121q-54 -33 -133.5 -52t-164.5 -19q-140 0 -220.5 50.5t-80.5 140.5q0 67 40.5 116.5t109.5 71.5q-28 19 -43 47.5
t-15 64.5q0 70 42 123t119.5 81.5t179.5 28.5q74 0 137 -13.5t107 -38.5l-53 -122q-86 43 -202 43q-80 0 -123.5 -27zM548 757l-77 57l-95 -57h-117l150 114h135l117 -114h-113zM521.5 914.5q-19.5 8.5 -41.5 23.5q-27 20 -44 20q-20 0 -33 -12.5t-17 -33.5h-81
q9 60 43.5 92.5t87.5 32.5q26 0 45.5 -8.5t40.5 -23.5q15 -10 25 -15t21 -5q20 0 33.5 12.5t18.5 32.5h78q-9 -58 -43 -91t-88 -33q-26 0 -45.5 8.5z" />
    <glyph glyph-name="uni0204.ss01" horiz-adv-x="667" 
d="M321.5 554q-43.5 -27 -43.5 -72q0 -31 24 -47.5t72 -16.5h187l-26 -128h-210q-62 0 -99 -23.5t-37 -65.5q0 -82 158 -82q67 0 128.5 16.5t104.5 44.5l42 -121q-54 -33 -133.5 -52t-164.5 -19q-140 0 -220.5 50.5t-80.5 140.5q0 67 40.5 116.5t109.5 71.5q-28 19 -43 47.5
t-15 64.5q0 70 42 123t119.5 81.5t179.5 28.5q74 0 137 -13.5t107 -38.5l-53 -122q-86 43 -202 43q-80 0 -123.5 -27zM229 901h140l44 -144h-108zM431 901h140l44 -144h-108z" />
    <glyph glyph-name="Edieresis.ss01" horiz-adv-x="667" 
d="M321.5 554q-43.5 -27 -43.5 -72q0 -31 24 -47.5t72 -16.5h187l-26 -128h-210q-62 0 -99 -23.5t-37 -65.5q0 -82 158 -82q67 0 128.5 16.5t104.5 44.5l42 -121q-54 -33 -133.5 -52t-164.5 -19q-140 0 -220.5 50.5t-80.5 140.5q0 67 40.5 116.5t109.5 71.5q-28 19 -43 47.5
t-15 64.5q0 70 42 123t119.5 81.5t179.5 28.5q74 0 137 -13.5t107 -38.5l-53 -122q-86 43 -202 43q-80 0 -123.5 -27zM321.5 779q-18.5 17 -18.5 45q0 33 22 54.5t52 21.5q28 0 47 -17t19 -45q0 -33 -22.5 -54.5t-52.5 -21.5q-28 0 -46.5 17zM524.5 779q-18.5 17 -18.5 45
q0 34 21.5 55t52.5 21q28 0 46.5 -17t18.5 -45q0 -33 -22 -54.5t-52 -21.5q-28 0 -46.5 17z" />
    <glyph glyph-name="Edotaccent.ss01" horiz-adv-x="667" 
d="M321.5 554q-43.5 -27 -43.5 -72q0 -31 24 -47.5t72 -16.5h187l-26 -128h-210q-62 0 -99 -23.5t-37 -65.5q0 -82 158 -82q67 0 128.5 16.5t104.5 44.5l42 -121q-54 -33 -133.5 -52t-164.5 -19q-140 0 -220.5 50.5t-80.5 140.5q0 67 40.5 116.5t109.5 71.5q-28 19 -43 47.5
t-15 64.5q0 70 42 123t119.5 81.5t179.5 28.5q74 0 137 -13.5t107 -38.5l-53 -122q-86 43 -202 43q-80 0 -123.5 -27zM415 783q-22 21 -22 53q0 42 26 68.5t65 26.5q35 0 56.5 -21t21.5 -54q0 -41 -26 -67.5t-64 -26.5q-35 0 -57 21z" />
    <glyph glyph-name="uni1EB8.ss01" horiz-adv-x="667" 
d="M321.5 554q-43.5 -27 -43.5 -72q0 -31 24 -47.5t72 -16.5h187l-26 -128h-210q-62 0 -99 -23.5t-37 -65.5q0 -82 158 -82q67 0 128.5 16.5t104.5 44.5l42 -121q-54 -33 -133.5 -52t-164.5 -19q-140 0 -220.5 50.5t-80.5 140.5q0 67 40.5 116.5t109.5 71.5q-28 19 -43 47.5
t-15 64.5q0 70 42 123t119.5 81.5t179.5 28.5q74 0 137 -13.5t107 -38.5l-53 -122q-86 43 -202 43q-80 0 -123.5 -27zM227.5 -193q-17.5 17 -17.5 45q0 31 23 53t53 22q27 0 45.5 -17t18.5 -43q0 -35 -21.5 -56t-54.5 -21q-29 0 -46.5 17z" />
    <glyph glyph-name="Egrave.ss01" horiz-adv-x="667" 
d="M321.5 554q-43.5 -27 -43.5 -72q0 -31 24 -47.5t72 -16.5h187l-26 -128h-210q-62 0 -99 -23.5t-37 -65.5q0 -82 158 -82q67 0 128.5 16.5t104.5 44.5l42 -121q-54 -33 -133.5 -52t-164.5 -19q-140 0 -220.5 50.5t-80.5 140.5q0 67 40.5 116.5t109.5 71.5q-28 19 -43 47.5
t-15 64.5q0 70 42 123t119.5 81.5t179.5 28.5q74 0 137 -13.5t107 -38.5l-53 -122q-86 43 -202 43q-80 0 -123.5 -27zM277 901h167l106 -144h-121z" />
    <glyph glyph-name="uni1EBA.ss01" horiz-adv-x="667" 
d="M321.5 554q-43.5 -27 -43.5 -72q0 -31 24 -47.5t72 -16.5h187l-26 -128h-210q-62 0 -99 -23.5t-37 -65.5q0 -82 158 -82q67 0 128.5 16.5t104.5 44.5l42 -121q-54 -33 -133.5 -52t-164.5 -19q-140 0 -220.5 50.5t-80.5 140.5q0 67 40.5 116.5t109.5 71.5q-28 19 -43 47.5
t-15 64.5q0 70 42 123t119.5 81.5t179.5 28.5q74 0 137 -13.5t107 -38.5l-53 -122q-86 43 -202 43q-80 0 -123.5 -27zM453 799q60 25 60 67q0 17 -11.5 27t-30.5 10q-30 0 -60 -20l-27 64q46 33 113 33q50 0 79 -25t29 -68q0 -92 -111 -141z" />
    <glyph glyph-name="uni0206.ss01" horiz-adv-x="667" 
d="M321.5 554q-43.5 -27 -43.5 -72q0 -31 24 -47.5t72 -16.5h187l-26 -128h-210q-62 0 -99 -23.5t-37 -65.5q0 -82 158 -82q67 0 128.5 16.5t104.5 44.5l42 -121q-54 -33 -133.5 -52t-164.5 -19q-140 0 -220.5 50.5t-80.5 140.5q0 67 40.5 116.5t109.5 71.5q-28 19 -43 47.5
t-15 64.5q0 70 42 123t119.5 81.5t179.5 28.5q74 0 137 -13.5t107 -38.5l-53 -122q-86 43 -202 43q-80 0 -123.5 -27zM343.5 868.5q55.5 41.5 135.5 41.5q77 0 124 -42t41 -111h-96q2 33 -19.5 52.5t-58.5 19.5t-62 -19.5t-32 -52.5h-101q13 70 68.5 111.5z" />
    <glyph glyph-name="Emacron.ss01" horiz-adv-x="667" 
d="M321.5 554q-43.5 -27 -43.5 -72q0 -31 24 -47.5t72 -16.5h187l-26 -128h-210q-62 0 -99 -23.5t-37 -65.5q0 -82 158 -82q67 0 128.5 16.5t104.5 44.5l42 -121q-54 -33 -133.5 -52t-164.5 -19q-140 0 -220.5 50.5t-80.5 140.5q0 67 40.5 116.5t109.5 71.5q-28 19 -43 47.5
t-15 64.5q0 70 42 123t119.5 81.5t179.5 28.5q74 0 137 -13.5t107 -38.5l-53 -122q-86 43 -202 43q-80 0 -123.5 -27zM298 873h369l-17 -88h-369z" />
    <glyph glyph-name="uni1E16.ss01" horiz-adv-x="667" 
d="M321.5 554q-43.5 -27 -43.5 -72q0 -31 24 -47.5t72 -16.5h187l-26 -128h-210q-62 0 -99 -23.5t-37 -65.5q0 -82 158 -82q67 0 128.5 16.5t104.5 44.5l42 -121q-54 -33 -133.5 -52t-164.5 -19q-140 0 -220.5 50.5t-80.5 140.5q0 67 40.5 116.5t109.5 71.5q-28 19 -43 47.5
t-15 64.5q0 70 42 123t119.5 81.5t179.5 28.5q74 0 137 -13.5t107 -38.5l-53 -122q-86 43 -202 43q-80 0 -123.5 -27zM294 856h370l-16 -83h-370zM527 1039h163l-170 -121h-117z" />
    <glyph glyph-name="uni1E14.ss01" horiz-adv-x="667" 
d="M321.5 554q-43.5 -27 -43.5 -72q0 -31 24 -47.5t72 -16.5h187l-26 -128h-210q-62 0 -99 -23.5t-37 -65.5q0 -82 158 -82q67 0 128.5 16.5t104.5 44.5l42 -121q-54 -33 -133.5 -52t-164.5 -19q-140 0 -220.5 50.5t-80.5 140.5q0 67 40.5 116.5t109.5 71.5q-28 19 -43 47.5
t-15 64.5q0 70 42 123t119.5 81.5t179.5 28.5q74 0 137 -13.5t107 -38.5l-53 -122q-86 43 -202 43q-80 0 -123.5 -27zM294 856h370l-16 -83h-370zM332 1039h160l86 -121h-113z" />
    <glyph glyph-name="Eogonek.ss01" horiz-adv-x="667" 
d="M321.5 554q-43.5 -27 -43.5 -72q0 -31 24 -47.5t72 -16.5h187l-26 -128h-210q-62 0 -99 -23.5t-37 -65.5q0 -82 158 -82q67 0 128.5 16.5t104.5 44.5l42 -121q-109 -56 -152.5 -96t-43.5 -74q0 -20 13 -31t35 -11q34 0 64 15l11 -71q-48 -23 -101 -23q-57 0 -91 26.5
t-34 72.5q0 71 74 125q-33 -4 -73 -4q-140 0 -220.5 50.5t-80.5 140.5q0 67 40.5 116.5t109.5 71.5q-28 19 -43 47.5t-15 64.5q0 70 42 123t119.5 81.5t179.5 28.5q74 0 137 -13.5t107 -38.5l-53 -122q-86 43 -202 43q-80 0 -123.5 -27z" />
    <glyph glyph-name="uni1EBC.ss01" horiz-adv-x="667" 
d="M321.5 554q-43.5 -27 -43.5 -72q0 -31 24 -47.5t72 -16.5h187l-26 -128h-210q-62 0 -99 -23.5t-37 -65.5q0 -82 158 -82q67 0 128.5 16.5t104.5 44.5l42 -121q-54 -33 -133.5 -52t-164.5 -19q-140 0 -220.5 50.5t-80.5 140.5q0 67 40.5 116.5t109.5 71.5q-28 19 -43 47.5
t-15 64.5q0 70 42 123t119.5 81.5t179.5 28.5q74 0 137 -13.5t107 -38.5l-53 -122q-86 43 -202 43q-80 0 -123.5 -27zM497.5 764q-19.5 10 -42.5 28q-19 14 -29 19.5t-22 5.5q-20 0 -34 -15t-19 -41h-79q11 71 46 108.5t87 37.5q26 0 45.5 -10t42.5 -28q18 -14 28.5 -20
t22.5 -6q21 0 34.5 14.5t18.5 39.5h79q-11 -68 -45.5 -105.5t-86.5 -37.5q-27 0 -46.5 10z" />
    <glyph glyph-name="F.ss01" horiz-adv-x="615" 
d="M273 436l-10 -51h286l-26 -131h-286l-51 -254h-163l87 432q55 280 364 280q58 0 113.5 -13.5t92.5 -37.5l-71 -125q-53 38 -143 38q-166 0 -193 -138z" />
    <glyph glyph-name="G.ss01" horiz-adv-x="771" 
d="M575 361h148l-74 -361h-120l7 38q-70 -50 -172 -50q-90 0 -161 37t-111.5 105.5t-40.5 159.5q0 120 55 216t155 151t230 55q97 0 172 -31.5t120 -90.5l-116 -94q-35 41 -79.5 59.5t-104.5 18.5q-80 0 -141 -35.5t-94 -97.5t-33 -139q0 -82 48 -130t135 -48q78 0 139 47z
" />
    <glyph glyph-name="Gbreve.ss01" horiz-adv-x="771" 
d="M575 361h148l-74 -361h-120l7 38q-70 -50 -172 -50q-90 0 -161 37t-111.5 105.5t-40.5 159.5q0 120 55 216t155 151t230 55q97 0 172 -31.5t120 -90.5l-116 -94q-35 41 -79.5 59.5t-104.5 18.5q-80 0 -141 -35.5t-94 -97.5t-33 -139q0 -82 48 -130t135 -48q78 0 139 47z
M403 787.5q-47 37.5 -47 99.5q0 10 1 15h95q-1 -32 20.5 -51.5t58.5 -19.5t62 19.5t31 51.5h101q-13 -70 -68 -111t-135 -41q-72 0 -119 37.5z" />
    <glyph glyph-name="Gcaron.ss01" horiz-adv-x="771" 
d="M575 361h148l-74 -361h-120l7 38q-70 -50 -172 -50q-90 0 -161 37t-111.5 105.5t-40.5 159.5q0 120 55 216t155 151t230 55q97 0 172 -31.5t120 -90.5l-116 -94q-35 41 -79.5 59.5t-104.5 18.5q-80 0 -141 -35.5t-94 -97.5t-33 -139q0 -82 48 -130t135 -48q78 0 139 47z
M736 902l-151 -144h-138l-112 144h111l77 -75l97 75h116z" />
    <glyph glyph-name="Gcircumflex.ss01" horiz-adv-x="771" 
d="M575 361h148l-74 -361h-120l7 38q-70 -50 -172 -50q-90 0 -161 37t-111.5 105.5t-40.5 159.5q0 120 55 216t155 151t230 55q97 0 172 -31.5t120 -90.5l-116 -94q-35 41 -79.5 59.5t-104.5 18.5q-80 0 -141 -35.5t-94 -97.5t-33 -139q0 -82 48 -130t135 -48q78 0 139 47z
M603 758l-77 75l-97 -75h-117l152 144h137l113 -144h-111z" />
    <glyph glyph-name="Gcommaaccent.ss01" horiz-adv-x="771" 
d="M575 361h148l-74 -361h-120l7 38q-70 -50 -172 -50q-90 0 -161 37t-111.5 105.5t-40.5 159.5q0 120 55 216t155 151t230 55q97 0 172 -31.5t120 -90.5l-116 -94q-35 41 -79.5 59.5t-104.5 18.5q-80 0 -141 -35.5t-94 -97.5t-33 -139q0 -82 48 -130t135 -48q78 0 139 47z
M379.5 -86q17.5 -15 17.5 -38q0 -16 -6.5 -30.5t-24.5 -40.5l-49 -69h-71l41 81q-30 12 -30 44q0 30 19 49t54 19q32 0 49.5 -15z" />
    <glyph glyph-name="Gdotaccent.ss01" horiz-adv-x="771" 
d="M575 361h148l-74 -361h-120l7 38q-70 -50 -172 -50q-90 0 -161 37t-111.5 105.5t-40.5 159.5q0 120 55 216t155 151t230 55q97 0 172 -31.5t120 -90.5l-116 -94q-35 41 -79.5 59.5t-104.5 18.5q-80 0 -141 -35.5t-94 -97.5t-33 -139q0 -82 48 -130t135 -48q78 0 139 47z
M468 784q-22 21 -22 53q0 42 26 68.5t65 26.5q35 0 56.5 -21t21.5 -54q0 -41 -26 -67.5t-64 -26.5q-35 0 -57 21z" />
    <glyph glyph-name="uni1E20.ss01" horiz-adv-x="771" 
d="M575 361h148l-74 -361h-120l7 38q-70 -50 -172 -50q-90 0 -161 37t-111.5 105.5t-40.5 159.5q0 120 55 216t155 151t230 55q97 0 172 -31.5t120 -90.5l-116 -94q-35 41 -79.5 59.5t-104.5 18.5q-80 0 -141 -35.5t-94 -97.5t-33 -139q0 -82 48 -130t135 -48q78 0 139 47z
M351 874h369l-17 -88h-369z" />
    <glyph glyph-name="uni01E4.ss01" horiz-adv-x="816" 
d="M575 361h148l-74 -361h-120l7 38q-70 -50 -172 -50q-90 0 -161 37t-111.5 105.5t-40.5 159.5q0 120 55 216t155 151t230 55q97 0 172 -31.5t120 -90.5l-116 -94q-35 41 -79.5 59.5t-104.5 18.5q-80 0 -141 -35.5t-94 -97.5t-33 -139q0 -82 48 -130t135 -48q78 0 139 47z
M354.141 305.557h398.408l-19.3672 -107.144h-399.33z" />
    <glyph glyph-name="I.ss01" horiz-adv-x="483" 
d="M383 571l-88 -442h121l-25 -129h-406l25 129h122l88 442h-120l25 129h406l-25 -129h-123z" />
    <glyph glyph-name="IJ.ss01" horiz-adv-x="724" 
d="M3 -32l79 123q91 -64 204 -64q79 0 123.5 42.5t63.5 139.5l97 491h162l-98 -497q-32 -158 -121 -235t-236 -77q-168 0 -274 77zM163 700h162l-95 -478h-163z" />
    <glyph glyph-name="Iacute.ss01" horiz-adv-x="483" 
d="M383 571l-88 -442h121l-25 -129h-406l25 129h122l88 442h-120l25 129h406l-25 -129h-123zM396 901h172l-196 -144h-126z" />
    <glyph glyph-name="Iacute_J.loclNLD.ss01" horiz-adv-x="724" 
d="M343 901h156l-210 -144h-109zM751 901h156l-210 -144h-109zM3 -29l79 122q91 -65 199 -65q81 0 126.5 43t64.5 140l98 489h162l-99 -496q-32 -158 -121.5 -235t-237.5 -77q-162 0 -271 79zM162 700h163l-96 -478h-163z" />
    <glyph glyph-name="Ibreve.ss01" horiz-adv-x="483" 
d="M383 571l-88 -442h121l-25 -129h-406l25 129h122l88 442h-120l25 129h406l-25 -129h-123zM229 786.5q-47 37.5 -47 99.5q0 10 1 15h95q-1 -32 20.5 -51.5t58.5 -19.5t62 19.5t31 51.5h101q-13 -70 -68 -111t-135 -41q-72 0 -119 37.5z" />
    <glyph glyph-name="Icircumflex.ss01" horiz-adv-x="483" 
d="M383 571l-88 -442h121l-25 -129h-406l25 129h122l88 442h-120l25 129h406l-25 -129h-123zM429 757l-77 75l-97 -75h-117l152 144h137l113 -144h-111z" />
    <glyph glyph-name="uni0208.ss01" horiz-adv-x="483" 
d="M383 571l-88 -442h121l-25 -129h-406l25 129h122l88 442h-120l25 129h406l-25 -129h-123zM108 901h140l44 -144h-108zM310 901h140l44 -144h-108z" />
    <glyph glyph-name="Idieresis.ss01" horiz-adv-x="483" 
d="M383 571l-88 -442h121l-25 -129h-406l25 129h122l88 442h-120l25 129h406l-25 -129h-123zM200.5 779q-18.5 17 -18.5 45q0 33 22 54.5t52 21.5q28 0 47 -17t19 -45q0 -33 -22.5 -54.5t-52.5 -21.5q-28 0 -46.5 17zM403.5 779q-18.5 17 -18.5 45q0 34 21.5 55t52.5 21
q28 0 46.5 -17t18.5 -45q0 -33 -22 -54.5t-52 -21.5q-28 0 -46.5 17z" />
    <glyph glyph-name="uni1E2E.ss01" horiz-adv-x="483" 
d="M383 571l-88 -442h121l-25 -129h-406l25 129h122l88 442h-120l25 129h406l-25 -129h-123zM206.5 778q-17.5 16 -17.5 43q0 32 20.5 52.5t49.5 20.5q27 0 44.5 -17t17.5 -44q0 -31 -20.5 -51t-49.5 -20q-27 0 -44.5 16zM401.5 778q-17.5 16 -17.5 43q0 31 21 52t50 21
q27 0 44.5 -17t17.5 -44q0 -31 -21 -51t-50 -20q-27 0 -44.5 16zM406 1039h163l-170 -121h-117z" />
    <glyph glyph-name="Idotaccent.ss01" horiz-adv-x="483" 
d="M383 571l-88 -442h121l-25 -129h-406l25 129h122l88 442h-120l25 129h406l-25 -129h-123zM294 783q-22 21 -22 53q0 42 26 68.5t65 26.5q35 0 56.5 -21t21.5 -54q0 -41 -26 -67.5t-64 -26.5q-35 0 -57 21z" />
    <glyph glyph-name="uni1ECA.ss01" horiz-adv-x="483" 
d="M383 571l-88 -442h121l-25 -129h-406l25 129h122l88 442h-120l25 129h406l-25 -129h-123zM106.5 -193q-17.5 17 -17.5 45q0 31 23 53t53 22q27 0 45.5 -17t18.5 -43q0 -35 -21.5 -56t-54.5 -21q-29 0 -46.5 17z" />
    <glyph glyph-name="Igrave.ss01" horiz-adv-x="483" 
d="M383 571l-88 -442h121l-25 -129h-406l25 129h122l88 442h-120l25 129h406l-25 -129h-123zM156 901h167l106 -144h-121z" />
    <glyph glyph-name="uni1EC8.ss01" horiz-adv-x="483" 
d="M383 571l-88 -442h121l-25 -129h-406l25 129h122l88 442h-120l25 129h406l-25 -129h-123zM332 799q60 25 60 67q0 17 -11.5 27t-30.5 10q-30 0 -60 -20l-27 64q46 33 113 33q50 0 79 -25t29 -68q0 -92 -111 -141z" />
    <glyph glyph-name="uni020A.ss01" horiz-adv-x="483" 
d="M383 571l-88 -442h121l-25 -129h-406l25 129h122l88 442h-120l25 129h406l-25 -129h-123zM222.5 868.5q55.5 41.5 135.5 41.5q77 0 124 -42t41 -111h-96q2 33 -19.5 52.5t-58.5 19.5t-62 -19.5t-32 -52.5h-101q13 70 68.5 111.5z" />
    <glyph glyph-name="Imacron.ss01" horiz-adv-x="483" 
d="M383 571l-88 -442h121l-25 -129h-406l25 129h122l88 442h-120l25 129h406l-25 -129h-123zM212 873h300l-17 -88h-300z" />
    <glyph glyph-name="Iogonek.ss01" horiz-adv-x="483" 
d="M383 571l-88 -442h121l-25 -129h-406l25 129h122l88 442h-120l25 129h406l-25 -129h-123zM108 -205.5q-28 26.5 -28 69.5q0 56 40 101t108 77l41 -42q-86 -61 -86 -119q0 -16 9 -25t24 -9q18 0 35 10l9 -70q-29 -19 -72 -19q-52 0 -80 26.5z" />
    <glyph glyph-name="Itilde.ss01" horiz-adv-x="483" 
d="M383 571l-88 -442h121l-25 -129h-406l25 129h122l88 442h-120l25 129h406l-25 -129h-123zM376.5 764q-19.5 10 -42.5 28q-19 14 -29 19.5t-22 5.5q-20 0 -34 -15t-19 -41h-79q11 71 46 108.5t87 37.5q26 0 45.5 -10t42.5 -28q18 -14 28.5 -20t22.5 -6q21 0 34.5 14.5
t18.5 39.5h79q-11 -68 -45.5 -105.5t-86.5 -37.5q-27 0 -46.5 10z" />
    <glyph glyph-name="J.ss01" horiz-adv-x="541" 
d="M21 -85q-58 27 -90 78l107 102q46 -74 123 -74q47 0 76 26.5t40 82.5l87 440h-245l26 130h406l-113 -562q-26 -134 -94 -192t-185 -58q-80 0 -138 27z" />
    <glyph glyph-name="Jcircumflex.ss01" horiz-adv-x="541" 
d="M21 -85q-58 27 -90 78l107 102q46 -74 123 -74q47 0 76 26.5t40 82.5l87 440h-245l26 130h406l-113 -562q-26 -134 -94 -192t-185 -58q-80 0 -138 27zM448 757l-77 75l-97 -75h-117l152 144h137l113 -144h-111z" />
    <glyph glyph-name="uni01C7.ss01" horiz-adv-x="1175" 
d="M169 700h163l-114 -568h351l-27 -132h-513zM655 -85q-58 27 -90 78l107 102q46 -74 123 -74q47 0 76 26.5t40 82.5l87 440h-245l26 130h406l-113 -562q-26 -134 -94 -192t-185 -58q-80 0 -138 27z" />
    <glyph glyph-name="M.ss01" horiz-adv-x="1211" 
d="M1114.5 658.5q59.5 -53.5 59.5 -153.5q0 -32 -8 -75l-86 -430h-162l84 425q5 27 5 45q0 52 -30 78t-84 26q-67 0 -114.5 -40t-63.5 -119l-82 -415h-163l85 425q5 28 5 46q0 51 -28.5 77t-80.5 26q-65 0 -113 -39.5t-64 -119.5l-82 -415h-163l140 700h157l-16 -81
q80 93 214 93q72 0 121.5 -26.5t70.5 -74.5q89 101 235 101q104 0 163.5 -53.5z" />
    <glyph glyph-name="uni1E42.ss01" horiz-adv-x="1211" 
d="M1114.5 658.5q59.5 -53.5 59.5 -153.5q0 -32 -8 -75l-86 -430h-162l84 425q5 27 5 45q0 52 -30 78t-84 26q-67 0 -114.5 -40t-63.5 -119l-82 -415h-163l85 425q5 28 5 46q0 51 -28.5 77t-80.5 26q-65 0 -113 -39.5t-64 -119.5l-82 -415h-163l140 700h157l-16 -81
q80 93 214 93q72 0 121.5 -26.5t70.5 -74.5q89 101 235 101q104 0 163.5 -53.5zM472.5 -193q-17.5 17 -17.5 45q0 31 23 53t53 22q27 0 45.5 -17t18.5 -43q0 -35 -21.5 -56t-54.5 -21q-29 0 -46.5 17z" />
    <glyph glyph-name="N.ss01" horiz-adv-x="796" 
d="M691 650.5q62 -61.5 62 -172.5q0 -39 -9 -86l-78 -392h-163l80 396q6 32 6 58q0 59 -32.5 89.5t-93.5 30.5q-72 0 -123 -43t-69 -132l-79 -399h-163l140 700h157l-14 -73q41 41 94 63t115 22q108 0 170 -61.5z" />
    <glyph glyph-name="uni01CA.ss01" horiz-adv-x="1337" 
d="M691 650.5q62 -61.5 62 -172.5q0 -39 -9 -86l-78 -392h-163l80 396q6 32 6 58q0 59 -32.5 89.5t-93.5 30.5q-72 0 -123 -43t-69 -132l-79 -399h-163l140 700h157l-14 -73q41 41 94 63t115 22q108 0 170 -61.5zM817 -85q-58 27 -90 78l107 102q46 -74 123 -74
q47 0 76 26.5t40 82.5l87 440h-245l26 130h406l-113 -562q-26 -134 -94 -192t-185 -58q-80 0 -138 27z" />
    <glyph glyph-name="Nacute.ss01" horiz-adv-x="796" 
d="M691 650.5q62 -61.5 62 -172.5q0 -39 -9 -86l-78 -392h-163l80 396q6 32 6 58q0 59 -32.5 89.5t-93.5 30.5q-72 0 -123 -43t-69 -132l-79 -399h-163l140 700h157l-14 -73q41 41 94 63t115 22q108 0 170 -61.5zM555 901h172l-196 -144h-126z" />
    <glyph glyph-name="Ncaron.ss01" horiz-adv-x="796" 
d="M691 650.5q62 -61.5 62 -172.5q0 -39 -9 -86l-78 -392h-163l80 396q6 32 6 58q0 59 -32.5 89.5t-93.5 30.5q-72 0 -123 -43t-69 -132l-79 -399h-163l140 700h157l-14 -73q41 41 94 63t115 22q108 0 170 -61.5zM721 901l-151 -144h-138l-112 144h111l77 -75l97 75h116z
" />
    <glyph glyph-name="Ncommaaccent.ss01" horiz-adv-x="796" 
d="M691 650.5q62 -61.5 62 -172.5q0 -39 -9 -86l-78 -392h-163l80 396q6 32 6 58q0 59 -32.5 89.5t-93.5 30.5q-72 0 -123 -43t-69 -132l-79 -399h-163l140 700h157l-14 -73q41 41 94 63t115 22q108 0 170 -61.5zM372.5 -88q17.5 -15 17.5 -38q0 -16 -6.5 -30.5t-24.5 -40.5
l-49 -69h-71l41 81q-30 12 -30 44q0 30 19 49t54 19q32 0 49.5 -15z" />
    <glyph glyph-name="uni1E44.ss01" horiz-adv-x="796" 
d="M691 650.5q62 -61.5 62 -172.5q0 -39 -9 -86l-78 -392h-163l80 396q6 32 6 58q0 59 -32.5 89.5t-93.5 30.5q-72 0 -123 -43t-69 -132l-79 -399h-163l140 700h157l-14 -73q41 41 94 63t115 22q108 0 170 -61.5zM453 783q-22 21 -22 53q0 42 26 68.5t65 26.5q35 0 56.5 -21
t21.5 -54q0 -41 -26 -67.5t-64 -26.5q-35 0 -57 21z" />
    <glyph glyph-name="uni1E46.ss01" horiz-adv-x="796" 
d="M691 650.5q62 -61.5 62 -172.5q0 -39 -9 -86l-78 -392h-163l80 396q6 32 6 58q0 59 -32.5 89.5t-93.5 30.5q-72 0 -123 -43t-69 -132l-79 -399h-163l140 700h157l-14 -73q41 41 94 63t115 22q108 0 170 -61.5zM265.5 -193q-17.5 17 -17.5 45q0 31 23 53t53 22
q27 0 45.5 -17t18.5 -43q0 -35 -21.5 -56t-54.5 -21q-29 0 -46.5 17z" />
    <glyph glyph-name="Eng.ss01" horiz-adv-x="796" 
d="M691 650.5q62 -61.5 62 -172.5q0 -39 -9 -86l-65 -325q-30 -150 -100 -209.5t-186 -59.5q-60 0 -109.5 18t-80.5 52l90 110q18 -22 45.5 -34.5t60.5 -12.5q46 0 73.5 27t40.5 89l70 349q6 32 6 58q0 59 -32.5 89.5t-93.5 30.5q-72 0 -123 -43t-69 -132l-79 -399h-163
l140 700h157l-14 -73q41 41 94 63t115 22q108 0 170 -61.5z" />
    <glyph glyph-name="uni01CB.ss01" horiz-adv-x="1102" 
d="M691 650.5q62 -61.5 62 -172.5q0 -39 -9 -86l-78 -392h-163l80 396q6 32 6 58q0 59 -32.5 89.5t-93.5 30.5q-72 0 -123 -43t-69 -132l-79 -399h-163l140 700h157l-14 -73q41 41 94 63t115 22q108 0 170 -61.5zM616 -172l62 113q27 -19 65 -19q32 0 50.5 19t26.5 60
l108 537h156l-107 -533q-41 -207 -232 -207q-78 0 -129 30zM966.5 636.5q-25.5 23.5 -25.5 57.5q0 40 28.5 66.5t74.5 26.5q41 0 66.5 -22.5t25.5 -55.5q0 -43 -29 -69.5t-75 -26.5q-40 0 -65.5 23.5z" />
    <glyph glyph-name="uni1E48.ss01" horiz-adv-x="796" 
d="M691 650.5q62 -61.5 62 -172.5q0 -39 -9 -86l-78 -392h-163l80 396q6 32 6 58q0 59 -32.5 89.5t-93.5 30.5q-72 0 -123 -43t-69 -132l-79 -399h-163l140 700h157l-14 -73q41 41 94 63t115 22q108 0 170 -61.5zM142 -95h370l-16 -87h-370z" />
    <glyph glyph-name="Ntilde.ss01" horiz-adv-x="796" 
d="M691 650.5q62 -61.5 62 -172.5q0 -39 -9 -86l-78 -392h-163l80 396q6 32 6 58q0 59 -32.5 89.5t-93.5 30.5q-72 0 -123 -43t-69 -132l-79 -399h-163l140 700h157l-14 -73q41 41 94 63t115 22q108 0 170 -61.5zM535.5 764q-19.5 10 -42.5 28q-19 14 -29 19.5t-22 5.5
q-20 0 -34 -15t-19 -41h-79q11 71 46 108.5t87 37.5q26 0 45.5 -10t42.5 -28q18 -14 28.5 -20t22.5 -6q21 0 34.5 14.5t18.5 39.5h79q-11 -68 -45.5 -105.5t-86.5 -37.5q-27 0 -46.5 10z" />
    <glyph glyph-name="Q.ss01" horiz-adv-x="844" 
d="M778 207.5q-47 -90.5 -132.5 -147.5t-197.5 -69l-26 -126h-162l27 134q-111 26 -173.5 104t-62.5 189q0 119 54.5 214.5t153 150.5t225.5 55q105 0 182 -38t118 -107t41 -159q0 -110 -47 -200.5zM609 228q52 74 52 171q0 80 -50 127.5t-141 47.5q-77 0 -135 -37t-89 -99
t-31 -137q0 -57 27 -99.5t78 -61.5l28 141h150l-30 -148q89 21 141 95z" />
    <glyph glyph-name="uni018F.ss01" horiz-adv-x="817" 
d="M636.5 673.5q77.5 -38.5 119 -108t41.5 -161.5q0 -120 -52.5 -214.5t-146.5 -148t-214 -53.5q-137 0 -227.5 67.5t-108.5 188.5l577 217q-17 54 -63.5 83.5t-119.5 29.5q-60 0 -114.5 -19.5t-97.5 -57.5l-77 112q58 50 136.5 76.5t164.5 26.5q105 0 182.5 -38.5z
M507 146.5q50 29.5 81.5 81t41.5 116.5l-398 -150q21 -37 62.5 -57t98.5 -20q64 0 114 29.5z" />
    <glyph glyph-name="T.ss01" horiz-adv-x="638" 
d="M644 504q-88 51 -184 65l-114 -569h-163l115 572q-114 -12 -201 -65l-42 122q65 40 154 61.5t180 21.5q94 0 177.5 -22.5t148.5 -64.5z" />
    <glyph glyph-name="Tbar.ss01" horiz-adv-x="638" 
d="M644 504q-88 51 -184 65l-114 -569h-163l115 572q-114 -12 -201 -65l-42 122q65 40 154 61.5t180 21.5q94 0 177.5 -22.5t148.5 -64.5zM122 370h432l-21 -108h-433z" />
    <glyph glyph-name="Tcaron.ss01" horiz-adv-x="638" 
d="M644 504q-88 51 -184 65l-114 -569h-163l115 572q-114 -12 -201 -65l-42 122q65 40 154 61.5t180 21.5q94 0 177.5 -22.5t148.5 -64.5zM642 901l-151 -144h-138l-112 144h111l77 -75l97 75h116z" />
    <glyph glyph-name="uni0162.ss01" horiz-adv-x="638" 
d="M644 504q-88 51 -184 65l-114 -569h-163l115 572q-114 -12 -201 -65l-42 122q65 40 154 61.5t180 21.5q94 0 177.5 -22.5t148.5 -64.5zM98 -211l34 67q30 -15 67 -15q27 0 40.5 9t14.5 24q3 28 -43 28h-35l48 106h83l-25 -58q33 -4 51.5 -23.5t18.5 -45.5
q0 -53 -43.5 -83t-116.5 -30q-55 0 -94 21z" />
    <glyph glyph-name="uni021A.ss01" horiz-adv-x="638" 
d="M644 504q-88 51 -184 65l-114 -569h-163l115 572q-114 -12 -201 -65l-42 122q65 40 154 61.5t180 21.5q94 0 177.5 -22.5t148.5 -64.5zM289.5 -88q17.5 -15 17.5 -38q0 -16 -6.5 -30.5t-24.5 -40.5l-49 -69h-71l41 81q-30 12 -30 44q0 30 19 49t54 19q32 0 49.5 -15z" />
    <glyph glyph-name="uni1E6C.ss01" horiz-adv-x="638" 
d="M644 504q-88 51 -184 65l-114 -569h-163l115 572q-114 -12 -201 -65l-42 122q65 40 154 61.5t180 21.5q94 0 177.5 -22.5t148.5 -64.5zM182.5 -193q-17.5 17 -17.5 45q0 31 23 53t53 22q27 0 45.5 -17t18.5 -43q0 -35 -21.5 -56t-54.5 -21q-29 0 -46.5 17z" />
    <glyph glyph-name="uni1E6E.ss01" horiz-adv-x="638" 
d="M644 504q-88 51 -184 65l-114 -569h-163l115 572q-114 -12 -201 -65l-42 122q65 40 154 61.5t180 21.5q94 0 177.5 -22.5t148.5 -64.5zM59 -95h370l-16 -87h-370z" />
    <glyph glyph-name="U.ss01" horiz-adv-x="794" 
d="M797 700l-140 -700h-157l15 74q-41 -42 -93 -64t-113 -22q-108 0 -170.5 61t-62.5 171q0 42 9 88l78 392h163l-80 -396q-6 -31 -6 -58q0 -60 32 -90t93 -30q72 0 122 43t68 132l80 399h162z" />
    <glyph glyph-name="Uacute.ss01" horiz-adv-x="794" 
d="M797 700l-140 -700h-157l15 74q-41 -42 -93 -64t-113 -22q-108 0 -170.5 61t-62.5 171q0 42 9 88l78 392h163l-80 -396q-6 -31 -6 -58q0 -60 32 -90t93 -30q72 0 122 43t68 132l80 399h162zM548 901h172l-196 -144h-126z" />
    <glyph glyph-name="Ubreve.ss01" horiz-adv-x="794" 
d="M797 700l-140 -700h-157l15 74q-41 -42 -93 -64t-113 -22q-108 0 -170.5 61t-62.5 171q0 42 9 88l78 392h163l-80 -396q-6 -31 -6 -58q0 -60 32 -90t93 -30q72 0 122 43t68 132l80 399h162zM381 786.5q-47 37.5 -47 99.5q0 10 1 15h95q-1 -32 20.5 -51.5t58.5 -19.5
t62 19.5t31 51.5h101q-13 -70 -68 -111t-135 -41q-72 0 -119 37.5z" />
    <glyph glyph-name="uni01D3.ss01" horiz-adv-x="794" 
d="M797 700l-140 -700h-157l15 74q-41 -42 -93 -64t-113 -22q-108 0 -170.5 61t-62.5 171q0 42 9 88l78 392h163l-80 -396q-6 -31 -6 -58q0 -60 32 -90t93 -30q72 0 122 43t68 132l80 399h162zM714 901l-151 -144h-138l-112 144h111l77 -75l97 75h116z" />
    <glyph glyph-name="Ucircumflex.ss01" horiz-adv-x="794" 
d="M797 700l-140 -700h-157l15 74q-41 -42 -93 -64t-113 -22q-108 0 -170.5 61t-62.5 171q0 42 9 88l78 392h163l-80 -396q-6 -31 -6 -58q0 -60 32 -90t93 -30q72 0 122 43t68 132l80 399h162zM581 757l-77 75l-97 -75h-117l152 144h137l113 -144h-111z" />
    <glyph glyph-name="uni0214.ss01" horiz-adv-x="794" 
d="M797 700l-140 -700h-157l15 74q-41 -42 -93 -64t-113 -22q-108 0 -170.5 61t-62.5 171q0 42 9 88l78 392h163l-80 -396q-6 -31 -6 -58q0 -60 32 -90t93 -30q72 0 122 43t68 132l80 399h162zM260 901h140l44 -144h-108zM462 901h140l44 -144h-108z" />
    <glyph glyph-name="Udieresis.ss01" horiz-adv-x="794" 
d="M797 700l-140 -700h-157l15 74q-41 -42 -93 -64t-113 -22q-108 0 -170.5 61t-62.5 171q0 42 9 88l78 392h163l-80 -396q-6 -31 -6 -58q0 -60 32 -90t93 -30q72 0 122 43t68 132l80 399h162zM352.5 779q-18.5 17 -18.5 45q0 33 22 54.5t52 21.5q28 0 47 -17t19 -45
q0 -33 -22.5 -54.5t-52.5 -21.5q-28 0 -46.5 17zM555.5 779q-18.5 17 -18.5 45q0 34 21.5 55t52.5 21q28 0 46.5 -17t18.5 -45q0 -33 -22 -54.5t-52 -21.5q-28 0 -46.5 17z" />
    <glyph glyph-name="uni1EE4.ss01" horiz-adv-x="794" 
d="M797 700l-140 -700h-157l15 74q-41 -42 -93 -64t-113 -22q-108 0 -170.5 61t-62.5 171q0 42 9 88l78 392h163l-80 -396q-6 -31 -6 -58q0 -60 32 -90t93 -30q72 0 122 43t68 132l80 399h162zM258.5 -193q-17.5 17 -17.5 45q0 31 23 53t53 22q27 0 45.5 -17t18.5 -43
q0 -35 -21.5 -56t-54.5 -21q-29 0 -46.5 17z" />
    <glyph glyph-name="Ugrave.ss01" horiz-adv-x="794" 
d="M797 700l-140 -700h-157l15 74q-41 -42 -93 -64t-113 -22q-108 0 -170.5 61t-62.5 171q0 42 9 88l78 392h163l-80 -396q-6 -31 -6 -58q0 -60 32 -90t93 -30q72 0 122 43t68 132l80 399h162zM308 901h167l106 -144h-121z" />
    <glyph glyph-name="uni1EE6.ss01" horiz-adv-x="794" 
d="M797 700l-140 -700h-157l15 74q-41 -42 -93 -64t-113 -22q-108 0 -170.5 61t-62.5 171q0 42 9 88l78 392h163l-80 -396q-6 -31 -6 -58q0 -60 32 -90t93 -30q72 0 122 43t68 132l80 399h162zM484 799q60 25 60 67q0 17 -11.5 27t-30.5 10q-30 0 -60 -20l-27 64
q46 33 113 33q50 0 79 -25t29 -68q0 -92 -111 -141z" />
    <glyph glyph-name="Uhorn.ss01" horiz-adv-x="794" 
d="M797 700l-140 -700h-157l15 74q-41 -42 -93 -64t-113 -22q-108 0 -170.5 61t-62.5 171q0 42 9 88l78 392h163l-80 -396q-6 -31 -6 -58q0 -60 32 -90t93 -30q72 0 122 43t68 132l80 399h162zM703 700h28q27 0 43.5 17.5t16.5 45.5q0 35 -20 60l92 34q32 -44 32 -100
q0 -74 -46 -117.5t-122 -43.5h-24v104z" />
    <glyph glyph-name="uni1EE8.ss01" horiz-adv-x="794" 
d="M797 700l-140 -700h-157l15 74q-41 -42 -93 -64t-113 -22q-108 0 -170.5 61t-62.5 171q0 42 9 88l78 392h163l-80 -396q-6 -31 -6 -58q0 -60 32 -90t93 -30q72 0 122 43t68 132l80 399h162zM703 700h28q27 0 43.5 17.5t16.5 45.5q0 35 -20 60l92 34q32 -44 32 -100
q0 -74 -46 -117.5t-122 -43.5h-24v104zM548 901h172l-196 -144h-126z" />
    <glyph glyph-name="uni1EF0.ss01" horiz-adv-x="794" 
d="M797 700l-140 -700h-157l15 74q-41 -42 -93 -64t-113 -22q-108 0 -170.5 61t-62.5 171q0 42 9 88l78 392h163l-80 -396q-6 -31 -6 -58q0 -60 32 -90t93 -30q72 0 122 43t68 132l80 399h162zM703 700h28q27 0 43.5 17.5t16.5 45.5q0 35 -20 60l92 34q32 -44 32 -100
q0 -74 -46 -117.5t-122 -43.5h-24v104zM258.5 -193q-17.5 17 -17.5 45q0 31 23 53t53 22q27 0 45.5 -17t18.5 -43q0 -35 -21.5 -56t-54.5 -21q-29 0 -46.5 17z" />
    <glyph glyph-name="uni1EEA.ss01" horiz-adv-x="794" 
d="M797 700l-140 -700h-157l15 74q-41 -42 -93 -64t-113 -22q-108 0 -170.5 61t-62.5 171q0 42 9 88l78 392h163l-80 -396q-6 -31 -6 -58q0 -60 32 -90t93 -30q72 0 122 43t68 132l80 399h162zM703 700h28q27 0 43.5 17.5t16.5 45.5q0 35 -20 60l92 34q32 -44 32 -100
q0 -74 -46 -117.5t-122 -43.5h-24v104zM308 901h167l106 -144h-121z" />
    <glyph glyph-name="uni1EEC.ss01" horiz-adv-x="794" 
d="M797 700l-140 -700h-157l15 74q-41 -42 -93 -64t-113 -22q-108 0 -170.5 61t-62.5 171q0 42 9 88l78 392h163l-80 -396q-6 -31 -6 -58q0 -60 32 -90t93 -30q72 0 122 43t68 132l80 399h162zM703 700h28q27 0 43.5 17.5t16.5 45.5q0 35 -20 60l92 34q32 -44 32 -100
q0 -74 -46 -117.5t-122 -43.5h-24v104zM484 799q60 25 60 67q0 17 -11.5 27t-30.5 10q-30 0 -60 -20l-27 64q46 33 113 33q50 0 79 -25t29 -68q0 -92 -111 -141z" />
    <glyph glyph-name="uni1EEE.ss01" horiz-adv-x="794" 
d="M797 700l-140 -700h-157l15 74q-41 -42 -93 -64t-113 -22q-108 0 -170.5 61t-62.5 171q0 42 9 88l78 392h163l-80 -396q-6 -31 -6 -58q0 -60 32 -90t93 -30q72 0 122 43t68 132l80 399h162zM703 700h28q27 0 43.5 17.5t16.5 45.5q0 35 -20 60l92 34q32 -44 32 -100
q0 -74 -46 -117.5t-122 -43.5h-24v104zM528.5 764q-19.5 10 -42.5 28q-19 14 -29 19.5t-22 5.5q-20 0 -34 -15t-19 -41h-79q11 71 46 108.5t87 37.5q26 0 45.5 -10t42.5 -28q18 -14 28.5 -20t22.5 -6q21 0 34.5 14.5t18.5 39.5h79q-11 -68 -45.5 -105.5t-86.5 -37.5
q-27 0 -46.5 10z" />
    <glyph glyph-name="Uhungarumlaut.ss01" horiz-adv-x="794" 
d="M797 700l-140 -700h-157l15 74q-41 -42 -93 -64t-113 -22q-108 0 -170.5 61t-62.5 171q0 42 9 88l78 392h163l-80 -396q-6 -31 -6 -58q0 -60 32 -90t93 -30q72 0 122 43t68 132l80 399h162zM419 901h150l-120 -144h-118zM621 901h150l-121 -144h-116z" />
    <glyph glyph-name="uni0216.ss01" horiz-adv-x="794" 
d="M797 700l-140 -700h-157l15 74q-41 -42 -93 -64t-113 -22q-108 0 -170.5 61t-62.5 171q0 42 9 88l78 392h163l-80 -396q-6 -31 -6 -58q0 -60 32 -90t93 -30q72 0 122 43t68 132l80 399h162zM374.5 868.5q55.5 41.5 135.5 41.5q77 0 124 -42t41 -111h-96q2 33 -19.5 52.5
t-58.5 19.5t-62 -19.5t-32 -52.5h-101q13 70 68.5 111.5z" />
    <glyph glyph-name="Umacron.ss01" horiz-adv-x="794" 
d="M797 700l-140 -700h-157l15 74q-41 -42 -93 -64t-113 -22q-108 0 -170.5 61t-62.5 171q0 42 9 88l78 392h163l-80 -396q-6 -31 -6 -58q0 -60 32 -90t93 -30q72 0 122 43t68 132l80 399h162zM329 873h369l-17 -88h-369z" />
    <glyph glyph-name="uni1E7A.ss01" horiz-adv-x="794" 
d="M797 700l-140 -700h-157l15 74q-41 -42 -93 -64t-113 -22q-108 0 -170.5 61t-62.5 171q0 42 9 88l78 392h163l-80 -396q-6 -31 -6 -58q0 -60 32 -90t93 -30q72 0 122 43t68 132l80 399h162zM325 857h370l-16 -83h-370zM390.5 940q-17.5 16 -17.5 43q0 32 20.5 52.5
t49.5 20.5q27 0 44.5 -17t17.5 -44q0 -31 -20.5 -51t-49.5 -20q-27 0 -44.5 16zM585.5 940q-17.5 16 -17.5 43q0 31 21 52t50 21q27 0 44.5 -17t17.5 -44q0 -31 -21 -51t-50 -20q-27 0 -44.5 16z" />
    <glyph glyph-name="Uogonek.ss01" horiz-adv-x="794" 
d="M797 700l-140 -700h-157l15 74q-41 -42 -93 -64t-113 -22q-108 0 -170.5 61t-62.5 171q0 42 9 88l78 392h163l-80 -396q-6 -31 -6 -58q0 -60 32 -90t93 -30q72 0 122 43t68 132l80 399h162zM450 -205.5q-34 26.5 -34 72.5q0 57 48 101t136 75l57 -43q-138 -49 -138 -111
q0 -20 13 -31t35 -11q34 0 64 15l11 -71q-48 -23 -101 -23q-57 0 -91 26.5z" />
    <glyph glyph-name="Uring.ss01" horiz-adv-x="794" 
d="M797 700l-140 -700h-157l15 74q-41 -42 -93 -64t-113 -22q-108 0 -170.5 61t-62.5 171q0 42 9 88l78 392h163l-80 -396q-6 -31 -6 -58q0 -60 32 -90t93 -30q72 0 122 43t68 132l80 399h162zM426 789q-36 35 -36 86q0 50 36 85.5t88 35.5q53 0 89 -35t36 -86t-36 -86
t-89 -35q-52 0 -88 35zM557.5 831.5q17.5 17.5 17.5 43.5t-17.5 43.5t-43.5 17.5q-25 0 -42.5 -17.5t-17.5 -43.5t17 -43.5t43 -17.5t43.5 17.5z" />
    <glyph glyph-name="Utilde.ss01" horiz-adv-x="794" 
d="M797 700l-140 -700h-157l15 74q-41 -42 -93 -64t-113 -22q-108 0 -170.5 61t-62.5 171q0 42 9 88l78 392h163l-80 -396q-6 -31 -6 -58q0 -60 32 -90t93 -30q72 0 122 43t68 132l80 399h162zM528.5 764q-19.5 10 -42.5 28q-19 14 -29 19.5t-22 5.5q-20 0 -34 -15t-19 -41
h-79q11 71 46 108.5t87 37.5q26 0 45.5 -10t42.5 -28q18 -14 28.5 -20t22.5 -6q21 0 34.5 14.5t18.5 39.5h79q-11 -68 -45.5 -105.5t-86.5 -37.5q-27 0 -46.5 10z" />
    <glyph glyph-name="uni1E78.ss01" horiz-adv-x="794" 
d="M797 700l-140 -700h-157l15 74q-41 -42 -93 -64t-113 -22q-108 0 -170.5 61t-62.5 171q0 42 9 88l78 392h163l-80 -396q-6 -31 -6 -58q0 -60 32 -90t93 -30q72 0 122 43t68 132l80 399h162zM523.5 763.5q-19.5 8.5 -41.5 23.5q-27 20 -44 20q-20 0 -33 -12.5t-17 -33.5
h-81q9 60 43.5 92.5t87.5 32.5q26 0 45.5 -8.5t40.5 -23.5q15 -10 25 -15t21 -5q20 0 33.5 12.5t18.5 32.5h78q-9 -58 -43 -91t-88 -33q-26 0 -45.5 8.5zM558 1039h163l-170 -121h-117z" />
    <glyph glyph-name="W.ss01" horiz-adv-x="1208" 
d="M1217 700l-88 -414q-32 -156 -118.5 -227t-241.5 -71q-67 0 -118 20.5t-81 60.5q-44 -40 -102 -60.5t-126 -20.5q-123 0 -196 60.5t-73 168.5q0 39 8 74l87 409h161l-91 -431q-5 -27 -5 -43q0 -50 31.5 -75t89.5 -25q68 0 110.5 39t60.5 121l88 414h160l-91 -425
q-5 -21 -5 -46q0 -51 29.5 -77t86.5 -26q74 0 116.5 38t59.5 119l88 417h160z" />
    <glyph glyph-name="Wacute.ss01" horiz-adv-x="1208" 
d="M1217 700l-88 -414q-32 -156 -118.5 -227t-241.5 -71q-67 0 -118 20.5t-81 60.5q-44 -40 -102 -60.5t-126 -20.5q-123 0 -196 60.5t-73 168.5q0 39 8 74l87 409h161l-91 -431q-5 -27 -5 -43q0 -50 31.5 -75t89.5 -25q68 0 110.5 39t60.5 121l88 414h160l-91 -425
q-5 -21 -5 -46q0 -51 29.5 -77t86.5 -26q74 0 116.5 38t59.5 119l88 417h160zM761 901h172l-196 -144h-126z" />
    <glyph glyph-name="Wcircumflex.ss01" horiz-adv-x="1208" 
d="M1217 700l-88 -414q-32 -156 -118.5 -227t-241.5 -71q-67 0 -118 20.5t-81 60.5q-44 -40 -102 -60.5t-126 -20.5q-123 0 -196 60.5t-73 168.5q0 39 8 74l87 409h161l-91 -431q-5 -27 -5 -43q0 -50 31.5 -75t89.5 -25q68 0 110.5 39t60.5 121l88 414h160l-91 -425
q-5 -21 -5 -46q0 -51 29.5 -77t86.5 -26q74 0 116.5 38t59.5 119l88 417h160zM794 757l-77 75l-97 -75h-117l152 144h137l113 -144h-111z" />
    <glyph glyph-name="Wdieresis.ss01" horiz-adv-x="1208" 
d="M1217 700l-88 -414q-32 -156 -118.5 -227t-241.5 -71q-67 0 -118 20.5t-81 60.5q-44 -40 -102 -60.5t-126 -20.5q-123 0 -196 60.5t-73 168.5q0 39 8 74l87 409h161l-91 -431q-5 -27 -5 -43q0 -50 31.5 -75t89.5 -25q68 0 110.5 39t60.5 121l88 414h160l-91 -425
q-5 -21 -5 -46q0 -51 29.5 -77t86.5 -26q74 0 116.5 38t59.5 119l88 417h160zM565.5 779q-18.5 17 -18.5 45q0 33 22 54.5t52 21.5q28 0 47 -17t19 -45q0 -33 -22.5 -54.5t-52.5 -21.5q-28 0 -46.5 17zM768.5 779q-18.5 17 -18.5 45q0 34 21.5 55t52.5 21q28 0 46.5 -17
t18.5 -45q0 -33 -22 -54.5t-52 -21.5q-28 0 -46.5 17z" />
    <glyph glyph-name="Wgrave.ss01" horiz-adv-x="1208" 
d="M1217 700l-88 -414q-32 -156 -118.5 -227t-241.5 -71q-67 0 -118 20.5t-81 60.5q-44 -40 -102 -60.5t-126 -20.5q-123 0 -196 60.5t-73 168.5q0 39 8 74l87 409h161l-91 -431q-5 -27 -5 -43q0 -50 31.5 -75t89.5 -25q68 0 110.5 39t60.5 121l88 414h160l-91 -425
q-5 -21 -5 -46q0 -51 29.5 -77t86.5 -26q74 0 116.5 38t59.5 119l88 417h160zM521 901h167l106 -144h-121z" />
    <glyph glyph-name="Y.ss01" horiz-adv-x="785" 
d="M795 700l-100 -496q-31 -157 -125 -234.5t-246 -77.5q-184 0 -289 95l81 121q89 -79 215 -79q85 0 134.5 43.5t68.5 138.5l7 34q-39 -38 -89.5 -58t-109.5 -20q-109 0 -172 61t-63 172q0 42 9 88l42 212h163l-44 -216q-6 -31 -6 -57q0 -61 32.5 -91.5t94.5 -30.5
q72 0 122.5 43t67.5 132l44 220h163z" />
    <glyph glyph-name="Yacute.ss01" horiz-adv-x="785" 
d="M795 700l-100 -496q-31 -157 -125 -234.5t-246 -77.5q-184 0 -289 95l81 121q89 -79 215 -79q85 0 134.5 43.5t68.5 138.5l7 34q-39 -38 -89.5 -58t-109.5 -20q-109 0 -172 61t-63 172q0 42 9 88l42 212h163l-44 -216q-6 -31 -6 -57q0 -61 32.5 -91.5t94.5 -30.5
q72 0 122.5 43t67.5 132l44 220h163zM544 901h172l-196 -144h-126z" />
    <glyph glyph-name="Ycircumflex.ss01" horiz-adv-x="785" 
d="M795 700l-100 -496q-31 -157 -125 -234.5t-246 -77.5q-184 0 -289 95l81 121q89 -79 215 -79q85 0 134.5 43.5t68.5 138.5l7 34q-39 -38 -89.5 -58t-109.5 -20q-109 0 -172 61t-63 172q0 42 9 88l42 212h163l-44 -216q-6 -31 -6 -57q0 -61 32.5 -91.5t94.5 -30.5
q72 0 122.5 43t67.5 132l44 220h163zM577 757l-77 75l-97 -75h-117l152 144h137l113 -144h-111z" />
    <glyph glyph-name="Ydieresis.ss01" horiz-adv-x="785" 
d="M795 700l-100 -496q-31 -157 -125 -234.5t-246 -77.5q-184 0 -289 95l81 121q89 -79 215 -79q85 0 134.5 43.5t68.5 138.5l7 34q-39 -38 -89.5 -58t-109.5 -20q-109 0 -172 61t-63 172q0 42 9 88l42 212h163l-44 -216q-6 -31 -6 -57q0 -61 32.5 -91.5t94.5 -30.5
q72 0 122.5 43t67.5 132l44 220h163zM348.5 779q-18.5 17 -18.5 45q0 33 22 54.5t52 21.5q28 0 47 -17t19 -45q0 -33 -22.5 -54.5t-52.5 -21.5q-28 0 -46.5 17zM551.5 779q-18.5 17 -18.5 45q0 34 21.5 55t52.5 21q28 0 46.5 -17t18.5 -45q0 -33 -22 -54.5t-52 -21.5
q-28 0 -46.5 17z" />
    <glyph glyph-name="uni1E8E.ss01" horiz-adv-x="785" 
d="M795 700l-100 -496q-31 -157 -125 -234.5t-246 -77.5q-184 0 -289 95l81 121q89 -79 215 -79q85 0 134.5 43.5t68.5 138.5l7 34q-39 -38 -89.5 -58t-109.5 -20q-109 0 -172 61t-63 172q0 42 9 88l42 212h163l-44 -216q-6 -31 -6 -57q0 -61 32.5 -91.5t94.5 -30.5
q72 0 122.5 43t67.5 132l44 220h163zM442 783q-22 21 -22 53q0 42 26 68.5t65 26.5q35 0 56.5 -21t21.5 -54q0 -41 -26 -67.5t-64 -26.5q-35 0 -57 21z" />
    <glyph glyph-name="uni1EF4.ss01" horiz-adv-x="785" 
d="M795 700l-100 -496q-31 -157 -125 -234.5t-246 -77.5q-184 0 -289 95l81 121q89 -79 215 -79q85 0 134.5 43.5t68.5 138.5l7 34q-39 -38 -89.5 -58t-109.5 -20q-109 0 -172 61t-63 172q0 42 9 88l42 212h163l-44 -216q-6 -31 -6 -57q0 -61 32.5 -91.5t94.5 -30.5
q72 0 122.5 43t67.5 132l44 220h163zM556.5 -193q-17.5 17 -17.5 45q0 31 23 53t53 22q27 0 45.5 -17t18.5 -43q0 -35 -21.5 -56t-54.5 -21q-29 0 -46.5 17z" />
    <glyph glyph-name="Ygrave.ss01" horiz-adv-x="785" 
d="M795 700l-100 -496q-31 -157 -125 -234.5t-246 -77.5q-184 0 -289 95l81 121q89 -79 215 -79q85 0 134.5 43.5t68.5 138.5l7 34q-39 -38 -89.5 -58t-109.5 -20q-109 0 -172 61t-63 172q0 42 9 88l42 212h163l-44 -216q-6 -31 -6 -57q0 -61 32.5 -91.5t94.5 -30.5
q72 0 122.5 43t67.5 132l44 220h163zM304 901h167l106 -144h-121z" />
    <glyph glyph-name="uni1EF6.ss01" horiz-adv-x="785" 
d="M795 700l-100 -496q-31 -157 -125 -234.5t-246 -77.5q-184 0 -289 95l81 121q89 -79 215 -79q85 0 134.5 43.5t68.5 138.5l7 34q-39 -38 -89.5 -58t-109.5 -20q-109 0 -172 61t-63 172q0 42 9 88l42 212h163l-44 -216q-6 -31 -6 -57q0 -61 32.5 -91.5t94.5 -30.5
q72 0 122.5 43t67.5 132l44 220h163zM480 799q60 25 60 67q0 17 -11.5 27t-30.5 10q-30 0 -60 -20l-27 64q46 33 113 33q50 0 79 -25t29 -68q0 -92 -111 -141z" />
    <glyph glyph-name="uni0232.ss01" horiz-adv-x="785" 
d="M795 700l-100 -496q-31 -157 -125 -234.5t-246 -77.5q-184 0 -289 95l81 121q89 -79 215 -79q85 0 134.5 43.5t68.5 138.5l7 34q-39 -38 -89.5 -58t-109.5 -20q-109 0 -172 61t-63 172q0 42 9 88l42 212h163l-44 -216q-6 -31 -6 -57q0 -61 32.5 -91.5t94.5 -30.5
q72 0 122.5 43t67.5 132l44 220h163zM325 873h369l-17 -88h-369z" />
    <glyph glyph-name="uni1EF8.ss01" horiz-adv-x="785" 
d="M795 700l-100 -496q-31 -157 -125 -234.5t-246 -77.5q-184 0 -289 95l81 121q89 -79 215 -79q85 0 134.5 43.5t68.5 138.5l7 34q-39 -38 -89.5 -58t-109.5 -20q-109 0 -172 61t-63 172q0 42 9 88l42 212h163l-44 -216q-6 -31 -6 -57q0 -61 32.5 -91.5t94.5 -30.5
q72 0 122.5 43t67.5 132l44 220h163zM524.5 764q-19.5 10 -42.5 28q-19 14 -29 19.5t-22 5.5q-20 0 -34 -15t-19 -41h-79q11 71 46 108.5t87 37.5q26 0 45.5 -10t42.5 -28q18 -14 28.5 -20t22.5 -6q21 0 34.5 14.5t18.5 39.5h79q-11 -68 -45.5 -105.5t-86.5 -37.5
q-27 0 -46.5 10z" />
    <glyph glyph-name="Z.ss01" horiz-adv-x="681" 
d="M707 602l-191 -188h97l-24 -120h-194l-166 -164h398l-27 -130h-612l20 99l200 197h-104l24 121h203l156 153h-374l26 130h588z" />
    <glyph glyph-name="Zacute.ss01" horiz-adv-x="681" 
d="M707 602l-191 -188h97l-24 -120h-194l-166 -164h398l-27 -130h-612l20 99l200 197h-104l24 121h203l156 153h-374l26 130h588zM503 901h172l-196 -144h-126z" />
    <glyph glyph-name="Zcaron.ss01" horiz-adv-x="681" 
d="M707 602l-191 -188h97l-24 -120h-194l-166 -164h398l-27 -130h-612l20 99l200 197h-104l24 121h203l156 153h-374l26 130h588zM669 901l-151 -144h-138l-112 144h111l77 -75l97 75h116z" />
    <glyph glyph-name="Zdotaccent.ss01" horiz-adv-x="681" 
d="M707 602l-191 -188h97l-24 -120h-194l-166 -164h398l-27 -130h-612l20 99l200 197h-104l24 121h203l156 153h-374l26 130h588zM401 783q-22 21 -22 53q0 42 26 68.5t65 26.5q35 0 56.5 -21t21.5 -54q0 -41 -26 -67.5t-64 -26.5q-35 0 -57 21z" />
    <glyph glyph-name="uni1E92.ss01" horiz-adv-x="681" 
d="M707 602l-191 -188h97l-24 -120h-194l-166 -164h398l-27 -130h-612l20 99l200 197h-104l24 121h203l156 153h-374l26 130h588zM217.5 -193q-17.5 17 -17.5 45q0 31 23 53t53 22q27 0 45.5 -17t18.5 -43q0 -35 -21.5 -56t-54.5 -21q-29 0 -46.5 17z" />
    <glyph glyph-name="a" unicode="a" horiz-adv-x="690" 
d="M672 538l-107 -538h-148l10 53q-67 -61 -165 -61q-63 0 -116 29t-84.5 83.5t-31.5 128.5q0 89 39.5 160.5t107.5 112t150 40.5q124 0 175 -81l14 73h156zM392 143.5q36 22.5 56 62.5t20 92q0 55 -32.5 87t-90.5 32q-46 0 -82 -22.5t-56 -62.5t-20 -92q0 -55 32.5 -87
t90.5 -32q46 0 82 22.5z" />
    <glyph glyph-name="aacute" unicode="&#xe1;" horiz-adv-x="690" 
d="M672 538l-107 -538h-148l10 53q-67 -61 -165 -61q-63 0 -116 29t-84.5 83.5t-31.5 128.5q0 89 39.5 160.5t107.5 112t150 40.5q124 0 175 -81l14 73h156zM392 143.5q36 22.5 56 62.5t20 92q0 55 -32.5 87t-90.5 32q-46 0 -82 -22.5t-56 -62.5t-20 -92q0 -55 32.5 -87
t90.5 -32q46 0 82 22.5zM474 751h172l-196 -144h-126z" />
    <glyph glyph-name="abreve" unicode="&#x103;" horiz-adv-x="690" 
d="M672 538l-107 -538h-148l10 53q-67 -61 -165 -61q-63 0 -116 29t-84.5 83.5t-31.5 128.5q0 89 39.5 160.5t107.5 112t150 40.5q124 0 175 -81l14 73h156zM392 143.5q36 22.5 56 62.5t20 92q0 55 -32.5 87t-90.5 32q-46 0 -82 -22.5t-56 -62.5t-20 -92q0 -55 32.5 -87
t90.5 -32q46 0 82 22.5zM307 636.5q-47 37.5 -47 99.5q0 10 1 15h95q-1 -32 20.5 -51.5t58.5 -19.5t62 19.5t31 51.5h101q-13 -70 -68 -111t-135 -41q-72 0 -119 37.5z" />
    <glyph glyph-name="uni1EAF" unicode="&#x1eaf;" horiz-adv-x="690" 
d="M672 538l-107 -538h-148l10 53q-67 -61 -165 -61q-63 0 -116 29t-84.5 83.5t-31.5 128.5q0 89 39.5 160.5t107.5 112t150 40.5q124 0 175 -81l14 73h156zM392 143.5q36 22.5 56 62.5t20 92q0 55 -32.5 87t-90.5 32q-46 0 -82 -22.5t-56 -62.5t-20 -92q0 -55 32.5 -87
t90.5 -32q46 0 82 22.5zM301.5 632q-47.5 33 -46.5 89h91q2 -22 25.5 -35t61.5 -13q39 0 63 12.5t31 35.5h97q-12 -56 -65.5 -89t-130.5 -33q-79 0 -126.5 33zM480 872h163l-170 -121h-117z" />
    <glyph glyph-name="uni1EB7" unicode="&#x1eb7;" horiz-adv-x="690" 
d="M672 538l-107 -538h-148l10 53q-67 -61 -165 -61q-63 0 -116 29t-84.5 83.5t-31.5 128.5q0 89 39.5 160.5t107.5 112t150 40.5q124 0 175 -81l14 73h156zM392 143.5q36 22.5 56 62.5t20 92q0 55 -32.5 87t-90.5 32q-46 0 -82 -22.5t-56 -62.5t-20 -92q0 -55 32.5 -87
t90.5 -32q46 0 82 22.5zM214.5 -193q-17.5 17 -17.5 45q0 31 23 53t53 22q27 0 45.5 -17t18.5 -43q0 -35 -21.5 -56t-54.5 -21q-29 0 -46.5 17zM307 636.5q-47 37.5 -47 99.5q0 10 1 15h95q-1 -32 20.5 -51.5t58.5 -19.5t62 19.5t31 51.5h101q-13 -70 -68 -111t-135 -41
q-72 0 -119 37.5z" />
    <glyph glyph-name="uni1EB1" unicode="&#x1eb1;" horiz-adv-x="690" 
d="M672 538l-107 -538h-148l10 53q-67 -61 -165 -61q-63 0 -116 29t-84.5 83.5t-31.5 128.5q0 89 39.5 160.5t107.5 112t150 40.5q124 0 175 -81l14 73h156zM392 143.5q36 22.5 56 62.5t20 92q0 55 -32.5 87t-90.5 32q-46 0 -82 -22.5t-56 -62.5t-20 -92q0 -55 32.5 -87
t90.5 -32q46 0 82 22.5zM301.5 632q-47.5 33 -46.5 89h91q2 -22 25.5 -35t61.5 -13q39 0 63 12.5t31 35.5h97q-12 -56 -65.5 -89t-130.5 -33q-79 0 -126.5 33zM285 872h160l86 -121h-113z" />
    <glyph glyph-name="uni1EB3" unicode="&#x1eb3;" horiz-adv-x="690" 
d="M672 538l-107 -538h-148l10 53q-67 -61 -165 -61q-63 0 -116 29t-84.5 83.5t-31.5 128.5q0 89 39.5 160.5t107.5 112t150 40.5q124 0 175 -81l14 73h156zM392 143.5q36 22.5 56 62.5t20 92q0 55 -32.5 87t-90.5 32q-46 0 -82 -22.5t-56 -62.5t-20 -92q0 -55 32.5 -87
t90.5 -32q46 0 82 22.5zM301.5 632q-47.5 33 -46.5 89h91q2 -22 25.5 -35t61.5 -13q39 0 63 12.5t31 35.5h97q-12 -56 -65.5 -89t-130.5 -33q-79 0 -126.5 33zM412 760q43 19 43 47q0 11 -7.5 17.5t-21.5 6.5q-23 0 -47 -12l-19 49q39 21 84 21q38 0 61 -19t23 -50
q0 -33 -22.5 -58t-59.5 -39z" />
    <glyph glyph-name="uni1EB5" unicode="&#x1eb5;" horiz-adv-x="690" 
d="M672 538l-107 -538h-148l10 53q-67 -61 -165 -61q-63 0 -116 29t-84.5 83.5t-31.5 128.5q0 89 39.5 160.5t107.5 112t150 40.5q124 0 175 -81l14 73h156zM392 143.5q36 22.5 56 62.5t20 92q0 55 -32.5 87t-90.5 32q-46 0 -82 -22.5t-56 -62.5t-20 -92q0 -55 32.5 -87
t90.5 -32q46 0 82 22.5zM301.5 632q-47.5 33 -46.5 89h91q2 -22 25.5 -35t61.5 -13q39 0 63 12.5t31 35.5h97q-12 -56 -65.5 -89t-130.5 -33q-79 0 -126.5 33zM477.5 757.5q-19.5 8.5 -41.5 23.5q-27 20 -44 20q-20 0 -33 -12.5t-17 -33.5h-81q9 60 43.5 92.5t87.5 32.5
q26 0 45.5 -8.5t40.5 -23.5q15 -10 25 -15t21 -5q20 0 33.5 12.5t18.5 32.5h78q-9 -58 -43 -91t-88 -33q-26 0 -45.5 8.5z" />
    <glyph glyph-name="uni01CE" unicode="&#x1ce;" horiz-adv-x="690" 
d="M672 538l-107 -538h-148l10 53q-67 -61 -165 -61q-63 0 -116 29t-84.5 83.5t-31.5 128.5q0 89 39.5 160.5t107.5 112t150 40.5q124 0 175 -81l14 73h156zM392 143.5q36 22.5 56 62.5t20 92q0 55 -32.5 87t-90.5 32q-46 0 -82 -22.5t-56 -62.5t-20 -92q0 -55 32.5 -87
t90.5 -32q46 0 82 22.5zM640 751l-151 -144h-138l-112 144h111l77 -75l97 75h116z" />
    <glyph glyph-name="acircumflex" unicode="&#xe2;" horiz-adv-x="690" 
d="M672 538l-107 -538h-148l10 53q-67 -61 -165 -61q-63 0 -116 29t-84.5 83.5t-31.5 128.5q0 89 39.5 160.5t107.5 112t150 40.5q124 0 175 -81l14 73h156zM392 143.5q36 22.5 56 62.5t20 92q0 55 -32.5 87t-90.5 32q-46 0 -82 -22.5t-56 -62.5t-20 -92q0 -55 32.5 -87
t90.5 -32q46 0 82 22.5zM507 607l-77 75l-97 -75h-117l152 144h137l113 -144h-111z" />
    <glyph glyph-name="uni1EA5" unicode="&#x1ea5;" horiz-adv-x="690" 
d="M672 538l-107 -538h-148l10 53q-67 -61 -165 -61q-63 0 -116 29t-84.5 83.5t-31.5 128.5q0 89 39.5 160.5t107.5 112t150 40.5q124 0 175 -81l14 73h156zM392 143.5q36 22.5 56 62.5t20 92q0 55 -32.5 87t-90.5 32q-46 0 -82 -22.5t-56 -62.5t-20 -92q0 -55 32.5 -87
t90.5 -32q46 0 82 22.5zM505 607l-77 57l-95 -57h-117l150 114h135l117 -114h-113zM658 824h163l-170 -121h-117z" />
    <glyph glyph-name="uni1EAD" unicode="&#x1ead;" horiz-adv-x="690" 
d="M672 538l-107 -538h-148l10 53q-67 -61 -165 -61q-63 0 -116 29t-84.5 83.5t-31.5 128.5q0 89 39.5 160.5t107.5 112t150 40.5q124 0 175 -81l14 73h156zM392 143.5q36 22.5 56 62.5t20 92q0 55 -32.5 87t-90.5 32q-46 0 -82 -22.5t-56 -62.5t-20 -92q0 -55 32.5 -87
t90.5 -32q46 0 82 22.5zM214.5 -193q-17.5 17 -17.5 45q0 31 23 53t53 22q27 0 45.5 -17t18.5 -43q0 -35 -21.5 -56t-54.5 -21q-29 0 -46.5 17zM507 607l-77 75l-97 -75h-117l152 144h137l113 -144h-111z" />
    <glyph glyph-name="uni1EA7" unicode="&#x1ea7;" horiz-adv-x="690" 
d="M672 538l-107 -538h-148l10 53q-67 -61 -165 -61q-63 0 -116 29t-84.5 83.5t-31.5 128.5q0 89 39.5 160.5t107.5 112t150 40.5q124 0 175 -81l14 73h156zM392 143.5q36 22.5 56 62.5t20 92q0 55 -32.5 87t-90.5 32q-46 0 -82 -22.5t-56 -62.5t-20 -92q0 -55 32.5 -87
t90.5 -32q46 0 82 22.5zM505 607l-77 57l-95 -57h-117l150 114h135l117 -114h-113zM463 824h160l86 -121h-113z" />
    <glyph glyph-name="uni1EA9" unicode="&#x1ea9;" horiz-adv-x="690" 
d="M672 538l-107 -538h-148l10 53q-67 -61 -165 -61q-63 0 -116 29t-84.5 83.5t-31.5 128.5q0 89 39.5 160.5t107.5 112t150 40.5q124 0 175 -81l14 73h156zM392 143.5q36 22.5 56 62.5t20 92q0 55 -32.5 87t-90.5 32q-46 0 -82 -22.5t-56 -62.5t-20 -92q0 -55 32.5 -87
t90.5 -32q46 0 82 22.5zM505 607l-77 57l-95 -57h-117l150 114h135l117 -114h-113zM565 721q43 19 43 47q0 11 -7.5 17.5t-21.5 6.5q-23 0 -47 -12l-19 49q39 21 84 21q38 0 61 -19t23 -50q0 -33 -22.5 -58t-59.5 -39z" />
    <glyph glyph-name="uni1EAB" unicode="&#x1eab;" horiz-adv-x="690" 
d="M672 538l-107 -538h-148l10 53q-67 -61 -165 -61q-63 0 -116 29t-84.5 83.5t-31.5 128.5q0 89 39.5 160.5t107.5 112t150 40.5q124 0 175 -81l14 73h156zM392 143.5q36 22.5 56 62.5t20 92q0 55 -32.5 87t-90.5 32q-46 0 -82 -22.5t-56 -62.5t-20 -92q0 -55 32.5 -87
t90.5 -32q46 0 82 22.5zM505 607l-77 57l-95 -57h-117l150 114h135l117 -114h-113zM478.5 764.5q-19.5 8.5 -41.5 23.5q-27 20 -44 20q-20 0 -33 -12.5t-17 -33.5h-81q9 60 43.5 92.5t87.5 32.5q26 0 45.5 -8.5t40.5 -23.5q15 -10 25 -15t21 -5q20 0 33.5 12.5t18.5 32.5h78
q-9 -58 -43 -91t-88 -33q-26 0 -45.5 8.5z" />
    <glyph glyph-name="uni0201" unicode="&#x201;" horiz-adv-x="690" 
d="M672 538l-107 -538h-148l10 53q-67 -61 -165 -61q-63 0 -116 29t-84.5 83.5t-31.5 128.5q0 89 39.5 160.5t107.5 112t150 40.5q124 0 175 -81l14 73h156zM392 143.5q36 22.5 56 62.5t20 92q0 55 -32.5 87t-90.5 32q-46 0 -82 -22.5t-56 -62.5t-20 -92q0 -55 32.5 -87
t90.5 -32q46 0 82 22.5zM186 751h140l44 -144h-108zM388 751h140l44 -144h-108z" />
    <glyph glyph-name="adieresis" unicode="&#xe4;" horiz-adv-x="690" 
d="M672 538l-107 -538h-148l10 53q-67 -61 -165 -61q-63 0 -116 29t-84.5 83.5t-31.5 128.5q0 89 39.5 160.5t107.5 112t150 40.5q124 0 175 -81l14 73h156zM392 143.5q36 22.5 56 62.5t20 92q0 55 -32.5 87t-90.5 32q-46 0 -82 -22.5t-56 -62.5t-20 -92q0 -55 32.5 -87
t90.5 -32q46 0 82 22.5zM278.5 629q-18.5 17 -18.5 45q0 33 22 54.5t52 21.5q28 0 47 -17t19 -45q0 -33 -22.5 -54.5t-52.5 -21.5q-28 0 -46.5 17zM481.5 629q-18.5 17 -18.5 45q0 34 21.5 55t52.5 21q28 0 46.5 -17t18.5 -45q0 -33 -22 -54.5t-52 -21.5q-28 0 -46.5 17z
" />
    <glyph glyph-name="uni1EA1" unicode="&#x1ea1;" horiz-adv-x="690" 
d="M672 538l-107 -538h-148l10 53q-67 -61 -165 -61q-63 0 -116 29t-84.5 83.5t-31.5 128.5q0 89 39.5 160.5t107.5 112t150 40.5q124 0 175 -81l14 73h156zM392 143.5q36 22.5 56 62.5t20 92q0 55 -32.5 87t-90.5 32q-46 0 -82 -22.5t-56 -62.5t-20 -92q0 -55 32.5 -87
t90.5 -32q46 0 82 22.5zM214.5 -193q-17.5 17 -17.5 45q0 31 23 53t53 22q27 0 45.5 -17t18.5 -43q0 -35 -21.5 -56t-54.5 -21q-29 0 -46.5 17z" />
    <glyph glyph-name="agrave" unicode="&#xe0;" horiz-adv-x="690" 
d="M672 538l-107 -538h-148l10 53q-67 -61 -165 -61q-63 0 -116 29t-84.5 83.5t-31.5 128.5q0 89 39.5 160.5t107.5 112t150 40.5q124 0 175 -81l14 73h156zM392 143.5q36 22.5 56 62.5t20 92q0 55 -32.5 87t-90.5 32q-46 0 -82 -22.5t-56 -62.5t-20 -92q0 -55 32.5 -87
t90.5 -32q46 0 82 22.5zM234 751h167l106 -144h-121z" />
    <glyph glyph-name="uni1EA3" unicode="&#x1ea3;" horiz-adv-x="690" 
d="M672 538l-107 -538h-148l10 53q-67 -61 -165 -61q-63 0 -116 29t-84.5 83.5t-31.5 128.5q0 89 39.5 160.5t107.5 112t150 40.5q124 0 175 -81l14 73h156zM392 143.5q36 22.5 56 62.5t20 92q0 55 -32.5 87t-90.5 32q-46 0 -82 -22.5t-56 -62.5t-20 -92q0 -55 32.5 -87
t90.5 -32q46 0 82 22.5zM410 649q60 25 60 67q0 17 -11.5 27t-30.5 10q-30 0 -60 -20l-27 64q46 33 113 33q50 0 79 -25t29 -68q0 -92 -111 -141z" />
    <glyph glyph-name="uni0203" unicode="&#x203;" horiz-adv-x="690" 
d="M672 538l-107 -538h-148l10 53q-67 -61 -165 -61q-63 0 -116 29t-84.5 83.5t-31.5 128.5q0 89 39.5 160.5t107.5 112t150 40.5q124 0 175 -81l14 73h156zM392 143.5q36 22.5 56 62.5t20 92q0 55 -32.5 87t-90.5 32q-46 0 -82 -22.5t-56 -62.5t-20 -92q0 -55 32.5 -87
t90.5 -32q46 0 82 22.5zM300.5 718.5q55.5 41.5 135.5 41.5q77 0 124 -42t41 -111h-96q2 33 -19.5 52.5t-58.5 19.5t-62 -19.5t-32 -52.5h-101q13 70 68.5 111.5z" />
    <glyph glyph-name="amacron" unicode="&#x101;" horiz-adv-x="690" 
d="M672 538l-107 -538h-148l10 53q-67 -61 -165 -61q-63 0 -116 29t-84.5 83.5t-31.5 128.5q0 89 39.5 160.5t107.5 112t150 40.5q124 0 175 -81l14 73h156zM392 143.5q36 22.5 56 62.5t20 92q0 55 -32.5 87t-90.5 32q-46 0 -82 -22.5t-56 -62.5t-20 -92q0 -55 32.5 -87
t90.5 -32q46 0 82 22.5zM255 723h369l-17 -88h-369z" />
    <glyph glyph-name="aogonek" unicode="&#x105;" horiz-adv-x="690" 
d="M672 538l-107 -538h-148l10 53q-67 -61 -165 -61q-63 0 -116 29t-84.5 83.5t-31.5 128.5q0 89 39.5 160.5t107.5 112t150 40.5q124 0 175 -81l14 73h156zM392 143.5q36 22.5 56 62.5t20 92q0 55 -32.5 87t-90.5 32q-46 0 -82 -22.5t-56 -62.5t-20 -92q0 -55 32.5 -87
t90.5 -32q46 0 82 22.5zM358 -205.5q-34 26.5 -34 72.5q0 57 48 101t136 75l57 -43q-138 -49 -138 -111q0 -20 13 -31t35 -11q34 0 64 15l11 -71q-48 -23 -101 -23q-57 0 -91 26.5z" />
    <glyph glyph-name="aring" unicode="&#xe5;" horiz-adv-x="690" 
d="M672 538l-107 -538h-148l10 53q-67 -61 -165 -61q-63 0 -116 29t-84.5 83.5t-31.5 128.5q0 89 39.5 160.5t107.5 112t150 40.5q124 0 175 -81l14 73h156zM392 143.5q36 22.5 56 62.5t20 92q0 55 -32.5 87t-90.5 32q-46 0 -82 -22.5t-56 -62.5t-20 -92q0 -55 32.5 -87
t90.5 -32q46 0 82 22.5zM349 627q-36 35 -36 86q0 50 36 85.5t88 35.5q53 0 89 -35t36 -86t-36 -86t-89 -35q-52 0 -88 35zM480.5 669.5q17.5 17.5 17.5 43.5t-17.5 43.5t-43.5 17.5q-25 0 -42.5 -17.5t-17.5 -43.5t17 -43.5t43 -17.5t43.5 17.5z" />
    <glyph glyph-name="aringacute" unicode="&#x1fb;" horiz-adv-x="690" 
d="M672 538l-107 -538h-148l10 53q-67 -61 -165 -61q-63 0 -116 29t-84.5 83.5t-31.5 128.5q0 89 39.5 160.5t107.5 112t150 40.5q124 0 175 -81l14 73h156zM392 143.5q36 22.5 56 62.5t20 92q0 55 -32.5 87t-90.5 32q-46 0 -82 -22.5t-56 -62.5t-20 -92q0 -55 32.5 -87
t90.5 -32q46 0 82 22.5zM545 776q17 -29 17 -63q0 -51 -36 -86t-89 -35q-52 0 -88 35t-36 86q0 50 36 85.5t88 35.5q27 0 52 -11l87 91l77 -60zM480.5 669.5q17.5 17.5 17.5 43.5t-17.5 43.5t-43.5 17.5q-25 0 -42.5 -17.5t-17.5 -43.5t17 -43.5t43 -17.5t43.5 17.5z" />
    <glyph glyph-name="atilde" unicode="&#xe3;" horiz-adv-x="690" 
d="M672 538l-107 -538h-148l10 53q-67 -61 -165 -61q-63 0 -116 29t-84.5 83.5t-31.5 128.5q0 89 39.5 160.5t107.5 112t150 40.5q124 0 175 -81l14 73h156zM392 143.5q36 22.5 56 62.5t20 92q0 55 -32.5 87t-90.5 32q-46 0 -82 -22.5t-56 -62.5t-20 -92q0 -55 32.5 -87
t90.5 -32q46 0 82 22.5zM454.5 614q-19.5 10 -42.5 28q-19 14 -29 19.5t-22 5.5q-20 0 -34 -15t-19 -41h-79q11 71 46 108.5t87 37.5q26 0 45.5 -10t42.5 -28q18 -14 28.5 -20t22.5 -6q21 0 34.5 14.5t18.5 39.5h79q-11 -68 -45.5 -105.5t-86.5 -37.5q-27 0 -46.5 10z" />
    <glyph glyph-name="ae" unicode="&#xe6;" horiz-adv-x="995" 
d="M960 226h-417q4 -56 38.5 -82.5t101.5 -26.5q90 0 144 50l68 -103q-47 -36 -105.5 -54t-122.5 -18q-68 0 -125.5 23.5t-92.5 71.5q-39 -51 -94 -73t-126 -22q-99 0 -156 42.5t-57 111.5q0 80 63.5 125.5t182.5 45.5h138q2 16 2 22q0 40 -28.5 61t-83.5 21
q-42 0 -83.5 -11.5t-72.5 -31.5l-41 111q44 27 105 42t119 15q141 0 195 -74q80 74 198 74q78 0 137 -29t91 -83t32 -125q0 -40 -10 -83zM609 399q-38 -30 -55 -82h269q1 52 -32.5 82t-88.5 30t-93 -30zM333 122.5q32 25.5 43 78.5l5 25h-116q-46 0 -71.5 -18.5t-25.5 -50.5
q0 -28 21.5 -44t63.5 -16q48 0 80 25.5z" />
    <glyph glyph-name="aeacute" unicode="&#x1fd;" horiz-adv-x="995" 
d="M960 226h-417q4 -56 38.5 -82.5t101.5 -26.5q90 0 144 50l68 -103q-47 -36 -105.5 -54t-122.5 -18q-68 0 -125.5 23.5t-92.5 71.5q-39 -51 -94 -73t-126 -22q-99 0 -156 42.5t-57 111.5q0 80 63.5 125.5t182.5 45.5h138q2 16 2 22q0 40 -28.5 61t-83.5 21
q-42 0 -83.5 -11.5t-72.5 -31.5l-41 111q44 27 105 42t119 15q141 0 195 -74q80 74 198 74q78 0 137 -29t91 -83t32 -125q0 -40 -10 -83zM609 399q-38 -30 -55 -82h269q1 52 -32.5 82t-88.5 30t-93 -30zM333 122.5q32 25.5 43 78.5l5 25h-116q-46 0 -71.5 -18.5t-25.5 -50.5
q0 -28 21.5 -44t63.5 -16q48 0 80 25.5zM591 750h172l-196 -144h-126z" />
    <glyph glyph-name="b" unicode="b" horiz-adv-x="690" 
d="M544.5 517q53.5 -29 85 -83.5t31.5 -128.5q0 -89 -39.5 -160.5t-107.5 -112t-151 -40.5q-63 0 -109 22t-71 66l-16 -80h-148l148 742h156l-50 -250q65 54 155 54q63 0 116.5 -29zM427 143.5q36 22.5 56 62.5t20 92q0 55 -32.5 87t-90.5 32q-45 0 -81 -22.5t-56 -62.5
t-20 -92q0 -55 32 -87t90 -32q46 0 82 22.5z" />
    <glyph glyph-name="c" unicode="c" horiz-adv-x="591" 
d="M158 22q-62 30 -95.5 84.5t-33.5 126.5q0 89 42 160t117 112t169 41q86 0 148.5 -35.5t93.5 -100.5l-132 -66q-35 73 -120 73q-46 0 -82.5 -22.5t-57 -62.5t-20.5 -91q0 -55 33 -87.5t92 -32.5q86 0 132 72l115 -72q-39 -61 -106.5 -95t-149.5 -34q-83 0 -145 30z" />
    <glyph glyph-name="cacute" unicode="&#x107;" horiz-adv-x="591" 
d="M158 22q-62 30 -95.5 84.5t-33.5 126.5q0 89 42 160t117 112t169 41q86 0 148.5 -35.5t93.5 -100.5l-132 -66q-35 73 -120 73q-46 0 -82.5 -22.5t-57 -62.5t-20.5 -91q0 -55 33 -87.5t92 -32.5q86 0 132 72l115 -72q-39 -61 -106.5 -95t-149.5 -34q-83 0 -145 30z
M436 751h172l-196 -144h-126z" />
    <glyph glyph-name="ccaron" unicode="&#x10d;" horiz-adv-x="591" 
d="M158 22q-62 30 -95.5 84.5t-33.5 126.5q0 89 42 160t117 112t169 41q86 0 148.5 -35.5t93.5 -100.5l-132 -66q-35 73 -120 73q-46 0 -82.5 -22.5t-57 -62.5t-20.5 -91q0 -55 33 -87.5t92 -32.5q86 0 132 72l115 -72q-39 -61 -106.5 -95t-149.5 -34q-83 0 -145 30z
M602 751l-151 -144h-138l-112 144h111l77 -75l97 75h116z" />
    <glyph glyph-name="ccedilla" unicode="&#xe7;" horiz-adv-x="591" 
d="M158 22q-62 30 -95.5 84.5t-33.5 126.5q0 89 42 160t117 112t169 41q86 0 148.5 -35.5t93.5 -100.5l-132 -66q-35 73 -120 73q-46 0 -82.5 -22.5t-57 -62.5t-20.5 -91q0 -55 33 -87.5t92 -32.5q86 0 132 72l115 -72q-39 -61 -106.5 -95t-149.5 -34q-83 0 -145 30z
M116 -211l34 67q30 -15 67 -15q27 0 40.5 9t14.5 24q3 28 -43 28h-35l48 106h83l-25 -58q33 -4 51.5 -23.5t18.5 -45.5q0 -53 -43.5 -83t-116.5 -30q-55 0 -94 21z" />
    <glyph glyph-name="uni1E09" unicode="&#x1e09;" horiz-adv-x="591" 
d="M158 22q-62 30 -95.5 84.5t-33.5 126.5q0 89 42 160t117 112t169 41q86 0 148.5 -35.5t93.5 -100.5l-132 -66q-35 73 -120 73q-46 0 -82.5 -22.5t-57 -62.5t-20.5 -91q0 -55 33 -87.5t92 -32.5q86 0 132 72l115 -72q-39 -61 -106.5 -95t-149.5 -34q-83 0 -145 30z
M116 -211l34 67q30 -15 67 -15q27 0 40.5 9t14.5 24q3 28 -43 28h-35l48 106h83l-25 -58q33 -4 51.5 -23.5t18.5 -45.5q0 -53 -43.5 -83t-116.5 -30q-55 0 -94 21zM436 751h172l-196 -144h-126z" />
    <glyph glyph-name="ccircumflex" unicode="&#x109;" horiz-adv-x="591" 
d="M158 22q-62 30 -95.5 84.5t-33.5 126.5q0 89 42 160t117 112t169 41q86 0 148.5 -35.5t93.5 -100.5l-132 -66q-35 73 -120 73q-46 0 -82.5 -22.5t-57 -62.5t-20.5 -91q0 -55 33 -87.5t92 -32.5q86 0 132 72l115 -72q-39 -61 -106.5 -95t-149.5 -34q-83 0 -145 30z
M469 607l-77 75l-97 -75h-117l152 144h137l113 -144h-111z" />
    <glyph glyph-name="cdotaccent" unicode="&#x10b;" horiz-adv-x="591" 
d="M158 22q-62 30 -95.5 84.5t-33.5 126.5q0 89 42 160t117 112t169 41q86 0 148.5 -35.5t93.5 -100.5l-132 -66q-35 73 -120 73q-46 0 -82.5 -22.5t-57 -62.5t-20.5 -91q0 -55 33 -87.5t92 -32.5q86 0 132 72l115 -72q-39 -61 -106.5 -95t-149.5 -34q-83 0 -145 30z
M334 633q-22 21 -22 53q0 42 26 68.5t65 26.5q35 0 56.5 -21t21.5 -54q0 -41 -26 -67.5t-64 -26.5q-35 0 -57 21z" />
    <glyph glyph-name="d" unicode="d" horiz-adv-x="692" 
d="M714 742l-148 -742h-148l11 54q-68 -62 -165 -62q-63 0 -116 29t-84.5 83.5t-31.5 128.5q0 89 39.5 160.5t107.5 112t150 40.5q59 0 103.5 -20t70.5 -59l55 275h156zM394 143.5q36 22.5 56 62.5t20 92q0 55 -32.5 87t-90.5 32q-46 0 -82 -22.5t-56 -62.5t-20 -92
q0 -55 32.5 -87t90.5 -32q46 0 82 22.5z" />
    <glyph glyph-name="eth" unicode="&#xf0;" horiz-adv-x="657" 
d="M602 610q45 -71 45 -169q0 -124 -45.5 -227.5t-131.5 -164.5t-200 -61q-73 0 -129 26t-87 73.5t-31 107.5q0 73 36.5 130t101.5 89t147 32q57 0 101.5 -19t70.5 -54q3 15 5 49q1 8 1 23q0 70 -31 111l-251 -91l-28 79l190 70q-33 7 -65 7q-72 0 -132 -19l5 120
q70 19 152 19q132 0 214 -64l109 40l28 -80zM391 143q41 34 41 86q0 45 -29.5 71t-81.5 26q-64 0 -103 -33.5t-39 -86.5q0 -45 29.5 -71t81.5 -26q60 0 101 34z" />
    <glyph glyph-name="dcaron" unicode="&#x10f;" horiz-adv-x="692" 
d="M714 742l-148 -742h-148l11 54q-68 -62 -165 -62q-63 0 -116 29t-84.5 83.5t-31.5 128.5q0 89 39.5 160.5t107.5 112t150 40.5q59 0 103.5 -20t70.5 -59l55 275h156zM394 143.5q36 22.5 56 62.5t20 92q0 55 -32.5 87t-90.5 32q-46 0 -82 -22.5t-56 -62.5t-20 -92
q0 -55 32.5 -87t90.5 -32q46 0 82 22.5zM804 783h117l-61 -201h-96z" />
    <glyph glyph-name="dcroat" unicode="&#x111;" horiz-adv-x="692" 
d="M714 742l-148 -742h-148l11 54q-68 -62 -165 -62q-63 0 -116 29t-84.5 83.5t-31.5 128.5q0 89 39.5 160.5t107.5 112t150 40.5q59 0 103.5 -20t70.5 -59l55 275h156zM394 143.5q36 22.5 56 62.5t20 92q0 55 -32.5 87t-90.5 32q-46 0 -82 -22.5t-56 -62.5t-20 -92
q0 -55 32.5 -87t90.5 -32q46 0 82 22.5zM363 683h411l-17 -90h-412z" />
    <glyph glyph-name="uni1E0D" unicode="&#x1e0d;" horiz-adv-x="692" 
d="M714 742l-148 -742h-148l11 54q-68 -62 -165 -62q-63 0 -116 29t-84.5 83.5t-31.5 128.5q0 89 39.5 160.5t107.5 112t150 40.5q59 0 103.5 -20t70.5 -59l55 275h156zM394 143.5q36 22.5 56 62.5t20 92q0 55 -32.5 87t-90.5 32q-46 0 -82 -22.5t-56 -62.5t-20 -92
q0 -55 32.5 -87t90.5 -32q46 0 82 22.5zM226.5 -193q-17.5 17 -17.5 45q0 31 23 53t53 22q27 0 45.5 -17t18.5 -43q0 -35 -21.5 -56t-54.5 -21q-29 0 -46.5 17z" />
    <glyph glyph-name="uni1E0F" unicode="&#x1e0f;" horiz-adv-x="692" 
d="M714 742l-148 -742h-148l11 54q-68 -62 -165 -62q-63 0 -116 29t-84.5 83.5t-31.5 128.5q0 89 39.5 160.5t107.5 112t150 40.5q59 0 103.5 -20t70.5 -59l55 275h156zM394 143.5q36 22.5 56 62.5t20 92q0 55 -32.5 87t-90.5 32q-46 0 -82 -22.5t-56 -62.5t-20 -92
q0 -55 32.5 -87t90.5 -32q46 0 82 22.5zM103 -95h370l-16 -87h-370z" />
    <glyph glyph-name="uni01C6" unicode="&#x1c6;" horiz-adv-x="1235" 
d="M714 742l-148 -742h-148l11 54q-68 -62 -165 -62q-63 0 -116 29t-84.5 83.5t-31.5 128.5q0 89 39.5 160.5t107.5 112t150 40.5q59 0 103.5 -20t70.5 -59l55 275h156zM394 143.5q36 22.5 56 62.5t20 92q0 55 -32.5 87t-90.5 32q-46 0 -82 -22.5t-56 -62.5t-20 -92
q0 -55 32.5 -87t90.5 -32q46 0 82 22.5zM1233 444l-332 -324h276l-24 -120h-480l19 94l332 324h-259l24 120h462zM1257 751l-151 -144h-138l-112 144h111l77 -75l97 75h116z" />
    <glyph glyph-name="e" unicode="e" horiz-adv-x="628" 
d="M594 227h-412q8 -110 139 -110q41 0 78.5 13t65.5 37l65 -103q-45 -36 -103 -54t-122 -18q-83 0 -145.5 29.5t-96 84.5t-33.5 127q0 89 40.5 160.5t112.5 112t164 40.5q78 0 135.5 -29t89 -83t31.5 -125q0 -37 -9 -82zM247 399.5q-38 -29.5 -54 -81.5h267
q0 52 -32.5 81.5t-87.5 29.5t-93 -29.5z" />
    <glyph glyph-name="eacute" unicode="&#xe9;" horiz-adv-x="628" 
d="M594 227h-412q8 -110 139 -110q41 0 78.5 13t65.5 37l65 -103q-45 -36 -103 -54t-122 -18q-83 0 -145.5 29.5t-96 84.5t-33.5 127q0 89 40.5 160.5t112.5 112t164 40.5q78 0 135.5 -29t89 -83t31.5 -125q0 -37 -9 -82zM247 399.5q-38 -29.5 -54 -81.5h267
q0 52 -32.5 81.5t-87.5 29.5t-93 -29.5zM438 750h172l-196 -144h-126z" />
    <glyph glyph-name="ebreve" unicode="&#x115;" horiz-adv-x="628" 
d="M594 227h-412q8 -110 139 -110q41 0 78.5 13t65.5 37l65 -103q-45 -36 -103 -54t-122 -18q-83 0 -145.5 29.5t-96 84.5t-33.5 127q0 89 40.5 160.5t112.5 112t164 40.5q78 0 135.5 -29t89 -83t31.5 -125q0 -37 -9 -82zM247 399.5q-38 -29.5 -54 -81.5h267
q0 52 -32.5 81.5t-87.5 29.5t-93 -29.5zM271 635.5q-47 37.5 -47 99.5q0 10 1 15h95q-1 -32 20.5 -51.5t58.5 -19.5t62 19.5t31 51.5h101q-13 -70 -68 -111t-135 -41q-72 0 -119 37.5z" />
    <glyph glyph-name="ecaron" unicode="&#x11b;" horiz-adv-x="628" 
d="M594 227h-412q8 -110 139 -110q41 0 78.5 13t65.5 37l65 -103q-45 -36 -103 -54t-122 -18q-83 0 -145.5 29.5t-96 84.5t-33.5 127q0 89 40.5 160.5t112.5 112t164 40.5q78 0 135.5 -29t89 -83t31.5 -125q0 -37 -9 -82zM247 399.5q-38 -29.5 -54 -81.5h267
q0 52 -32.5 81.5t-87.5 29.5t-93 -29.5zM604 750l-151 -144h-138l-112 144h111l77 -75l97 75h116z" />
    <glyph glyph-name="uni1E1D" unicode="&#x1e1d;" horiz-adv-x="628" 
d="M594 227h-412q8 -110 139 -110q41 0 78.5 13t65.5 37l65 -103q-45 -36 -103 -54t-122 -18q-83 0 -145.5 29.5t-96 84.5t-33.5 127q0 89 40.5 160.5t112.5 112t164 40.5q78 0 135.5 -29t89 -83t31.5 -125q0 -37 -9 -82zM247 399.5q-38 -29.5 -54 -81.5h267
q0 52 -32.5 81.5t-87.5 29.5t-93 -29.5zM97 -211l34 67q30 -15 67 -15q27 0 40.5 9t14.5 24q3 28 -43 28h-35l48 106h83l-25 -58q33 -4 51.5 -23.5t18.5 -45.5q0 -53 -43.5 -83t-116.5 -30q-55 0 -94 21zM271 635.5q-47 37.5 -47 99.5q0 10 1 15h95q-1 -32 20.5 -51.5
t58.5 -19.5t62 19.5t31 51.5h101q-13 -70 -68 -111t-135 -41q-72 0 -119 37.5z" />
    <glyph glyph-name="ecircumflex" unicode="&#xea;" horiz-adv-x="628" 
d="M594 227h-412q8 -110 139 -110q41 0 78.5 13t65.5 37l65 -103q-45 -36 -103 -54t-122 -18q-83 0 -145.5 29.5t-96 84.5t-33.5 127q0 89 40.5 160.5t112.5 112t164 40.5q78 0 135.5 -29t89 -83t31.5 -125q0 -37 -9 -82zM247 399.5q-38 -29.5 -54 -81.5h267
q0 52 -32.5 81.5t-87.5 29.5t-93 -29.5zM471 606l-77 75l-97 -75h-117l152 144h137l113 -144h-111z" />
    <glyph glyph-name="uni1EBF" unicode="&#x1ebf;" horiz-adv-x="628" 
d="M594 227h-412q8 -110 139 -110q41 0 78.5 13t65.5 37l65 -103q-45 -36 -103 -54t-122 -18q-83 0 -145.5 29.5t-96 84.5t-33.5 127q0 89 40.5 160.5t112.5 112t164 40.5q78 0 135.5 -29t89 -83t31.5 -125q0 -37 -9 -82zM247 399.5q-38 -29.5 -54 -81.5h267
q0 52 -32.5 81.5t-87.5 29.5t-93 -29.5zM469 606l-77 57l-95 -57h-117l150 114h135l117 -114h-113zM622 823h163l-170 -121h-117z" />
    <glyph glyph-name="uni1EC7" unicode="&#x1ec7;" horiz-adv-x="628" 
d="M594 227h-412q8 -110 139 -110q41 0 78.5 13t65.5 37l65 -103q-45 -36 -103 -54t-122 -18q-83 0 -145.5 29.5t-96 84.5t-33.5 127q0 89 40.5 160.5t112.5 112t164 40.5q78 0 135.5 -29t89 -83t31.5 -125q0 -37 -9 -82zM247 399.5q-38 -29.5 -54 -81.5h267
q0 52 -32.5 81.5t-87.5 29.5t-93 -29.5zM181.5 -193q-17.5 17 -17.5 45q0 31 23 53t53 22q27 0 45.5 -17t18.5 -43q0 -35 -21.5 -56t-54.5 -21q-29 0 -46.5 17zM471 606l-77 75l-97 -75h-117l152 144h137l113 -144h-111z" />
    <glyph glyph-name="uni1EC1" unicode="&#x1ec1;" horiz-adv-x="628" 
d="M594 227h-412q8 -110 139 -110q41 0 78.5 13t65.5 37l65 -103q-45 -36 -103 -54t-122 -18q-83 0 -145.5 29.5t-96 84.5t-33.5 127q0 89 40.5 160.5t112.5 112t164 40.5q78 0 135.5 -29t89 -83t31.5 -125q0 -37 -9 -82zM247 399.5q-38 -29.5 -54 -81.5h267
q0 52 -32.5 81.5t-87.5 29.5t-93 -29.5zM469 606l-77 57l-95 -57h-117l150 114h135l117 -114h-113zM427 823h160l86 -121h-113z" />
    <glyph glyph-name="uni1EC3" unicode="&#x1ec3;" horiz-adv-x="628" 
d="M594 227h-412q8 -110 139 -110q41 0 78.5 13t65.5 37l65 -103q-45 -36 -103 -54t-122 -18q-83 0 -145.5 29.5t-96 84.5t-33.5 127q0 89 40.5 160.5t112.5 112t164 40.5q78 0 135.5 -29t89 -83t31.5 -125q0 -37 -9 -82zM247 399.5q-38 -29.5 -54 -81.5h267
q0 52 -32.5 81.5t-87.5 29.5t-93 -29.5zM469 606l-77 57l-95 -57h-117l150 114h135l117 -114h-113zM529 720q43 19 43 47q0 11 -7.5 17.5t-21.5 6.5q-23 0 -47 -12l-19 49q39 21 84 21q38 0 61 -19t23 -50q0 -33 -22.5 -58t-59.5 -39z" />
    <glyph glyph-name="uni1EC5" unicode="&#x1ec5;" horiz-adv-x="628" 
d="M594 227h-412q8 -110 139 -110q41 0 78.5 13t65.5 37l65 -103q-45 -36 -103 -54t-122 -18q-83 0 -145.5 29.5t-96 84.5t-33.5 127q0 89 40.5 160.5t112.5 112t164 40.5q78 0 135.5 -29t89 -83t31.5 -125q0 -37 -9 -82zM247 399.5q-38 -29.5 -54 -81.5h267
q0 52 -32.5 81.5t-87.5 29.5t-93 -29.5zM469 606l-77 57l-95 -57h-117l150 114h135l117 -114h-113zM442.5 763.5q-19.5 8.5 -41.5 23.5q-27 20 -44 20q-20 0 -33 -12.5t-17 -33.5h-81q9 60 43.5 92.5t87.5 32.5q26 0 45.5 -8.5t40.5 -23.5q15 -10 25 -15t21 -5
q20 0 33.5 12.5t18.5 32.5h78q-9 -58 -43 -91t-88 -33q-26 0 -45.5 8.5z" />
    <glyph glyph-name="uni0205" unicode="&#x205;" horiz-adv-x="628" 
d="M594 227h-412q8 -110 139 -110q41 0 78.5 13t65.5 37l65 -103q-45 -36 -103 -54t-122 -18q-83 0 -145.5 29.5t-96 84.5t-33.5 127q0 89 40.5 160.5t112.5 112t164 40.5q78 0 135.5 -29t89 -83t31.5 -125q0 -37 -9 -82zM247 399.5q-38 -29.5 -54 -81.5h267
q0 52 -32.5 81.5t-87.5 29.5t-93 -29.5zM150 750h140l44 -144h-108zM352 750h140l44 -144h-108z" />
    <glyph glyph-name="edieresis" unicode="&#xeb;" horiz-adv-x="628" 
d="M594 227h-412q8 -110 139 -110q41 0 78.5 13t65.5 37l65 -103q-45 -36 -103 -54t-122 -18q-83 0 -145.5 29.5t-96 84.5t-33.5 127q0 89 40.5 160.5t112.5 112t164 40.5q78 0 135.5 -29t89 -83t31.5 -125q0 -37 -9 -82zM247 399.5q-38 -29.5 -54 -81.5h267
q0 52 -32.5 81.5t-87.5 29.5t-93 -29.5zM242.5 628q-18.5 17 -18.5 45q0 33 22 54.5t52 21.5q28 0 47 -17t19 -45q0 -33 -22.5 -54.5t-52.5 -21.5q-28 0 -46.5 17zM445.5 628q-18.5 17 -18.5 45q0 34 21.5 55t52.5 21q28 0 46.5 -17t18.5 -45q0 -33 -22 -54.5t-52 -21.5
q-28 0 -46.5 17z" />
    <glyph glyph-name="edotaccent" unicode="&#x117;" horiz-adv-x="628" 
d="M594 227h-412q8 -110 139 -110q41 0 78.5 13t65.5 37l65 -103q-45 -36 -103 -54t-122 -18q-83 0 -145.5 29.5t-96 84.5t-33.5 127q0 89 40.5 160.5t112.5 112t164 40.5q78 0 135.5 -29t89 -83t31.5 -125q0 -37 -9 -82zM247 399.5q-38 -29.5 -54 -81.5h267
q0 52 -32.5 81.5t-87.5 29.5t-93 -29.5zM336 632q-22 21 -22 53q0 42 26 68.5t65 26.5q35 0 56.5 -21t21.5 -54q0 -41 -26 -67.5t-64 -26.5q-35 0 -57 21z" />
    <glyph glyph-name="uni1EB9" unicode="&#x1eb9;" horiz-adv-x="628" 
d="M594 227h-412q8 -110 139 -110q41 0 78.5 13t65.5 37l65 -103q-45 -36 -103 -54t-122 -18q-83 0 -145.5 29.5t-96 84.5t-33.5 127q0 89 40.5 160.5t112.5 112t164 40.5q78 0 135.5 -29t89 -83t31.5 -125q0 -37 -9 -82zM247 399.5q-38 -29.5 -54 -81.5h267
q0 52 -32.5 81.5t-87.5 29.5t-93 -29.5zM181.5 -193q-17.5 17 -17.5 45q0 31 23 53t53 22q27 0 45.5 -17t18.5 -43q0 -35 -21.5 -56t-54.5 -21q-29 0 -46.5 17z" />
    <glyph glyph-name="egrave" unicode="&#xe8;" horiz-adv-x="628" 
d="M594 227h-412q8 -110 139 -110q41 0 78.5 13t65.5 37l65 -103q-45 -36 -103 -54t-122 -18q-83 0 -145.5 29.5t-96 84.5t-33.5 127q0 89 40.5 160.5t112.5 112t164 40.5q78 0 135.5 -29t89 -83t31.5 -125q0 -37 -9 -82zM247 399.5q-38 -29.5 -54 -81.5h267
q0 52 -32.5 81.5t-87.5 29.5t-93 -29.5zM198 750h167l106 -144h-121z" />
    <glyph glyph-name="uni1EBB" unicode="&#x1ebb;" horiz-adv-x="628" 
d="M594 227h-412q8 -110 139 -110q41 0 78.5 13t65.5 37l65 -103q-45 -36 -103 -54t-122 -18q-83 0 -145.5 29.5t-96 84.5t-33.5 127q0 89 40.5 160.5t112.5 112t164 40.5q78 0 135.5 -29t89 -83t31.5 -125q0 -37 -9 -82zM247 399.5q-38 -29.5 -54 -81.5h267
q0 52 -32.5 81.5t-87.5 29.5t-93 -29.5zM374 648q60 25 60 67q0 17 -11.5 27t-30.5 10q-30 0 -60 -20l-27 64q46 33 113 33q50 0 79 -25t29 -68q0 -92 -111 -141z" />
    <glyph glyph-name="uni0207" unicode="&#x207;" horiz-adv-x="628" 
d="M594 227h-412q8 -110 139 -110q41 0 78.5 13t65.5 37l65 -103q-45 -36 -103 -54t-122 -18q-83 0 -145.5 29.5t-96 84.5t-33.5 127q0 89 40.5 160.5t112.5 112t164 40.5q78 0 135.5 -29t89 -83t31.5 -125q0 -37 -9 -82zM247 399.5q-38 -29.5 -54 -81.5h267
q0 52 -32.5 81.5t-87.5 29.5t-93 -29.5zM264.5 717.5q55.5 41.5 135.5 41.5q77 0 124 -42t41 -111h-96q2 33 -19.5 52.5t-58.5 19.5t-62 -19.5t-32 -52.5h-101q13 70 68.5 111.5z" />
    <glyph glyph-name="emacron" unicode="&#x113;" horiz-adv-x="628" 
d="M594 227h-412q8 -110 139 -110q41 0 78.5 13t65.5 37l65 -103q-45 -36 -103 -54t-122 -18q-83 0 -145.5 29.5t-96 84.5t-33.5 127q0 89 40.5 160.5t112.5 112t164 40.5q78 0 135.5 -29t89 -83t31.5 -125q0 -37 -9 -82zM247 399.5q-38 -29.5 -54 -81.5h267
q0 52 -32.5 81.5t-87.5 29.5t-93 -29.5zM219 722h369l-17 -88h-369z" />
    <glyph glyph-name="uni1E17" unicode="&#x1e17;" horiz-adv-x="628" 
d="M594 227h-412q8 -110 139 -110q41 0 78.5 13t65.5 37l65 -103q-45 -36 -103 -54t-122 -18q-83 0 -145.5 29.5t-96 84.5t-33.5 127q0 89 40.5 160.5t112.5 112t164 40.5q78 0 135.5 -29t89 -83t31.5 -125q0 -37 -9 -82zM247 399.5q-38 -29.5 -54 -81.5h267
q0 52 -32.5 81.5t-87.5 29.5t-93 -29.5zM215 705h370l-16 -83h-370zM448 888h163l-170 -121h-117z" />
    <glyph glyph-name="uni1E15" unicode="&#x1e15;" horiz-adv-x="628" 
d="M594 227h-412q8 -110 139 -110q41 0 78.5 13t65.5 37l65 -103q-45 -36 -103 -54t-122 -18q-83 0 -145.5 29.5t-96 84.5t-33.5 127q0 89 40.5 160.5t112.5 112t164 40.5q78 0 135.5 -29t89 -83t31.5 -125q0 -37 -9 -82zM247 399.5q-38 -29.5 -54 -81.5h267
q0 52 -32.5 81.5t-87.5 29.5t-93 -29.5zM215 705h370l-16 -83h-370zM253 888h160l86 -121h-113z" />
    <glyph glyph-name="eogonek" unicode="&#x119;" horiz-adv-x="628" 
d="M594 227h-412q8 -110 140 -110q42 0 79 12.5t64 37.5l65 -103q-12 -11 -29.5 -21t-22.5 -13q-71 -38 -105.5 -72.5t-34.5 -67.5q0 -21 13 -32t35 -11q33 0 61 15l11 -71q-46 -23 -98 -23q-55 0 -88.5 26.5t-33.5 72.5q0 35 19 67.5t53 57.5h-5q-83 0 -145.5 29.5
t-96 84.5t-33.5 127q0 89 40.5 160.5t112.5 112t164 40.5q78 0 135.5 -29t89 -83t31.5 -125q0 -37 -9 -82zM247 399.5q-38 -29.5 -54 -81.5h267q0 52 -32.5 81.5t-87.5 29.5t-93 -29.5z" />
    <glyph glyph-name="uni1EBD" unicode="&#x1ebd;" horiz-adv-x="628" 
d="M594 227h-412q8 -110 139 -110q41 0 78.5 13t65.5 37l65 -103q-45 -36 -103 -54t-122 -18q-83 0 -145.5 29.5t-96 84.5t-33.5 127q0 89 40.5 160.5t112.5 112t164 40.5q78 0 135.5 -29t89 -83t31.5 -125q0 -37 -9 -82zM247 399.5q-38 -29.5 -54 -81.5h267
q0 52 -32.5 81.5t-87.5 29.5t-93 -29.5zM418.5 613q-19.5 10 -42.5 28q-19 14 -29 19.5t-22 5.5q-20 0 -34 -15t-19 -41h-79q11 71 46 108.5t87 37.5q26 0 45.5 -10t42.5 -28q18 -14 28.5 -20t22.5 -6q21 0 34.5 14.5t18.5 39.5h79q-11 -68 -45.5 -105.5t-86.5 -37.5
q-27 0 -46.5 10z" />
    <glyph glyph-name="uni0259" unicode="&#x259;" horiz-adv-x="628" 
d="M34 311h412q-8 110 -139 110q-41 0 -78.5 -13t-65.5 -37l-65 103q45 36 103 54t122 18q83 0 145.5 -29.5t96 -84.5t33.5 -127q0 -89 -40.5 -160.5t-112.5 -112t-164 -40.5q-78 0 -135.5 29t-89 83t-31.5 125q0 37 9 82zM381 138.5q38 29.5 54 81.5h-267q0 -52 32.5 -81.5
t87.5 -29.5t93 29.5z" />
    <glyph glyph-name="uni0292" unicode="&#x292;" horiz-adv-x="557" 
d="M535 434l-206 -197q78 -14 119 -60.5t41 -120.5q0 -80 -45 -138.5t-119.5 -89.5t-160.5 -31q-70 0 -136 21t-120 62l73 119q40 -32 91 -49t101 -17q66 0 110 29t44 84q0 40 -27.5 62.5t-84.5 22.5h-77l19 103l182 174h-300l26 130h488z" />
    <glyph glyph-name="uni01EF" unicode="&#x1ef;" horiz-adv-x="557" 
d="M535 434l-206 -197q78 -14 119 -60.5t41 -120.5q0 -80 -45 -138.5t-119.5 -89.5t-160.5 -31q-70 0 -136 21t-120 62l73 119q40 -32 91 -49t101 -17q66 0 110 29t44 84q0 40 -27.5 62.5t-84.5 22.5h-77l19 103l182 174h-300l26 130h488zM565 751l-151 -144h-138l-112 144
h111l77 -75l97 75h116z" />
    <glyph glyph-name="f" unicode="f" horiz-adv-x="387" 
d="M327.5 607.5q-20.5 -19.5 -28.5 -61.5l-4 -20h137l-24 -120h-133l-81 -406h-156l81 406h-84l24 120h84l6 31q19 90 78.5 141.5t155.5 51.5q36 0 68.5 -8t55.5 -22l-61 -112q-25 19 -62 19q-36 0 -56.5 -19.5z" />
    <glyph glyph-name="g" unicode="g" horiz-adv-x="700" 
d="M681 538l-89 -448q-30 -152 -115.5 -222t-228.5 -70q-78 0 -143.5 18t-112.5 53l74 113q32 -27 82.5 -42.5t106.5 -15.5q79 0 120 34.5t56 104.5l4 23q-65 -60 -164 -60q-67 0 -121 27.5t-85.5 78.5t-31.5 120q0 82 39 149t107.5 106t153.5 39q63 0 110.5 -23.5
t71.5 -72.5l17 88h149zM425 198q44 44 44 113q0 49 -32 77.5t-89 28.5q-69 0 -113.5 -44t-44.5 -113q0 -49 33 -77.5t90 -28.5q68 0 112 44z" />
    <glyph glyph-name="gbreve" unicode="&#x11f;" horiz-adv-x="700" 
d="M681 538l-89 -448q-30 -152 -115.5 -222t-228.5 -70q-78 0 -143.5 18t-112.5 53l74 113q32 -27 82.5 -42.5t106.5 -15.5q79 0 120 34.5t56 104.5l4 23q-65 -60 -164 -60q-67 0 -121 27.5t-85.5 78.5t-31.5 120q0 82 39 149t107.5 106t153.5 39q63 0 110.5 -23.5
t71.5 -72.5l17 88h149zM425 198q44 44 44 113q0 49 -32 77.5t-89 28.5q-69 0 -113.5 -44t-44.5 -113q0 -49 33 -77.5t90 -28.5q68 0 112 44zM299 636.5q-47 37.5 -47 99.5q0 10 1 15h95q-1 -32 20.5 -51.5t58.5 -19.5t62 19.5t31 51.5h101q-13 -70 -68 -111t-135 -41
q-72 0 -119 37.5z" />
    <glyph glyph-name="gcaron" unicode="&#x1e7;" horiz-adv-x="700" 
d="M681 538l-89 -448q-30 -152 -115.5 -222t-228.5 -70q-78 0 -143.5 18t-112.5 53l74 113q32 -27 82.5 -42.5t106.5 -15.5q79 0 120 34.5t56 104.5l4 23q-65 -60 -164 -60q-67 0 -121 27.5t-85.5 78.5t-31.5 120q0 82 39 149t107.5 106t153.5 39q63 0 110.5 -23.5
t71.5 -72.5l17 88h149zM425 198q44 44 44 113q0 49 -32 77.5t-89 28.5q-69 0 -113.5 -44t-44.5 -113q0 -49 33 -77.5t90 -28.5q68 0 112 44zM632 751l-151 -144h-138l-112 144h111l77 -75l97 75h116z" />
    <glyph glyph-name="gcircumflex" unicode="&#x11d;" horiz-adv-x="700" 
d="M681 538l-89 -448q-30 -152 -115.5 -222t-228.5 -70q-78 0 -143.5 18t-112.5 53l74 113q32 -27 82.5 -42.5t106.5 -15.5q79 0 120 34.5t56 104.5l4 23q-65 -60 -164 -60q-67 0 -121 27.5t-85.5 78.5t-31.5 120q0 82 39 149t107.5 106t153.5 39q63 0 110.5 -23.5
t71.5 -72.5l17 88h149zM425 198q44 44 44 113q0 49 -32 77.5t-89 28.5q-69 0 -113.5 -44t-44.5 -113q0 -49 33 -77.5t90 -28.5q68 0 112 44zM499 607l-77 75l-97 -75h-117l152 144h137l113 -144h-111z" />
    <glyph glyph-name="gcommaaccent" unicode="&#x123;" horiz-adv-x="700" 
d="M681 538l-89 -448q-30 -152 -115.5 -222t-228.5 -70q-78 0 -143.5 18t-112.5 53l74 113q32 -27 82.5 -42.5t106.5 -15.5q79 0 120 34.5t56 104.5l4 23q-65 -60 -164 -60q-67 0 -121 27.5t-85.5 78.5t-31.5 120q0 82 39 149t107.5 106t153.5 39q63 0 110.5 -23.5
t71.5 -72.5l17 88h149zM425 198q44 44 44 113q0 49 -32 77.5t-89 28.5q-69 0 -113.5 -44t-44.5 -113q0 -49 33 -77.5t90 -28.5q68 0 112 44zM499 667q0 -30 -22 -49t-63 -19q-36 0 -55.5 15t-19.5 39q0 15 7 29.5t27 40.5l64 90h84l-55 -102q33 -12 33 -44z" />
    <glyph glyph-name="gdotaccent" unicode="&#x121;" horiz-adv-x="700" 
d="M681 538l-89 -448q-30 -152 -115.5 -222t-228.5 -70q-78 0 -143.5 18t-112.5 53l74 113q32 -27 82.5 -42.5t106.5 -15.5q79 0 120 34.5t56 104.5l4 23q-65 -60 -164 -60q-67 0 -121 27.5t-85.5 78.5t-31.5 120q0 82 39 149t107.5 106t153.5 39q63 0 110.5 -23.5
t71.5 -72.5l17 88h149zM425 198q44 44 44 113q0 49 -32 77.5t-89 28.5q-69 0 -113.5 -44t-44.5 -113q0 -49 33 -77.5t90 -28.5q68 0 112 44zM364 633q-22 21 -22 53q0 42 26 68.5t65 26.5q35 0 56.5 -21t21.5 -54q0 -41 -26 -67.5t-64 -26.5q-35 0 -57 21z" />
    <glyph glyph-name="uni1E21" unicode="&#x1e21;" horiz-adv-x="700" 
d="M681 538l-89 -448q-30 -152 -115.5 -222t-228.5 -70q-78 0 -143.5 18t-112.5 53l74 113q32 -27 82.5 -42.5t106.5 -15.5q79 0 120 34.5t56 104.5l4 23q-65 -60 -164 -60q-67 0 -121 27.5t-85.5 78.5t-31.5 120q0 82 39 149t107.5 106t153.5 39q63 0 110.5 -23.5
t71.5 -72.5l17 88h149zM425 198q44 44 44 113q0 49 -32 77.5t-89 28.5q-69 0 -113.5 -44t-44.5 -113q0 -49 33 -77.5t90 -28.5q68 0 112 44zM247 723h369l-17 -88h-369z" />
    <glyph glyph-name="uni01E5" unicode="&#x1e5;" horiz-adv-x="714" 
d="M583 39h66l-15 -77h-81q-43 -85 -118 -124.5t-183 -39.5q-157 0 -257 71l73 109q34 -27 83.5 -42.5t105.5 -15.5q83 0 127 42h-168l15 76h197l6 25l13 63q-71 -61 -173 -61q-67 0 -121 25.5t-85 73t-31 110.5q0 76 37.5 138t105 97.5t152.5 35.5q62 0 112 -21.5t76 -65.5
l16 80h149l-90 -448zM429 223q44 42 44 107q0 46 -32.5 73t-89.5 27q-69 0 -113 -42t-44 -108q0 -45 32.5 -72t89.5 -27q69 0 113 42z" />
    <glyph glyph-name="h" unicode="h" horiz-adv-x="691" 
d="M582 498q53 -48 53 -136q0 -32 -7 -64l-60 -298h-156l58 288q4 17 4 37q0 42 -23 64t-69 22q-60 0 -99.5 -34.5t-53.5 -103.5l-54 -273h-156l148 742h156l-50 -253q69 57 166 57q90 0 143 -48z" />
    <glyph glyph-name="hbar" unicode="&#x127;" horiz-adv-x="691" 
d="M582 498q53 -48 53 -136q0 -32 -7 -64l-60 -298h-156l58 288q4 17 4 37q0 42 -23 64t-69 22q-60 0 -99.5 -34.5t-53.5 -103.5l-54 -273h-156l148 742h156l-50 -253q69 57 166 57q90 0 143 -48zM82 683h411l-17 -90h-412z" />
    <glyph glyph-name="uni1E2B" unicode="&#x1e2b;" horiz-adv-x="691" 
d="M582 498q53 -48 53 -136q0 -32 -7 -64l-60 -298h-156l58 288q4 17 4 37q0 42 -23 64t-69 22q-60 0 -99.5 -34.5t-53.5 -103.5l-54 -273h-156l148 742h156l-50 -253q69 57 166 57q90 0 143 -48zM142 -180.5q-48 36.5 -48 92.5q0 9 1 14h95q-1 -31 20 -49t59 -18
q37 0 62 18t31 49h100q-12 -66 -66.5 -104.5t-130.5 -38.5q-75 0 -123 36.5z" />
    <glyph glyph-name="uni021F" unicode="&#x21f;" horiz-adv-x="691" 
d="M582 498q53 -48 53 -136q0 -32 -7 -64l-60 -298h-156l58 288q4 17 4 37q0 42 -23 64t-69 22q-60 0 -99.5 -34.5t-53.5 -103.5l-54 -273h-156l148 742h156l-50 -253q69 57 166 57q90 0 143 -48zM482 955l-151 -144h-138l-112 144h111l77 -75l97 75h116z" />
    <glyph glyph-name="hcircumflex" unicode="&#x125;" horiz-adv-x="691" 
d="M582 498q53 -48 53 -136q0 -32 -7 -64l-60 -298h-156l58 288q4 17 4 37q0 42 -23 64t-69 22q-60 0 -99.5 -34.5t-53.5 -103.5l-54 -273h-156l148 742h156l-50 -253q69 57 166 57q90 0 143 -48zM346 799l-77 75l-97 -75h-117l152 144h137l113 -144h-111z" />
    <glyph glyph-name="uni1E25" unicode="&#x1e25;" horiz-adv-x="691" 
d="M582 498q53 -48 53 -136q0 -32 -7 -64l-60 -298h-156l58 288q4 17 4 37q0 42 -23 64t-69 22q-60 0 -99.5 -34.5t-53.5 -103.5l-54 -273h-156l148 742h156l-50 -253q69 57 166 57q90 0 143 -48zM212.5 -193q-17.5 17 -17.5 45q0 31 23 53t53 22q27 0 45.5 -17t18.5 -43
q0 -35 -21.5 -56t-54.5 -21q-29 0 -46.5 17z" />
    <glyph glyph-name="i" unicode="i" horiz-adv-x="300" 
d="M126 538h155l-107 -538h-155zM164.5 636.5q-25.5 23.5 -25.5 57.5q0 40 28.5 66.5t74.5 26.5q41 0 66.5 -22.5t25.5 -55.5q0 -43 -29 -69.5t-75 -26.5q-40 0 -65.5 23.5z" />
    <glyph glyph-name="dotlessi" unicode="&#x131;" horiz-adv-x="300" 
d="M126 538h155l-107 -538h-155z" />
    <glyph glyph-name="iacute" unicode="&#xed;" horiz-adv-x="300" 
d="M126 538h155l-107 -538h-155zM275 751h172l-196 -144h-126z" />
    <glyph glyph-name="ibreve" unicode="&#x12d;" horiz-adv-x="300" 
d="M126 538h155l-107 -538h-155zM125 634q-40 35 -40 94q0 7 2 23h91q-1 -5 -1 -14q0 -27 15.5 -42.5t43.5 -15.5q63 0 74 72h95q-11 -71 -56.5 -111.5t-117.5 -40.5q-66 0 -106 35z" />
    <glyph glyph-name="icircumflex" unicode="&#xee;" horiz-adv-x="300" 
d="M126 538h155l-107 -538h-155zM286 607l-56 70l-74 -70h-114l129 144h134l89 -144h-108z" />
    <glyph glyph-name="uni0209" unicode="&#x209;" horiz-adv-x="300" 
d="M126 538h155l-107 -538h-155zM-13 751h140l44 -144h-108zM189 751h140l44 -144h-108z" />
    <glyph glyph-name="idieresis" unicode="&#xef;" horiz-adv-x="300" 
d="M126 538h155l-107 -538h-155zM102 629.5q-18 17.5 -18 44.5q0 33 20 54.5t51 21.5q26 0 43 -18t17 -46q0 -32 -20 -53t-49 -21q-26 0 -44 17.5zM266.5 629.5q-17.5 17.5 -17.5 44.5q0 33 20 54.5t50 21.5q26 0 43 -17.5t17 -44.5q0 -33 -19.5 -54.5t-49.5 -21.5
q-26 0 -43.5 17.5z" />
    <glyph glyph-name="uni1E2F" unicode="&#x1e2f;" horiz-adv-x="300" 
d="M126 538h155l-107 -538h-155zM85.5 628q-17.5 16 -17.5 43q0 32 20.5 52.5t49.5 20.5q27 0 44.5 -17t17.5 -44q0 -31 -20.5 -51t-49.5 -20q-27 0 -44.5 16zM280.5 628q-17.5 16 -17.5 43q0 31 21 52t50 21q27 0 44.5 -17t17.5 -44q0 -31 -21 -51t-50 -20q-27 0 -44.5 16z
M285 889h163l-170 -121h-117z" />
    <glyph glyph-name="i.loclTRK" horiz-adv-x="300" 
d="M126 538h155l-107 -538h-155zM173 633q-22 21 -22 53q0 42 26 68.5t65 26.5q35 0 56.5 -21t21.5 -54q0 -41 -26 -67.5t-64 -26.5q-35 0 -57 21z" />
    <glyph glyph-name="uni1ECB" unicode="&#x1ecb;" horiz-adv-x="300" 
d="M126 538h155l-107 -538h-155zM164.5 636.5q-25.5 23.5 -25.5 57.5q0 40 28.5 66.5t74.5 26.5q41 0 66.5 -22.5t25.5 -55.5q0 -43 -29 -69.5t-75 -26.5q-40 0 -65.5 23.5zM14.5 -193q-17.5 17 -17.5 45q0 31 23 53t53 22q27 0 45.5 -17t18.5 -43q0 -35 -21.5 -56
t-54.5 -21q-29 0 -46.5 17z" />
    <glyph glyph-name="igrave" unicode="&#xec;" horiz-adv-x="300" 
d="M126 538h155l-107 -538h-155zM35 751h167l106 -144h-121z" />
    <glyph glyph-name="uni1EC9" unicode="&#x1ec9;" horiz-adv-x="300" 
d="M126 538h155l-107 -538h-155zM211 649q60 25 60 67q0 17 -11.5 27t-30.5 10q-30 0 -60 -20l-27 64q46 33 113 33q50 0 79 -25t29 -68q0 -92 -111 -141z" />
    <glyph glyph-name="uni020B" unicode="&#x20b;" horiz-adv-x="300" 
d="M126 538h155l-107 -538h-155zM115.5 719q46.5 40 120.5 40q64 0 103.5 -35t39.5 -94q0 -7 -2 -23h-92q1 5 1 14q0 27 -15 42.5t-43 15.5q-64 0 -73 -72h-97q11 72 57.5 112z" />
    <glyph glyph-name="ij" unicode="&#x133;" horiz-adv-x="606" 
d="M126 538h155l-107 -538h-155zM164.5 636.5q-25.5 23.5 -25.5 57.5q0 40 28.5 66.5t74.5 26.5q41 0 66.5 -22.5t25.5 -55.5q0 -43 -29 -69.5t-75 -26.5q-40 0 -65.5 23.5zM120 -172l62 113q27 -19 65 -19q32 0 50.5 19t26.5 60l108 537h156l-107 -533q-41 -207 -232 -207
q-78 0 -129 30zM470.5 636.5q-25.5 23.5 -25.5 57.5q0 40 28.5 66.5t74.5 26.5q41 0 66.5 -22.5t25.5 -55.5q0 -43 -29 -69.5t-75 -26.5q-40 0 -65.5 23.5z" />
    <glyph glyph-name="imacron" unicode="&#x12b;" horiz-adv-x="300" 
d="M126 538h155l-107 -538h-155zM91 723h300l-17 -88h-300z" />
    <glyph glyph-name="iogonek" unicode="&#x12f;" horiz-adv-x="300" 
d="M126 538h155l-107 -538h-155zM164.5 636.5q-25.5 23.5 -25.5 57.5q0 40 28.5 66.5t74.5 26.5q41 0 66.5 -22.5t25.5 -55.5q0 -43 -29 -69.5t-75 -26.5q-40 0 -65.5 23.5zM13 -205.5q-28 26.5 -28 69.5q0 56 40 101t108 77l41 -42q-86 -61 -86 -119q0 -16 9 -25t24 -9
q18 0 35 10l9 -70q-29 -19 -72 -19q-52 0 -80 26.5z" />
    <glyph glyph-name="itilde" unicode="&#x129;" horiz-adv-x="300" 
d="M126 538h155l-107 -538h-155zM249 614.5q-17 10.5 -38 30.5q-13 13 -20.5 18.5t-16.5 5.5q-15 0 -25 -15t-14 -43h-78q8 72 38.5 109t79.5 37q25 0 42.5 -11t35.5 -30q13 -13 20.5 -18.5t16.5 -5.5q16 0 26.5 14.5t13.5 40.5h77q-7 -70 -37 -106.5t-79 -36.5
q-25 0 -42 10.5z" />
    <glyph glyph-name="j" unicode="j" horiz-adv-x="306" 
d="M-180 -172l62 113q27 -19 65 -19q32 0 50.5 19t26.5 60l108 537h156l-107 -533q-41 -207 -232 -207q-78 0 -129 30zM170.5 636.5q-25.5 23.5 -25.5 57.5q0 40 28.5 66.5t74.5 26.5q41 0 66.5 -22.5t25.5 -55.5q0 -43 -29 -69.5t-75 -26.5q-40 0 -65.5 23.5z" />
    <glyph glyph-name="uni0237" unicode="&#x237;" horiz-adv-x="306" 
d="M-180 -172l62 113q27 -19 65 -19q32 0 50.5 19t26.5 60l108 537h156l-107 -533q-41 -207 -232 -207q-78 0 -129 30z" />
    <glyph glyph-name="jcircumflex" unicode="&#x135;" horiz-adv-x="306" 
d="M-180 -172l62 113q27 -19 65 -19q32 0 50.5 19t26.5 60l108 537h156l-107 -533q-41 -207 -232 -207q-78 0 -129 30zM292 607l-56 70l-74 -70h-114l129 144h134l89 -144h-108z" />
    <glyph glyph-name="k" unicode="k" horiz-adv-x="645" 
d="M420 304l185 -304h-181l-128 209l-95 -79l-26 -130h-156l148 742h156l-83 -415l258 211h203z" />
    <glyph glyph-name="uni01E9" unicode="&#x1e9;" horiz-adv-x="645" 
d="M420 304l185 -304h-181l-128 209l-95 -79l-26 -130h-156l148 742h156l-83 -415l258 211h203zM482 955l-151 -144h-138l-112 144h111l77 -75l97 75h116z" />
    <glyph glyph-name="kcommaaccent" unicode="&#x137;" horiz-adv-x="645" 
d="M420 304l185 -304h-181l-128 209l-95 -79l-26 -130h-156l148 742h156l-83 -415l258 211h203zM289.5 -88q17.5 -15 17.5 -38q0 -16 -6.5 -30.5t-24.5 -40.5l-49 -69h-71l41 81q-30 12 -30 44q0 30 19 49t54 19q32 0 49.5 -15z" />
    <glyph glyph-name="kgreenlandic" unicode="&#x138;" horiz-adv-x="645" 
d="M420 304l185 -304h-181l-128 209l-95 -80l-26 -129h-156l107 538h156l-42 -212l258 212h203z" />
    <glyph glyph-name="l" unicode="l" horiz-adv-x="301" 
d="M167 742h156l-148 -742h-156z" />
    <glyph glyph-name="lacute" unicode="&#x13a;" horiz-adv-x="301" 
d="M167 742h156l-148 -742h-156zM313 943h172l-196 -144h-126z" />
    <glyph glyph-name="lcaron" unicode="&#x13e;" horiz-adv-x="301" 
d="M167 742h156l-148 -742h-156zM411 783h117l-61 -201h-96z" />
    <glyph glyph-name="lcommaaccent" unicode="&#x13c;" horiz-adv-x="301" 
d="M167 742h156l-148 -742h-156zM122.5 -88q17.5 -15 17.5 -38q0 -16 -6.5 -30.5t-24.5 -40.5l-49 -69h-71l41 81q-30 12 -30 44q0 30 19 49t54 19q32 0 49.5 -15z" />
    <glyph glyph-name="ldot" unicode="&#x140;" horiz-adv-x="420" 
d="M167 742h156l-148 -742h-156zM323 305.5q-21 20.5 -21 52.5q0 36 23 60t58 24q32 0 53 -20t21 -52q0 -37 -23.5 -61t-58.5 -24q-31 0 -52 20.5z" />
    <glyph glyph-name="uni1E37" unicode="&#x1e37;" horiz-adv-x="301" 
d="M167 742h156l-148 -742h-156zM15.5 -193q-17.5 17 -17.5 45q0 31 23 53t53 22q27 0 45.5 -17t18.5 -43q0 -35 -21.5 -56t-54.5 -21q-29 0 -46.5 17z" />
    <glyph glyph-name="uni01C9" unicode="&#x1c9;" horiz-adv-x="607" 
d="M167 742h156l-148 -742h-156zM121 -172l62 113q27 -19 65 -19q32 0 50.5 19t26.5 60l108 537h156l-107 -533q-41 -207 -232 -207q-78 0 -129 30zM471.5 636.5q-25.5 23.5 -25.5 57.5q0 40 28.5 66.5t74.5 26.5q41 0 66.5 -22.5t25.5 -55.5q0 -43 -29 -69.5t-75 -26.5
q-40 0 -65.5 23.5z" />
    <glyph glyph-name="uni1E3B" unicode="&#x1e3b;" horiz-adv-x="301" 
d="M167 742h156l-148 -742h-156zM-108 -95h370l-16 -87h-370z" />
    <glyph glyph-name="lslash" unicode="&#x142;" horiz-adv-x="327" 
d="M180 742h156l-148 -742h-156zM-29 281l373 244l49 -80l-373 -244z" />
    <glyph glyph-name="m" unicode="m" horiz-adv-x="1049" 
d="M941 498.5q52 -47.5 52 -134.5q0 -32 -7 -66l-59 -298h-156l57 287q4 20 4 41q0 41 -21.5 62t-63.5 21q-113 0 -141 -135l-55 -276h-156l57 287q4 20 4 40q0 41 -21.5 62.5t-63.5 21.5q-113 0 -142 -137l-54 -274h-156l107 538h148l-12 -56q70 64 169 64q56 0 99.5 -22.5
t65.5 -65.5q39 43 91 65.5t114 22.5q88 0 140 -47.5z" />
    <glyph glyph-name="uni1E43" unicode="&#x1e43;" horiz-adv-x="1049" 
d="M941 498.5q52 -47.5 52 -134.5q0 -32 -7 -66l-59 -298h-156l57 287q4 20 4 41q0 41 -21.5 62t-63.5 21q-113 0 -141 -135l-55 -276h-156l57 287q4 20 4 40q0 41 -21.5 62.5t-63.5 21.5q-113 0 -142 -137l-54 -274h-156l107 538h148l-12 -56q70 64 169 64q56 0 99.5 -22.5
t65.5 -65.5q39 43 91 65.5t114 22.5q88 0 140 -47.5zM391.5 -193q-17.5 17 -17.5 45q0 31 23 53t53 22q27 0 45.5 -17t18.5 -43q0 -35 -21.5 -56t-54.5 -21q-29 0 -46.5 17z" />
    <glyph glyph-name="n" unicode="n" horiz-adv-x="691" 
d="M582 498.5q53 -47.5 53 -135.5q0 -33 -7 -65l-60 -298h-156l58 288q4 17 4 37q0 42 -23 64t-69 22q-60 0 -99.5 -34.5t-53.5 -103.5l-54 -273h-156l107 538h148l-12 -58q72 66 177 66q90 0 143 -47.5z" />
    <glyph glyph-name="nacute" unicode="&#x144;" horiz-adv-x="691" 
d="M582 498.5q53 -47.5 53 -135.5q0 -33 -7 -65l-60 -298h-156l58 288q4 17 4 37q0 42 -23 64t-69 22q-60 0 -99.5 -34.5t-53.5 -103.5l-54 -273h-156l107 538h148l-12 -58q72 66 177 66q90 0 143 -47.5zM473 751h172l-196 -144h-126z" />
    <glyph glyph-name="napostrophe" unicode="&#x149;" horiz-adv-x="785" 
d="M164.371 700h102l-109.573 -262h-82zM677 498.5q53 -47.5 53 -135.5q0 -33 -7 -65l-60 -298h-156l58 288q4 17 4 37q0 42 -23 64t-69 22q-60 0 -99.5 -34.5t-53.5 -103.5l-54 -273h-156l107 538h148l-12 -58q72 66 177 66q90 0 143 -47.5z" />
    <glyph glyph-name="ncaron" unicode="&#x148;" horiz-adv-x="691" 
d="M582 498.5q53 -47.5 53 -135.5q0 -33 -7 -65l-60 -298h-156l58 288q4 17 4 37q0 42 -23 64t-69 22q-60 0 -99.5 -34.5t-53.5 -103.5l-54 -273h-156l107 538h148l-12 -58q72 66 177 66q90 0 143 -47.5zM639 751l-151 -144h-138l-112 144h111l77 -75l97 75h116z" />
    <glyph glyph-name="ncommaaccent" unicode="&#x146;" horiz-adv-x="691" 
d="M582 498.5q53 -47.5 53 -135.5q0 -33 -7 -65l-60 -298h-156l58 288q4 17 4 37q0 42 -23 64t-69 22q-60 0 -99.5 -34.5t-53.5 -103.5l-54 -273h-156l107 538h148l-12 -58q72 66 177 66q90 0 143 -47.5zM320.5 -88q17.5 -15 17.5 -38q0 -16 -6.5 -30.5t-24.5 -40.5l-49 -69
h-71l41 81q-30 12 -30 44q0 30 19 49t54 19q32 0 49.5 -15z" />
    <glyph glyph-name="uni1E45" unicode="&#x1e45;" horiz-adv-x="691" 
d="M582 498.5q53 -47.5 53 -135.5q0 -33 -7 -65l-60 -298h-156l58 288q4 17 4 37q0 42 -23 64t-69 22q-60 0 -99.5 -34.5t-53.5 -103.5l-54 -273h-156l107 538h148l-12 -58q72 66 177 66q90 0 143 -47.5zM371 633q-22 21 -22 53q0 42 26 68.5t65 26.5q35 0 56.5 -21
t21.5 -54q0 -41 -26 -67.5t-64 -26.5q-35 0 -57 21z" />
    <glyph glyph-name="uni1E47" unicode="&#x1e47;" horiz-adv-x="691" 
d="M582 498.5q53 -47.5 53 -135.5q0 -33 -7 -65l-60 -298h-156l58 288q4 17 4 37q0 42 -23 64t-69 22q-60 0 -99.5 -34.5t-53.5 -103.5l-54 -273h-156l107 538h148l-12 -58q72 66 177 66q90 0 143 -47.5zM213.5 -193q-17.5 17 -17.5 45q0 31 23 53t53 22q27 0 45.5 -17
t18.5 -43q0 -35 -21.5 -56t-54.5 -21q-29 0 -46.5 17z" />
    <glyph glyph-name="eng" unicode="&#x14b;" horiz-adv-x="691" 
d="M582 498.5q53 -47.5 53 -135.5q0 -33 -7 -65l-59 -293q-41 -207 -232 -207q-76 0 -129 30l62 113q29 -19 65 -19q32 0 50.5 19t26.5 60l58 287q4 17 4 37q0 42 -23 64t-69 22q-60 0 -99.5 -34.5t-53.5 -103.5l-54 -273h-156l107 538h148l-12 -58q72 66 177 66
q90 0 143 -47.5z" />
    <glyph glyph-name="uni01CC" unicode="&#x1cc;" horiz-adv-x="997" 
d="M582 498.5q53 -47.5 53 -135.5q0 -33 -7 -65l-60 -298h-156l58 288q4 17 4 37q0 42 -23 64t-69 22q-60 0 -99.5 -34.5t-53.5 -103.5l-54 -273h-156l107 538h148l-12 -58q72 66 177 66q90 0 143 -47.5zM511 -172l62 113q27 -19 65 -19q32 0 50.5 19t26.5 60l108 537h156
l-107 -533q-41 -207 -232 -207q-78 0 -129 30zM861.5 636.5q-25.5 23.5 -25.5 57.5q0 40 28.5 66.5t74.5 26.5q41 0 66.5 -22.5t25.5 -55.5q0 -43 -29 -69.5t-75 -26.5q-40 0 -65.5 23.5z" />
    <glyph glyph-name="uni1E49" unicode="&#x1e49;" horiz-adv-x="691" 
d="M582 498.5q53 -47.5 53 -135.5q0 -33 -7 -65l-60 -298h-156l58 288q4 17 4 37q0 42 -23 64t-69 22q-60 0 -99.5 -34.5t-53.5 -103.5l-54 -273h-156l107 538h148l-12 -58q72 66 177 66q90 0 143 -47.5zM90 -95h370l-16 -87h-370z" />
    <glyph glyph-name="ntilde" unicode="&#xf1;" horiz-adv-x="691" 
d="M582 498.5q53 -47.5 53 -135.5q0 -33 -7 -65l-60 -298h-156l58 288q4 17 4 37q0 42 -23 64t-69 22q-60 0 -99.5 -34.5t-53.5 -103.5l-54 -273h-156l107 538h148l-12 -58q72 66 177 66q90 0 143 -47.5zM453.5 614q-19.5 10 -42.5 28q-19 14 -29 19.5t-22 5.5
q-20 0 -34 -15t-19 -41h-79q11 71 46 108.5t87 37.5q26 0 45.5 -10t42.5 -28q18 -14 28.5 -20t22.5 -6q21 0 34.5 14.5t18.5 39.5h79q-11 -68 -45.5 -105.5t-86.5 -37.5q-27 0 -46.5 10z" />
    <glyph glyph-name="o" unicode="o" horiz-adv-x="654" 
d="M157.5 22q-61.5 30 -95 84.5t-33.5 126.5q0 89 42 160t116 112t167 41q82 0 143 -30t94.5 -84.5t33.5 -126.5q0 -89 -41.5 -160t-116 -112t-167.5 -41q-81 0 -142.5 30zM391 143.5q36 22.5 56 62.5t20 92q0 55 -32 87t-90 32q-46 0 -82 -22.5t-56 -62.5t-20 -92
q0 -55 32.5 -87t90.5 -32q45 0 81 22.5z" />
    <glyph glyph-name="oacute" unicode="&#xf3;" horiz-adv-x="654" 
d="M157.5 22q-61.5 30 -95 84.5t-33.5 126.5q0 89 42 160t116 112t167 41q82 0 143 -30t94.5 -84.5t33.5 -126.5q0 -89 -41.5 -160t-116 -112t-167.5 -41q-81 0 -142.5 30zM391 143.5q36 22.5 56 62.5t20 92q0 55 -32 87t-90 32q-46 0 -82 -22.5t-56 -62.5t-20 -92
q0 -55 32.5 -87t90.5 -32q45 0 81 22.5zM449 751h172l-196 -144h-126z" />
    <glyph glyph-name="obreve" unicode="&#x14f;" horiz-adv-x="654" 
d="M157.5 22q-61.5 30 -95 84.5t-33.5 126.5q0 89 42 160t116 112t167 41q82 0 143 -30t94.5 -84.5t33.5 -126.5q0 -89 -41.5 -160t-116 -112t-167.5 -41q-81 0 -142.5 30zM391 143.5q36 22.5 56 62.5t20 92q0 55 -32 87t-90 32q-46 0 -82 -22.5t-56 -62.5t-20 -92
q0 -55 32.5 -87t90.5 -32q45 0 81 22.5zM282 636.5q-47 37.5 -47 99.5q0 10 1 15h95q-1 -32 20.5 -51.5t58.5 -19.5t62 19.5t31 51.5h101q-13 -70 -68 -111t-135 -41q-72 0 -119 37.5z" />
    <glyph glyph-name="ocircumflex" unicode="&#xf4;" horiz-adv-x="654" 
d="M157.5 22q-61.5 30 -95 84.5t-33.5 126.5q0 89 42 160t116 112t167 41q82 0 143 -30t94.5 -84.5t33.5 -126.5q0 -89 -41.5 -160t-116 -112t-167.5 -41q-81 0 -142.5 30zM391 143.5q36 22.5 56 62.5t20 92q0 55 -32 87t-90 32q-46 0 -82 -22.5t-56 -62.5t-20 -92
q0 -55 32.5 -87t90.5 -32q45 0 81 22.5zM482 607l-77 75l-97 -75h-117l152 144h137l113 -144h-111z" />
    <glyph glyph-name="uni1ED1" unicode="&#x1ed1;" horiz-adv-x="654" 
d="M157.5 22q-61.5 30 -95 84.5t-33.5 126.5q0 89 42 160t116 112t167 41q82 0 143 -30t94.5 -84.5t33.5 -126.5q0 -89 -41.5 -160t-116 -112t-167.5 -41q-81 0 -142.5 30zM391 143.5q36 22.5 56 62.5t20 92q0 55 -32 87t-90 32q-46 0 -82 -22.5t-56 -62.5t-20 -92
q0 -55 32.5 -87t90.5 -32q45 0 81 22.5zM480 607l-77 57l-95 -57h-117l150 114h135l117 -114h-113zM633 824h163l-170 -121h-117z" />
    <glyph glyph-name="uni1ED9" unicode="&#x1ed9;" horiz-adv-x="654" 
d="M157.5 22q-61.5 30 -95 84.5t-33.5 126.5q0 89 42 160t116 112t167 41q82 0 143 -30t94.5 -84.5t33.5 -126.5q0 -89 -41.5 -160t-116 -112t-167.5 -41q-81 0 -142.5 30zM391 143.5q36 22.5 56 62.5t20 92q0 55 -32 87t-90 32q-46 0 -82 -22.5t-56 -62.5t-20 -92
q0 -55 32.5 -87t90.5 -32q45 0 81 22.5zM189.5 -193q-17.5 17 -17.5 45q0 31 23 53t53 22q27 0 45.5 -17t18.5 -43q0 -35 -21.5 -56t-54.5 -21q-29 0 -46.5 17zM482 607l-77 75l-97 -75h-117l152 144h137l113 -144h-111z" />
    <glyph glyph-name="uni1ED3" unicode="&#x1ed3;" horiz-adv-x="654" 
d="M157.5 22q-61.5 30 -95 84.5t-33.5 126.5q0 89 42 160t116 112t167 41q82 0 143 -30t94.5 -84.5t33.5 -126.5q0 -89 -41.5 -160t-116 -112t-167.5 -41q-81 0 -142.5 30zM391 143.5q36 22.5 56 62.5t20 92q0 55 -32 87t-90 32q-46 0 -82 -22.5t-56 -62.5t-20 -92
q0 -55 32.5 -87t90.5 -32q45 0 81 22.5zM480 607l-77 57l-95 -57h-117l150 114h135l117 -114h-113zM438 824h160l86 -121h-113z" />
    <glyph glyph-name="uni1ED5" unicode="&#x1ed5;" horiz-adv-x="654" 
d="M157.5 22q-61.5 30 -95 84.5t-33.5 126.5q0 89 42 160t116 112t167 41q82 0 143 -30t94.5 -84.5t33.5 -126.5q0 -89 -41.5 -160t-116 -112t-167.5 -41q-81 0 -142.5 30zM391 143.5q36 22.5 56 62.5t20 92q0 55 -32 87t-90 32q-46 0 -82 -22.5t-56 -62.5t-20 -92
q0 -55 32.5 -87t90.5 -32q45 0 81 22.5zM480 607l-77 57l-95 -57h-117l150 114h135l117 -114h-113zM540 721q43 19 43 47q0 11 -7.5 17.5t-21.5 6.5q-23 0 -47 -12l-19 49q39 21 84 21q38 0 61 -19t23 -50q0 -33 -22.5 -58t-59.5 -39z" />
    <glyph glyph-name="uni1ED7" unicode="&#x1ed7;" horiz-adv-x="654" 
d="M157.5 22q-61.5 30 -95 84.5t-33.5 126.5q0 89 42 160t116 112t167 41q82 0 143 -30t94.5 -84.5t33.5 -126.5q0 -89 -41.5 -160t-116 -112t-167.5 -41q-81 0 -142.5 30zM391 143.5q36 22.5 56 62.5t20 92q0 55 -32 87t-90 32q-46 0 -82 -22.5t-56 -62.5t-20 -92
q0 -55 32.5 -87t90.5 -32q45 0 81 22.5zM480 607l-77 57l-95 -57h-117l150 114h135l117 -114h-113zM453.5 764.5q-19.5 8.5 -41.5 23.5q-27 20 -44 20q-20 0 -33 -12.5t-17 -33.5h-81q9 60 43.5 92.5t87.5 32.5q26 0 45.5 -8.5t40.5 -23.5q15 -10 25 -15t21 -5
q20 0 33.5 12.5t18.5 32.5h78q-9 -58 -43 -91t-88 -33q-26 0 -45.5 8.5z" />
    <glyph glyph-name="uni020D" unicode="&#x20d;" horiz-adv-x="654" 
d="M157.5 22q-61.5 30 -95 84.5t-33.5 126.5q0 89 42 160t116 112t167 41q82 0 143 -30t94.5 -84.5t33.5 -126.5q0 -89 -41.5 -160t-116 -112t-167.5 -41q-81 0 -142.5 30zM391 143.5q36 22.5 56 62.5t20 92q0 55 -32 87t-90 32q-46 0 -82 -22.5t-56 -62.5t-20 -92
q0 -55 32.5 -87t90.5 -32q45 0 81 22.5zM161 751h140l44 -144h-108zM363 751h140l44 -144h-108z" />
    <glyph glyph-name="odieresis" unicode="&#xf6;" horiz-adv-x="654" 
d="M157.5 22q-61.5 30 -95 84.5t-33.5 126.5q0 89 42 160t116 112t167 41q82 0 143 -30t94.5 -84.5t33.5 -126.5q0 -89 -41.5 -160t-116 -112t-167.5 -41q-81 0 -142.5 30zM391 143.5q36 22.5 56 62.5t20 92q0 55 -32 87t-90 32q-46 0 -82 -22.5t-56 -62.5t-20 -92
q0 -55 32.5 -87t90.5 -32q45 0 81 22.5zM253.5 629q-18.5 17 -18.5 45q0 33 22 54.5t52 21.5q28 0 47 -17t19 -45q0 -33 -22.5 -54.5t-52.5 -21.5q-28 0 -46.5 17zM456.5 629q-18.5 17 -18.5 45q0 34 21.5 55t52.5 21q28 0 46.5 -17t18.5 -45q0 -33 -22 -54.5t-52 -21.5
q-28 0 -46.5 17z" />
    <glyph glyph-name="uni022B" unicode="&#x22b;" horiz-adv-x="654" 
d="M157.5 22q-61.5 30 -95 84.5t-33.5 126.5q0 89 42 160t116 112t167 41q82 0 143 -30t94.5 -84.5t33.5 -126.5q0 -89 -41.5 -160t-116 -112t-167.5 -41q-81 0 -142.5 30zM391 143.5q36 22.5 56 62.5t20 92q0 55 -32 87t-90 32q-46 0 -82 -22.5t-56 -62.5t-20 -92
q0 -55 32.5 -87t90.5 -32q45 0 81 22.5zM259.5 628q-17.5 16 -17.5 43q0 32 20.5 52.5t49.5 20.5q27 0 44.5 -17t17.5 -44q0 -31 -20.5 -51t-49.5 -20q-27 0 -44.5 16zM454.5 628q-17.5 16 -17.5 43q0 31 21 52t50 21q27 0 44.5 -17t17.5 -44q0 -31 -21 -51t-50 -20
q-27 0 -44.5 16zM258 867h370l-16 -83h-370z" />
    <glyph glyph-name="uni0231" unicode="&#x231;" horiz-adv-x="654" 
d="M157.5 22q-61.5 30 -95 84.5t-33.5 126.5q0 89 42 160t116 112t167 41q82 0 143 -30t94.5 -84.5t33.5 -126.5q0 -89 -41.5 -160t-116 -112t-167.5 -41q-81 0 -142.5 30zM391 143.5q36 22.5 56 62.5t20 92q0 55 -32 87t-90 32q-46 0 -82 -22.5t-56 -62.5t-20 -92
q0 -55 32.5 -87t90.5 -32q45 0 81 22.5zM355 629q-18 17 -18 46q0 33 21.5 54t52.5 21q28 0 46.5 -17.5t18.5 -46.5q0 -32 -22 -53t-53 -21q-28 0 -46 17zM260 874h370l-16 -83h-370z" />
    <glyph glyph-name="uni1ECD" unicode="&#x1ecd;" horiz-adv-x="654" 
d="M157.5 22q-61.5 30 -95 84.5t-33.5 126.5q0 89 42 160t116 112t167 41q82 0 143 -30t94.5 -84.5t33.5 -126.5q0 -89 -41.5 -160t-116 -112t-167.5 -41q-81 0 -142.5 30zM391 143.5q36 22.5 56 62.5t20 92q0 55 -32 87t-90 32q-46 0 -82 -22.5t-56 -62.5t-20 -92
q0 -55 32.5 -87t90.5 -32q45 0 81 22.5zM189.5 -193q-17.5 17 -17.5 45q0 31 23 53t53 22q27 0 45.5 -17t18.5 -43q0 -35 -21.5 -56t-54.5 -21q-29 0 -46.5 17z" />
    <glyph glyph-name="ograve" unicode="&#xf2;" horiz-adv-x="654" 
d="M157.5 22q-61.5 30 -95 84.5t-33.5 126.5q0 89 42 160t116 112t167 41q82 0 143 -30t94.5 -84.5t33.5 -126.5q0 -89 -41.5 -160t-116 -112t-167.5 -41q-81 0 -142.5 30zM391 143.5q36 22.5 56 62.5t20 92q0 55 -32 87t-90 32q-46 0 -82 -22.5t-56 -62.5t-20 -92
q0 -55 32.5 -87t90.5 -32q45 0 81 22.5zM209 751h167l106 -144h-121z" />
    <glyph glyph-name="uni1ECF" unicode="&#x1ecf;" horiz-adv-x="654" 
d="M157.5 22q-61.5 30 -95 84.5t-33.5 126.5q0 89 42 160t116 112t167 41q82 0 143 -30t94.5 -84.5t33.5 -126.5q0 -89 -41.5 -160t-116 -112t-167.5 -41q-81 0 -142.5 30zM391 143.5q36 22.5 56 62.5t20 92q0 55 -32 87t-90 32q-46 0 -82 -22.5t-56 -62.5t-20 -92
q0 -55 32.5 -87t90.5 -32q45 0 81 22.5zM385 649q60 25 60 67q0 17 -11.5 27t-30.5 10q-30 0 -60 -20l-27 64q46 33 113 33q50 0 79 -25t29 -68q0 -92 -111 -141z" />
    <glyph glyph-name="ohorn" unicode="&#x1a1;" horiz-adv-x="654" 
d="M655 501.5q-28 -38.5 -77 -54.5q46 -57 46 -142q0 -89 -41.5 -160t-115.5 -112t-167 -41q-81 0 -142.5 30t-95 84.5t-33.5 126.5q0 89 41.5 160t116 112t167.5 41q34 0 96 -5q42 -4 61 -4q27 0 47.5 18t20.5 47q0 31 -20 60l92 34q32 -43 32 -100q0 -56 -28 -94.5z
M391 143.5q36 22.5 56 62.5t20 92q0 55 -32 87t-90 32q-46 0 -82 -22.5t-56 -62.5t-20 -92q0 -55 32.5 -87t90.5 -32q45 0 81 22.5z" />
    <glyph glyph-name="uni1EDB" unicode="&#x1edb;" horiz-adv-x="654" 
d="M655 501.5q-28 -38.5 -77 -54.5q46 -57 46 -142q0 -89 -41.5 -160t-115.5 -112t-167 -41q-81 0 -142.5 30t-95 84.5t-33.5 126.5q0 89 41.5 160t116 112t167.5 41q34 0 96 -5q42 -4 61 -4q27 0 47.5 18t20.5 47q0 31 -20 60l92 34q32 -43 32 -100q0 -56 -28 -94.5z
M391 143.5q36 22.5 56 62.5t20 92q0 55 -32 87t-90 32q-46 0 -82 -22.5t-56 -62.5t-20 -92q0 -55 32.5 -87t90.5 -32q45 0 81 22.5zM449 751h172l-196 -144h-126z" />
    <glyph glyph-name="uni1EE3" unicode="&#x1ee3;" horiz-adv-x="654" 
d="M655 501.5q-28 -38.5 -77 -54.5q46 -57 46 -142q0 -89 -41.5 -160t-115.5 -112t-167 -41q-81 0 -142.5 30t-95 84.5t-33.5 126.5q0 89 41.5 160t116 112t167.5 41q34 0 96 -5q42 -4 61 -4q27 0 47.5 18t20.5 47q0 31 -20 60l92 34q32 -43 32 -100q0 -56 -28 -94.5z
M391 143.5q36 22.5 56 62.5t20 92q0 55 -32 87t-90 32q-46 0 -82 -22.5t-56 -62.5t-20 -92q0 -55 32.5 -87t90.5 -32q45 0 81 22.5zM189.5 -193q-17.5 17 -17.5 45q0 31 23 53t53 22q27 0 45.5 -17t18.5 -43q0 -35 -21.5 -56t-54.5 -21q-29 0 -46.5 17z" />
    <glyph glyph-name="uni1EDD" unicode="&#x1edd;" horiz-adv-x="654" 
d="M655 501.5q-28 -38.5 -77 -54.5q46 -57 46 -142q0 -89 -41.5 -160t-115.5 -112t-167 -41q-81 0 -142.5 30t-95 84.5t-33.5 126.5q0 89 41.5 160t116 112t167.5 41q34 0 96 -5q42 -4 61 -4q27 0 47.5 18t20.5 47q0 31 -20 60l92 34q32 -43 32 -100q0 -56 -28 -94.5z
M391 143.5q36 22.5 56 62.5t20 92q0 55 -32 87t-90 32q-46 0 -82 -22.5t-56 -62.5t-20 -92q0 -55 32.5 -87t90.5 -32q45 0 81 22.5zM209 751h167l106 -144h-121z" />
    <glyph glyph-name="uni1EDF" unicode="&#x1edf;" horiz-adv-x="650" 
d="M655 501.5q-28 -38.5 -77 -54.5q46 -57 46 -142q0 -89 -41.5 -160t-115.5 -112t-167 -41q-81 0 -142.5 30t-95 84.5t-33.5 126.5q0 89 41.5 160t116 112t167.5 41q34 0 96 -5q42 -4 61 -4q27 0 47.5 18t20.5 47q0 31 -20 60l92 34q32 -43 32 -100q0 -56 -28 -94.5z
M391 143.5q36 22.5 56 62.5t20 92q0 55 -32 87t-90 32q-46 0 -82 -22.5t-56 -62.5t-20 -92q0 -55 32.5 -87t90.5 -32q45 0 81 22.5zM375 649q60 25 60 67q0 17 -11.5 27t-30.5 10q-30 0 -60 -20l-27 64q46 33 113 33q50 0 79 -25t29 -68q0 -92 -111 -141z" />
    <glyph glyph-name="uni1EE1" unicode="&#x1ee1;" horiz-adv-x="650" 
d="M655 501.5q-28 -38.5 -77 -54.5q46 -57 46 -142q0 -89 -41.5 -160t-115.5 -112t-167 -41q-81 0 -142.5 30t-95 84.5t-33.5 126.5q0 89 41.5 160t116 112t167.5 41q34 0 96 -5q42 -4 61 -4q27 0 47.5 18t20.5 47q0 31 -20 60l92 34q32 -43 32 -100q0 -56 -28 -94.5z
M391 143.5q36 22.5 56 62.5t20 92q0 55 -32 87t-90 32q-46 0 -82 -22.5t-56 -62.5t-20 -92q0 -55 32.5 -87t90.5 -32q45 0 81 22.5zM401 614.5q-17 10.5 -38 30.5q-13 13 -20.5 18.5t-16.5 5.5q-15 0 -25 -15t-14 -43h-78q8 72 38.5 109t79.5 37q25 0 42.5 -11t35.5 -30
q13 -13 20.5 -18.5t16.5 -5.5q16 0 26.5 14.5t13.5 40.5h77q-7 -70 -37 -106.5t-79 -36.5q-25 0 -42 10.5z" />
    </font>
</defs>
</svg>
