<?xml version="1.0" standalone="no"?>
<!DOCTYPE svg PUBLIC "-//W3C//DTD SVG 1.1//EN" "http://www.w3.org/Graphics/SVG/1.1/DTD/svg11.dtd" >
<svg xmlns="http://www.w3.org/2000/svg" xmlns:xlink="http://www.w3.org/1999/xlink" version="1.1">
<metadata>
Created by FontForge 20170731 at Tue Mar 19 18:39:57 2019
 By Aleksey,,,
Copyright 2017 The Playfair Display Project Authors (https://github.com/clauseggers/Playfair-Display), with Reserved Font Name "Playfair Display".
</metadata>
<defs>
<font id="PlayfairDisplay-Bold" horiz-adv-x="0" >
  <font-face 
    font-family="Playfair Display"
    font-weight="700"
    font-stretch="normal"
    units-per-em="1000"
    panose-1="0 0 0 0 0 0 0 0 0 0"
    ascent="800"
    descent="-200"
    x-height="517"
    cap-height="708"
    bbox="-270 -243 1266 1162.23"
    underline-thickness="20"
    underline-position="-130"
    unicode-range="U+000D-FB02"
  />
<missing-glyph horiz-adv-x="562" 
d="M502 772v-772h-442v772h442zM466 742h-370v-712h370v712z" />
    <glyph glyph-name="IJ" unicode="IJ" horiz-adv-x="738" 
d="M343 708v-20q-32 -1 -48.5 -7.5t-21.5 -24t-5 -54.5v-496q0 -36 5.5 -54t21.5 -24t48 -8v-20q-27 2 -68 2.5t-83 0.5q-49 0 -90.5 -0.5t-67.5 -2.5v20q32 2 48 8t21.5 24t5.5 54v496q0 37 -5.5 54.5t-22 24t-47.5 7.5v20q26 -1 67.5 -2t90.5 -1q42 0 83 1t68 2zM350 -188
v20q40 4 68 23.5t43 66.5t15 132v548q0 37 -5.5 54.5t-21.5 24t-48 7.5v20q25 -1 65.5 -2t85.5 -1t87.5 1t70.5 2v-20q-31 -1 -47.5 -7.5t-22 -24t-5.5 -54.5v-366v-88.5t-3.5 -92.5t-13.5 -80q-20 -69 -86.5 -116t-181.5 -47z" />
    <glyph glyph-name="ij" unicode="ij" horiz-adv-x="591" 
d="M522 528v-432q0 -88 -20.5 -152t-71 -98t-140.5 -34q-54 0 -89.5 17t-35.5 55q0 25 20.5 43t61.5 18q34 0 57.5 -14.5t23.5 -42.5q0 -21 -15 -35.5t-39 -22.5q7 -1 12 -1h9q46 0 64.5 30t18.5 96v127q-22 -47 -63 -71.5t-98 -24.5q-42 0 -68 11t-41 28q-17 19 -24 50
t-7 80v253q0 45 -13.5 66.5t-50.5 21.5v21q32 -3 62 -3q42 0 78.5 3.5t67.5 10.5v-414q0 -25 4.5 -44t17.5 -29.5t38 -10.5q41 0 69 33.5t28 82.5v262q0 45 -13.5 66.5t-50.5 21.5v21q32 -3 62 -3q42 0 78.5 3.5t67.5 10.5zM140 775q41 0 66 -20.5t25 -56.5t-25 -56.5
t-66 -20.5q-42 0 -66.5 20.5t-24.5 56.5t24.5 56.5t66.5 20.5zM443 775q41 0 66 -20.5t25 -56.5t-25 -56.5t-66 -20.5q-42 0 -66.5 20.5t-24.5 56.5t24.5 56.5t66.5 20.5z" />
    <glyph glyph-name="fi" unicode="fi" horiz-adv-x="651" 
d="M376 782q63 0 99 -10t61 -26q17 -10 29 -28t12 -40q0 -35 -24 -56t-70 -21q-44 0 -69 20.5t-25 55.5q0 55 66 74q-10 6 -27.5 9.5t-37.5 3.5q-46 0 -77.5 -20t-50.5 -54q-14 -25 -20.5 -63t-6.5 -111h119q52 0 89 1t66.5 3.5t58.5 7.5v-435q0 -42 16 -57t54 -15v-21
q-20 1 -59.5 2.5t-79.5 1.5q-39 0 -79 -1.5t-60 -2.5v21q35 0 49.5 15t14.5 57v315q0 45 -15 66.5t-55 21.5h-119v-403q0 -43 21 -57.5t59 -14.5v-21q-23 1 -64.5 2.5t-84.5 1.5q-44 0 -84 -1.5t-61 -2.5v21q38 0 54 15t16 57v403h-74v20h74q0 63 20 112.5t59 86.5
q36 33 90.5 50t115.5 17z" />
    <glyph glyph-name="fl" unicode="fl" horiz-adv-x="654" 
d="M568 784v-691q0 -42 16 -57t54 -15v-21q-20 1 -59.5 2.5t-79.5 1.5q-39 0 -79 -1.5t-60 -2.5v21q35 0 49.5 15t14.5 57v583q0 26 -5 41t-14 24q-10 11 -27 17t-34 6q-28 0 -46.5 -9t-31.5 -25q-21 -23 -26 -60t-5 -99v-55h105v-20h-105v-403q0 -43 21 -57.5t59 -14.5v-21
q-23 1 -64.5 2.5t-84.5 1.5q-44 0 -84 -1.5t-61 -2.5v21q38 0 54 15t16 57v403h-74v20h74q0 76 17 127t55 85q35 29 78.5 41.5t86.5 12.5q33 0 66 -4t72 -4q21 0 49.5 3t52.5 7z" />
    <glyph glyph-name="f_f" unicode="ff" horiz-adv-x="679" 
d="M318 742q55 0 98 -25t58 -73l-18 -9q-11 37 -43.5 61t-78.5 24q-51 0 -75 -31.5t-24 -100.5v-72h133v-20h-133v-403q0 -42 14.5 -57t49.5 -15v-21q-20 1 -56.5 2.5t-75.5 1.5q-41 0 -83 -1.5t-63 -2.5v21q38 0 54 15t16 57v403h-74v20h74q0 54 16.5 97.5t47.5 72.5
q28 25 69.5 40.5t93.5 15.5zM616 782q35 0 61 -9t45 -24q15 -11 25 -30.5t10 -44.5q0 -27 -20 -48t-51 -21q-33 0 -54.5 19t-21.5 52q0 26 15 46t43 28q-3 6 -12 10t-24 4q-19 0 -32 -7t-22 -19q-10 -15 -14 -43.5t-4 -87.5v-91h107v-20h-107v-393q0 -49 25 -65.5t69 -16.5
v-21q-26 1 -73 2.5t-99 1.5q-38 0 -75 -1.5t-55 -2.5v21q35 0 49.5 15t14.5 57v403h-68v20h68q0 89 14 135.5t49 80.5q21 21 57.5 35.5t79.5 14.5z" />
    <glyph glyph-name="f_f_i" unicode="ffi" horiz-adv-x="987" 
d="M721 782q54 0 90.5 -10.5t62.5 -26.5q17 -10 28 -27t11 -40q0 -35 -24 -56t-70 -21q-44 0 -69 20.5t-25 55.5q0 55 66 74q-9 6 -27 9.5t-37 3.5q-40 0 -68 -15.5t-45 -36.5q-18 -20 -27 -45t-12 -61t-3 -90h119q52 0 88.5 1t66 3.5t59.5 7.5v-435q0 -42 16 -57t54 -15
v-21q-20 1 -59.5 2.5t-79.5 1.5t-79.5 -1.5t-59.5 -2.5v21q35 0 49.5 15t14.5 57v315q0 45 -15 66.5t-55 21.5h-119v-403q0 -43 21 -57.5t59 -14.5v-21q-23 1 -64.5 2.5t-84.5 1.5q-45 0 -85 -1.5t-60 -2.5v21q38 0 54 15t16 57v403h-74v20h74q0 63 19.5 112.5t59.5 86.5
q36 32 91.5 49.5t122.5 17.5zM334 748q61 0 101.5 -20t69.5 -54l-14 -14q-19 25 -54.5 45.5t-86.5 20.5q-57 0 -86 -33.5t-29 -110.5v-66h133v-20h-133v-403q0 -42 14.5 -57t49.5 -15v-21q-20 1 -56.5 2.5t-75.5 1.5q-41 0 -83 -1.5t-63 -2.5v21q38 0 54 15t16 57v403h-74
v20h74q0 54 17 97.5t49 72.5q31 31 76.5 46.5t100.5 15.5z" />
    <glyph glyph-name="f_f_l" unicode="ffl" horiz-adv-x="991" 
d="M905 784v-691q0 -42 16 -57t54 -15v-21q-20 1 -59.5 2.5t-79.5 1.5t-79.5 -1.5t-59.5 -2.5v21q35 0 49.5 15t14.5 57v583q0 26 -5 41t-15 24q-10 11 -26.5 17t-33.5 6q-29 0 -47 -9t-32 -25q-20 -23 -25 -59t-5 -97v-58h105v-20h-105v-403q0 -43 21 -57.5t59 -14.5v-21
q-23 1 -64.5 2.5t-84.5 1.5q-45 0 -85 -1.5t-60 -2.5v21q38 0 54 15t16 57v403h-74v20h74q0 76 16.5 127t55.5 85q35 29 78.5 41.5t86.5 12.5q32 0 65.5 -4t70.5 -4q23 0 51 3t53 7zM334 748q61 0 101.5 -20t69.5 -54l-14 -14q-19 25 -54.5 45.5t-86.5 20.5q-57 0 -86 -33.5
t-29 -110.5v-66h133v-20h-133v-403q0 -42 14.5 -57t49.5 -15v-21q-19 1 -56 2.5t-76 1.5q-41 0 -83 -1.5t-63 -2.5v21q38 0 54 15t16 57v403h-74v20h74q0 54 17 97.5t49 72.5q31 31 76.5 46.5t100.5 15.5z" />
    <glyph glyph-name="f_b.liga" unicode="fb" horiz-adv-x="932" 
d="M560 784v-764q-25 4 -51 0t-48 -13.5t-37 -22.5l-15 9q5 14 6 28t1 28v627q0 26 -5 41t-14 24q-10 11 -25.5 17t-31.5 6q-27 0 -44 -8.5t-31 -24.5q-21 -23 -25.5 -60.5t-4.5 -97.5v-57h105v-20h-105v-403q0 -43 21 -57.5t59 -14.5v-21q-23 1 -64.5 2.5t-84.5 1.5
q-44 0 -84 -1.5t-61 -2.5v21q38 0 54 15t16 57v403h-74v20h74q0 76 17 127t55 85q34 29 77 41.5t85 12.5q32 0 64 -3.5t72 -3.5q20 0 48 2.5t51 6.5zM714 531q77 0 128.5 -63.5t51.5 -195.5q0 -104 -31.5 -167t-83.5 -91t-114 -28q-40 0 -75.5 14t-60.5 46l15 5
q17 -22 41.5 -33t48.5 -11q55 0 82 62t27 189q0 86 -10.5 136.5t-30.5 72t-48 21.5q-35 0 -64 -28.5t-33 -79.5l-5 35q19 57 61.5 86.5t100.5 29.5z" />
    <glyph glyph-name="f_f_b.liga" unicode="ffb" horiz-adv-x="1269" 
d="M897 784v-764q-25 4 -51.5 0t-48.5 -13.5t-36 -22.5l-15 9q4 14 5.5 28t1.5 28v627q0 26 -5.5 41t-14.5 24q-9 11 -24.5 17t-32.5 6q-26 0 -43.5 -8.5t-30.5 -24.5q-21 -24 -25.5 -62.5t-4.5 -100.5v-52h105v-20h-105v-403q0 -43 21 -57.5t59 -14.5v-21q-23 1 -64.5 2.5
t-84.5 1.5q-45 0 -85 -1.5t-60 -2.5v21q38 0 54 15t16 57v403h-74v20h74q0 76 16.5 127t55.5 85q34 29 76.5 41.5t85.5 12.5q31 0 63 -3.5t72 -3.5q21 0 48.5 2.5t51.5 6.5zM334 748q61 0 101.5 -20t69.5 -54l-14 -14q-19 25 -54.5 45.5t-86.5 20.5q-54 0 -81.5 -33.5
t-27.5 -110.5v-66h127v-20h-127v-403q0 -42 14.5 -57t49.5 -15v-21q-20 1 -59 2.5t-79 1.5q-41 0 -83 -1.5t-63 -2.5v21q38 0 54 15t16 57v403h-74v20h74q0 54 17 97.5t49 72.5q31 31 76.5 46.5t100.5 15.5zM1050 531q77 0 129 -63.5t52 -195.5q0 -104 -32 -167t-84 -91
t-113 -28q-41 0 -76.5 14t-59.5 46l14 5q18 -22 42.5 -33t48.5 -11q55 0 82 62t27 189q0 86 -11 136.5t-30.5 72t-47.5 21.5q-36 0 -65 -28.5t-32 -79.5l-5 35q18 57 61 86.5t100 29.5z" />
    <glyph glyph-name="f_f_h.liga" unicode="ffh" horiz-adv-x="1278" 
d="M897 784v-346q24 52 67 72.5t96 20.5q43 0 69 -10.5t41 -28.5q17 -19 24.5 -49t7.5 -81v-269q0 -42 14.5 -57t49.5 -15v-21q-19 1 -57.5 2.5t-74.5 1.5q-39 0 -75.5 -1.5t-54.5 -2.5v21q30 0 42 15t12 57v311q0 25 -5 43.5t-18.5 29t-38.5 10.5q-41 0 -70 -32t-29 -83
v-279q0 -42 12 -57t42 -15v-21q-18 1 -53 2.5t-71 1.5q-39 0 -78.5 -1.5t-59.5 -2.5v21q35 0 49.5 15t14.5 57v583q0 26 -5.5 41t-14.5 24q-9 11 -24.5 17t-32.5 6q-26 0 -43.5 -8.5t-30.5 -24.5q-20 -23 -25 -59.5t-5 -94.5v-61h105v-20h-105v-403q0 -43 21 -57.5t59 -14.5
v-21q-23 1 -64.5 2.5t-84.5 1.5q-45 0 -85 -1.5t-60 -2.5v21q38 0 54 15t16 57v403h-74v20h74q0 76 16.5 127t55.5 85q34 29 76.5 41.5t85.5 12.5q31 0 63 -3.5t72 -3.5q21 0 48.5 2.5t51.5 6.5zM334 748q61 0 101.5 -20t69.5 -54l-14 -14q-19 25 -54.5 45.5t-86.5 20.5
q-57 0 -86 -33.5t-29 -110.5v-66h133v-20h-133v-403q0 -42 14.5 -57t49.5 -15v-21q-20 1 -56.5 2.5t-75.5 1.5q-41 0 -83 -1.5t-63 -2.5v21q38 0 54 15t16 57v403h-74v20h74q0 54 17 97.5t49 72.5q31 31 76.5 46.5t100.5 15.5z" />
    <glyph glyph-name="f_f_j.liga" unicode="ffj" horiz-adv-x="971" 
d="M713 782q62 0 98 -10t62 -26q16 -10 28 -28t12 -40q0 -35 -24 -56t-70 -21q-44 0 -69 20.5t-25 55.5q0 55 66 74q-9 6 -27 9.5t-37 3.5q-47 0 -78.5 -20t-49.5 -54q-14 -25 -20.5 -63t-6.5 -111h119q52 0 88.5 1t66 3.5t59.5 7.5v-434q0 -80 -14 -134.5t-50 -93.5
q-23 -25 -61 -39.5t-103 -14.5q-25 0 -46 4t-34 8q-22 9 -34.5 23.5t-12.5 32.5q0 24 20.5 43.5t60.5 19.5q35 0 58 -15.5t23 -41.5q0 -18 -12.5 -32t-34.5 -22q11 0 20.5 1t15.5 4q19 2 30.5 13t18.5 28q6 14 8 38.5t2.5 53t0.5 52.5v386q0 45 -15 66.5t-55 21.5h-119v-399
q0 -45 23 -60.5t65 -15.5v-21q-25 1 -68.5 2.5t-90.5 1.5q-43 0 -83 -1.5t-60 -2.5v21q38 0 54 15t16 57v403h-74v20h74q0 63 19.5 112.5t59.5 86.5q35 33 90 50t116 17zM334 748q61 0 101.5 -20t69.5 -54l-14 -14q-19 25 -54.5 45.5t-86.5 20.5q-54 0 -81.5 -33.5
t-27.5 -110.5v-66h127v-20h-127v-403q0 -42 14.5 -57t49.5 -15v-21q-20 1 -59 2.5t-79 1.5q-41 0 -83 -1.5t-63 -2.5v21q38 0 54 15t16 57v403h-74v20h74q0 54 17.5 97t48.5 73t76.5 46t100.5 16z" />
    <glyph glyph-name="f_f_k.liga" unicode="ffk" horiz-adv-x="1255" 
d="M897 784v-691q0 -42 15 -57t51 -15v-21q-20 1 -58 2.5t-78 1.5q-39 0 -78.5 -1.5t-59.5 -2.5v21q35 0 49.5 15t14.5 57v583q0 26 -5.5 41t-14.5 24q-9 11 -24.5 17t-32.5 6q-26 0 -43.5 -8.5t-30.5 -24.5q-21 -23 -25.5 -60.5t-4.5 -97.5v-57h105v-20h-105v-403
q0 -43 21 -57.5t59 -14.5v-21q-23 1 -64.5 2.5t-84.5 1.5q-45 0 -85 -1.5t-60 -2.5v21q38 0 54 15t16 57v403h-74v20h74q0 76 16.5 127t55.5 85q34 29 76.5 41.5t85.5 12.5q31 0 63 -3.5t72 -3.5q21 0 48.5 2.5t51.5 6.5zM334 748q61 0 101.5 -20t69.5 -54l-14 -14
q-19 25 -54.5 45.5t-86.5 20.5q-54 0 -81.5 -33.5t-27.5 -110.5v-66h127v-20h-127v-403q0 -42 14.5 -57t49.5 -15v-21q-20 1 -59 2.5t-79 1.5q-41 0 -83 -1.5t-63 -2.5v21q38 0 54 15t16 57v403h-74v20h74q0 54 17 97.5t49 72.5q31 31 76.5 46.5t100.5 15.5zM1223 517v-20
q-32 -6 -63 -26t-62 -51l-77 -80l10 19l171 -286q11 -18 22.5 -32t29.5 -20v-21q-15 1 -45 2.5t-60 1.5q-37 0 -74 -1.5t-55 -2.5v21q20 0 27 9.5t-2 24.5l-99 179q-12 19 -23.5 24.5t-30.5 6.5v19q21 2 36.5 7t28.5 19l76 74q33 32 33.5 57t-21 40t-56.5 16v20q28 -1 61 -2
t56 -1q19 0 42 0.5t43 1t32 1.5z" />
    <glyph glyph-name="f_h.liga" unicode="fh" horiz-adv-x="942" 
d="M560 784v-346q25 52 68 72.5t95 20.5q43 0 69 -10.5t42 -28.5q16 -19 23.5 -49t7.5 -81v-269q0 -42 14.5 -57t49.5 -15v-21q-19 1 -57 2.5t-75 1.5q-38 0 -75 -1.5t-55 -2.5v21q30 0 42 15t12 57v311q0 25 -5 43.5t-18.5 29t-38.5 10.5q-41 0 -70 -32t-29 -83v-279
q0 -42 12.5 -57t41.5 -15v-21q-18 1 -52.5 2.5t-71.5 1.5q-38 0 -78 -1.5t-60 -2.5v21q35 0 49.5 15t14.5 57v583q0 26 -5 41t-14 24q-10 11 -25.5 17t-31.5 6q-27 0 -44 -8.5t-31 -24.5q-21 -24 -25.5 -62t-4.5 -101v-52h105v-20h-105v-403q0 -43 21 -57.5t59 -14.5v-21
q-23 1 -64.5 2.5t-84.5 1.5q-44 0 -84 -1.5t-61 -2.5v21q38 0 54 15t16 57v403h-74v20h74q0 76 17 127t55 85q34 29 77 41.5t85 12.5q32 0 64 -3.5t72 -3.5q20 0 48 2.5t51 6.5z" />
    <glyph glyph-name="f_idieresis.liga" unicode="f&#xef;" horiz-adv-x="651" 
d="M309 782q55 0 86.5 -14t45.5 -36t14 -47l-32 6q-4 38 -33 55.5t-71 17.5q-46 0 -63 -25.5t-19 -89.5q-1 -17 -1.5 -40t-0.5 -47v-46h119q52 0 89 1t66.5 3.5t58.5 7.5v-435q0 -42 16 -57t54 -15v-21q-20 1 -59.5 2.5t-79.5 1.5q-39 0 -79 -1.5t-60 -2.5v21q35 0 49.5 15
t14.5 57v315q0 45 -14.5 66.5t-55.5 21.5h-119v-403q0 -43 21 -57.5t59 -14.5v-21q-23 1 -64.5 2.5t-84.5 1.5q-44 0 -84.5 -1.5t-60.5 -2.5v21q38 0 54 15t16 57v403h-74v20h74q0 74 13 123t45 83q32 32 73 46t87 14zM607 760q30 0 52.5 -22.5t22.5 -52.5q0 -31 -22.5 -53
t-52.5 -22q-31 0 -53.5 22t-22.5 53q0 30 22.5 52.5t53.5 22.5zM379 760q30 0 53 -22.5t23 -52.5q0 -31 -23 -53t-53 -22q-31 0 -53 22t-22 53q0 30 22 52.5t53 22.5z" />
    <glyph glyph-name="f_igrave.liga" unicode="f&#xec;" horiz-adv-x="651" 
d="M289 760q39 0 68.5 -12t54.5 -31v-21q-28 21 -49.5 31.5t-48.5 10.5q-41 0 -61 -35q-9 -15 -13.5 -38.5t-4.5 -60.5v-88h119q52 0 89 1t66.5 3.5t58.5 7.5v-435q0 -42 16 -57t54 -15v-21q-20 1 -59.5 2.5t-79.5 1.5q-39 0 -79 -1.5t-60 -2.5v21q35 0 49.5 15t14.5 57v315
q0 45 -15 66.5t-55 21.5h-119v-403q0 -43 21 -57.5t59 -14.5v-21q-23 1 -64.5 2.5t-84.5 1.5q-44 0 -84 -1.5t-61 -2.5v21q38 0 54 15t16 57v403h-74v20h74q0 64 12.5 113t46.5 82q30 30 66.5 39.5t72.5 9.5zM366 817q18 16 42.5 12t40.5 -23t26 -45t24.5 -62.5t43.5 -90.5
l-11 -9q-44 41 -75.5 64t-54 39t-39.5 36q-16 20 -15 42.5t18 36.5z" />
    <glyph glyph-name="f_j.liga" unicode="fj" horiz-adv-x="634" 
d="M376 782q63 0 99 -10t61 -26q17 -10 29 -28t12 -40q0 -35 -24 -56t-70 -21q-44 0 -69 20.5t-25 55.5q0 55 66 74q-10 6 -27.5 9.5t-37.5 3.5q-46 0 -77.5 -20t-50.5 -54q-14 -25 -20.5 -63t-6.5 -111h119q52 0 89 1t66.5 3.5t58.5 7.5v-434q0 -80 -13.5 -134.5
t-50.5 -93.5q-23 -25 -61 -39.5t-102 -14.5q-26 0 -47 4t-34 8q-22 9 -34 23.5t-12 32.5q0 24 20.5 43.5t60.5 19.5q34 0 57 -15.5t23 -41.5q0 -18 -12.5 -32t-33.5 -22q10 0 19 1t15 3q19 2 31 13t19 29q6 13 8 37.5t2.5 53.5t0.5 53v386q0 45 -15 66.5t-55 21.5h-119v-399
q0 -45 23.5 -60.5t64.5 -15.5v-21q-24 1 -67.5 2.5t-90.5 1.5q-43 0 -83 -1.5t-61 -2.5v21q38 0 54 15t16 57v403h-74v20h74q0 63 20 112.5t59 86.5q36 33 90.5 50t115.5 17z" />
    <glyph glyph-name="f_k.liga" unicode="fk" horiz-adv-x="918" 
d="M560 784v-691q0 -42 15 -57t51 -15v-21q-20 1 -58 2.5t-77 1.5t-79 -1.5t-60 -2.5v21q35 0 49.5 15t14.5 57v583q0 26 -5 41t-14 24q-10 11 -25.5 17t-31.5 6q-27 0 -44 -8.5t-31 -24.5q-21 -23 -25.5 -61t-4.5 -100v-54h105v-20h-105v-403q0 -43 21 -57.5t59 -14.5v-21
q-23 1 -64.5 2.5t-84.5 1.5q-44 0 -84 -1.5t-61 -2.5v21q38 0 54 15t16 57v403h-74v20h74q0 76 17 127t55 85q34 29 77 41.5t85 12.5q32 0 64 -3.5t72 -3.5q20 0 48 2.5t51 6.5zM886 517v-20q-31 -6 -62 -26t-62 -51l-78 -80l10 19l171 -286q12 -18 23.5 -32t28.5 -20v-21
q-15 1 -45 2.5t-60 1.5q-36 0 -73.5 -1.5t-55.5 -2.5v21q20 0 27 9.5t-2 24.5l-99 179q-12 19 -23.5 24.5t-30.5 6.5v19q22 2 37 7t28 19l76 74q34 32 34 57t-21.5 40t-56.5 16v20q28 -1 61 -2t56 -1q20 0 42.5 0.5t43 1t31.5 1.5z" />
    <glyph glyph-name=".notdef" horiz-adv-x="562" 
d="M502 772v-772h-442v772h442zM466 742h-370v-712h370v712z" />
    <glyph glyph-name=".null" 
 />
    <glyph glyph-name="nonmarkingreturn" horiz-adv-x="333" 
 />
    <glyph glyph-name="CR" unicode="&#xd;" 
 />
    <glyph glyph-name="space" unicode=" " horiz-adv-x="233" 
 />
    <glyph glyph-name="exclam" unicode="!" horiz-adv-x="288" 
d="M144 782q32 0 57 -25.5t25 -72.5q0 -43 -10 -97t-24 -116.5t-25 -131.5t-14 -143v0h-18q-2 74 -13.5 143t-25 131.5t-24 116.5t-10.5 97q0 47 23.5 72.5t58.5 25.5zM144 140q39 0 62 -20.5t23 -56.5t-23 -56.5t-62 -20.5t-62 20.5t-23 56.5t23 56.5t62 20.5z" />
    <glyph glyph-name="quotedbl" unicode="&#x22;" horiz-adv-x="369" 
d="M105 730q27 0 45 -17.5t18 -48.5q0 -30 -8.5 -56t-21 -58t-26.5 -82h-14q-13 48 -26.5 80t-21.5 58.5t-8 56.5q0 31 18 49t45 18zM266 730q27 0 45 -17.5t18 -48.5q0 -30 -8.5 -56t-21 -58t-26.5 -82h-14q-13 48 -26.5 80t-21.5 58.5t-8 56.5q0 31 18 49t45 18z" />
    <glyph glyph-name="numbersign" unicode="#" horiz-adv-x="620" 
d="M463 602l-97 -501h-20l97 501h20zM545 267l-4 -20h-501l4 20h501zM276 602l-97 -501h-20l97 501h20zM581 454l-3 -20h-501l3 20h501z" />
    <glyph glyph-name="dollar" unicode="$" horiz-adv-x="574" 
d="M279 721q59 0 91 -12.5t55 -26.5q12 -7 19.5 -10.5t14.5 -3.5q16 0 22 44h23q-1 -19 -2.5 -45.5t-2 -69.5t-0.5 -113h-23q-7 62 -26.5 110.5t-56.5 76.5t-98 28q-60 0 -90 -26.5t-30 -67.5q0 -23 7.5 -42.5t28 -40.5t59 -49t99.5 -67q48 -30 86 -61.5t60.5 -70.5
t22.5 -93q0 -66 -34 -109t-90.5 -64.5t-123.5 -21.5q-62 0 -97 13t-56 23q-13 7 -23 11t-19 4q-16 0 -22 -44h-23q2 24 2.5 56t1 83.5t0.5 130.5h23q7 -91 29.5 -147t66 -82t113.5 -26t102.5 28t32.5 75q0 21 -7 40t-27 39.5t-57 48.5t-97 69q-47 30 -88 62t-65.5 72.5
t-24.5 95.5q0 63 31.5 103.5t83 60t109.5 19.5zM256 840v-972h-20v972h20zM353 840v-972h-20v972h20z" />
    <glyph glyph-name="percent" unicode="%" horiz-adv-x="728" 
d="M196 761q72 0 117 -43t45 -120q0 -76 -46 -122t-116 -46q-72 0 -117.5 43t-45.5 120q0 75 47 121.5t116 46.5zM530 299q-65 0 -65 -149q0 -73 18.5 -109.5t50.5 -36.5q64 0 64 148q0 74 -18 110.5t-50 36.5zM532 317q72 0 117 -43t45 -120q0 -76 -46 -122t-116 -46
q-72 0 -117.5 43t-45.5 120q0 75 47 121.5t116 46.5zM194 743q-65 0 -65 -149q0 -73 18.5 -109.5t50.5 -36.5q64 0 64 148q0 74 -18 110.5t-50 36.5zM652 824l19 -13l-585 -866l-19 13z" />
    <glyph glyph-name="ampersand" unicode="&#x26;" horiz-adv-x="898" 
d="M330 710q39 0 63 -5.5t41 -15.5q23 -11 42 -31t19 -50t-23 -48t-54 -18q-30 0 -51.5 15t-21.5 47q0 25 18 45.5t46 25.5q-7 8 -25.5 13t-40.5 5q-52 0 -88.5 -32.5t-36.5 -98.5q0 -23 8 -49t31 -53q17 4 31.5 6t24.5 2q37 0 37 -27q0 -9 -8 -15t-20 -6q-17 0 -35 9.5
t-29 16.5q-47 -24 -76.5 -61.5t-29.5 -100.5q0 -66 36 -108.5t101.5 -64t154.5 -21.5q50 0 99 11t88.5 33t63.5 54.5t24 75.5q0 16 -4.5 40.5t-21.5 49t-56 40.5l7 9q54 -17 82 -64t28 -108q0 -70 -43 -125.5t-120.5 -87.5t-181.5 -32q-110 0 -193 30t-129 86t-46 133
q0 56 23.5 95.5t57.5 65t68 39.5t54 19q-47 19 -80 49.5t-33 76.5q0 32 17 56.5t45.5 40.5t64 24.5t72.5 8.5zM723 722q71 0 115 -37t44 -104q0 -77 -54.5 -117.5t-148.5 -60.5q-14 -5 -35 -11.5t-43 -12.5t-42.5 -12t-35.5 -10q-78 -17 -120 -38.5t-42 -58.5
q0 -25 16.5 -43t41.5 -28t50 -10q10 0 22.5 2.5t17.5 7.5q-25 8 -37.5 25.5t-12.5 40.5q0 32 23 49t57 17q36 0 56.5 -19t20.5 -49q0 -31 -19 -51.5t-51 -30t-72 -9.5q-39 0 -73.5 14t-55 42.5t-20.5 71.5q0 78 60 121t164 63q21 5 46.5 11.5t52.5 13.5t50 15
q72 18 111.5 40t39.5 59q0 41 -35.5 66t-77.5 25q-9 0 -16.5 -1t-12.5 -4q25 -9 37 -27t12 -36q0 -31 -23 -47.5t-57 -16.5t-56 17.5t-22 48.5q0 27 15.5 45.5t43.5 28.5t66 10z" />
    <glyph glyph-name="quotesingle" unicode="'" horiz-adv-x="209" 
d="M105 730q27 0 45 -17.5t18 -48.5q0 -30 -8.5 -56t-21 -58t-26.5 -82h-14q-13 48 -26.5 80t-21.5 58.5t-8 56.5q0 31 18 49t45 18z" />
    <glyph glyph-name="parenleft" unicode="(" horiz-adv-x="318" 
d="M285 806q-119 -88 -184.5 -209t-65.5 -285t65.5 -285t184.5 -209l15 12q-68 107 -97.5 222t-29.5 260q0 146 30 262t97 220z" />
    <glyph glyph-name="parenright" unicode=")" horiz-adv-x="318" 
d="M33 806q119 -88 184.5 -209t65.5 -285t-65.5 -285t-184.5 -209l-15 12q68 107 97.5 222t29.5 260q0 146 -30 262t-97 220z" />
    <glyph glyph-name="asterisk" unicode="*" horiz-adv-x="481" 
d="M352 639q26 15 44 7.5t27 -22.5q9 -16 6.5 -35t-28.5 -34q-25 -14 -63.5 -19.5t-96.5 -18.5l-1 3q37 42 62.5 73.5t49.5 45.5zM242 520q54 -12 94.5 -18t64.5 -20q26 -15 29 -34.5t-7 -34.5q-8 -16 -26 -23t-44 8q-25 14 -49 44.5t-64 74.5zM243 518q17 -53 32 -90.5
t15 -66.5q0 -30 -16 -42t-33 -12q-19 0 -33.5 12t-14.5 42q0 29 14 65t33 91zM240 518l2 -2q-38 -41 -63 -73t-49 -46q-26 -15 -44.5 -7.5t-27.5 22.5q-9 16 -6 35t29 34q25 14 63 20t96 17zM129 638q25 -14 49 -44.5t63 -74.5l-1 -3q-55 12 -95 18t-65 20q-25 15 -28 34.5
t6 34.5q9 16 27 23t44 -8zM241 729q18 0 33 -12t15 -42q0 -28 -14.5 -64.5t-32.5 -92.5h-3q-18 53 -32.5 91t-14.5 66q0 30 15.5 42t33.5 12z" />
    <glyph glyph-name="plus" unicode="+" horiz-adv-x="574" 
d="M305 606v-236h232v-30h-232v-235h-36v235h-233v30h233v236h36z" />
    <glyph glyph-name="comma" unicode="," horiz-adv-x="271" 
d="M131 140q25 0 43 -9t28 -26q11 -14 16.5 -37t5.5 -46q0 -50 -25.5 -92.5t-79.5 -67.5l-9 18q28 12 50 37t26 51q5 22 0 42q-22 -24 -58 -24q-35 0 -57 20.5t-22 56.5q0 35 23.5 56t58.5 21z" />
    <glyph glyph-name="hyphen" unicode="-" horiz-adv-x="481" 
d="M421 312v-83h-361v83h361z" />
    <glyph glyph-name="period" unicode="." horiz-adv-x="270" 
d="M135 140q39 0 62 -20.5t23 -56.5t-23 -56.5t-62 -20.5t-62 20.5t-23 56.5t23 56.5t62 20.5z" />
    <glyph glyph-name="slash" unicode="/" horiz-adv-x="368" 
d="M337 722l-272 -736h-33l272 736h33z" />
    <glyph glyph-name="zero" unicode="0" horiz-adv-x="645" 
d="M328 531q80 0 141 -32.5t96 -92t35 -139.5t-35.5 -143.5t-99 -100.5t-148.5 -37q-78 0 -139.5 33t-97 92.5t-35.5 139.5q0 79 35 142.5t99 100.5t149 37zM319 513q-54 0 -88.5 -68.5t-34.5 -190.5q0 -90 18 -145t47.5 -80t64.5 -25q54 0 88.5 69t34.5 191q0 90 -18 145
t-47.5 79.5t-64.5 24.5z" />
    <glyph glyph-name="one" unicode="1" horiz-adv-x="383" 
d="M282 528v-431q0 -44 16.5 -60t55.5 -16v-21q-20 1 -58.5 2.5t-79.5 1.5q-51 0 -98.5 -1.5t-73.5 -2.5v21q45 0 69.5 16.5t24.5 65.5v244q0 48 -8 71t-30 30t-60 7v22q86 2 142.5 13t99.5 38z" />
    <glyph glyph-name="two" unicode="2" horiz-adv-x="523" 
d="M275 531q77 0 122 -33t45 -94q0 -48 -30 -87t-74 -72t-89 -63.5t-75 -62.5h216q41 0 52 10t15 35h21q0 -67 1 -104t3 -65q-13 3 -58.5 4t-90.5 1h-291v19q28 30 69 66t80.5 80t66.5 95.5t27 110.5q0 54 -24 78t-69 24q-43 0 -75.5 -19.5t-58.5 -57.5l-17 10
q30 51 84.5 88t149.5 37z" />
    <glyph glyph-name="three" unicode="3" horiz-adv-x="488" 
d="M246 531q74 0 122.5 -30.5t48.5 -84.5q0 -38 -24.5 -71t-70 -57.5t-108.5 -36.5q68 3 122 -14t85.5 -51.5t31.5 -86.5q0 -58 -37.5 -104t-100 -78.5t-137.5 -50t-149 -17.5v20q47 1 95.5 16.5t89 44t65.5 71t25 97.5q0 59 -28 97t-77 42q-15 -7 -27 -11.5t-24 -4.5
q-19 0 -19 14q0 12 10 17t22 5q8 0 16.5 -1.5t18.5 -2.5q43 30 60 64.5t17 69.5q0 45 -23.5 66.5t-65.5 21.5q-39 0 -73 -19.5t-57 -58.5l-18 9q18 33 45 61.5t67 46t98 17.5z" />
    <glyph glyph-name="four" unicode="4" horiz-adv-x="528" 
d="M381 531l4 -26l-312 -400l14 34h318q41 0 52 10t15 35h21q0 -60 1 -93.5t3 -59.5q-9 2 -39 3t-67 1.5t-67 0.5h-316v21zM397 531v-672h-116v531l100 141h16z" />
    <glyph glyph-name="five" unicode="5" horiz-adv-x="459" 
d="M385 555q0 -66 1 -102.5t3 -65.5q-13 3 -55 4t-84 1h-154l-16 -171q24 17 61.5 28.5t89.5 11.5q101 0 148 -46t47 -112q0 -58 -34.5 -104t-92.5 -79t-128 -50.5t-141 -17.5v18q62 1 118 27t92.5 76.5t36.5 123.5q0 62 -29 96t-86 34q-29 0 -49.5 -7.5t-40.5 -21.5l-14 9
l32 313q11 -2 25.5 -3t28.5 -1h165q29 0 40.5 9t14.5 30h21z" />
    <glyph glyph-name="six" unicode="6" horiz-adv-x="561" 
d="M446 723l4 -20q-45 -14 -89.5 -38.5t-81 -71t-59 -125.5t-22.5 -203q0 -99 14.5 -155.5t36.5 -80t43 -23.5q34 0 61 48t27 161q0 108 -25 152t-60 44q-17 0 -38 -10t-39 -32t-26 -62l-9 4q6 48 29.5 76.5t56.5 40.5t66 12q54 0 98 -26t71 -74t27 -116q0 -77 -34 -130
t-91 -80.5t-124 -27.5q-110 0 -172.5 74.5t-62.5 210.5q0 90 26 160t69 121.5t95.5 86.5t107 55.5t101.5 28.5z" />
    <glyph glyph-name="seven" unicode="7" horiz-adv-x="455" 
d="M23 521q14 -3 59 -4t90 -1h282v-21q-19 -45 -48.5 -96.5t-59 -112t-49 -130t-19.5 -150.5q0 -6 1.5 -22t2.5 -32.5t1 -26.5q0 -28 -18 -50.5t-55 -22.5t-55 25t-18 63q0 55 20 109t52 106.5t69 102.5t72.5 96t61.5 87l-23 -46h-274q-41 0 -52 -10t-15 -35h-21
q0 66 -1 104.5t-3 66.5z" />
    <glyph glyph-name="eight" unicode="8" horiz-adv-x="561" 
d="M288 722q86 0 141 -38t55 -102q0 -54 -39.5 -93.5t-109.5 -74.5l-8 14q23 29 32 71t9 75q0 61 -23.5 95.5t-64.5 34.5q-34 0 -53 -23t-19 -60q0 -43 22.5 -80t58 -70t75.5 -66t75.5 -68t58 -74.5t22.5 -87.5q0 -56 -32 -98t-87 -66.5t-126 -24.5q-62 0 -115 19t-85 57.5
t-32 94.5q0 72 50.5 120.5t123.5 78.5l8 -14q-33 -33 -45.5 -77t-12.5 -90t10.5 -85t35.5 -62.5t67 -23.5q48 0 74.5 30t26.5 78q0 46 -22 83.5t-56.5 71t-74 65.5t-74 65.5t-56.5 73t-22 88.5q0 55 29.5 91t78 54t104.5 18z" />
    <glyph glyph-name="nine" unicode="9" horiz-adv-x="553" 
d="M278 531q109 0 172 -72t63 -204q0 -80 -25.5 -143.5t-68 -110t-94 -78t-105 -50t-100.5 -25.5l-4 20q44 13 87.5 35t79 63.5t57.5 112.5t22 181q0 97 -14.5 151.5t-36 77t-44.5 22.5q-33 0 -60 -48t-27 -161q0 -107 25 -151.5t60 -44.5q17 0 38 10t39 33t26 61l9 -4
q-6 -48 -29.5 -76t-56.5 -40.5t-66 -12.5q-53 0 -97.5 26t-71.5 74.5t-27 116.5q0 77 34.5 130t91 80t123.5 27z" />
    <glyph glyph-name="colon" unicode=":" horiz-adv-x="290" 
d="M145 531q39 0 62 -20.5t23 -56.5t-23 -56.5t-62 -20.5t-62 20.5t-23 56.5t23 56.5t62 20.5zM145 140q39 0 62 -20.5t23 -56.5t-23 -56.5t-62 -20.5t-62 20.5t-23 56.5t23 56.5t62 20.5z" />
    <glyph glyph-name="semicolon" unicode=";" horiz-adv-x="296" 
d="M143 140q25 0 43 -9t28 -26q11 -14 16.5 -37t5.5 -46q0 -50 -25.5 -92.5t-79.5 -67.5l-9 18q28 12 50 37t26 51q5 22 0 42q-22 -24 -58 -24q-35 0 -57 20.5t-22 56.5q0 35 23.5 56t58.5 21zM149 531q39 0 62 -20.5t23 -56.5t-23 -56.5t-62 -20.5t-62 20.5t-23 56.5
t23 56.5t62 20.5z" />
    <glyph glyph-name="less" unicode="&#x3c;" horiz-adv-x="602" 
d="M515 582l17 -36l-409 -191l409 -191l-17 -36l-487 227z" />
    <glyph glyph-name="equal" unicode="=" horiz-adv-x="635" 
d="M568 440v-30h-501v30h501zM568 300v-30h-501v30h501z" />
    <glyph glyph-name="greater" unicode="&#x3e;" horiz-adv-x="602" 
d="M87 582l-17 -36l409 -191l-409 -191l17 -36l487 227z" />
    <glyph glyph-name="question" unicode="?" horiz-adv-x="508" 
d="M237 782q107 0 173.5 -48t66.5 -132q0 -85 -70.5 -140.5t-184.5 -81.5v-146h-20v155q56 25 84 55t38 65t10 74q0 95 -34.5 137t-88.5 42q-27 0 -50.5 -6t-36.5 -20q27 -9 41.5 -26.5t14.5 -46.5q0 -31 -22 -51.5t-57 -20.5q-32 0 -51.5 20.5t-19.5 48.5q0 31 16.5 51.5
t40.5 35.5q24 14 61.5 24.5t88.5 10.5zM213 140q39 0 62 -20.5t23 -56.5t-23 -56.5t-62 -20.5t-62 20.5t-23 56.5t23 56.5t62 20.5z" />
    <glyph glyph-name="at" unicode="@" horiz-adv-x="884" 
d="M534 668q89 0 161 -28t114.5 -88.5t42.5 -158.5q0 -84 -27.5 -152t-72 -116t-96.5 -73.5t-100 -25.5q-39 0 -57 14.5t-21 37t2 46.5t10 43l61 297q31 0 64.5 3t61.5 11l-79 -361q-7 -32 -4 -48.5t28 -8.5q31 9 67 35t68.5 68t53.5 100t21 131q0 93 -41 149t-108.5 81.5
t-147.5 25.5q-93 0 -177.5 -40.5t-150.5 -110.5t-104 -161t-38 -193q0 -103 40 -166.5t109 -92.5t157 -29q54 0 105.5 12.5t100.5 41.5l7 -13q-37 -26 -92 -42.5t-122 -16.5q-95 0 -168 32t-115 99t-42 173q0 101 37.5 195t104.5 168.5t156 118t191 43.5zM464 478
q31 0 49.5 -14.5t26 -38.5t3.5 -51l-10 -7q2 17 -1.5 34.5t-14.5 29.5t-28 12q-25 0 -49 -24.5t-43.5 -66t-31.5 -92t-12 -103.5q0 -46 11 -64.5t30 -18.5q33 0 62 45t52 126l5 -17q-19 -74 -45 -118.5t-57.5 -64t-69.5 -19.5q-53 0 -84.5 32.5t-31.5 97.5q0 53 19.5 109.5
t53 104.5t76.5 78t90 30z" />
    <glyph glyph-name="A" unicode="A" horiz-adv-x="667" 
d="M368 710l243 -626q14 -36 31.5 -49.5t31.5 -14.5v-20q-30 2 -70.5 2.5t-81.5 0.5q-46 0 -87 -0.5t-65 -2.5v20q51 2 64.5 17.5t-6.5 66.5l-170 465l18 26l-152 -396q-28 -74 -27.5 -112t24.5 -51.5t64 -15.5v-20q-33 2 -63 2.5t-61 0.5q-22 0 -41.5 -0.5t-34.5 -2.5v20
q21 4 43 27t43 78l228 585q16 -1 34.5 -1t34.5 1zM438 288v-20h-298l10 20h288z" />
    <glyph glyph-name="B" unicode="B" horiz-adv-x="672" 
d="M34 708q25 -1 67.5 -2t84.5 -1q48 0 93 1t64 1q124 0 185.5 -44t61.5 -113q0 -35 -21 -71t-65 -64t-114 -41v-2q94 -7 149 -34t79 -65t24 -79q0 -94 -73.5 -144t-202.5 -50q-24 0 -69.5 1.5t-108.5 1.5q-44 0 -86.5 -0.5t-67.5 -2.5v20q32 2 48 8t21.5 24t5.5 54v496
q0 37 -5.5 54.5t-22 24t-47.5 7.5v20zM330 688q-39 0 -50.5 -17t-11.5 -69v-496q0 -52 13 -67.5t56 -15.5q72 0 105.5 45.5t33.5 129.5q0 77 -38.5 119t-127.5 42h-85v8.5v8.5h86q47 0 72 22.5t35 60t10 80.5q0 74 -23 111.5t-75 37.5z" />
    <glyph glyph-name="C" unicode="C" horiz-adv-x="705" 
d="M397 722q66 0 108.5 -19.5t75.5 -45.5q20 -15 30.5 -3.5t14.5 54.5h23q-2 -39 -3 -94.5t-1 -147.5h-23q-5 46 -13 78.5t-22 57.5t-40 45q-25 25 -58 37t-69 12q-54 0 -92 -28.5t-61.5 -77.5t-34.5 -110.5t-11 -127.5q0 -67 11.5 -128.5t36 -109.5t63.5 -76t92 -28
q33 0 66.5 12.5t57.5 36.5q39 30 53 74.5t21 118.5h23q0 -95 1 -153.5t3 -98.5h-23q-4 43 -13.5 54t-31.5 -3q-37 -26 -78.5 -45.5t-106.5 -19.5q-106 0 -185.5 43t-123.5 124t-44 195q0 112 45.5 196t125 131t183.5 47z" />
    <glyph glyph-name="D" unicode="D" horiz-adv-x="776" 
d="M343 708q197 0 293 -89.5t96 -256.5q0 -109 -47 -190.5t-136.5 -126.5t-214.5 -45q-24 0 -68.5 1.5t-77.5 1.5q-44 0 -86.5 -0.5t-67.5 -2.5v20q32 2 48 8t21.5 24t5.5 54v496q0 37 -5.5 54.5t-22 24t-47.5 7.5v20q25 -1 67.5 -2.5t84.5 -0.5q36 1 81.5 2t75.5 1z
M342 690q-46 0 -60 -17t-14 -69v-500q0 -52 14.5 -69t60.5 -17q84 0 132.5 39.5t69.5 115.5t21 185q0 168 -52 250t-172 82z" />
    <glyph glyph-name="E" unicode="E" horiz-adv-x="634" 
d="M569 708q-4 -44 -5.5 -85t-1.5 -63q0 -20 1 -38t2 -30h-23q-10 73 -31 115.5t-54.5 60t-78.5 17.5h-41q-30 0 -44.5 -5t-19.5 -19.5t-5 -46.5v-520q0 -31 5 -46t19.5 -20t44.5 -5h49q45 0 79.5 19.5t59 66.5t37.5 127h23q-3 -32 -3 -84q0 -23 1 -65t6 -87q-51 2 -115 2.5
t-114 0.5h-90t-119 -0.5t-117 -2.5v20q32 2 48 8t21.5 24t5.5 54v496q0 37 -5.5 54.5t-22 24t-47.5 7.5v20q54 -1 117 -2t119 -1h90q46 0 104.5 0.5t104.5 2.5zM413 366v-10v-10h-175v10v10h175zM442 498q-4 -57 -3.5 -87t0.5 -55t1 -55t5 -87h-23q-5 35 -18.5 65
t-38.5 48.5t-65 18.5v20q40 0 64 22t37 52.5t18 57.5h23z" />
    <glyph glyph-name="F" unicode="F" horiz-adv-x="592" 
d="M569 708q-4 -45 -5.5 -87t-1.5 -65q0 -22 1 -42t2 -34h-23q-13 78 -36 122.5t-56.5 63.5t-79.5 19h-33q-29 0 -44 -5t-20 -20t-5 -46v-502q0 -39 8 -58t31 -25t68 -7v-22q-31 1 -80 2t-103 1q-43 0 -84 -1t-74 -2v20q32 2 48 8t21.5 24t5.5 54v496q0 37 -5.5 54.5t-22 24
t-47.5 7.5v20q54 -1 117 -2t119 -1h90q46 0 104.5 0.5t104.5 2.5zM420 362v-10v-10h-182v10v10h182zM445 494q-4 -57 -3.5 -87t0.5 -55t1 -55t5 -87h-23q-6 35 -19 65t-38 48.5t-65 18.5v20q40 0 64 22t36.5 52.5t18.5 57.5h23z" />
    <glyph glyph-name="G" unicode="G" horiz-adv-x="735" 
d="M405 722q68 0 111 -19t77 -46q12 -9 20 -9q19 0 25 60h23q-2 -39 -3 -94.5t-1 -147.5h-23q-7 60 -21.5 104.5t-53.5 76.5q-24 23 -59.5 36t-71.5 13q-55 0 -94 -28.5t-64 -77.5t-37 -110.5t-12 -127.5q0 -180 49.5 -263t142.5 -83q24 0 42 6t29 14q14 10 19 21.5t5 30.5
v98q0 46 -7.5 68.5t-29.5 30.5t-64 9v20q21 -1 50.5 -1.5t61.5 -1t59 -0.5q42 0 77 1t57 2v-20q-28 -2 -36.5 -16t-8.5 -70v-198h-20q-1 17 -7.5 37t-21.5 20q-7 0 -18.5 -3.5t-35.5 -17.5q-37 -21 -78 -35.5t-86 -14.5q-175 0 -266 95t-91 265q0 114 46.5 198t128 131
t187.5 47z" />
    <glyph glyph-name="H" unicode="H" horiz-adv-x="800" 
d="M458 0v20q32 2 48 8t21.5 24t5.5 54v496q0 37 -5.5 54.5t-22 24t-47.5 7.5v20q27 -1 70.5 -2t86.5 -1q46 0 86.5 1t65.5 2v-20q-32 -1 -48.5 -7.5t-21.5 -24t-5 -54.5v-496q0 -36 5.5 -54t21.5 -24t48 -8v-20q-25 2 -65.5 2.5t-86.5 0.5q-43 0 -86.5 -0.5t-70.5 -2.5z
M34 0v20q32 2 48 8t21.5 24t5.5 54v496q0 37 -5.5 54.5t-22 24t-47.5 7.5v20q26 -1 67.5 -2t90.5 -1q42 0 83 1t68 2v-20q-32 -1 -48.5 -7.5t-21.5 -24t-5 -54.5v-496q0 -36 5.5 -54t21.5 -24t48 -8v-20q-27 2 -68 2.5t-83 0.5q-49 0 -90.5 -0.5t-67.5 -2.5zM203 346v20h395
v-20h-395z" />
    <glyph glyph-name="I" unicode="I" horiz-adv-x="376" 
d="M343 708v-20q-32 -1 -48.5 -7.5t-21.5 -24t-5 -54.5v-496q0 -36 5.5 -54t21.5 -24t48 -8v-20q-27 2 -68 2.5t-83 0.5q-49 0 -90.5 -0.5t-67.5 -2.5v20q32 2 48 8t21.5 24t5.5 54v496q0 37 -5.5 54.5t-22 24t-47.5 7.5v20q26 -1 67.5 -2t90.5 -1q42 0 83 1t68 2z" />
    <glyph glyph-name="J" unicode="J" horiz-adv-x="364" 
d="M-23 -188v20q40 4 68 23.5t43 66.5t15 132v548q0 37 -5.5 54.5t-21.5 24t-48 7.5v20q25 -1 65.5 -2t85.5 -1t87.5 1t70.5 2v-20q-31 -1 -47.5 -7.5t-22 -24t-5.5 -54.5v-366v-88.5t-3.5 -92.5t-13.5 -80q-20 -69 -86.5 -116t-181.5 -47z" />
    <glyph glyph-name="K" unicode="K" horiz-adv-x="714" 
d="M689 708v-19q-32 -7 -68.5 -28t-76.5 -68l-188 -224l58 83l238 -371q14 -23 30 -37t42 -24v-20q-35 2 -78 2.5t-78 0.5q-21 0 -51 -0.5t-76 -2.5v20q41 2 49.5 11.5t-7.5 33.5l-145 235q-14 23 -25 34.5t-22 16t-29 5.5v21q44 1 78.5 24t75.5 70l59 71q38 45 44.5 77.5
t-13 50.5t-59.5 19v19q37 -1 70.5 -2t77.5 -1q58 0 94 3zM343 708v-20q-32 -1 -48.5 -7.5t-21.5 -24t-5 -54.5v-496q0 -36 5.5 -54t21.5 -24t48 -8v-20q-27 2 -68 2.5t-83 0.5q-48 0 -90.5 -0.5t-67.5 -2.5v20q32 2 48 8t21.5 24t5.5 54v496q0 37 -5.5 54.5t-22 24
t-47.5 7.5v20q25 -1 67.5 -2t90.5 -1q42 0 83 1t68 2z" />
    <glyph glyph-name="L" unicode="L" horiz-adv-x="611" 
d="M349 708v-20q-34 -1 -51.5 -7.5t-23.5 -24t-6 -54.5v-508q0 -31 4.5 -46t18 -20t40.5 -5h49q46 0 83.5 28t63 78.5t35.5 116.5h23q-3 -34 -3 -88q0 -23 1 -67t6 -91q-51 2 -115 2.5t-114 0.5h-90t-119 -0.5t-117 -2.5v20q32 2 48 8t21.5 24t5.5 54v496q0 37 -5.5 54.5
t-22 24t-47.5 7.5v20q25 -1 67.5 -2t90.5 -1q44 0 86.5 1t70.5 2z" />
    <glyph glyph-name="M" unicode="M" horiz-adv-x="927" 
d="M894 708v-20q-32 -1 -48 -7.5t-21.5 -24t-5.5 -54.5v-496q0 -36 5.5 -54t21.5 -24t48 -8v-20q-28 2 -70.5 2.5t-86.5 0.5q-48 0 -90 -0.5t-68 -2.5v20q34 2 51.5 8t23.5 24t6 54v541h7l-248 -648h-16l-270 644v-479q0 -55 6 -84.5t26.5 -42t64.5 -17.5v-20q-19 2 -50 2.5
t-58 0.5q-23 0 -47 -0.5t-40 -2.5v20q32 5 48 17t21.5 39.5t5.5 75.5v450q0 37 -5.5 54.5t-22 24t-47.5 7.5v20q16 -1 40 -2t47 -1q43 0 84.5 1t73.5 2l210 -507l-25 -23l201 527h35h36q44 0 86.5 1t70.5 2z" />
    <glyph glyph-name="N" unicode="N" horiz-adv-x="722" 
d="M693 708v-20q-32 -4 -48 -16.5t-21.5 -39.5t-5.5 -76v-558q-12 1 -24.5 1t-26.5 -1l-434 550v-384q0 -55 6 -84.5t26.5 -42t64.5 -17.5v-20q-19 2 -50 2.5t-58 0.5q-23 0 -47 -0.5t-40 -2.5v20q32 5 48 17t21.5 39.5t5.5 75.5v450q0 37 -5.5 54.5t-22 24t-47.5 7.5v20
q16 -1 40 -2t47 -1q24 0 46 1t40 2l387 -477v313q0 55 -6 84.5t-26.5 42.5t-64.5 17v20q19 -1 50 -2t58 -1q24 0 47.5 1t39.5 2z" />
    <glyph glyph-name="O" unicode="O" horiz-adv-x="793" 
d="M397 722q106 0 185.5 -43t123.5 -123.5t44 -195.5q0 -112 -45 -196t-125.5 -131t-183.5 -47q-106 0 -185.5 43t-123.5 124t-44 195q0 112 45.5 196t125 131t183.5 47zM393 704q-56 0 -97.5 -45t-64 -124t-22.5 -183q0 -106 25.5 -184.5t69 -121t96.5 -42.5q56 0 97.5 45
t64 124.5t22.5 182.5q0 107 -25.5 185t-69 120.5t-96.5 42.5z" />
    <glyph glyph-name="P" unicode="P" horiz-adv-x="641" 
d="M34 708q25 -1 67.5 -2t84.5 -1q48 0 93 1t64 1q139 0 208 -55t69 -142q0 -36 -14 -75.5t-47.5 -73t-91.5 -54.5t-146 -21h-102v20h92q59 0 89.5 27t42 71t11.5 95q0 95 -28 142t-96 47q-39 0 -50.5 -17t-11.5 -69v-490q0 -39 8 -58t31 -25t68 -7v-22q-31 1 -80 2t-103 1
q-43 0 -84 -1t-74 -2v20q32 2 48 8t21.5 24t5.5 54v496q0 37 -5.5 54.5t-22 24t-47.5 7.5v20z" />
    <glyph glyph-name="Q" unicode="Q" horiz-adv-x="793" 
d="M764 12l18 -5q-8 -55 -25 -94.5t-44 -61.5q-21 -17 -54.5 -28t-74.5 -11q-55 0 -107.5 17t-106.5 41.5t-114 47.5q-7 2 -13.5 4.5t-10.5 2.5q-19 -9 -41.5 -15t-42.5 -6t-33.5 6t-13.5 20q0 27 55 27q35 0 76 -14q37 10 63.5 22.5t55 23.5t69.5 14l1 -16
q-32 -3 -54.5 -11.5t-45.5 -18.5t-54 -19q71 -5 132 -10.5t113 -7t94 4.5q62 7 98 27t60 60zM397 722q106 0 185.5 -43t123.5 -123.5t44 -195.5q0 -112 -45 -196t-125.5 -131t-183.5 -47q-106 0 -185.5 43t-123.5 124t-44 195q0 112 45.5 196t125 131t183.5 47zM393 704
q-56 0 -97.5 -45t-64 -124t-22.5 -183q0 -106 25.5 -184.5t69 -121t96.5 -42.5q56 0 97.5 45t64 124.5t22.5 182.5q0 107 -25.5 185t-69 120.5t-96.5 42.5z" />
    <glyph glyph-name="R" unicode="R" horiz-adv-x="692" 
d="M34 708q25 -1 67.5 -2t84.5 -1q48 0 93 1t64 1q139 0 208 -45.5t69 -128.5q0 -34 -14 -68.5t-47.5 -64t-91.5 -47t-146 -17.5h-96v20h86q59 0 89.5 22.5t42 60t11.5 83.5q0 79 -28 122.5t-96 43.5q-39 0 -50.5 -17t-11.5 -69v-496q0 -36 5.5 -54t21.5 -24t48 -8v-20
q-27 2 -68 2.5t-83 0.5q-48 0 -90.5 -0.5t-67.5 -2.5v20q32 2 48 8t21.5 24t5.5 54v496q0 37 -5.5 54.5t-22 24t-47.5 7.5v20zM223 353q43 -1 74.5 -4t55.5 -5.5t43 -3.5q91 -8 134.5 -39t56.5 -93l23 -103q9 -40 19 -56t29 -16q13 1 21.5 6.5t18.5 16.5l14 -12
q-27 -31 -58 -44.5t-75 -13.5q-54 0 -89 23t-46 85l-18 100q-7 42 -17 73.5t-27.5 50t-48.5 18.5h-108z" />
    <glyph glyph-name="S" unicode="S" horiz-adv-x="584" 
d="M284 721q59 0 91 -12.5t55 -26.5q12 -7 19.5 -10.5t14.5 -3.5q16 0 22 44h23q-1 -19 -2.5 -45.5t-2 -69.5t-0.5 -113h-23q-4 52 -24 101t-56.5 80.5t-89.5 31.5q-48 0 -79 -27t-31 -75q0 -40 20 -68.5t58.5 -55.5t93.5 -65q48 -31 86 -62t61 -70t23 -93q0 -66 -34.5 -109
t-90.5 -64.5t-123 -21.5q-62 0 -99 12t-62 25q-22 14 -34 14q-16 0 -22 -44h-23q2 24 2.5 56t1 83.5t0.5 130.5h23q4 -66 22.5 -123.5t57 -92.5t102.5 -35q52 0 88 28t36 84q0 62 -42 102.5t-108 83.5q-47 31 -88 62t-65.5 71t-24.5 95q0 63 31.5 103.5t83 60t109.5 19.5z
" />
    <glyph glyph-name="T" unicode="T" horiz-adv-x="668" 
d="M642 708q-4 -51 -5.5 -98t-1.5 -72q0 -22 1 -42t2 -34h-23q-16 84 -40.5 133t-58.5 69.5t-80 20.5h-23v-571q0 -40 8.5 -60t31.5 -26.5t67 -7.5v-20q-31 1 -82.5 2t-107.5 1q-55 0 -104 -1t-79 -2v20q45 1 68 7.5t31 26.5t8 60v571h-22q-46 0 -80 -20.5t-58 -69
t-42 -133.5h-23q2 14 2.5 34t0.5 42q0 25 -1.5 72t-5.5 98q46 -1 100.5 -2t109.5 -1h99h99.5t109.5 1t99 2z" />
    <glyph glyph-name="U" unicode="U" horiz-adv-x="689" 
d="M671 708v-20q-32 -4 -48.5 -16.5t-21.5 -39.5t-5 -76v-265q0 -65 -9 -119t-32 -93q-26 -43 -76 -68t-127 -25q-46 0 -94 10.5t-86 39.5q-32 27 -49 61t-23 80.5t-6 110.5v314q0 37 -5.5 54.5t-21.5 24t-48 7.5v20q25 -1 67.5 -2t88.5 -1t88.5 1t70.5 2v-20
q-34 -1 -51.5 -7.5t-23.5 -24t-6 -54.5v-377q0 -67 12 -112.5t42.5 -68.5t83.5 -23q70 0 109.5 33t56 91.5t16.5 134.5v264q0 55 -7 84.5t-27.5 42.5t-62.5 17v20q19 -1 50 -2t58 -1q24 0 47.5 1t39.5 2z" />
    <glyph glyph-name="V" unicode="V" horiz-adv-x="668" 
d="M678 708v-20q-22 -8 -46.5 -35t-45.5 -84l-211 -571q-8 1 -17 1h-18h-17t-17 -1l-255 626q-14 36 -31 49.5t-32 14.5v20q30 -1 70.5 -2t81.5 -1q46 0 86.5 1t65.5 2v-20q-49 -2 -64 -16.5t6 -67.5l182 -463l-21 -25l138 372q27 75 28 118t-21 62t-63 20v20q34 -1 64 -2
t61 -1q22 0 41.5 1t34.5 2z" />
    <glyph glyph-name="W" unicode="W" horiz-adv-x="968" 
d="M974 708v-20q-22 -8 -46 -34.5t-42 -84.5l-176 -571q-8 1 -17 1h-18h-18t-17 -1l-210 636q-10 31 -24.5 42t-30.5 12v20q28 -1 66.5 -2t76.5 -1q44 0 82.5 1t61.5 2v-20q-30 -1 -47.5 -7t-20 -23t9.5 -54l142 -434l-23 -41l113 359q24 76 23 119t-23 61.5t-63 19.5v20
q34 -1 64 -2t60 -1q23 0 42.5 1t34.5 2zM260 708v-20q-20 -3 -28 -14.5t-6.5 -30t8.5 -39.5l153 -444l-27 -36l128 374l14 -27l-157 -473q-8 1 -17 1h-18h-18t-17 -1l-224 626q-13 37 -30.5 50t-32.5 14v20q30 -1 71 -2t78 -1q40 0 71.5 1t51.5 2z" />
    <glyph glyph-name="X" unicode="X" horiz-adv-x="691" 
d="M299 709v-21q-45 0 -57.5 -8.5t1.5 -29.5l396 -579q20 -28 32 -38t32 -12v-21q-20 1 -58 2.5t-79 1.5q-45 0 -91.5 -1.5t-69.5 -2.5v21q46 0 59.5 6.5t-0.5 27.5l-397 583q-19 29 -31 39t-33 11v21q21 -1 61.5 -2.5t81.5 -1.5q45 0 86.5 1.5t66.5 2.5zM308 356l4 -13
l4 -13l-100 -137q-40 -54 -45 -91.5t17.5 -58t66.5 -23.5v-20q-19 1 -50 1.5t-61 1t-47 0.5q-60 0 -92 -3v20q35 12 71 42.5t74 79.5zM658 708v-20q-33 -9 -65.5 -38t-60.5 -67l-162 -216l-3.5 13l-3.5 13l103 139q57 73 46 113t-72 43v20q29 -1 65 -2t61 -1q60 0 92 3z" />
    <glyph glyph-name="Y" unicode="Y" horiz-adv-x="623" 
d="M617 709v-20q-22 -9 -45 -35.5t-51 -80.5l-189 -374h-47l-234 433q-18 34 -32.5 45t-25.5 11v21q27 -3 55.5 -4t62.5 -1q44 0 95 1.5t93 3.5v-21q-25 0 -45 -4t-28 -14.5t4 -33.5l158 -304l-31 -40l103 207q37 72 39.5 113t-20 58.5t-63.5 18.5v20q34 -1 64 -2t61 -1
q22 0 41.5 1t34.5 2zM403 357v-251q0 -36 5.5 -54t21.5 -24t48 -8v-20q-27 2 -69.5 2.5t-84.5 0.5q-47 0 -89 -0.5t-66 -2.5v20q32 2 48 8t21.5 24t5.5 54v205l87 -62z" />
    <glyph glyph-name="Z" unicode="Z" horiz-adv-x="602" 
d="M557 708v-20l-342 -665h104q34 0 68.5 11t64 36t50.5 66.5t28 103.5h23q-3 -34 -3 -88q0 -23 1 -65t6 -87q-55 2 -124.5 2.5t-124.5 0.5q-65 0 -136 -0.5t-133 -2.5v20l343 665h-108q-50 0 -92 -18.5t-70 -63t-38 -123.5h-23q2 14 2.5 34t0.5 42q0 23 -1.5 65t-5.5 87
q50 -2 112.5 -2.5t112.5 -0.5q67 0 143 0.5t142 2.5z" />
    <glyph glyph-name="bracketleft" unicode="[" horiz-adv-x="322" 
d="M285 772v-19h-57v-915h57v-19h-201v953h201z" />
    <glyph glyph-name="backslash" unicode="\" horiz-adv-x="368" 
d="M31 722l272 -736h33l-272 736h-33z" />
    <glyph glyph-name="bracketright" unicode="]" horiz-adv-x="322" 
d="M37 772v-19h57v-915h-57v-19h201v953h-201z" />
    <glyph glyph-name="asciicircum" unicode="^" horiz-adv-x="529" 
d="M273 528q30 -58 83 -113t116 -91l-8 -14q-63 15 -123 38t-97 46q-29 -23 -78.5 -46t-101.5 -38l-8 14q64 35 116.5 90.5t82.5 113.5h18z" />
    <glyph glyph-name="underscore" unicode="_" horiz-adv-x="608" 
d="M549 -47v-99h-490v99h490z" />
    <glyph glyph-name="grave" unicode="`" horiz-adv-x="296" 
d="M69 817q18 16 42.5 12t39.5 -23q17 -19 27 -45t24.5 -62.5t43.5 -90.5l-11 -9q-44 41 -75.5 64t-54 39t-39.5 36q-16 20 -15 42.5t18 36.5z" />
    <glyph glyph-name="a" unicode="a" horiz-adv-x="518" 
d="M156 -7q-67 0 -97 35t-30 85q0 43 19.5 70t50.5 44.5t65.5 29t66 23t51 26.5t19.5 38v78q0 26 -8.5 46.5t-26 31.5t-45.5 11q-20 0 -40 -5.5t-33 -18.5q28 -10 43.5 -30.5t15.5 -46.5q0 -34 -23.5 -54t-55.5 -20q-36 0 -54.5 22.5t-18.5 54.5q0 29 14.5 48t40.5 36
q28 16 67.5 25t85.5 9t83 -9.5t62 -34.5q23 -23 30 -56.5t7 -84.5v-272q0 -24 5 -34t17 -10q10 0 19 5t17 12l10 -17q-21 -18 -48.5 -27.5t-61.5 -9.5q-60 0 -79.5 24.5t-20.5 56.5q-25 -41 -61.5 -61t-85.5 -20zM233 57q19 0 35.5 9t32.5 32v205q-12 -20 -33.5 -33.5
t-44 -29t-37.5 -39.5t-15 -64q0 -43 18 -61.5t44 -18.5z" />
    <glyph glyph-name="b" unicode="b" horiz-adv-x="586" 
d="M367 531q78 0 129.5 -63.5t51.5 -195.5q0 -104 -31.5 -167t-83.5 -91t-114 -28q-41 0 -76 14t-60 46l14 5q18 -22 42.5 -33t48.5 -11q55 0 82 62t27 189q0 86 -10.5 136.5t-30.5 72t-48 21.5q-35 0 -64 -28.5t-33 -79.5l-5 35q18 57 61 86.5t100 29.5zM214 782v-762
q-25 4 -51 0t-48 -13.5t-37 -22.5l-15 9q4 14 5.5 28t1.5 28v613q0 45 -13.5 66.5t-50.5 21.5v21q32 -3 62 -3q41 0 78 3.5t68 10.5z" />
    <glyph glyph-name="c" unicode="c" horiz-adv-x="496" 
d="M284 531q39 0 71.5 -8.5t53.5 -21.5q26 -16 40.5 -39.5t14.5 -54.5q0 -35 -22 -57.5t-57 -22.5t-56 20t-21 54q0 32 20 53.5t46 28.5q-8 10 -24 17t-36 7q-31 0 -54.5 -18t-39.5 -50t-24.5 -75t-8.5 -94q0 -77 19.5 -121t50 -62t63.5 -18q28 0 64 15.5t67 65.5l17 -6
q-11 -37 -36 -74t-65 -60.5t-98 -23.5q-65 0 -117.5 28.5t-84 88t-31.5 153.5q0 90 32.5 151.5t88.5 92.5t127 31z" />
    <glyph glyph-name="d" unicode="d" horiz-adv-x="598" 
d="M516 783v-673q0 -45 14 -66.5t50 -21.5v-21q-31 3 -62 3q-42 0 -78.5 -3t-67.5 -11v673q0 45 -13.5 66.5t-50.5 21.5v21q32 -3 62 -3q41 0 78 3.5t68 10.5zM261 531q44 0 77.5 -14.5t52.5 -48.5l-12 -11q-13 24 -34.5 34.5t-45.5 10.5q-51 0 -81 -59.5t-29 -183.5
q0 -85 11.5 -135.5t33 -72.5t49.5 -22q34 0 61 27t29 73l5 -35q-15 -53 -48.5 -80.5t-87.5 -27.5q-59 0 -105.5 29t-72.5 89.5t-26 156.5q0 91 29 150.5t79.5 89.5t114.5 30z" />
    <glyph glyph-name="e" unicode="e" horiz-adv-x="504" 
d="M282 531q88 0 138 -52t50 -170h-329l-2 19h205q1 49 -6 90.5t-22 66.5t-40 25q-35 0 -59.5 -44t-29.5 -146l3 -6q-1 -12 -1.5 -25t-0.5 -27q0 -69 19.5 -112t49.5 -62.5t61 -19.5q30 0 65.5 15t66.5 65l18 -6q-12 -38 -38 -74t-66 -59t-96 -23q-68 0 -120 29t-81.5 88
t-29.5 150q0 93 31.5 155t87 92.5t126.5 30.5z" />
    <glyph glyph-name="f" unicode="f" horiz-adv-x="352" 
d="M288 782q35 0 61 -9t46 -24q14 -11 24 -30.5t10 -44.5q0 -27 -19.5 -48t-51.5 -21q-33 0 -54.5 19t-21.5 52q0 26 15 46t44 28q-3 6 -12 10t-24 4q-20 0 -33 -7t-21 -19q-11 -15 -15 -43.5t-4 -87.5v-91h107v-20h-107v-393q0 -49 25 -65.5t69 -16.5v-21q-26 1 -73 2.5
t-99 1.5q-38 0 -74.5 -1.5t-55.5 -2.5v21q35 0 49.5 15t14.5 57v403h-68v20h68q0 89 14 135.5t49 80.5q22 21 58.5 35.5t78.5 14.5z" />
    <glyph glyph-name="g" unicode="g" horiz-adv-x="553" 
d="M218 -188q-62 0 -110.5 10.5t-76 32t-27.5 52.5t28 55.5t83 38.5l9 -16q-19 -15 -27.5 -32.5t-8.5 -36.5q0 -42 38.5 -64.5t104.5 -22.5q45 0 80.5 12t56 36t20.5 59q0 30 -22 50.5t-88 20.5h-62q-41 0 -71.5 9t-47.5 28.5t-17 49.5q0 42 33 74t98 60l10 -8
q-19 -12 -35.5 -25.5t-16.5 -34.5q0 -32 40 -32h109q83 0 138 -30.5t55 -101.5q0 -49 -31.5 -91t-96.5 -67.5t-165 -25.5zM228 213q-85 0 -142 38.5t-57 120.5q0 83 57 121t142 38q86 0 142.5 -38t56.5 -121q0 -82 -56.5 -120.5t-142.5 -38.5zM228 231q27 0 42 30.5
t15 110.5t-15 110.5t-42 30.5q-26 0 -41.5 -30.5t-15.5 -110.5t15.5 -110.5t41.5 -30.5zM384 445l-20 7q15 39 48.5 65t72.5 26q32 0 48.5 -17.5t16.5 -45.5q0 -30 -16 -44.5t-36 -14.5q-17 0 -31.5 12t-16.5 36.5t17 63.5l7 -6q-38 -14 -57 -32.5t-33 -49.5z" />
    <glyph glyph-name="h" unicode="h" horiz-adv-x="608" 
d="M227 782v-344q25 52 67.5 72.5t95.5 20.5q43 0 69 -10.5t41 -28.5q17 -19 24.5 -49t7.5 -81v-269q0 -42 14.5 -57t49.5 -15v-21q-19 1 -57.5 2.5t-74.5 1.5q-39 0 -75.5 -1.5t-54.5 -2.5v21q30 0 42 15t12 57v311q0 25 -5 43.5t-18.5 29t-38.5 10.5q-41 0 -70 -32
t-29 -83v-279q0 -42 12 -57t42 -15v-21q-18 1 -53 2.5t-71 1.5q-39 0 -78.5 -1.5t-59.5 -2.5v21q35 0 49.5 15t14.5 57v569q0 45 -13.5 66.5t-50.5 21.5v21q32 -3 62 -3q41 0 78 3.5t68 10.5z" />
    <glyph glyph-name="i" unicode="i" horiz-adv-x="315" 
d="M154 775q42 0 66.5 -20.5t24.5 -56.5t-24.5 -56.5t-66.5 -20.5t-66.5 20.5t-24.5 56.5t24.5 56.5t66.5 20.5zM232 528v-435q0 -42 14.5 -57t49.5 -15v-21q-18 1 -56 2.5t-77 1.5t-79 -1.5t-60 -2.5v21q35 0 49.5 15t14.5 57v315q0 45 -13.5 66.5t-50.5 21.5v21
q32 -3 62 -3q42 0 78.5 3.5t67.5 10.5z" />
    <glyph glyph-name="j" unicode="j" horiz-adv-x="297" 
d="M-23 -188v18q49 1 78 38.5t29 113.5v426q0 45 -14 66.5t-50 21.5v21q32 -3 62 -3q41 0 78 3.5t68 10.5v-434q0 -83 -16.5 -137t-55.5 -91q-25 -24 -68.5 -39t-110.5 -15zM145 775q42 0 66.5 -20.5t24.5 -56.5t-24.5 -56.5t-66.5 -20.5t-66.5 20.5t-24.5 56.5t24.5 56.5
t66.5 20.5z" />
    <glyph glyph-name="k" unicode="k" horiz-adv-x="585" 
d="M227 783v-690q0 -42 13.5 -57t46.5 -15v-21q-19 1 -55.5 2.5t-74.5 1.5q-39 0 -78.5 -1.5t-59.5 -2.5v21q35 0 49.5 15t14.5 57v570q0 45 -13.5 66.5t-50.5 21.5v21q32 -3 62 -3q41 0 78 3.5t68 10.5zM553 517v-20q-31 -6 -62 -26t-63 -51l-77 -80l10 19l171 -286
q11 -18 23 -32t29 -20v-21q-15 1 -45 2.5t-60 1.5q-37 0 -74 -1.5t-55 -2.5v21q20 0 27 9.5t-2 24.5l-99 179q-12 19 -23.5 24.5t-30.5 6.5v19q21 2 36.5 7t28.5 19l76 74q34 32 34 57t-21.5 40t-56.5 16v20q28 -1 61 -2t56 -1q20 0 42.5 0.5t42.5 1t32 1.5z" />
    <glyph glyph-name="l" unicode="l" horiz-adv-x="311" 
d="M228 783v-690q0 -42 14.5 -57t49.5 -15v-21q-19 1 -57 2.5t-77 1.5t-78.5 -1.5t-59.5 -2.5v21q35 0 49.5 15t14.5 57v570q0 45 -13.5 66.5t-50.5 21.5v21q32 -3 62 -3q41 0 78 3.5t68 10.5z" />
    <glyph glyph-name="m" unicode="m" horiz-adv-x="905" 
d="M387 531q42 0 68 -10.5t42 -28.5q16 -19 23 -49.5t7 -80.5v-269q0 -42 13 -57t45 -15v-21q-18 1 -54.5 2.5t-71.5 1.5q-36 0 -71 -1.5t-53 -2.5v21q27 0 37.5 15t10.5 57v311q0 25 -4 43.5t-15.5 29t-34.5 10.5q-26 0 -48 -15t-35.5 -41.5t-13.5 -59.5v-278q0 -42 11 -57
t37 -15v-21q-16 1 -49.5 2.5t-68.5 1.5q-38 0 -78 -1.5t-60 -2.5v21q35 0 49.5 15t14.5 57v315q0 45 -13.5 66.5t-50.5 21.5v21q32 -3 62 -3q42 0 78.5 3.5t67.5 10.5v-90q24 50 65 71.5t90 21.5zM688 531q42 0 68 -10.5t42 -28.5q16 -19 23 -49.5t7 -80.5v-269
q0 -42 14.5 -57t49.5 -15v-21q-19 1 -57 2.5t-75 1.5q-36 0 -71 -1.5t-53 -2.5v21q27 0 37.5 15t10.5 57v311q0 25 -4.5 43.5t-17 29t-38.5 10.5q-39 0 -68 -34.5t-30 -84.5l-5 61q27 60 71.5 81t95.5 21z" />
    <glyph glyph-name="n" unicode="n" horiz-adv-x="614" 
d="M396 531q42 0 68.5 -10.5t41.5 -28.5q16 -19 23.5 -49t7.5 -81v-269q0 -42 14.5 -57t49.5 -15v-21q-19 1 -57 2.5t-75 1.5q-38 0 -74.5 -1.5t-55.5 -2.5v21q30 0 42 15t12 57v311q0 25 -5 43.5t-18 29t-39 10.5q-42 0 -70.5 -33t-28.5 -83v-278q0 -42 12.5 -57t41.5 -15
v-21q-18 1 -52.5 2.5t-71.5 1.5q-38 0 -78 -1.5t-60 -2.5v21q35 0 49.5 15t14.5 57v315q0 45 -13.5 66.5t-50.5 21.5v21q32 -3 62 -3q42 0 78.5 3.5t67.5 10.5v-90q25 51 68 72t96 21z" />
    <glyph glyph-name="o" unicode="o" horiz-adv-x="565" 
d="M282 531q73 0 128 -27t86 -87t31 -159t-31 -158.5t-86 -86.5t-128 -27q-71 0 -126.5 27t-87 86.5t-31.5 158.5t31.5 159t87 87t126.5 27zM282 511q-40 0 -67 -59.5t-27 -193.5t27 -193t67 -59q41 0 67.5 59t26.5 193t-26.5 193.5t-67.5 59.5z" />
    <glyph glyph-name="p" unicode="p" horiz-adv-x="600" 
d="M228 528v-610q0 -47 24 -62.5t66 -15.5v-21q-26 1 -71.5 2.5t-96.5 1.5q-37 0 -72.5 -1.5t-53.5 -2.5v21q33 0 46.5 14t13.5 54v500q0 45 -14 66.5t-50 21.5v21q32 -3 62 -3q41 0 78 3.5t68 10.5zM383 531q76 0 127.5 -62t51.5 -187q0 -97 -29 -163t-80.5 -99.5
t-122.5 -33.5q-39 0 -71 13.5t-49 38.5l10 13q10 -18 28.5 -28t42.5 -10q45 0 71 30.5t37.5 86t11.5 132.5q0 86 -11 135t-30 70t-46 21q-36 0 -65.5 -28t-33.5 -80l-5 35q18 57 61.5 86.5t101.5 29.5z" />
    <glyph glyph-name="q" unicode="q" horiz-adv-x="585" 
d="M256 531q47 0 81 -12.5t59 -46.5l-15 -5q-15 23 -38 33t-49 10q-52 0 -79 -62t-27 -189q0 -85 12 -135.5t33.5 -72.5t50.5 -22q33 0 60.5 29t29.5 79l5 -35q-15 -57 -50 -86.5t-87 -29.5q-57 0 -103.5 29t-74 89.5t-27.5 156.5q0 91 28 150.5t77.5 89.5t113.5 30z
M507 533l15 -8q-4 -13 -5.5 -27.5t-1.5 -29.5v-560q0 -40 13.5 -54t46.5 -14v-21q-18 1 -53 2.5t-73 1.5q-50 0 -96 -1.5t-72 -2.5v21q43 0 66.5 15.5t23.5 62.5v573q26 -2 52 3t48.5 15.5t35.5 23.5z" />
    <glyph glyph-name="r" unicode="r" horiz-adv-x="467" 
d="M368 531q32 0 52 -13.5t29.5 -34.5t9.5 -44q0 -37 -21.5 -60.5t-56.5 -23.5t-54.5 17.5t-19.5 46.5q0 28 12.5 46.5t31.5 31.5q-14 4 -28 -1q-26 -4 -46.5 -24.5t-32.5 -48.5t-12 -55v-265q0 -48 23.5 -65t70.5 -17v-21q-23 1 -67 2.5t-92 1.5q-40 0 -81 -1.5t-62 -2.5
v21q35 0 49.5 15t14.5 57v315q0 45 -13.5 66.5t-50.5 21.5v21q32 -3 62 -3q42 0 78.5 3.5t67.5 10.5v-93q12 27 32 49t46 34.5t58 12.5z" />
    <glyph glyph-name="s" unicode="s" horiz-adv-x="462" 
d="M222 531q42 0 73.5 -10.5t45.5 -20.5q34 -23 42 30h21q-2 -28 -3 -68.5t-1 -107.5h-21q-5 37 -19 73t-40.5 59t-68.5 23q-29 0 -49 -16.5t-20 -47.5q0 -30 18 -52.5t46.5 -43t59.5 -43.5q50 -37 84.5 -74.5t34.5 -97.5q0 -45 -26 -78.5t-68.5 -51.5t-94.5 -18
q-30 0 -53.5 6t-40.5 15q-13 6 -24.5 11.5t-21.5 9.5q-10 3 -17.5 -7t-11.5 -28h-21q2 32 3 78t1 122h21q6 -54 22 -95.5t43.5 -65t69.5 -23.5q26 0 48 16.5t22 54.5q0 44 -28.5 73t-72.5 63q-32 26 -60.5 51.5t-46.5 56t-18 69.5q0 45 24 76t63.5 46.5t84.5 15.5z" />
    <glyph glyph-name="t" unicode="t" horiz-adv-x="352" 
d="M227 681v-164h118v-20h-118v-404q0 -30 11 -42.5t33 -12.5q18 0 36 13.5t32 46.5l17 -9q-16 -45 -48.5 -74t-88.5 -29q-33 0 -58 8.5t-42 25.5q-22 22 -29 54.5t-7 84.5v338h-84v20h84v132q42 0 77.5 7.5t66.5 24.5z" />
    <glyph glyph-name="u" unicode="u" horiz-adv-x="606" 
d="M522 528v-419q0 -45 14 -66.5t50 -21.5v-21q-31 3 -62 3q-42 0 -78 -3t-68 -11v90q-24 -50 -66.5 -71.5t-94.5 -21.5q-42 0 -68 11t-41 28q-17 19 -24 50t-7 80v253q0 45 -13.5 66.5t-50.5 21.5v21q32 -3 62 -3q42 0 78.5 3.5t67.5 10.5v-414q0 -25 4.5 -44t17.5 -29.5
t38 -10.5q40 0 68.5 33.5t28.5 82.5v262q0 45 -13.5 66.5t-50.5 21.5v21q32 -3 62 -3q42 0 78.5 3.5t67.5 10.5z" />
    <glyph glyph-name="v" unicode="v" horiz-adv-x="508" 
d="M507 517v-20q-19 -5 -36 -23.5t-33 -62.5l-146 -413q-16 1 -32.5 1t-32.5 -1l-178 442q-16 39 -31.5 47.5t-26.5 8.5v21q32 -2 66.5 -3.5t75.5 -1.5q31 0 65.5 1.5t64.5 3.5v-21q-21 0 -37.5 -2t-22.5 -13t2 -39l117 -310l-10 -14l79 219q28 81 9 118.5t-66 41.5v20
q23 -1 49.5 -2t46.5 -1t42 1t35 2z" />
    <glyph glyph-name="w" unicode="w" horiz-adv-x="787" 
d="M265 517v-21q-22 0 -38.5 -2.5t-22 -14.5t3.5 -39l95 -297l-13 -14l117 389l20 -9l-153 -511q-16 1 -32 1t-33 -1l-158 442q-14 40 -30.5 48t-27.5 8v21q32 -3 66.5 -4.5t75.5 -1.5q31 0 65.5 2t64.5 4zM787 517v-20q-19 -5 -36 -23t-32 -63l-133 -413q-16 1 -32.5 1
t-32.5 -1l-141 385l27 135q18 -1 36.5 -0.5t36.5 0.5l137 -404l-11 11l67 212q26 82 5.5 119t-70.5 41v20q16 -1 34.5 -1.5l37 -1t31.5 -0.5q20 0 41.5 1t34.5 2z" />
    <glyph glyph-name="x" unicode="x" horiz-adv-x="536" 
d="M246 517v-21q-20 0 -29.5 -9t0.5 -25l263 -391q12 -18 25.5 -32.5t30.5 -17.5v-21q-15 1 -45.5 2.5t-61.5 1.5q-36 0 -74 -1.5t-56 -2.5v21q20 0 29.5 9t-0.5 25l-263 391q-17 25 -28.5 36.5t-27.5 13.5v21q17 -1 51 -2.5t68 -1.5q33 0 67 1.5t51 2.5zM223 241l3 -12
l3 -12l-40 -51q-30 -39 -33 -71.5t17 -52t55 -22.5v-20q-19 1 -46.5 1.5t-53.5 1t-44 0.5q-41 0 -70 -3v20q23 9 44 26.5t47 50.5zM507 517v-20q-21 -6 -44 -26t-48 -51l-110 -138l-3 11.5l-3 11.5l50 67q41 52 34 86.5t-60 38.5v20q29 -1 59 -2t54 -1q42 0 71 3z" />
    <glyph glyph-name="y" unicode="y" horiz-adv-x="519" 
d="M513 517v-20q-19 -5 -36 -23.5t-33 -62.5l-141 -396l-37 -70l-218 495q-17 39 -33.5 47.5t-28.5 8.5v21q33 -3 68.5 -4.5t68.5 -1.5q41 0 75 2t64 4v-21q-20 0 -37.5 -2.5t-24 -14t5.5 -39.5l126 -304l-9 -6l74 207q28 81 9 118.5t-67 41.5v20q23 -1 50 -2t47 -1t42 1
t35 2zM303 15l-38 -107q-19 -51 -44 -71q-14 -12 -36 -18.5t-51 -6.5q-24 0 -49.5 8t-42.5 26t-17 46q0 31 22 49.5t58 18.5q33 0 54 -16t21 -47q0 -20 -12.5 -38t-37.5 -27q5 -1 12 -1h11q30 0 53 19t38 60l35 103z" />
    <glyph glyph-name="z" unicode="z" horiz-adv-x="474" 
d="M444 522l-250 -507h52q39 0 73.5 16.5t58 55.5t28.5 107h21q0 -73 1 -119.5t3 -78.5q-45 2 -94 3t-98 1q-51 0 -105 -1.5t-103 -3.5l250 507h-56q-40 0 -73.5 -16.5t-55 -56t-27.5 -106.5h-21q0 74 -1 120t-3 78q46 -2 95 -3t97 -1q52 0 105.5 1.5t102.5 3.5z" />
    <glyph glyph-name="braceleft" unicode="{" horiz-adv-x="333" 
d="M316 782v-19q-30 -1 -46 -14.5t-22 -58t-6 -139.5q0 -90 -28 -141t-72.5 -75.5t-96.5 -35.5q52 -11 96.5 -36t72.5 -75.5t28 -140.5q0 -74 3.5 -117t11.5 -64.5t22.5 -28t36.5 -6.5v-19q-79 0 -127 20.5t-69.5 71.5t-21.5 143q0 94 -6.5 145.5t-22.5 73.5t-47 24h-5v18h5
q31 2 47 23.5t22.5 73.5t6.5 146q0 88 21.5 138.5t69.5 71.5t127 21z" />
    <glyph glyph-name="bar" unicode="|" horiz-adv-x="253" 
d="M171 858v-1053h-88v1053h88z" />
    <glyph glyph-name="braceright" unicode="}" horiz-adv-x="333" 
d="M17 782v-19q30 -1 46 -14.5t22 -58t6 -139.5q0 -90 28 -141t72.5 -75.5t96.5 -35.5q-52 -11 -96.5 -36t-72.5 -75.5t-28 -140.5q0 -74 -3.5 -117t-11.5 -64.5t-22.5 -28t-36.5 -6.5v-19q79 0 127 20.5t69.5 71.5t21.5 143q0 94 6.5 145.5t22.5 73.5t47 24h5v18h-5
q-31 2 -47 23.5t-22.5 73.5t-6.5 146q0 88 -21.5 138.5t-69.5 71.5t-127 21z" />
    <glyph glyph-name="asciitilde" unicode="~" horiz-adv-x="668" 
d="M213 389q41 0 75 -13.5t66.5 -31t66 -31t70.5 -13.5q34 0 60.5 15.5t41.5 54.5l18 -4q-7 -70 -51.5 -112.5t-102.5 -42.5q-40 0 -74.5 13.5t-66.5 31t-65 31t-72 13.5q-33 0 -59.5 -15.5t-42.5 -54.5l-17 4q7 71 51 113t102 42z" />
    <glyph glyph-name="uni00A0" unicode="&#xa0;" horiz-adv-x="233" 
 />
    <glyph glyph-name="exclamdown" unicode="&#xa1;" horiz-adv-x="277" 
d="M147 318q2 -62 13.5 -121t25 -113t24 -99.5t10.5 -78.5q0 -47 -23.5 -70.5t-58.5 -23.5t-58.5 24t-23.5 70q0 33 10 78t24 99t25 113.5t14 121.5h18zM139 531q38 0 61.5 -20.5t23.5 -56.5t-23.5 -56.5t-61.5 -20.5q-39 0 -62 20.5t-23 56.5t23 56.5t62 20.5z" />
    <glyph glyph-name="cent" unicode="&#xa2;" horiz-adv-x="499" 
d="M253 -181v225h22v-225h-22zM253 519v189h22v-189h-22zM280 531q39 0 71.5 -8.5t53.5 -21.5q26 -16 40.5 -39.5t14.5 -54.5q0 -35 -22 -57.5t-57 -22.5t-56 20t-21 54q0 32 19.5 53.5t46.5 28.5q-8 10 -24 17t-36 7q-32 0 -55.5 -18t-39 -50t-24 -75t-8.5 -94
q0 -77 19.5 -121t50 -62t63.5 -18q27 0 63.5 15.5t66.5 65.5l18 -6q-11 -37 -36 -74t-65 -60.5t-98 -23.5q-65 0 -117.5 28.5t-84 88t-31.5 153.5q0 90 32.5 151.5t88.5 92.5t127 31z" />
    <glyph glyph-name="sterling" unicode="&#xa3;" horiz-adv-x="660" 
d="M387 736q37 0 64.5 -7t44.5 -17q23 -13 36.5 -32.5t13.5 -44.5q0 -31 -20 -51.5t-52 -20.5q-31 0 -51.5 18.5t-20.5 47.5q0 54 52 74q-7 7 -23 11.5t-36 4.5q-37 0 -59.5 -16.5t-34 -48.5t-15.5 -79.5t-4 -109.5v-128q0 -55 -17 -97.5t-45.5 -81t-62.5 -84.5
q47 39 83 51.5t67 12.5q40 0 70 -8t59.5 -16.5t66.5 -8.5q32 0 49.5 17t17.5 40q0 31 -20.5 49.5t-52.5 24.5l4 16q48 -8 88 -41t40 -90q0 -59 -37.5 -97t-113.5 -38q-44 0 -82 13t-73.5 29.5t-70.5 25.5q-10 3 -22.5 5.5t-26.5 2.5q-28 0 -55 -10q-21 -33 -45.5 -49.5
t-47.5 -16.5q-9 0 -15.5 3t-6.5 13q0 11 10.5 22.5t30 22.5t46.5 17q8 24 11 49.5t3.5 60t0.5 84.5v181q0 82 22.5 149.5t77.5 107.5t152 40zM403 317v-20h-345v20h345zM403 417v-20h-345v20h345z" />
    <glyph glyph-name="currency" unicode="&#xa4;" horiz-adv-x="615" 
d="M472 548l85 -85l-60 -59q14 -23 21 -49t7 -55t-7 -55t-21 -49l59 -59l-85 -85l-59 59q-24 -13 -50 -20.5t-54 -7.5q-57 0 -104 28l-58 -59l-86 85l58 58q-13 23 -20.5 49.5t-7.5 55.5q0 56 29 104l-59 59l85 85l59 -59q22 14 48.5 21.5t55.5 7.5t55 -8t49 -21zM309 425
q-32 0 -58.5 -17t-42 -45.5t-15.5 -62.5t15.5 -62.5t42 -45t58.5 -16.5t58 16.5t41.5 45t15.5 62.5t-15.5 62.5t-41.5 45.5t-58 17z" />
    <glyph glyph-name="yen" unicode="&#xa5;" horiz-adv-x="678" 
d="M559 303v-20h-409v20h409zM559 203v-20h-409v20h409zM649 709v-20q-22 -9 -45 -35.5t-51 -80.5l-189 -374h-47l-234 433q-18 34 -32.5 45t-25.5 11v21q27 -3 55.5 -4t62.5 -1q44 0 94.5 1.5t93.5 3.5v-21q-25 0 -45 -4t-28 -14.5t4 -33.5l158 -304l-32 -40l104 207
q36 72 38.5 113t-19.5 58.5t-63 18.5v20q34 -1 64 -2t60 -1q23 0 42.5 1t34.5 2zM434 357v-251q0 -36 6 -54t22 -24t47 -8v-20q-26 2 -68.5 2.5t-85.5 0.5q-46 0 -88 -0.5t-67 -2.5v20q33 2 49 8t21 24t5 54v205l87 -62z" />
    <glyph glyph-name="brokenbar" unicode="&#xa6;" horiz-adv-x="256" 
d="M172 326v-521h-88v521h88zM172 858v-474h-88v474h88z" />
    <glyph glyph-name="section" unicode="&#xa7;" horiz-adv-x="581" 
d="M313 782q43 0 72 -7.5t46 -14.5q31 -15 48.5 -37.5t17.5 -55.5q0 -28 -19.5 -49t-54.5 -21q-33 0 -54.5 19.5t-21.5 49.5q0 24 13.5 45t37.5 29q-6 11 -30.5 17t-47.5 6q-38 0 -61 -13.5t-33 -34t-10 -43.5q0 -40 20 -67.5t56 -52.5t84 -57q54 -37 92.5 -67.5t58.5 -63.5
t20 -77q0 -53 -35.5 -98t-123.5 -84l-9 10q30 21 45 44t15 56q0 31 -17 55.5t-52.5 52.5t-92.5 65q-63 41 -105.5 75.5t-64 70.5t-21.5 81q0 51 28.5 88.5t80 58t118.5 20.5zM194 490l10 -11q-31 -20 -45.5 -43t-14.5 -57q0 -30 16.5 -55t52.5 -53t93 -65
q62 -41 104.5 -75.5t64.5 -70.5t22 -81q0 -50 -29 -88t-80 -58.5t-119 -20.5q-43 0 -72 7.5t-46 14.5q-30 15 -48 37.5t-18 55.5q0 28 20 49t54 21t55 -19.5t21 -49.5q0 -24 -13.5 -44.5t-37.5 -29.5q4 -7 17 -12.5t29.5 -8t31.5 -2.5q39 0 61.5 13.5t33 34.5t10.5 43
q0 40 -20 67.5t-56 52.5t-84 57q-55 37 -93 67.5t-58 64t-20 76.5q0 54 34.5 99t123.5 84z" />
    <glyph glyph-name="dieresis" unicode="&#xa8;" horiz-adv-x="478" 
d="M353 760q30 0 52.5 -22.5t22.5 -52.5q0 -31 -22.5 -53t-52.5 -22q-31 0 -53.5 22t-22.5 53q0 30 22.5 52.5t53.5 22.5zM125 760q30 0 53 -22.5t23 -52.5q0 -31 -23 -53t-53 -22q-31 0 -53 22t-22 53q0 30 22 52.5t53 22.5z" />
    <glyph glyph-name="copyright" unicode="&#xa9;" horiz-adv-x="881" 
d="M440 782q83 0 155 -31t126.5 -85.5t85.5 -126.5t31 -155q0 -82 -31 -154.5t-85.5 -127t-126.5 -85.5t-155 -31q-82 0 -154.5 31t-127 85.5t-85.5 127t-31 154.5q0 83 31 155t85.5 126.5t127 85.5t154.5 31zM463 657q40 0 73 -9t54 -23q24 -15 38.5 -38.5t14.5 -53.5
q0 -35 -22.5 -57.5t-56.5 -22.5q-35 0 -56 20.5t-21 54.5q0 31 19 52.5t47 28.5q-10 10 -29 17.5t-41 7.5q-14 0 -27 -4t-26 -14q-19 -10 -33.5 -35t-22.5 -70t-8 -116q0 -84 19.5 -132t50 -67.5t62.5 -19.5q19 0 41.5 8t46 29t43.5 63l18 -7q-11 -36 -36 -73t-65 -60.5
t-98 -23.5q-65 0 -117.5 28.5t-84 88t-31.5 153.5q0 90 32 151.5t88.5 92.5t127.5 31zM440 750q-74 0 -139 -28.5t-114 -79t-77 -116.5t-28 -142t28 -142t77 -116.5t114 -79t139 -28.5t139 28.5t114 79t77 116.5t28 142t-28 142t-77 116.5t-114 79t-139 28.5z" />
    <glyph glyph-name="ordfeminine" unicode="&#xaa;" horiz-adv-x="482" 
d="M241 722q80 0 116 -30t36 -97v-168q0 -15 4.5 -20.5t14.5 -5.5q17 0 29 11l11 -15q-20 -16 -48.5 -26.5t-65.5 -10.5q-41 0 -56 12.5t-17 34.5q-25 -25 -56.5 -36t-63.5 -11q-41 0 -70 19t-29 60t35 63.5t104 44.5q28 9 54 23t26 33v18q0 45 -16.5 63.5t-45.5 18.5
q-13 0 -27.5 -3.5t-27.5 -11.5q22 -6 33 -22.5t11 -34.5q0 -28 -20.5 -43t-46.5 -15q-30 0 -48 16t-18 41q0 24 15.5 41.5t38.5 27.5q26 12 56.5 17.5t71.5 5.5zM265 573q-4 -8 -13 -16.5t-28 -22.5q-24 -16 -34.5 -34.5t-10.5 -41.5t11 -37t27 -14q26 0 48 19v147z" />
    <glyph glyph-name="guillemotleft" unicode="&#xab;" horiz-adv-x="569" 
d="M302 533l15 -6q-15 -51 -38 -102t-49.5 -94t-54.5 -71q28 -28 54.5 -72t49.5 -95t38 -103l-15 -5q-59 80 -125 147.5t-151 119.5v13q85 53 151 120.5t125 147.5zM501 509l15 -6q-13 -47 -33.5 -93.5t-43 -85t-46.5 -64.5q24 -25 46.5 -64.5t43 -86.5t33.5 -95l-15 -5
q-53 73 -113.5 134.5t-137.5 108.5v13q77 47 137.5 109t113.5 135z" />
    <glyph glyph-name="logicalnot" unicode="&#xac;" horiz-adv-x="642" 
d="M575 370v-205h-36v175h-465v30h501z" />
    <glyph glyph-name="uni00AD" unicode="&#xad;" horiz-adv-x="481" 
 />
    <glyph glyph-name="registered" unicode="&#xae;" horiz-adv-x="665" 
d="M332 782q77 0 140.5 -37.5t101 -101t37.5 -140.5t-37.5 -140.5t-101 -101t-140.5 -37.5t-140.5 37.5t-101 101t-37.5 140.5t37.5 140.5t101 101t140.5 37.5zM266 523q34 0 48.5 -1t22 -2.5t18.5 -3.5q53 -4 72.5 -18t24.5 -41l15 -65q2 -12 5 -18t10 -6t11 6l8 -10
q-8 -9 -21 -13.5t-31 -4.5q-32 0 -48.5 11t-20.5 32l-15 73q-3 19 -10.5 29t-26 13.5t-60.5 3.5zM332 750q-66 0 -119.5 -33.5t-85.5 -89.5t-32 -124q0 -67 32 -123.5t85.5 -90t119.5 -33.5t120 33.5t85.5 90t31.5 123.5q0 68 -31.5 124t-85.5 89.5t-120 33.5zM344 676
q65 0 93.5 -20.5t28.5 -58.5q0 -17 -11.5 -36t-42.5 -33t-90 -17l-61 -3v8v8h53q38 0 53 18t15 49q0 35 -12.5 52.5t-41.5 17.5q-15 0 -20.5 -6t-5.5 -22v-229q0 -23 4.5 -29t18.5 -8v-15q-12 0 -28.5 0.5t-33.5 0.5q-20 0 -38 -0.5t-29 -0.5v15q14 2 18.5 8t4.5 29v219
q0 24 -4.5 30.5t-18.5 7.5v15q11 -1 28.5 -1h33.5q28 0 52 0.5t34 0.5z" />
    <glyph glyph-name="macron" unicode="&#xaf;" horiz-adv-x="436" 
d="M386 712v-25h-336v25h336z" />
    <glyph glyph-name="degree" unicode="&#xb0;" horiz-adv-x="311" 
d="M155 820q49 0 85.5 -32t36.5 -88t-36.5 -88.5t-85.5 -32.5q-48 0 -84.5 32.5t-36.5 88.5t36.5 88t84.5 32zM155 803q-34 0 -65 -26.5t-31 -77.5q0 -52 31 -77.5t65 -25.5t65.5 25.5t31.5 77.5q0 51 -31.5 77.5t-65.5 26.5z" />
    <glyph glyph-name="plusminus" unicode="&#xb1;" horiz-adv-x="579" 
d="M541 30v-30h-501v30h501zM306 606v-236h232v-30h-232v-235h-36v235h-233v30h233v236h36z" />
    <glyph glyph-name="uni00B2" unicode="&#xb2;" horiz-adv-x="351" 
d="M179 755q48 0 79.5 -18t31.5 -56q0 -28 -16 -49.5t-40.5 -40t-53.5 -37t-55 -39.5h135q24 0 32 8.5t15 25.5l17 -3q-7 -33 -10.5 -60t-4.5 -51q-9 2 -18.5 2.5t-19.5 0.5h-244v20q21 18 50 39.5t56 46.5t45.5 54.5t18.5 64.5q0 26 -15.5 39t-45.5 13q-55 0 -87 -48l-15 8
q18 31 52.5 55.5t92.5 24.5z" />
    <glyph glyph-name="uni00B3" unicode="&#xb3;" horiz-adv-x="330" 
d="M171 756q49 0 81.5 -18.5t32.5 -53.5t-31.5 -59.5t-85.5 -35.5q54 2 94 -22.5t40 -68.5q0 -36 -24.5 -63.5t-65.5 -46t-90 -28.5t-98 -12v17q54 6 96 24t66.5 47t24.5 67q0 31 -16 52t-45 23q-11 -5 -19.5 -9.5t-16.5 -4.5q-16 0 -16 12q0 11 13 13t31 1q31 14 40.5 36
t9.5 37q0 25 -16.5 40t-46.5 15q-27 0 -50 -13t-38 -37l-15 8q17 32 51.5 56t93.5 24z" />
    <glyph glyph-name="acute" unicode="&#xb4;" horiz-adv-x="296" 
d="M227 817q17 -13 18 -36t-15 -43t-39 -36t-54.5 -39t-75.5 -64l-11 9q30 54 44 90.5t24 62.5t27 45q15 20 39.5 23.5t42.5 -12.5z" />
    <glyph glyph-name="paragraph" unicode="&#xb6;" horiz-adv-x="732" 
d="M421 709q77 0 142.5 -2.5t128.5 1.5v-19q-46 -2 -58.5 -18.5t-12.5 -49.5v-696q0 -36 5.5 -54t21.5 -24t48 -8v-20q-31 2 -78.5 2.5t-96.5 0.5t-91.5 -0.5t-68.5 -2.5v20q63 2 82 22.5t19 73.5v52q-158 0 -252.5 49t-135.5 133.5t-41 190.5q0 102 46 181t133 123.5
t209 44.5zM463 656q-5 0 -14.5 -39t-18.5 -103.5t-11 -141.5q-82 0 -149.5 -4t-107.5 -9t-40 -8t40 -8t107.5 -8.5t149.5 -3.5q1 -79 10.5 -143.5t19 -102t14.5 -37.5v32.5v86.5v118.5v129.5v119v87.5v34.5z" />
    <glyph glyph-name="periodcentered" unicode="&#xb7;" horiz-adv-x="278" 
d="M139 358q39 0 62 -20.5t23 -56.5t-23 -56.5t-62 -20.5t-62 20.5t-23 56.5t23 56.5t62 20.5z" />
    <glyph glyph-name="cedilla" unicode="&#xb8;" horiz-adv-x="327" 
d="M158 2l-21 -67q16 6 34 9t37 3q34 0 51.5 -14.5t17.5 -39.5q0 -28 -19.5 -46t-51.5 -26.5t-69 -8.5q-27 0 -49 3.5t-38 8.5l5 18q6 -1 18 -2.5t26 -1.5q25 0 49 9t24 32q0 26 -33 26q-8 0 -19.5 -1.5t-20.5 -5.5l32 104h27z" />
    <glyph glyph-name="uni00B9" unicode="&#xb9;" horiz-adv-x="283" 
d="M203 753v-246q0 -29 15.5 -39t51.5 -10v-21q-17 1 -49 1.5t-66 0.5q-35 0 -68 -0.5t-51 -1.5v21q35 0 54.5 10t19.5 39v129q0 44 -17 54.5t-64 10.5v21q62 1 101.5 8t72.5 23z" />
    <glyph glyph-name="ordmasculine" unicode="&#xba;" horiz-adv-x="468" 
d="M234 722q55 0 99 -20.5t70 -60.5t26 -100q0 -59 -26 -99.5t-70 -61t-99 -20.5q-54 0 -98.5 20.5t-70.5 61t-26 99.5q0 60 26 100t70.5 60.5t98.5 20.5zM234 704q-26 0 -43.5 -38t-17.5 -125t17.5 -125t43.5 -38t44 38t18 125t-18 125t-44 38z" />
    <glyph glyph-name="guillemotright" unicode="&#xbb;" horiz-adv-x="569" 
d="M268 532q58 -80 124.5 -147.5t150.5 -120.5v-12q-84 -53 -150.5 -120.5t-124.5 -147.5l-16 6q16 51 39 101.5t49.5 94t53.5 71.5q-27 28 -53.5 71.5t-49.5 95.5t-39 103zM68 508q53 -73 113.5 -134.5t138.5 -109.5v-12q-78 -47 -138.5 -109t-113.5 -135l-15 6
q14 48 34 94t43 84.5t46 64.5q-23 25 -46 64.5t-43 86.5t-34 95z" />
    <glyph glyph-name="onequarter" unicode="&#xbc;" horiz-adv-x="709" 
d="M663 824l19 -13l-585 -866l-19 13zM218 753v-246q0 -29 15.5 -39t51.5 -10v-21q-17 1 -49 1.5t-66 0.5q-35 0 -68 -0.5t-51 -1.5v21q35 0 54.5 10t19.5 39v129q0 44 -17 54.5t-64 10.5v21q62 1 101.5 8t72.5 23zM540 312l8 -15l-226 -250l17 29h235q25 0 33 8.5t15 25.5
l17 -3q-4 -14 -7 -32t-4.5 -34t-2.5 -26q-9 2 -18.5 2.5t-19.5 0.5h-294v21zM561 312v-411h-73v342l52 69h21z" />
    <glyph glyph-name="onehalf" unicode="&#xbd;" horiz-adv-x="720" 
d="M647 824l19 -13l-585 -866l-19 13zM220 753v-246q0 -29 15.5 -39t51.5 -10v-21q-17 1 -49 1.5t-66 0.5q-35 0 -68 -0.5t-51 -1.5v21q35 0 54.5 10t19.5 39v129q0 44 -17 54.5t-64 10.5v21q62 1 101.5 8t72.5 23zM541 318q48 0 79.5 -18t31.5 -56q0 -28 -16 -49.5
t-40.5 -40t-53.5 -37t-55 -39.5h135q24 0 32 8.5t15 25.5l17 -3q-7 -33 -10.5 -60t-4.5 -51q-9 2 -18.5 2.5t-19.5 0.5h-244v20q21 18 50 39.5t56 46.5t45.5 54.5t18.5 64.5q0 26 -15.5 39t-45.5 13q-55 0 -87 -48l-15 8q18 31 52.5 55.5t92.5 24.5z" />
    <glyph glyph-name="threequarters" unicode="&#xbe;" horiz-adv-x="752" 
d="M705 824l19 -13l-585 -866l-19 13zM192 756q49 0 81.5 -18.5t32.5 -53.5t-31.5 -59.5t-85.5 -35.5q54 2 94 -22.5t40 -68.5q0 -36 -24.5 -63.5t-65.5 -46t-90 -28.5t-98 -12v17q54 6 96 24t66.5 47t24.5 67q0 31 -16 52t-45 23q-11 -5 -19.5 -9.5t-16.5 -4.5
q-16 0 -16 12q0 11 13 13t31 1q31 14 40.5 36t9.5 37q0 25 -16.5 40t-46.5 15q-27 0 -50 -13t-38 -37l-15 8q17 32 51.5 56t93.5 24zM586 312l8 -15l-226 -250l17 29h235q25 0 33 8.5t15 25.5l17 -3q-4 -14 -7 -32t-4.5 -34t-2.5 -26q-9 2 -18.5 2.5t-19.5 0.5h-294v21z
M607 312v-411h-73v342l52 69h21z" />
    <glyph glyph-name="questiondown" unicode="&#xbf;" horiz-adv-x="503" 
d="M304 323v-138q-56 -24 -84.5 -53.5t-38 -64t-9.5 -72.5q0 -86 34 -124.5t88 -38.5q27 0 51 5.5t36 16.5q-27 9 -41.5 26.5t-14.5 46.5q0 31 22.5 51.5t57.5 20.5q32 0 51 -20.5t19 -48.5q0 -31 -16 -51t-41 -34q-23 -14 -60.5 -23.5t-88.5 -9.5q-108 0 -174 47t-66 129
q0 79 70.5 131.5t184.5 74.5v129h20zM293 532q39 0 62 -20.5t23 -56.5t-23 -56.5t-62 -20.5t-62 20.5t-23 56.5t23 56.5t62 20.5z" />
    <glyph glyph-name="Agrave" unicode="&#xc0;" horiz-adv-x="667" 
d="M368 710l243 -626q14 -36 31.5 -49.5t31.5 -14.5v-20q-30 2 -70.5 2.5t-81.5 0.5q-46 0 -87 -0.5t-65 -2.5v20q51 2 64.5 17.5t-6.5 66.5l-170 465l18 26l-152 -396q-28 -74 -27.5 -112t24.5 -51.5t64 -15.5v-20q-33 2 -63 2.5t-61 0.5q-22 0 -41.5 -0.5t-34.5 -2.5v20
q21 4 43 27t43 78l228 585q16 -1 34.5 -1t34.5 1zM438 288v-20h-298l10 20h288zM238 934q23 -12 42 -32.5t46 -49.5t74 -68l-7 -12q-55 21 -93.5 31t-65.5 16.5t-49 18.5q-23 13 -30.5 34t2.5 40q12 23 36 28.5t45 -6.5z" />
    <glyph glyph-name="Aacute" unicode="&#xc1;" horiz-adv-x="667" 
d="M368 710l243 -626q14 -36 31.5 -49.5t31.5 -14.5v-20q-30 2 -70.5 2.5t-81.5 0.5q-46 0 -87 -0.5t-65 -2.5v20q51 2 64.5 17.5t-6.5 66.5l-170 465l18 26l-152 -396q-28 -74 -27.5 -112t24.5 -51.5t64 -15.5v-20q-33 2 -63 2.5t-61 0.5q-22 0 -41.5 -0.5t-34.5 -2.5v20
q21 4 43 27t43 78l228 585q16 -1 34.5 -1t34.5 1zM438 288v-20h-298l10 20h288zM422 934q21 12 45.5 6.5t35.5 -28.5q10 -19 2.5 -40t-30.5 -34q-22 -12 -49 -18.5t-65 -16.5t-94 -31l-7 12q48 39 74.5 68t45.5 49.5t42 32.5z" />
    <glyph glyph-name="Acircumflex" unicode="&#xc2;" horiz-adv-x="667" 
d="M368 710l243 -626q14 -36 31.5 -49.5t31.5 -14.5v-20q-30 2 -70.5 2.5t-81.5 0.5q-46 0 -87 -0.5t-65 -2.5v20q51 2 64.5 17.5t-6.5 66.5l-170 465l18 26l-152 -396q-28 -74 -27.5 -112t24.5 -51.5t64 -15.5v-20q-33 2 -63 2.5t-61 0.5q-22 0 -41.5 -0.5t-34.5 -2.5v20
q21 4 43 27t43 78l228 585q16 -1 34.5 -1t34.5 1zM438 288v-20h-298l10 20h288zM342 940q30 -43 84.5 -85.5t120.5 -70.5l-5 -15q-65 12 -128.5 30t-100.5 35q-31 -17 -83.5 -35t-105.5 -30l-5 15q65 28 119.5 70t85.5 86h18z" />
    <glyph glyph-name="Atilde" unicode="&#xc3;" horiz-adv-x="667" 
d="M368 710l243 -626q14 -36 31.5 -49.5t31.5 -14.5v-20q-30 2 -70.5 2.5t-81.5 0.5q-46 0 -87 -0.5t-65 -2.5v20q51 2 64.5 17.5t-6.5 66.5l-170 465l18 26l-152 -396q-28 -74 -27.5 -112t24.5 -51.5t64 -15.5v-20q-33 2 -63 2.5t-61 0.5q-22 0 -41.5 -0.5t-34.5 -2.5v20
q21 4 43 27t43 78l228 585q16 -1 34.5 -1t34.5 1zM438 288v-20h-298l10 20h288zM245 924q35 0 61.5 -11t49 -25t46 -24.5t53.5 -10.5q24 0 45 12.5t38 41.5l14 -5q-13 -69 -50.5 -101.5t-82.5 -32.5q-35 0 -61.5 10.5t-49.5 25t-46.5 25t-53.5 10.5q-24 0 -45 -12.5
t-38 -42.5l-14 5q14 70 51.5 102.5t82.5 32.5z" />
    <glyph glyph-name="Adieresis" unicode="&#xc4;" horiz-adv-x="667" 
d="M368 710l243 -626q14 -36 31.5 -49.5t31.5 -14.5v-20q-30 2 -70.5 2.5t-81.5 0.5q-46 0 -87 -0.5t-65 -2.5v20q51 2 64.5 17.5t-6.5 66.5l-170 465l18 26l-152 -396q-28 -74 -27.5 -112t24.5 -51.5t64 -15.5v-20q-33 2 -63 2.5t-61 0.5q-22 0 -41.5 -0.5t-34.5 -2.5v20
q21 4 43 27t43 78l228 585q16 -1 34.5 -1t34.5 1zM438 288v-20h-298l10 20h288zM453 917q30 0 52.5 -23t22.5 -53q0 -31 -22.5 -53t-52.5 -22q-31 0 -53.5 22t-22.5 54q0 30 22.5 52.5t53.5 22.5zM213 917q30 0 53 -23t23 -53q0 -31 -23 -53t-53 -22q-31 0 -53 22t-22 54
q0 30 22 52.5t53 22.5z" />
    <glyph glyph-name="Aring" unicode="&#xc5;" horiz-adv-x="667" 
d="M368 710l243 -626q14 -36 31.5 -49.5t31.5 -14.5v-20q-30 2 -70.5 2.5t-81.5 0.5q-46 0 -87 -0.5t-65 -2.5v20q51 2 64.5 17.5t-6.5 66.5l-170 465l18 26l-152 -396q-28 -74 -27.5 -112t24.5 -51.5t64 -15.5v-20q-33 2 -63 2.5t-61 0.5q-22 0 -41.5 -0.5t-34.5 -2.5v20
q21 4 43 27t43 78l228 585q16 -1 34.5 -1t34.5 1zM438 288v-20h-298l10 20h288zM333 937q44 0 76.5 -26t32.5 -71t-32.5 -71.5t-76.5 -26.5q-43 0 -75.5 26.5t-32.5 71.5t32.5 71t75.5 26zM333 916q-28 0 -54 -20t-26 -57q0 -38 26 -57t54 -19q29 0 55 19t26 57q0 37 -26 57
t-55 20z" />
    <glyph glyph-name="AE" unicode="&#xc6;" horiz-adv-x="889" 
d="M484 772l-391 -668q-28 -47 -14 -64.5t65 -19.5v-20q-15 2 -39.5 2.5t-51.5 0.5q-18 0 -36.5 -0.5t-30.5 -2.5v20q16 1 32 14.5t37 49.5l405 688h24zM824 708q-4 -40 -5.5 -78t-1.5 -58t1 -38t2 -30h-23q-8 69 -25 108.5t-42.5 56t-60.5 16.5h-33q-31 0 -47.5 -5.5
t-22 -23t-5.5 -54.5v-496q0 -36 5.5 -54t22 -23.5t47.5 -5.5h49q34 0 61 19t45 62.5t26 119.5h23q-3 -32 -3 -84q0 -21 1 -59.5t6 -80.5q-49 2 -111 2.5t-110 0.5h-79t-104.5 -0.5t-104.5 -2.5v20q29 2 43 8t19 24t5 54v496q0 37 -5.5 54.5t-22 24t-47.5 7.5v20
q50 -1 107 -2t107.5 -1h81.5q44 0 100 0.5t101 2.5zM435 366v-20h-212l10 20h202zM695 366v-10v-10h-164v10v10h164zM724 484q-4 -51 -3.5 -78t0.5 -50t1 -49.5t5 -78.5h-23q-4 29 -12 56t-25.5 44.5t-52.5 17.5v20q35 0 51.5 20.5t24 48.5t11.5 49h23z" />
    <glyph glyph-name="Ccedilla" unicode="&#xc7;" horiz-adv-x="705" 
d="M397 722q66 0 108.5 -19.5t75.5 -45.5q20 -15 30.5 -3.5t14.5 54.5h23q-2 -39 -3 -94.5t-1 -147.5h-23q-5 46 -13 78.5t-22 57.5t-40 45q-25 25 -58 37t-69 12q-54 0 -92 -28.5t-61.5 -77.5t-34.5 -110.5t-11 -127.5q0 -67 11.5 -128.5t36 -109.5t63.5 -76t92 -28
q33 0 66.5 12.5t57.5 36.5q39 30 53 74.5t21 118.5h23q0 -95 1 -153.5t3 -98.5h-23q-4 43 -13.5 54t-31.5 -3q-37 -26 -78.5 -45.5t-106.5 -19.5q-106 0 -185.5 43t-123.5 124t-44 195q0 112 45.5 196t125 131t183.5 47zM413 5l-22 -70q17 6 36.5 9t40.5 3q37 0 56 -14.5
t19 -39.5q0 -28 -22 -46t-58 -26.5t-78 -8.5q-29 0 -53 3.5t-40 8.5l5 18q7 -1 20.5 -2.5t29.5 -1.5q31 0 61 9t30 32q0 14 -12 20t-34 6q-8 0 -19 -1.5t-20 -5.5l33 107h27z" />
    <glyph glyph-name="Egrave" unicode="&#xc8;" horiz-adv-x="634" 
d="M569 708q-4 -44 -5.5 -85t-1.5 -63q0 -20 1 -38t2 -30h-23q-10 73 -31 115.5t-54.5 60t-78.5 17.5h-41q-30 0 -44.5 -5t-19.5 -19.5t-5 -46.5v-520q0 -31 5 -46t19.5 -20t44.5 -5h49q45 0 79.5 19.5t59 66.5t37.5 127h23q-3 -32 -3 -84q0 -23 1 -65t6 -87q-51 2 -115 2.5
t-114 0.5h-90t-119 -0.5t-117 -2.5v20q32 2 48 8t21.5 24t5.5 54v496q0 37 -5.5 54.5t-22 24t-47.5 7.5v20q54 -1 117 -2t119 -1h90q46 0 104.5 0.5t104.5 2.5zM413 366v-10v-10h-175v10v10h175zM442 498q-4 -57 -3.5 -87t0.5 -55t1 -55t5 -87h-23q-5 35 -18.5 65
t-38.5 48.5t-65 18.5v20q40 0 64 22t37 52.5t18 57.5h23zM219 934q23 -12 42 -32.5t46 -49.5t74 -68l-7 -12q-55 21 -93.5 31t-65.5 16.5t-49 18.5q-23 13 -30.5 34t2.5 40q12 23 36 28.5t45 -6.5z" />
    <glyph glyph-name="Eacute" unicode="&#xc9;" horiz-adv-x="634" 
d="M569 708q-4 -44 -5.5 -85t-1.5 -63q0 -20 1 -38t2 -30h-23q-10 73 -31 115.5t-54.5 60t-78.5 17.5h-41q-30 0 -44.5 -5t-19.5 -19.5t-5 -46.5v-520q0 -31 5 -46t19.5 -20t44.5 -5h49q45 0 79.5 19.5t59 66.5t37.5 127h23q-3 -32 -3 -84q0 -23 1 -65t6 -87q-51 2 -115 2.5
t-114 0.5h-90t-119 -0.5t-117 -2.5v20q32 2 48 8t21.5 24t5.5 54v496q0 37 -5.5 54.5t-22 24t-47.5 7.5v20q54 -1 117 -2t119 -1h90q46 0 104.5 0.5t104.5 2.5zM413 366v-10v-10h-175v10v10h175zM442 498q-4 -57 -3.5 -87t0.5 -55t1 -55t5 -87h-23q-5 35 -18.5 65
t-38.5 48.5t-65 18.5v20q40 0 64 22t37 52.5t18 57.5h23zM403 934q21 12 45.5 6.5t35.5 -28.5q10 -19 2.5 -40t-30.5 -34q-22 -12 -49 -18.5t-65 -16.5t-94 -31l-7 12q48 39 74.5 68t45.5 49.5t42 32.5z" />
    <glyph glyph-name="Ecircumflex" unicode="&#xca;" horiz-adv-x="634" 
d="M569 708q-4 -44 -5.5 -85t-1.5 -63q0 -20 1 -38t2 -30h-23q-10 73 -31 115.5t-54.5 60t-78.5 17.5h-41q-30 0 -44.5 -5t-19.5 -19.5t-5 -46.5v-520q0 -31 5 -46t19.5 -20t44.5 -5h49q45 0 79.5 19.5t59 66.5t37.5 127h23q-3 -32 -3 -84q0 -23 1 -65t6 -87q-51 2 -115 2.5
t-114 0.5h-90t-119 -0.5t-117 -2.5v20q32 2 48 8t21.5 24t5.5 54v496q0 37 -5.5 54.5t-22 24t-47.5 7.5v20q54 -1 117 -2t119 -1h90q46 0 104.5 0.5t104.5 2.5zM413 366v-10v-10h-175v10v10h175zM442 498q-4 -57 -3.5 -87t0.5 -55t1 -55t5 -87h-23q-5 35 -18.5 65
t-38.5 48.5t-65 18.5v20q40 0 64 22t37 52.5t18 57.5h23zM323 940q30 -43 84.5 -85.5t120.5 -70.5l-5 -15q-65 12 -128.5 30t-100.5 35q-31 -17 -83.5 -35t-105.5 -30l-5 15q65 28 119.5 70t85.5 86h18z" />
    <glyph glyph-name="Edieresis" unicode="&#xcb;" horiz-adv-x="634" 
d="M569 708q-4 -44 -5.5 -85t-1.5 -63q0 -20 1 -38t2 -30h-23q-10 73 -31 115.5t-54.5 60t-78.5 17.5h-41q-30 0 -44.5 -5t-19.5 -19.5t-5 -46.5v-520q0 -31 5 -46t19.5 -20t44.5 -5h49q45 0 79.5 19.5t59 66.5t37.5 127h23q-3 -32 -3 -84q0 -23 1 -65t6 -87q-51 2 -115 2.5
t-114 0.5h-90t-119 -0.5t-117 -2.5v20q32 2 48 8t21.5 24t5.5 54v496q0 37 -5.5 54.5t-22 24t-47.5 7.5v20q54 -1 117 -2t119 -1h90q46 0 104.5 0.5t104.5 2.5zM413 366v-10v-10h-175v10v10h175zM442 498q-4 -57 -3.5 -87t0.5 -55t1 -55t5 -87h-23q-5 35 -18.5 65
t-38.5 48.5t-65 18.5v20q40 0 64 22t37 52.5t18 57.5h23zM434 917q30 0 52.5 -23t22.5 -53q0 -31 -22.5 -53t-52.5 -22q-31 0 -53.5 22t-22.5 54q0 30 22.5 52.5t53.5 22.5zM194 917q30 0 53 -23t23 -53q0 -31 -23 -53t-53 -22q-31 0 -53 22t-22 54q0 30 22 52.5t53 22.5z
" />
    <glyph glyph-name="Igrave" unicode="&#xcc;" horiz-adv-x="376" 
d="M343 708v-20q-32 -1 -48.5 -7.5t-21.5 -24t-5 -54.5v-496q0 -36 5.5 -54t21.5 -24t48 -8v-20q-27 2 -68 2.5t-83 0.5q-49 0 -90.5 -0.5t-67.5 -2.5v20q32 2 48 8t21.5 24t5.5 54v496q0 37 -5.5 54.5t-22 24t-47.5 7.5v20q26 -1 67.5 -2t90.5 -1q42 0 83 1t68 2zM97 934
q23 -12 42 -32.5t46 -49.5t74 -68l-7 -12q-55 21 -93.5 31t-65.5 16.5t-49 18.5q-23 13 -30.5 34t2.5 40q12 23 36 28.5t45 -6.5z" />
    <glyph glyph-name="Iacute" unicode="&#xcd;" horiz-adv-x="376" 
d="M343 708v-20q-32 -1 -48.5 -7.5t-21.5 -24t-5 -54.5v-496q0 -36 5.5 -54t21.5 -24t48 -8v-20q-27 2 -68 2.5t-83 0.5q-49 0 -90.5 -0.5t-67.5 -2.5v20q32 2 48 8t21.5 24t5.5 54v496q0 37 -5.5 54.5t-22 24t-47.5 7.5v20q26 -1 67.5 -2t90.5 -1q42 0 83 1t68 2zM281 934
q21 12 45.5 6.5t35.5 -28.5q10 -19 2.5 -40t-30.5 -34q-22 -12 -49 -18.5t-65 -16.5t-94 -31l-7 12q48 39 74.5 68t45.5 49.5t42 32.5z" />
    <glyph glyph-name="Icircumflex" unicode="&#xce;" horiz-adv-x="376" 
d="M343 708v-20q-32 -1 -48.5 -7.5t-21.5 -24t-5 -54.5v-496q0 -36 5.5 -54t21.5 -24t48 -8v-20q-27 2 -68 2.5t-83 0.5q-49 0 -90.5 -0.5t-67.5 -2.5v20q32 2 48 8t21.5 24t5.5 54v496q0 37 -5.5 54.5t-22 24t-47.5 7.5v20q26 -1 67.5 -2t90.5 -1q42 0 83 1t68 2zM201 940
q30 -43 84.5 -85.5t120.5 -70.5l-5 -15q-65 12 -128.5 30t-100.5 35q-31 -17 -83.5 -35t-105.5 -30l-5 15q65 28 119.5 70t85.5 86h18z" />
    <glyph glyph-name="Idieresis" unicode="&#xcf;" horiz-adv-x="376" 
d="M343 708v-20q-32 -1 -48.5 -7.5t-21.5 -24t-5 -54.5v-496q0 -36 5.5 -54t21.5 -24t48 -8v-20q-27 2 -68 2.5t-83 0.5q-49 0 -90.5 -0.5t-67.5 -2.5v20q32 2 48 8t21.5 24t5.5 54v496q0 37 -5.5 54.5t-22 24t-47.5 7.5v20q26 -1 67.5 -2t90.5 -1q42 0 83 1t68 2zM312 917
q30 0 52.5 -23t22.5 -53q0 -31 -22.5 -53t-52.5 -22q-31 0 -53.5 22t-22.5 54q0 30 22.5 52.5t53.5 22.5zM72 917q30 0 53 -23t23 -53q0 -31 -23 -53t-53 -22q-31 0 -53 22t-22 54q0 30 22 52.5t53 22.5z" />
    <glyph glyph-name="Eth" unicode="&#xd0;" horiz-adv-x="776" 
d="M343 708q197 0 293 -89.5t96 -256.5q0 -109 -47 -190.5t-136.5 -126.5t-214.5 -45q-24 0 -68.5 1.5t-77.5 1.5q-44 0 -86.5 -0.5t-67.5 -2.5v20q32 2 48 8t21.5 24t5.5 54v496q0 37 -5.5 54.5t-22 24t-47.5 7.5v20q25 -1 67.5 -2.5t84.5 -0.5q36 1 81.5 2t75.5 1z
M342 690q-46 0 -60 -17t-14 -69v-500q0 -52 14.5 -69t60.5 -17q84 0 132.5 39.5t69.5 115.5t21 185q0 168 -52 250t-172 82zM392 366v-20h-384v20h384z" />
    <glyph glyph-name="Ntilde" unicode="&#xd1;" horiz-adv-x="722" 
d="M693 708v-20q-32 -4 -48 -16.5t-21.5 -39.5t-5.5 -76v-558q-12 1 -24.5 1t-26.5 -1l-434 550v-384q0 -55 6 -84.5t26.5 -42t64.5 -17.5v-20q-19 2 -50 2.5t-58 0.5q-23 0 -47 -0.5t-40 -2.5v20q32 5 48 17t21.5 39.5t5.5 75.5v450q0 37 -5.5 54.5t-22 24t-47.5 7.5v20
q16 -1 40 -2t47 -1q24 0 46 1t40 2l387 -477v313q0 55 -6 84.5t-26.5 42.5t-64.5 17v20q19 -1 50 -2t58 -1q24 0 47.5 1t39.5 2zM291 924q35 0 61.5 -11t49 -25t46 -24.5t53.5 -10.5q24 0 45 12.5t38 41.5l14 -5q-13 -69 -50.5 -101.5t-82.5 -32.5q-35 0 -61.5 10.5
t-49.5 25t-46.5 25t-53.5 10.5q-24 0 -45 -12.5t-38 -42.5l-14 5q14 70 51.5 102.5t82.5 32.5z" />
    <glyph glyph-name="Ograve" unicode="&#xd2;" horiz-adv-x="793" 
d="M397 722q106 0 185.5 -43t123.5 -123.5t44 -195.5q0 -112 -45 -196t-125.5 -131t-183.5 -47q-106 0 -185.5 43t-123.5 124t-44 195q0 112 45.5 196t125 131t183.5 47zM393 704q-56 0 -97.5 -45t-64 -124t-22.5 -183q0 -106 25.5 -184.5t69 -121t96.5 -42.5q56 0 97.5 45
t64 124.5t22.5 182.5q0 107 -25.5 185t-69 120.5t-96.5 42.5zM300 934q23 -12 42 -32.5t46 -49.5t74 -68l-7 -12q-55 21 -93.5 31t-65.5 16.5t-49 18.5q-23 13 -30.5 34t2.5 40q12 23 36 28.5t45 -6.5z" />
    <glyph glyph-name="Oacute" unicode="&#xd3;" horiz-adv-x="793" 
d="M397 722q106 0 185.5 -43t123.5 -123.5t44 -195.5q0 -112 -45 -196t-125.5 -131t-183.5 -47q-106 0 -185.5 43t-123.5 124t-44 195q0 112 45.5 196t125 131t183.5 47zM393 704q-56 0 -97.5 -45t-64 -124t-22.5 -183q0 -106 25.5 -184.5t69 -121t96.5 -42.5q56 0 97.5 45
t64 124.5t22.5 182.5q0 107 -25.5 185t-69 120.5t-96.5 42.5zM484 934q21 12 45.5 6.5t35.5 -28.5q10 -19 2.5 -40t-30.5 -34q-22 -12 -49 -18.5t-65 -16.5t-94 -31l-7 12q48 39 74.5 68t45.5 49.5t42 32.5z" />
    <glyph glyph-name="Ocircumflex" unicode="&#xd4;" horiz-adv-x="793" 
d="M397 722q106 0 185.5 -43t123.5 -123.5t44 -195.5q0 -112 -45 -196t-125.5 -131t-183.5 -47q-106 0 -185.5 43t-123.5 124t-44 195q0 112 45.5 196t125 131t183.5 47zM393 704q-56 0 -97.5 -45t-64 -124t-22.5 -183q0 -106 25.5 -184.5t69 -121t96.5 -42.5q56 0 97.5 45
t64 124.5t22.5 182.5q0 107 -25.5 185t-69 120.5t-96.5 42.5zM404 940q30 -43 84.5 -85.5t120.5 -70.5l-5 -15q-65 12 -128.5 30t-100.5 35q-31 -17 -83.5 -35t-105.5 -30l-5 15q65 28 119.5 70t85.5 86h18z" />
    <glyph glyph-name="Otilde" unicode="&#xd5;" horiz-adv-x="793" 
d="M397 722q106 0 185.5 -43t123.5 -123.5t44 -195.5q0 -112 -45 -196t-125.5 -131t-183.5 -47q-106 0 -185.5 43t-123.5 124t-44 195q0 112 45.5 196t125 131t183.5 47zM393 704q-56 0 -97.5 -45t-64 -124t-22.5 -183q0 -106 25.5 -184.5t69 -121t96.5 -42.5q56 0 97.5 45
t64 124.5t22.5 182.5q0 107 -25.5 185t-69 120.5t-96.5 42.5zM307 924q35 0 61.5 -11t49 -25t46 -24.5t53.5 -10.5q24 0 45 12.5t38 41.5l14 -5q-13 -69 -50.5 -101.5t-82.5 -32.5q-35 0 -61.5 10.5t-49.5 25t-46.5 25t-53.5 10.5q-24 0 -45 -12.5t-38 -42.5l-14 5
q14 70 51.5 102.5t82.5 32.5z" />
    <glyph glyph-name="Odieresis" unicode="&#xd6;" horiz-adv-x="793" 
d="M397 722q106 0 185.5 -43t123.5 -123.5t44 -195.5q0 -112 -45 -196t-125.5 -131t-183.5 -47q-106 0 -185.5 43t-123.5 124t-44 195q0 112 45.5 196t125 131t183.5 47zM393 704q-56 0 -97.5 -45t-64 -124t-22.5 -183q0 -106 25.5 -184.5t69 -121t96.5 -42.5q56 0 97.5 45
t64 124.5t22.5 182.5q0 107 -25.5 185t-69 120.5t-96.5 42.5zM515 917q30 0 52.5 -23t22.5 -53q0 -31 -22.5 -53t-52.5 -22q-31 0 -53.5 22t-22.5 54q0 30 22.5 52.5t53.5 22.5zM275 917q30 0 53 -23t23 -53q0 -31 -23 -53t-53 -22q-31 0 -53 22t-22 54q0 30 22 52.5
t53 22.5z" />
    <glyph glyph-name="multiply" unicode="&#xd7;" horiz-adv-x="493" 
d="M73 552l175 -175l173 173l22 -22l-173 -172l173 -173l-22 -22l-173 173l-174 -174l-22 22l174 173l-175 175z" />
    <glyph glyph-name="Oslash" unicode="&#xd8;" horiz-adv-x="793" 
d="M397 722q106 0 185.5 -43t123.5 -123.5t44 -195.5q0 -112 -45 -196t-125.5 -131t-183.5 -47q-106 0 -185.5 43t-123.5 124t-44 195q0 112 45.5 196t125 131t183.5 47zM393 704q-56 0 -97.5 -45t-64 -124t-22.5 -183q0 -106 25.5 -184.5t69 -121t96.5 -42.5q56 0 97.5 45
t64 124.5t22.5 182.5q0 107 -25.5 185t-69 120.5t-96.5 42.5zM559 637l15 -20l-343 -541l-18 18zM201 94l18 -18l-109 -155l-21 14zM663 779l19 -13l-101 -149l-15 20z" />
    <glyph glyph-name="Ugrave" unicode="&#xd9;" horiz-adv-x="689" 
d="M671 708v-20q-32 -4 -48.5 -16.5t-21.5 -39.5t-5 -76v-265q0 -65 -9 -119t-32 -93q-26 -43 -76 -68t-127 -25q-46 0 -94 10.5t-86 39.5q-32 27 -49 61t-23 80.5t-6 110.5v314q0 37 -5.5 54.5t-21.5 24t-48 7.5v20q25 -1 67.5 -2t88.5 -1t88.5 1t70.5 2v-20
q-34 -1 -51.5 -7.5t-23.5 -24t-6 -54.5v-377q0 -67 12 -112.5t42.5 -68.5t83.5 -23q70 0 109.5 33t56 91.5t16.5 134.5v264q0 55 -7 84.5t-27.5 42.5t-62.5 17v20q19 -1 50 -2t58 -1q24 0 47.5 1t39.5 2zM262 934q23 -12 42 -32.5t46 -49.5t74 -68l-7 -12q-55 21 -93.5 31
t-65.5 16.5t-49 18.5q-23 13 -30.5 34t2.5 40q12 23 36 28.5t45 -6.5z" />
    <glyph glyph-name="Uacute" unicode="&#xda;" horiz-adv-x="689" 
d="M671 708v-20q-32 -4 -48.5 -16.5t-21.5 -39.5t-5 -76v-265q0 -65 -9 -119t-32 -93q-26 -43 -76 -68t-127 -25q-46 0 -94 10.5t-86 39.5q-32 27 -49 61t-23 80.5t-6 110.5v314q0 37 -5.5 54.5t-21.5 24t-48 7.5v20q25 -1 67.5 -2t88.5 -1t88.5 1t70.5 2v-20
q-34 -1 -51.5 -7.5t-23.5 -24t-6 -54.5v-377q0 -67 12 -112.5t42.5 -68.5t83.5 -23q70 0 109.5 33t56 91.5t16.5 134.5v264q0 55 -7 84.5t-27.5 42.5t-62.5 17v20q19 -1 50 -2t58 -1q24 0 47.5 1t39.5 2zM446 934q21 12 45.5 6.5t35.5 -28.5q10 -19 2.5 -40t-30.5 -34
q-22 -12 -49 -18.5t-65 -16.5t-94 -31l-7 12q48 39 74.5 68t45.5 49.5t42 32.5z" />
    <glyph glyph-name="Ucircumflex" unicode="&#xdb;" horiz-adv-x="689" 
d="M671 708v-20q-32 -4 -48.5 -16.5t-21.5 -39.5t-5 -76v-265q0 -65 -9 -119t-32 -93q-26 -43 -76 -68t-127 -25q-46 0 -94 10.5t-86 39.5q-32 27 -49 61t-23 80.5t-6 110.5v314q0 37 -5.5 54.5t-21.5 24t-48 7.5v20q25 -1 67.5 -2t88.5 -1t88.5 1t70.5 2v-20
q-34 -1 -51.5 -7.5t-23.5 -24t-6 -54.5v-377q0 -67 12 -112.5t42.5 -68.5t83.5 -23q70 0 109.5 33t56 91.5t16.5 134.5v264q0 55 -7 84.5t-27.5 42.5t-62.5 17v20q19 -1 50 -2t58 -1q24 0 47.5 1t39.5 2zM366 940q30 -43 84.5 -85.5t120.5 -70.5l-5 -15q-65 12 -128.5 30
t-100.5 35q-31 -17 -83.5 -35t-105.5 -30l-5 15q65 28 119.5 70t85.5 86h18z" />
    <glyph glyph-name="Udieresis" unicode="&#xdc;" horiz-adv-x="689" 
d="M671 708v-20q-32 -4 -48.5 -16.5t-21.5 -39.5t-5 -76v-265q0 -65 -9 -119t-32 -93q-26 -43 -76 -68t-127 -25q-46 0 -94 10.5t-86 39.5q-32 27 -49 61t-23 80.5t-6 110.5v314q0 37 -5.5 54.5t-21.5 24t-48 7.5v20q25 -1 67.5 -2t88.5 -1t88.5 1t70.5 2v-20
q-34 -1 -51.5 -7.5t-23.5 -24t-6 -54.5v-377q0 -67 12 -112.5t42.5 -68.5t83.5 -23q70 0 109.5 33t56 91.5t16.5 134.5v264q0 55 -7 84.5t-27.5 42.5t-62.5 17v20q19 -1 50 -2t58 -1q24 0 47.5 1t39.5 2zM477 917q30 0 52.5 -23t22.5 -53q0 -31 -22.5 -53t-52.5 -22
q-31 0 -53.5 22t-22.5 54q0 30 22.5 52.5t53.5 22.5zM237 917q30 0 53 -23t23 -53q0 -31 -23 -53t-53 -22q-31 0 -53 22t-22 54q0 30 22 52.5t53 22.5z" />
    <glyph glyph-name="Yacute" unicode="&#xdd;" horiz-adv-x="623" 
d="M617 709v-20q-22 -9 -45 -35.5t-51 -80.5l-189 -374h-47l-234 433q-18 34 -32.5 45t-25.5 11v21q27 -3 55.5 -4t62.5 -1q44 0 95 1.5t93 3.5v-21q-25 0 -45 -4t-28 -14.5t4 -33.5l158 -304l-31 -40l103 207q37 72 39.5 113t-20 58.5t-63.5 18.5v20q34 -1 64 -2t61 -1
q22 0 41.5 1t34.5 2zM403 357v-251q0 -36 5.5 -54t21.5 -24t48 -8v-20q-27 2 -69.5 2.5t-84.5 0.5q-47 0 -89 -0.5t-66 -2.5v20q32 2 48 8t21.5 24t5.5 54v205l87 -62zM419 934q21 12 45.5 6.5t35.5 -28.5q10 -19 2.5 -40t-30.5 -34q-22 -12 -49 -18.5t-65 -16.5t-94 -31
l-7 12q48 39 74.5 68t45.5 49.5t42 32.5z" />
    <glyph glyph-name="Thorn" unicode="&#xde;" horiz-adv-x="621" 
d="M324 567q139 0 208 -50t69 -142q0 -42 -14 -82.5t-47.5 -73.5t-91.5 -53t-146 -20h-96v10v10h86q59 0 89.5 27.5t42 73.5t11.5 99q0 89 -30.5 135.5t-105.5 46.5q-31 0 -69 -1t-55 -1l-2 19q47 0 90 1t61 1zM343 708v-20q-32 -1 -48.5 -7.5t-21.5 -24t-5 -54.5v-496
q0 -36 5.5 -54t21.5 -24t48 -8v-20q-27 2 -68 2.5t-83 0.5q-49 0 -90.5 -0.5t-67.5 -2.5v20q32 2 48 8t21.5 24t5.5 54v496q0 37 -5.5 54.5t-22 24t-47.5 7.5v20q26 -1 67.5 -2t90.5 -1q42 0 83 1t68 2z" />
    <glyph glyph-name="germandbls" unicode="&#xdf;" horiz-adv-x="657" 
d="M331 782q102 0 156 -42t54 -106q0 -38 -18 -70.5t-49 -58.5t-68.5 -44.5t-76.5 -27.5q95 -13 162.5 -49t103 -88.5t35.5 -115.5t-31.5 -106.5t-81.5 -65.5t-109 -22q-36 0 -68.5 10t-52.5 32.5t-20 60.5q0 35 18.5 57.5t52.5 22.5q32 0 51 -19t19 -50t-19 -52.5
t-44 -31.5q5 -5 15.5 -9t23.5 -4q30 0 51.5 19.5t33.5 55.5t12 87q0 58 -14.5 102t-38.5 74.5t-54 50t-61 30.5q-8 -5 -17.5 -9t-17.5 -4q-7 0 -13.5 4t-6.5 12q0 19 23 19q7 0 16.5 -2.5t16.5 -5.5q51 36 70 80t19 108q0 71 -22.5 107t-66.5 36q-30 0 -49.5 -18t-28.5 -61
t-9 -119v-580q-27 7 -58 10t-67 4q-20 1 -37.5 0t-45.5 -3v21q36 0 50 17.5t14 60.5v423q0 89 29 146.5t84.5 85.5t134.5 28z" />
    <glyph glyph-name="agrave" unicode="&#xe0;" horiz-adv-x="518" 
d="M156 -7q-67 0 -97 35t-30 85q0 43 19.5 70t50.5 44.5t65.5 29t66 23t51 26.5t19.5 38v78q0 26 -8.5 46.5t-26 31.5t-45.5 11q-20 0 -40 -5.5t-33 -18.5q28 -10 43.5 -30.5t15.5 -46.5q0 -34 -23.5 -54t-55.5 -20q-36 0 -54.5 22.5t-18.5 54.5q0 29 14.5 48t40.5 36
q28 16 67.5 25t85.5 9t83 -9.5t62 -34.5q23 -23 30 -56.5t7 -84.5v-272q0 -24 5 -34t17 -10q10 0 19 5t17 12l10 -17q-21 -18 -48.5 -27.5t-61.5 -9.5q-60 0 -79.5 24.5t-20.5 56.5q-25 -41 -61.5 -61t-85.5 -20zM233 57q19 0 35.5 9t32.5 32v205q-12 -20 -33.5 -33.5
t-44 -29t-37.5 -39.5t-15 -64q0 -43 18 -61.5t44 -18.5zM135 817q18 16 42.5 12t39.5 -23q17 -19 27 -45t24.5 -62.5t43.5 -90.5l-11 -9q-44 41 -75.5 64t-54 39t-39.5 36q-16 20 -15 42.5t18 36.5z" />
    <glyph glyph-name="aacute" unicode="&#xe1;" horiz-adv-x="518" 
d="M156 -7q-67 0 -97 35t-30 85q0 43 19.5 70t50.5 44.5t65.5 29t66 23t51 26.5t19.5 38v78q0 26 -8.5 46.5t-26 31.5t-45.5 11q-20 0 -40 -5.5t-33 -18.5q28 -10 43.5 -30.5t15.5 -46.5q0 -34 -23.5 -54t-55.5 -20q-36 0 -54.5 22.5t-18.5 54.5q0 29 14.5 48t40.5 36
q28 16 67.5 25t85.5 9t83 -9.5t62 -34.5q23 -23 30 -56.5t7 -84.5v-272q0 -24 5 -34t17 -10q10 0 19 5t17 12l10 -17q-21 -18 -48.5 -27.5t-61.5 -9.5q-60 0 -79.5 24.5t-20.5 56.5q-25 -41 -61.5 -61t-85.5 -20zM233 57q19 0 35.5 9t32.5 32v205q-12 -20 -33.5 -33.5
t-44 -29t-37.5 -39.5t-15 -64q0 -43 18 -61.5t44 -18.5zM369 817q17 -13 18 -36t-15 -43t-39 -36t-54.5 -39t-75.5 -64l-11 9q30 54 44 90.5t24 62.5t27 45q15 20 39.5 23.5t42.5 -12.5z" />
    <glyph glyph-name="acircumflex" unicode="&#xe2;" horiz-adv-x="518" 
d="M156 -7q-67 0 -97 35t-30 85q0 43 19.5 70t50.5 44.5t65.5 29t66 23t51 26.5t19.5 38v78q0 26 -8.5 46.5t-26 31.5t-45.5 11q-20 0 -40 -5.5t-33 -18.5q28 -10 43.5 -30.5t15.5 -46.5q0 -34 -23.5 -54t-55.5 -20q-36 0 -54.5 22.5t-18.5 54.5q0 29 14.5 48t40.5 36
q28 16 67.5 25t85.5 9t83 -9.5t62 -34.5q23 -23 30 -56.5t7 -84.5v-272q0 -24 5 -34t17 -10q10 0 19 5t17 12l10 -17q-21 -18 -48.5 -27.5t-61.5 -9.5q-60 0 -79.5 24.5t-20.5 56.5q-25 -41 -61.5 -61t-85.5 -20zM233 57q19 0 35.5 9t32.5 32v205q-12 -20 -33.5 -33.5
t-44 -29t-37.5 -39.5t-15 -64q0 -43 18 -61.5t44 -18.5zM269 820q27 -55 74.5 -108.5t104.5 -87.5l-8 -14q-58 14 -112 35t-88 41q-27 -20 -70.5 -41t-89.5 -35l-8 14q57 34 104.5 87t74.5 109h18z" />
    <glyph glyph-name="atilde" unicode="&#xe3;" horiz-adv-x="518" 
d="M156 -7q-67 0 -97 35t-30 85q0 43 19.5 70t50.5 44.5t65.5 29t66 23t51 26.5t19.5 38v78q0 26 -8.5 46.5t-26 31.5t-45.5 11q-20 0 -40 -5.5t-33 -18.5q28 -10 43.5 -30.5t15.5 -46.5q0 -34 -23.5 -54t-55.5 -20q-36 0 -54.5 22.5t-18.5 54.5q0 29 14.5 48t40.5 36
q28 16 67.5 25t85.5 9t83 -9.5t62 -34.5q23 -23 30 -56.5t7 -84.5v-272q0 -24 5 -34t17 -10q10 0 19 5t17 12l10 -17q-21 -18 -48.5 -27.5t-61.5 -9.5q-60 0 -79.5 24.5t-20.5 56.5q-25 -41 -61.5 -61t-85.5 -20zM233 57q19 0 35.5 9t32.5 32v205q-12 -20 -33.5 -33.5
t-44 -29t-37.5 -39.5t-15 -64q0 -43 18 -61.5t44 -18.5zM185 786q31 0 52 -10t38.5 -23t36 -23t42.5 -10q21 0 40.5 12.5t36.5 40.5l14 -7q-17 -74 -50.5 -106.5t-73.5 -32.5q-31 0 -52.5 10t-39 23.5t-35.5 23.5t-43 10q-21 0 -40.5 -12.5t-36.5 -41.5l-14 7q17 75 51 107
t74 32z" />
    <glyph glyph-name="adieresis" unicode="&#xe4;" horiz-adv-x="518" 
d="M156 -7q-67 0 -97 35t-30 85q0 43 19.5 70t50.5 44.5t65.5 29t66 23t51 26.5t19.5 38v78q0 26 -8.5 46.5t-26 31.5t-45.5 11q-20 0 -40 -5.5t-33 -18.5q28 -10 43.5 -30.5t15.5 -46.5q0 -34 -23.5 -54t-55.5 -20q-36 0 -54.5 22.5t-18.5 54.5q0 29 14.5 48t40.5 36
q28 16 67.5 25t85.5 9t83 -9.5t62 -34.5q23 -23 30 -56.5t7 -84.5v-272q0 -24 5 -34t17 -10q10 0 19 5t17 12l10 -17q-21 -18 -48.5 -27.5t-61.5 -9.5q-60 0 -79.5 24.5t-20.5 56.5q-25 -41 -61.5 -61t-85.5 -20zM233 57q19 0 35.5 9t32.5 32v205q-12 -20 -33.5 -33.5
t-44 -29t-37.5 -39.5t-15 -64q0 -43 18 -61.5t44 -18.5zM375 760q30 0 52.5 -22.5t22.5 -52.5q0 -31 -22.5 -53t-52.5 -22q-31 0 -53.5 22t-22.5 53q0 30 22.5 52.5t53.5 22.5zM147 760q30 0 53 -22.5t23 -52.5q0 -31 -23 -53t-53 -22q-31 0 -53 22t-22 53q0 30 22 52.5
t53 22.5z" />
    <glyph glyph-name="aring" unicode="&#xe5;" horiz-adv-x="518" 
d="M156 -7q-67 0 -97 35t-30 85q0 43 19.5 70t50.5 44.5t65.5 29t66 23t51 26.5t19.5 38v78q0 26 -8.5 46.5t-26 31.5t-45.5 11q-20 0 -40 -5.5t-33 -18.5q28 -10 43.5 -30.5t15.5 -46.5q0 -34 -23.5 -54t-55.5 -20q-36 0 -54.5 22.5t-18.5 54.5q0 29 14.5 48t40.5 36
q28 16 67.5 25t85.5 9t83 -9.5t62 -34.5q23 -23 30 -56.5t7 -84.5v-272q0 -24 5 -34t17 -10q10 0 19 5t17 12l10 -17q-21 -18 -48.5 -27.5t-61.5 -9.5q-60 0 -79.5 24.5t-20.5 56.5q-25 -41 -61.5 -61t-85.5 -20zM233 57q19 0 35.5 9t32.5 32v205q-12 -20 -33.5 -33.5
t-44 -29t-37.5 -39.5t-15 -64q0 -43 18 -61.5t44 -18.5zM260 797q44 0 76.5 -26t32.5 -71t-32.5 -71.5t-76.5 -26.5q-43 0 -75.5 26.5t-32.5 71.5t32.5 71t75.5 26zM260 776q-28 0 -54 -20t-26 -57q0 -38 26 -57t54 -19q29 0 55 19t26 57q0 37 -26 57t-55 20z" />
    <glyph glyph-name="ae" unicode="&#xe6;" horiz-adv-x="741" 
d="M156 -7q-67 0 -97 35t-30 85q0 43 19.5 70t50.5 44.5t65.5 29t66 23t51 26.5t19.5 38v78q0 26 -8.5 46.5t-26 31.5t-45.5 11q-20 0 -40 -5.5t-33 -18.5q28 -10 43.5 -30.5t15.5 -46.5q0 -34 -23.5 -54t-55.5 -20q-36 0 -54.5 22.5t-18.5 54.5q0 29 14.5 48t40.5 36
q28 16 67.5 25t85.5 9t83 -9.5t62 -34.5q23 -23 29.5 -57t6.5 -84l-111 -228q-26 -50 -54.5 -77t-59.5 -37.5t-63 -10.5zM232 57q24 0 45 15.5t41 53.5l-13 181q-14 -21 -36 -35t-44.5 -30.5t-38 -40.5t-15.5 -64q0 -43 18 -61.5t43 -18.5zM516 -14q-63 0 -111.5 28t-76 87
t-27.5 152q0 84 26.5 146.5t77.5 97t125 34.5q83 0 130.5 -52t47.5 -170h-305l-2 19h181q1 49 -5 90.5t-19 66.5t-34 25q-31 0 -52.5 -44t-25.5 -146l3 -6q-1 -12 -1.5 -25t-0.5 -27q0 -69 18 -112t45.5 -62.5t55.5 -19.5q27 0 59 15t59 65l18 -6q-11 -38 -35 -74t-61.5 -59
t-89.5 -23z" />
    <glyph glyph-name="ccedilla" unicode="&#xe7;" horiz-adv-x="496" 
d="M284 531q39 0 71.5 -8.5t53.5 -21.5q26 -16 40.5 -39.5t14.5 -54.5q0 -35 -22 -57.5t-57 -22.5t-56 20t-21 54q0 32 20 53.5t46 28.5q-8 10 -24 17t-36 7q-31 0 -54.5 -18t-39.5 -50t-24.5 -75t-8.5 -94q0 -77 19.5 -121t50 -62t63.5 -18q28 0 64 15.5t67 65.5l17 -6
q-11 -37 -36 -74t-65 -60.5t-98 -23.5q-65 0 -117.5 28.5t-84 88t-31.5 153.5q0 90 32.5 151.5t88.5 92.5t127 31zM262 2l-21 -67q16 6 34 9t37 3q34 0 51.5 -14.5t17.5 -39.5q0 -28 -19.5 -46t-51.5 -26.5t-69 -8.5q-27 0 -49 3.5t-38 8.5l5 18q6 -1 18 -2.5t26 -1.5
q25 0 49 9t24 32q0 26 -33 26q-8 0 -19.5 -1.5t-20.5 -5.5l32 104h27z" />
    <glyph glyph-name="egrave" unicode="&#xe8;" horiz-adv-x="504" 
d="M282 531q88 0 138 -52t50 -170h-329l-2 19h205q1 49 -6 90.5t-22 66.5t-40 25q-35 0 -59.5 -44t-29.5 -146l3 -6q-1 -12 -1.5 -25t-0.5 -27q0 -69 19.5 -112t49.5 -62.5t61 -19.5q30 0 65.5 15t66.5 65l18 -6q-12 -38 -38 -74t-66 -59t-96 -23q-68 0 -120 29t-81.5 88
t-29.5 150q0 93 31.5 155t87 92.5t126.5 30.5zM151 817q18 16 42.5 12t39.5 -23q17 -19 27 -45t24.5 -62.5t43.5 -90.5l-11 -9q-44 41 -75.5 64t-54 39t-39.5 36q-16 20 -15 42.5t18 36.5z" />
    <glyph glyph-name="eacute" unicode="&#xe9;" horiz-adv-x="504" 
d="M282 531q88 0 138 -52t50 -170h-329l-2 19h205q1 49 -6 90.5t-22 66.5t-40 25q-35 0 -59.5 -44t-29.5 -146l3 -6q-1 -12 -1.5 -25t-0.5 -27q0 -69 19.5 -112t49.5 -62.5t61 -19.5q30 0 65.5 15t66.5 65l18 -6q-12 -38 -38 -74t-66 -59t-96 -23q-68 0 -120 29t-81.5 88
t-29.5 150q0 93 31.5 155t87 92.5t126.5 30.5zM385 817q17 -13 18 -36t-15 -43t-39 -36t-54.5 -39t-75.5 -64l-11 9q30 54 44 90.5t24 62.5t27 45q15 20 39.5 23.5t42.5 -12.5z" />
    <glyph glyph-name="ecircumflex" unicode="&#xea;" horiz-adv-x="504" 
d="M282 531q88 0 138 -52t50 -170h-329l-2 19h205q1 49 -6 90.5t-22 66.5t-40 25q-35 0 -59.5 -44t-29.5 -146l3 -6q-1 -12 -1.5 -25t-0.5 -27q0 -69 19.5 -112t49.5 -62.5t61 -19.5q30 0 65.5 15t66.5 65l18 -6q-12 -38 -38 -74t-66 -59t-96 -23q-68 0 -120 29t-81.5 88
t-29.5 150q0 93 31.5 155t87 92.5t126.5 30.5zM285 820q27 -55 74.5 -108.5t104.5 -87.5l-8 -14q-58 14 -112 35t-88 41q-27 -20 -70.5 -41t-89.5 -35l-8 14q57 34 104.5 87t74.5 109h18z" />
    <glyph glyph-name="edieresis" unicode="&#xeb;" horiz-adv-x="504" 
d="M282 531q88 0 138 -52t50 -170h-329l-2 19h205q1 49 -6 90.5t-22 66.5t-40 25q-35 0 -59.5 -44t-29.5 -146l3 -6q-1 -12 -1.5 -25t-0.5 -27q0 -69 19.5 -112t49.5 -62.5t61 -19.5q30 0 65.5 15t66.5 65l18 -6q-12 -38 -38 -74t-66 -59t-96 -23q-68 0 -120 29t-81.5 88
t-29.5 150q0 93 31.5 155t87 92.5t126.5 30.5zM391 760q30 0 52.5 -22.5t22.5 -52.5q0 -31 -22.5 -53t-52.5 -22q-31 0 -53.5 22t-22.5 53q0 30 22.5 52.5t53.5 22.5zM163 760q30 0 53 -22.5t23 -52.5q0 -31 -23 -53t-53 -22q-31 0 -53 22t-22 53q0 30 22 52.5t53 22.5z" />
    <glyph glyph-name="igrave" unicode="&#xec;" horiz-adv-x="315" 
d="M232 528v-435q0 -42 14.5 -57t49.5 -15v-21q-18 1 -56 2.5t-77 1.5t-79 -1.5t-60 -2.5v21q35 0 49.5 15t14.5 57v315q0 45 -13.5 66.5t-50.5 21.5v21q32 -3 62 -3q42 0 78.5 3.5t67.5 10.5zM32 817q18 16 42.5 12t39.5 -23q17 -19 27 -45t24.5 -62.5t43.5 -90.5l-11 -9
q-44 41 -75.5 64t-54 39t-39.5 36q-16 20 -15 42.5t18 36.5z" />
    <glyph glyph-name="iacute" unicode="&#xed;" horiz-adv-x="315" 
d="M232 528v-435q0 -42 14.5 -57t49.5 -15v-21q-18 1 -56 2.5t-77 1.5t-79 -1.5t-60 -2.5v21q35 0 49.5 15t14.5 57v315q0 45 -13.5 66.5t-50.5 21.5v21q32 -3 62 -3q42 0 78.5 3.5t67.5 10.5zM266 817q17 -13 18 -36t-15 -43t-39 -36t-54.5 -39t-75.5 -64l-11 9
q30 54 44 90.5t24 62.5t27 45q15 20 39.5 23.5t42.5 -12.5z" />
    <glyph glyph-name="icircumflex" unicode="&#xee;" horiz-adv-x="315" 
d="M232 528v-435q0 -42 14.5 -57t49.5 -15v-21q-18 1 -56 2.5t-77 1.5t-79 -1.5t-60 -2.5v21q35 0 49.5 15t14.5 57v315q0 45 -13.5 66.5t-50.5 21.5v21q32 -3 62 -3q42 0 78.5 3.5t67.5 10.5zM166 820q27 -55 74.5 -108.5t104.5 -87.5l-8 -14q-58 14 -112 35t-88 41
q-27 -20 -70.5 -41t-89.5 -35l-8 14q57 34 104.5 87t74.5 109h18z" />
    <glyph glyph-name="idieresis" unicode="&#xef;" horiz-adv-x="315" 
d="M232 528v-435q0 -42 14.5 -57t49.5 -15v-21q-18 1 -56 2.5t-77 1.5t-79 -1.5t-60 -2.5v21q35 0 49.5 15t14.5 57v315q0 45 -13.5 66.5t-50.5 21.5v21q32 -3 62 -3q42 0 78.5 3.5t67.5 10.5zM272 760q30 0 52.5 -22.5t22.5 -52.5q0 -31 -22.5 -53t-52.5 -22
q-31 0 -53.5 22t-22.5 53q0 30 22.5 52.5t53.5 22.5zM44 760q30 0 53 -22.5t23 -52.5q0 -31 -23 -53t-53 -22q-31 0 -53 22t-22 53q0 30 22 52.5t53 22.5z" />
    <glyph glyph-name="eth" unicode="&#xf0;" horiz-adv-x="567" 
d="M137 782q106 -36 194 -99.5t141 -157.5t53 -221q0 -109 -31.5 -180t-86.5 -105t-126 -34t-126 26.5t-86 85t-31 151.5t29 156t80.5 95t117.5 32q51 0 84 -24t49 -75l-15 -4q-6 34 -21 51t-32.5 23t-34.5 6q-33 0 -57 -26t-36.5 -81t-12.5 -144t12 -145t33 -81.5t45 -25.5
q26 0 48.5 27t36 91.5t13.5 176.5q0 92 -14.5 164.5t-44.5 128.5t-77 98.5t-112 73.5zM293 694l17 -14l-199 -97l-9 18zM449 770l9 -18l-148 -72l-17 14z" />
    <glyph glyph-name="ntilde" unicode="&#xf1;" horiz-adv-x="614" 
d="M396 531q42 0 68.5 -10.5t41.5 -28.5q16 -19 23.5 -49t7.5 -81v-269q0 -42 14.5 -57t49.5 -15v-21q-19 1 -57 2.5t-75 1.5q-38 0 -74.5 -1.5t-55.5 -2.5v21q30 0 42 15t12 57v311q0 25 -5 43.5t-18 29t-39 10.5q-42 0 -70.5 -33t-28.5 -83v-278q0 -42 12.5 -57t41.5 -15
v-21q-18 1 -52.5 2.5t-71.5 1.5q-38 0 -78 -1.5t-60 -2.5v21q35 0 49.5 15t14.5 57v315q0 45 -13.5 66.5t-50.5 21.5v21q32 -3 62 -3q42 0 78.5 3.5t67.5 10.5v-90q25 51 68 72t96 21zM239 786q31 0 52 -10t38.5 -23t36 -23t42.5 -10q21 0 40.5 12.5t36.5 40.5l14 -7
q-17 -74 -50.5 -106.5t-73.5 -32.5q-31 0 -52.5 10t-39 23.5t-35.5 23.5t-43 10q-21 0 -40.5 -12.5t-36.5 -41.5l-14 7q17 75 51 107t74 32z" />
    <glyph glyph-name="ograve" unicode="&#xf2;" horiz-adv-x="565" 
d="M282 531q73 0 128 -27t86 -87t31 -159t-31 -158.5t-86 -86.5t-128 -27q-71 0 -126.5 27t-87 86.5t-31.5 158.5t31.5 159t87 87t126.5 27zM282 511q-40 0 -67 -59.5t-27 -193.5t27 -193t67 -59q41 0 67.5 59t26.5 193t-26.5 193.5t-67.5 59.5zM159 817q18 16 42.5 12
t39.5 -23q17 -19 27 -45t24.5 -62.5t43.5 -90.5l-11 -9q-44 41 -75.5 64t-54 39t-39.5 36q-16 20 -15 42.5t18 36.5z" />
    <glyph glyph-name="oacute" unicode="&#xf3;" horiz-adv-x="565" 
d="M282 531q73 0 128 -27t86 -87t31 -159t-31 -158.5t-86 -86.5t-128 -27q-71 0 -126.5 27t-87 86.5t-31.5 158.5t31.5 159t87 87t126.5 27zM282 511q-40 0 -67 -59.5t-27 -193.5t27 -193t67 -59q41 0 67.5 59t26.5 193t-26.5 193.5t-67.5 59.5zM393 817q17 -13 18 -36
t-15 -43t-39 -36t-54.5 -39t-75.5 -64l-11 9q30 54 44 90.5t24 62.5t27 45q15 20 39.5 23.5t42.5 -12.5z" />
    <glyph glyph-name="ocircumflex" unicode="&#xf4;" horiz-adv-x="565" 
d="M282 531q73 0 128 -27t86 -87t31 -159t-31 -158.5t-86 -86.5t-128 -27q-71 0 -126.5 27t-87 86.5t-31.5 158.5t31.5 159t87 87t126.5 27zM282 511q-40 0 -67 -59.5t-27 -193.5t27 -193t67 -59q41 0 67.5 59t26.5 193t-26.5 193.5t-67.5 59.5zM293 820q27 -55 74.5 -108.5
t104.5 -87.5l-8 -14q-58 14 -112 35t-88 41q-27 -20 -70.5 -41t-89.5 -35l-8 14q57 34 104.5 87t74.5 109h18z" />
    <glyph glyph-name="otilde" unicode="&#xf5;" horiz-adv-x="565" 
d="M282 531q73 0 128 -27t86 -87t31 -159t-31 -158.5t-86 -86.5t-128 -27q-71 0 -126.5 27t-87 86.5t-31.5 158.5t31.5 159t87 87t126.5 27zM282 511q-40 0 -67 -59.5t-27 -193.5t27 -193t67 -59q41 0 67.5 59t26.5 193t-26.5 193.5t-67.5 59.5zM209 786q31 0 52 -10
t38.5 -23t36 -23t42.5 -10q21 0 40.5 12.5t36.5 40.5l14 -7q-17 -74 -50.5 -106.5t-73.5 -32.5q-31 0 -52.5 10t-39 23.5t-35.5 23.5t-43 10q-21 0 -40.5 -12.5t-36.5 -41.5l-14 7q17 75 51 107t74 32z" />
    <glyph glyph-name="odieresis" unicode="&#xf6;" horiz-adv-x="565" 
d="M282 531q73 0 128 -27t86 -87t31 -159t-31 -158.5t-86 -86.5t-128 -27q-71 0 -126.5 27t-87 86.5t-31.5 158.5t31.5 159t87 87t126.5 27zM282 511q-40 0 -67 -59.5t-27 -193.5t27 -193t67 -59q41 0 67.5 59t26.5 193t-26.5 193.5t-67.5 59.5zM399 760q30 0 52.5 -22.5
t22.5 -52.5q0 -31 -22.5 -53t-52.5 -22q-31 0 -53.5 22t-22.5 53q0 30 22.5 52.5t53.5 22.5zM171 760q30 0 53 -22.5t23 -52.5q0 -31 -23 -53t-53 -22q-31 0 -53 22t-22 53q0 30 22 52.5t53 22.5z" />
    <glyph glyph-name="divide" unicode="&#xf7;" horiz-adv-x="633" 
d="M317 266q23 0 39.5 -16t16.5 -39t-16.5 -39.5t-39.5 -16.5q-22 0 -38.5 16.5t-16.5 39.5t16.5 39t38.5 16zM317 554q23 0 39.5 -16t16.5 -39t-16.5 -39t-39.5 -16q-22 0 -38.5 16t-16.5 39t16.5 39t38.5 16zM569 370v-30h-501v30h501z" />
    <glyph glyph-name="oslash" unicode="&#xf8;" horiz-adv-x="565" 
d="M282 531q73 0 128 -27t86 -87t31 -159t-31 -158.5t-86 -86.5t-128 -27q-71 0 -126.5 27t-87 86.5t-31.5 158.5t31.5 159t87 87t126.5 27zM282 511q-40 0 -67 -59.5t-27 -193.5t27 -193t67 -59q41 0 67.5 59t26.5 193t-26.5 193.5t-67.5 59.5zM390 466l15 -20l-223 -383
l-16 21zM145 77l16 -20l-90 -130l-20 13zM494 590l19 -13l-90 -131l-15 20z" />
    <glyph glyph-name="ugrave" unicode="&#xf9;" horiz-adv-x="606" 
d="M522 528v-419q0 -45 14 -66.5t50 -21.5v-21q-31 3 -62 3q-42 0 -78 -3t-68 -11v90q-24 -50 -66.5 -71.5t-94.5 -21.5q-42 0 -68 11t-41 28q-17 19 -24 50t-7 80v253q0 45 -13.5 66.5t-50.5 21.5v21q32 -3 62 -3q42 0 78.5 3.5t67.5 10.5v-414q0 -25 4.5 -44t17.5 -29.5
t38 -10.5q40 0 68.5 33.5t28.5 82.5v262q0 45 -13.5 66.5t-50.5 21.5v21q32 -3 62 -3q42 0 78.5 3.5t67.5 10.5zM164 817q18 16 42.5 12t39.5 -23q17 -19 27 -45t24.5 -62.5t43.5 -90.5l-11 -9q-44 41 -75.5 64t-54 39t-39.5 36q-16 20 -15 42.5t18 36.5z" />
    <glyph glyph-name="uacute" unicode="&#xfa;" horiz-adv-x="606" 
d="M522 528v-419q0 -45 14 -66.5t50 -21.5v-21q-31 3 -62 3q-42 0 -78 -3t-68 -11v90q-24 -50 -66.5 -71.5t-94.5 -21.5q-42 0 -68 11t-41 28q-17 19 -24 50t-7 80v253q0 45 -13.5 66.5t-50.5 21.5v21q32 -3 62 -3q42 0 78.5 3.5t67.5 10.5v-414q0 -25 4.5 -44t17.5 -29.5
t38 -10.5q40 0 68.5 33.5t28.5 82.5v262q0 45 -13.5 66.5t-50.5 21.5v21q32 -3 62 -3q42 0 78.5 3.5t67.5 10.5zM398 817q17 -13 18 -36t-15 -43t-39 -36t-54.5 -39t-75.5 -64l-11 9q30 54 44 90.5t24 62.5t27 45q15 20 39.5 23.5t42.5 -12.5z" />
    <glyph glyph-name="ucircumflex" unicode="&#xfb;" horiz-adv-x="606" 
d="M522 528v-419q0 -45 14 -66.5t50 -21.5v-21q-31 3 -62 3q-42 0 -78 -3t-68 -11v90q-24 -50 -66.5 -71.5t-94.5 -21.5q-42 0 -68 11t-41 28q-17 19 -24 50t-7 80v253q0 45 -13.5 66.5t-50.5 21.5v21q32 -3 62 -3q42 0 78.5 3.5t67.5 10.5v-414q0 -25 4.5 -44t17.5 -29.5
t38 -10.5q40 0 68.5 33.5t28.5 82.5v262q0 45 -13.5 66.5t-50.5 21.5v21q32 -3 62 -3q42 0 78.5 3.5t67.5 10.5zM298 820q27 -55 74.5 -108.5t104.5 -87.5l-8 -14q-58 14 -112 35t-88 41q-27 -20 -70.5 -41t-89.5 -35l-8 14q57 34 104.5 87t74.5 109h18z" />
    <glyph glyph-name="udieresis" unicode="&#xfc;" horiz-adv-x="606" 
d="M522 528v-419q0 -45 14 -66.5t50 -21.5v-21q-31 3 -62 3q-42 0 -78 -3t-68 -11v90q-24 -50 -66.5 -71.5t-94.5 -21.5q-42 0 -68 11t-41 28q-17 19 -24 50t-7 80v253q0 45 -13.5 66.5t-50.5 21.5v21q32 -3 62 -3q42 0 78.5 3.5t67.5 10.5v-414q0 -25 4.5 -44t17.5 -29.5
t38 -10.5q40 0 68.5 33.5t28.5 82.5v262q0 45 -13.5 66.5t-50.5 21.5v21q32 -3 62 -3q42 0 78.5 3.5t67.5 10.5zM404 760q30 0 52.5 -22.5t22.5 -52.5q0 -31 -22.5 -53t-52.5 -22q-31 0 -53.5 22t-22.5 53q0 30 22.5 52.5t53.5 22.5zM176 760q30 0 53 -22.5t23 -52.5
q0 -31 -23 -53t-53 -22q-31 0 -53 22t-22 53q0 30 22 52.5t53 22.5z" />
    <glyph glyph-name="yacute" unicode="&#xfd;" horiz-adv-x="519" 
d="M513 517v-20q-19 -5 -36 -23.5t-33 -62.5l-141 -396l-37 -70l-218 495q-17 39 -33.5 47.5t-28.5 8.5v21q33 -3 68.5 -4.5t68.5 -1.5q41 0 75 2t64 4v-21q-20 0 -37.5 -2.5t-24 -14t5.5 -39.5l126 -304l-9 -6l74 207q28 81 9 118.5t-67 41.5v20q23 -1 50 -2t47 -1t42 1
t35 2zM303 15l-38 -107q-19 -51 -44 -71q-14 -12 -36 -18.5t-51 -6.5q-24 0 -49.5 8t-42.5 26t-17 46q0 31 22 49.5t58 18.5q33 0 54 -16t21 -47q0 -20 -12.5 -38t-37.5 -27q5 -1 12 -1h11q30 0 53 19t38 60l35 103zM367 817q17 -13 18 -36t-15 -43t-39 -36t-54.5 -39
t-75.5 -64l-11 9q30 54 44 90.5t24 62.5t27 45q15 20 39.5 23.5t42.5 -12.5z" />
    <glyph glyph-name="thorn" unicode="&#xfe;" horiz-adv-x="584" 
d="M212 782v-864q0 -47 24 -62.5t66 -15.5v-21q-25 1 -71 2.5t-97 1.5q-36 0 -71.5 -1.5t-54.5 -2.5v21q33 0 46.5 14t13.5 54v754q0 45 -13.5 66.5t-50.5 21.5v21q32 -3 62 -3q42 0 78.5 3.5t67.5 10.5zM367 531q76 0 127.5 -62t51.5 -187q0 -97 -28.5 -163t-80.5 -99.5
t-122 -33.5q-39 0 -71.5 13.5t-48.5 38.5l10 13q10 -18 28.5 -28t42.5 -10q44 0 70.5 30.5t37.5 86t11 132.5q0 86 -10.5 135t-30 70t-45.5 21q-37 0 -66 -28t-34 -80l-4 35q18 57 61 86.5t101 29.5z" />
    <glyph glyph-name="ydieresis" unicode="&#xff;" horiz-adv-x="519" 
d="M513 517v-20q-19 -5 -36 -23.5t-33 -62.5l-141 -396l-37 -70l-218 495q-17 39 -33.5 47.5t-28.5 8.5v21q33 -3 68.5 -4.5t68.5 -1.5q41 0 75 2t64 4v-21q-20 0 -37.5 -2.5t-24 -14t5.5 -39.5l126 -304l-9 -6l74 207q28 81 9 118.5t-67 41.5v20q23 -1 50 -2t47 -1t42 1
t35 2zM303 15l-38 -107q-19 -51 -44 -71q-14 -12 -36 -18.5t-51 -6.5q-24 0 -49.5 8t-42.5 26t-17 46q0 31 22 49.5t58 18.5q33 0 54 -16t21 -47q0 -20 -12.5 -38t-37.5 -27q5 -1 12 -1h11q30 0 53 19t38 60l35 103zM373 760q30 0 52.5 -22.5t22.5 -52.5q0 -31 -22.5 -53
t-52.5 -22q-31 0 -53.5 22t-22.5 53q0 30 22.5 52.5t53.5 22.5zM145 760q30 0 53 -22.5t23 -52.5q0 -31 -23 -53t-53 -22q-31 0 -53 22t-22 53q0 30 22 52.5t53 22.5z" />
    <glyph glyph-name="Amacron" unicode="&#x100;" horiz-adv-x="667" 
d="M368 710l243 -626q14 -36 31.5 -49.5t31.5 -14.5v-20q-30 2 -70.5 2.5t-81.5 0.5q-46 0 -87 -0.5t-65 -2.5v20q51 2 64.5 17.5t-6.5 66.5l-170 465l18 26l-152 -396q-28 -74 -27.5 -112t24.5 -51.5t64 -15.5v-20q-33 2 -63 2.5t-61 0.5q-22 0 -41.5 -0.5t-34.5 -2.5v20
q21 4 43 27t43 78l228 585q16 -1 34.5 -1t34.5 1zM438 288v-20h-298l10 20h288zM533 844v-25h-400v25h400z" />
    <glyph glyph-name="amacron" unicode="&#x101;" horiz-adv-x="518" 
d="M156 -7q-67 0 -97 35t-30 85q0 43 19.5 70t50.5 44.5t65.5 29t66 23t51 26.5t19.5 38v78q0 26 -8.5 46.5t-26 31.5t-45.5 11q-20 0 -40 -5.5t-33 -18.5q28 -10 43.5 -30.5t15.5 -46.5q0 -34 -23.5 -54t-55.5 -20q-36 0 -54.5 22.5t-18.5 54.5q0 29 14.5 48t40.5 36
q28 16 67.5 25t85.5 9t83 -9.5t62 -34.5q23 -23 30 -56.5t7 -84.5v-272q0 -24 5 -34t17 -10q10 0 19 5t17 12l10 -17q-21 -18 -48.5 -27.5t-61.5 -9.5q-60 0 -79.5 24.5t-20.5 56.5q-25 -41 -61.5 -61t-85.5 -20zM233 57q19 0 35.5 9t32.5 32v205q-12 -20 -33.5 -33.5
t-44 -29t-37.5 -39.5t-15 -64q0 -43 18 -61.5t44 -18.5zM425 712v-25h-336v25h336z" />
    <glyph glyph-name="Abreve" unicode="&#x102;" horiz-adv-x="667" 
d="M368 710l243 -626q14 -36 31.5 -49.5t31.5 -14.5v-20q-30 2 -70.5 2.5t-81.5 0.5q-46 0 -87 -0.5t-65 -2.5v20q51 2 64.5 17.5t-6.5 66.5l-170 465l18 26l-152 -396q-28 -74 -27.5 -112t24.5 -51.5t64 -15.5v-20q-33 2 -63 2.5t-61 0.5q-22 0 -41.5 -0.5t-34.5 -2.5v20
q21 4 43 27t43 78l228 585q16 -1 34.5 -1t34.5 1zM438 288v-20h-298l10 20h288zM538 916l12 -11q-14 -31 -43 -62t-74 -51.5t-106 -20.5t-106 20.5t-74 51.5t-43 62l12 10q27 -20 78.5 -40t132.5 -20t132.5 20t78.5 41z" />
    <glyph glyph-name="abreve" unicode="&#x103;" horiz-adv-x="518" 
d="M156 -7q-67 0 -97 35t-30 85q0 43 19.5 70t50.5 44.5t65.5 29t66 23t51 26.5t19.5 38v78q0 26 -8.5 46.5t-26 31.5t-45.5 11q-20 0 -40 -5.5t-33 -18.5q28 -10 43.5 -30.5t15.5 -46.5q0 -34 -23.5 -54t-55.5 -20q-36 0 -54.5 22.5t-18.5 54.5q0 29 14.5 48t40.5 36
q28 16 67.5 25t85.5 9t83 -9.5t62 -34.5q23 -23 30 -56.5t7 -84.5v-272q0 -24 5 -34t17 -10q10 0 19 5t17 12l10 -17q-21 -18 -48.5 -27.5t-61.5 -9.5q-60 0 -79.5 24.5t-20.5 56.5q-25 -41 -61.5 -61t-85.5 -20zM233 57q19 0 35.5 9t32.5 32v205q-12 -20 -33.5 -33.5
t-44 -29t-37.5 -39.5t-15 -64q0 -43 18 -61.5t44 -18.5zM433 788l17 -9q-12 -36 -36 -72.5t-62 -61t-93 -24.5t-93 24.5t-62 61t-36 72.5l17 9q22 -25 63.5 -48.5t110.5 -23.5t110.5 23.5t63.5 48.5z" />
    <glyph glyph-name="Aogonek" unicode="&#x104;" horiz-adv-x="667" 
d="M368 710l243 -626q14 -36 31.5 -49.5t31.5 -14.5v-20q-30 2 -70.5 2.5t-81.5 0.5q-46 0 -87 -0.5t-65 -2.5v20q51 2 64.5 17.5t-6.5 66.5l-170 465l18 26l-152 -396q-28 -74 -27.5 -112t24.5 -51.5t64 -15.5v-20q-33 2 -63 2.5t-61 0.5q-22 0 -41.5 -0.5t-34.5 -2.5v20
q21 4 43 27t43 78l228 585q16 -1 34.5 -1t34.5 1zM438 288v-20h-298l10 20h288zM661 3q-60 -19 -84.5 -45.5t-24.5 -49.5q0 -20 11 -30.5t31 -10.5q17 0 35 8t29 19l13 -14q-26 -36 -59 -52t-78 -16q-43 0 -67 18.5t-24 50.5q0 42 48 73t132 49h38z" />
    <glyph glyph-name="aogonek" unicode="&#x105;" horiz-adv-x="518" 
d="M156 -7q-67 0 -97 35t-30 85q0 43 19.5 70t50.5 44.5t65.5 29t66 23t51 26.5t19.5 38v78q0 26 -8.5 46.5t-26 31.5t-45.5 11q-20 0 -40 -5.5t-33 -18.5q28 -10 43.5 -30.5t15.5 -46.5q0 -34 -23.5 -54t-55.5 -20q-36 0 -54.5 22.5t-18.5 54.5q0 29 14.5 48t40.5 36
q28 16 67.5 25t85.5 9t83 -9.5t62 -34.5q23 -23 30 -56.5t7 -84.5v-272q0 -24 5 -34t17 -10q10 0 19 5t17 12l10 -17q-21 -18 -48.5 -27.5t-61.5 -9.5q-60 0 -79.5 24.5t-20.5 56.5q-25 -41 -61.5 -61t-85.5 -20zM233 57q19 0 35.5 9t32.5 32v205q-12 -20 -33.5 -33.5
t-44 -29t-37.5 -39.5t-15 -64q0 -43 18 -61.5t44 -18.5zM474 9q-3 -3 -7 -6t-12 -6q-43 -20 -59 -44t-16 -45q0 -20 10.5 -30.5t30.5 -10.5q18 0 35.5 8t28.5 19l14 -14q-27 -36 -59.5 -52t-77.5 -16q-44 0 -67.5 18.5t-23.5 50.5q0 42 42.5 73t119.5 49z" />
    <glyph glyph-name="Cacute" unicode="&#x106;" horiz-adv-x="705" 
d="M397 722q66 0 108.5 -19.5t75.5 -45.5q20 -15 30.5 -3.5t14.5 54.5h23q-2 -39 -3 -94.5t-1 -147.5h-23q-5 46 -13 78.5t-22 57.5t-40 45q-25 25 -58 37t-69 12q-54 0 -92 -28.5t-61.5 -77.5t-34.5 -110.5t-11 -127.5q0 -67 11.5 -128.5t36 -109.5t63.5 -76t92 -28
q33 0 66.5 12.5t57.5 36.5q39 30 53 74.5t21 118.5h23q0 -95 1 -153.5t3 -98.5h-23q-4 43 -13.5 54t-31.5 -3q-37 -26 -78.5 -45.5t-106.5 -19.5q-106 0 -185.5 43t-123.5 124t-44 195q0 112 45.5 196t125 131t183.5 47zM468 934q21 12 45.5 6.5t35.5 -28.5q10 -19 2.5 -40
t-30.5 -34q-22 -12 -49 -18.5t-65 -16.5t-94 -31l-7 12q48 39 74.5 68t45.5 49.5t42 32.5z" />
    <glyph glyph-name="cacute" unicode="&#x107;" horiz-adv-x="496" 
d="M284 531q39 0 71.5 -8.5t53.5 -21.5q26 -16 40.5 -39.5t14.5 -54.5q0 -35 -22 -57.5t-57 -22.5t-56 20t-21 54q0 32 20 53.5t46 28.5q-8 10 -24 17t-36 7q-31 0 -54.5 -18t-39.5 -50t-24.5 -75t-8.5 -94q0 -77 19.5 -121t50 -62t63.5 -18q28 0 64 15.5t67 65.5l17 -6
q-11 -37 -36 -74t-65 -60.5t-98 -23.5q-65 0 -117.5 28.5t-84 88t-31.5 153.5q0 90 32.5 151.5t88.5 92.5t127 31zM377 817q17 -13 18 -36t-15 -43t-39 -36t-54.5 -39t-75.5 -64l-11 9q30 54 44 90.5t24 62.5t27 45q15 20 39.5 23.5t42.5 -12.5z" />
    <glyph glyph-name="Ccircumflex" unicode="&#x108;" horiz-adv-x="705" 
d="M397 722q66 0 108.5 -19.5t75.5 -45.5q20 -15 30.5 -3.5t14.5 54.5h23q-2 -39 -3 -94.5t-1 -147.5h-23q-5 46 -13 78.5t-22 57.5t-40 45q-25 25 -58 37t-69 12q-54 0 -92 -28.5t-61.5 -77.5t-34.5 -110.5t-11 -127.5q0 -67 11.5 -128.5t36 -109.5t63.5 -76t92 -28
q33 0 66.5 12.5t57.5 36.5q39 30 53 74.5t21 118.5h23q0 -95 1 -153.5t3 -98.5h-23q-4 43 -13.5 54t-31.5 -3q-37 -26 -78.5 -45.5t-106.5 -19.5q-106 0 -185.5 43t-123.5 124t-44 195q0 112 45.5 196t125 131t183.5 47zM388 940q30 -43 84.5 -85.5t120.5 -70.5l-5 -15
q-65 12 -128.5 30t-100.5 35q-31 -17 -83.5 -35t-105.5 -30l-5 15q65 28 119.5 70t85.5 86h18z" />
    <glyph glyph-name="ccircumflex" unicode="&#x109;" horiz-adv-x="496" 
d="M284 531q39 0 71.5 -8.5t53.5 -21.5q26 -16 40.5 -39.5t14.5 -54.5q0 -35 -22 -57.5t-57 -22.5t-56 20t-21 54q0 32 20 53.5t46 28.5q-8 10 -24 17t-36 7q-31 0 -54.5 -18t-39.5 -50t-24.5 -75t-8.5 -94q0 -77 19.5 -121t50 -62t63.5 -18q28 0 64 15.5t67 65.5l17 -6
q-11 -37 -36 -74t-65 -60.5t-98 -23.5q-65 0 -117.5 28.5t-84 88t-31.5 153.5q0 90 32.5 151.5t88.5 92.5t127 31zM277 820q27 -55 74.5 -108.5t104.5 -87.5l-8 -14q-58 14 -112 35t-88 41q-27 -20 -70.5 -41t-89.5 -35l-8 14q57 34 104.5 87t74.5 109h18z" />
    <glyph glyph-name="Cdotaccent" unicode="&#x10a;" horiz-adv-x="705" 
d="M397 722q66 0 108.5 -19.5t75.5 -45.5q20 -15 30.5 -3.5t14.5 54.5h23q-2 -39 -3 -94.5t-1 -147.5h-23q-5 46 -13 78.5t-22 57.5t-40 45q-25 25 -58 37t-69 12q-54 0 -92 -28.5t-61.5 -77.5t-34.5 -110.5t-11 -127.5q0 -67 11.5 -128.5t36 -109.5t63.5 -76t92 -28
q33 0 66.5 12.5t57.5 36.5q39 30 53 74.5t21 118.5h23q0 -95 1 -153.5t3 -98.5h-23q-4 43 -13.5 54t-31.5 -3q-37 -26 -78.5 -45.5t-106.5 -19.5q-106 0 -185.5 43t-123.5 124t-44 195q0 112 45.5 196t125 131t183.5 47zM380 919q38 0 61.5 -20.5t23.5 -56.5t-23.5 -56.5
t-61.5 -20.5q-39 0 -62 20.5t-23 56.5t23 56.5t62 20.5z" />
    <glyph glyph-name="cdotaccent" unicode="&#x10b;" horiz-adv-x="496" 
d="M284 531q39 0 71.5 -8.5t53.5 -21.5q26 -16 40.5 -39.5t14.5 -54.5q0 -35 -22 -57.5t-57 -22.5t-56 20t-21 54q0 32 20 53.5t46 28.5q-8 10 -24 17t-36 7q-31 0 -54.5 -18t-39.5 -50t-24.5 -75t-8.5 -94q0 -77 19.5 -121t50 -62t63.5 -18q28 0 64 15.5t67 65.5l17 -6
q-11 -37 -36 -74t-65 -60.5t-98 -23.5q-65 0 -117.5 28.5t-84 88t-31.5 153.5q0 90 32.5 151.5t88.5 92.5t127 31zM273 775q42 0 66.5 -20.5t24.5 -56.5t-24.5 -56.5t-66.5 -20.5t-66.5 20.5t-24.5 56.5t24.5 56.5t66.5 20.5z" />
    <glyph glyph-name="Ccaron" unicode="&#x10c;" horiz-adv-x="705" 
d="M397 722q66 0 108.5 -19.5t75.5 -45.5q20 -15 30.5 -3.5t14.5 54.5h23q-2 -39 -3 -94.5t-1 -147.5h-23q-5 46 -13 78.5t-22 57.5t-40 45q-25 25 -58 37t-69 12q-54 0 -92 -28.5t-61.5 -77.5t-34.5 -110.5t-11 -127.5q0 -67 11.5 -128.5t36 -109.5t63.5 -76t92 -28
q33 0 66.5 12.5t57.5 36.5q39 30 53 74.5t21 118.5h23q0 -95 1 -153.5t3 -98.5h-23q-4 43 -13.5 54t-31.5 -3q-37 -26 -78.5 -45.5t-106.5 -19.5q-106 0 -185.5 43t-123.5 124t-44 195q0 112 45.5 196t125 131t183.5 47zM585 938l5 -15q-65 -27 -119.5 -69.5t-85.5 -86.5
h-18q-30 44 -84.5 86.5t-120.5 69.5l5 15q65 -11 128.5 -29t100.5 -36q31 18 83.5 36t105.5 29z" />
    <glyph glyph-name="ccaron" unicode="&#x10d;" horiz-adv-x="496" 
d="M284 531q39 0 71.5 -8.5t53.5 -21.5q26 -16 40.5 -39.5t14.5 -54.5q0 -35 -22 -57.5t-57 -22.5t-56 20t-21 54q0 32 20 53.5t46 28.5q-8 10 -24 17t-36 7q-31 0 -54.5 -18t-39.5 -50t-24.5 -75t-8.5 -94q0 -77 19.5 -121t50 -62t63.5 -18q28 0 64 15.5t67 65.5l17 -6
q-11 -37 -36 -74t-65 -60.5t-98 -23.5q-65 0 -117.5 28.5t-84 88t-31.5 153.5q0 90 32.5 151.5t88.5 92.5t127 31zM438 820l8 -14q-57 -33 -104.5 -86.5t-74.5 -109.5h-18q-27 55 -74.5 109t-104.5 87l8 14q58 -14 112.5 -34.5t87.5 -41.5q28 21 71 41.5t89 34.5z" />
    <glyph glyph-name="Dcaron" unicode="&#x10e;" horiz-adv-x="776" 
d="M343 708q197 0 293 -89.5t96 -256.5q0 -109 -47 -190.5t-136.5 -126.5t-214.5 -45q-24 0 -68.5 1.5t-77.5 1.5q-44 0 -86.5 -0.5t-67.5 -2.5v20q32 2 48 8t21.5 24t5.5 54v496q0 37 -5.5 54.5t-22 24t-47.5 7.5v20q25 -1 67.5 -2.5t84.5 -0.5q36 1 81.5 2t75.5 1z
M342 690q-46 0 -60 -17t-14 -69v-500q0 -52 14.5 -69t60.5 -17q84 0 132.5 39.5t69.5 115.5t21 185q0 168 -52 250t-172 82zM549 938l5 -15q-65 -27 -119.5 -69.5t-85.5 -86.5h-18q-30 44 -84.5 86.5t-120.5 69.5l5 15q65 -11 128.5 -29t100.5 -36q31 18 83.5 36t105.5 29z
" />
    <glyph glyph-name="dcaron" unicode="&#x10f;" horiz-adv-x="598" 
d="M516 783v-673q0 -45 14 -66.5t50 -21.5v-21q-31 3 -62 3q-42 0 -78.5 -3t-67.5 -11v673q0 45 -13.5 66.5t-50.5 21.5v21q32 -3 62 -3q41 0 78 3.5t68 10.5zM261 531q44 0 77.5 -14.5t52.5 -48.5l-12 -11q-13 24 -34.5 34.5t-45.5 10.5q-51 0 -81 -59.5t-29 -183.5
q0 -85 11.5 -135.5t33 -72.5t49.5 -22q34 0 61 27t29 73l5 -35q-15 -53 -48.5 -80.5t-87.5 -27.5q-59 0 -105.5 29t-72.5 89.5t-26 156.5q0 91 29 150.5t79.5 89.5t114.5 30zM670 784q2 -5 3.5 -18.5t1.5 -22.5q0 -29 -26.5 -72t-70.5 -108l-14 4q12 68 16 100t4 45
q0 20 -3.5 30t-16.5 10v21q38 -2 61.5 2t44.5 9z" />
    <glyph glyph-name="Dcroat" unicode="&#x110;" horiz-adv-x="776" 
d="M343 708q197 0 293 -89.5t96 -256.5q0 -109 -47 -190.5t-136.5 -126.5t-214.5 -45q-24 0 -68.5 1.5t-77.5 1.5q-44 0 -86.5 -0.5t-67.5 -2.5v20q32 2 48 8t21.5 24t5.5 54v496q0 37 -5.5 54.5t-22 24t-47.5 7.5v20q25 -1 67.5 -2.5t84.5 -0.5q36 1 81.5 2t75.5 1z
M342 690q-46 0 -60 -17t-14 -69v-500q0 -52 14.5 -69t60.5 -17q84 0 132.5 39.5t69.5 115.5t21 185q0 168 -52 250t-172 82zM392 366v-20h-384v20h384z" />
    <glyph glyph-name="dcroat" unicode="&#x111;" horiz-adv-x="598" 
d="M516 783v-673q0 -45 14 -66.5t50 -21.5v-21q-31 3 -62 3q-42 0 -78.5 -3t-67.5 -11v673q0 45 -13.5 66.5t-50.5 21.5v21q32 -3 62 -3q41 0 78 3.5t68 10.5zM261 531q44 0 77.5 -14.5t52.5 -48.5l-12 -11q-13 24 -34.5 34.5t-45.5 10.5q-51 0 -81 -59.5t-29 -183.5
q0 -85 11.5 -135.5t33 -72.5t49.5 -22q34 0 61 27t29 73l5 -35q-15 -53 -48.5 -80.5t-87.5 -27.5q-59 0 -105.5 29t-72.5 89.5t-26 156.5q0 91 29 150.5t79.5 89.5t114.5 30zM589 628v-20h-384v20h384z" />
    <glyph glyph-name="Emacron" unicode="&#x112;" horiz-adv-x="634" 
d="M569 708q-4 -44 -5.5 -85t-1.5 -63q0 -20 1 -38t2 -30h-23q-10 73 -31 115.5t-54.5 60t-78.5 17.5h-41q-30 0 -44.5 -5t-19.5 -19.5t-5 -46.5v-520q0 -31 5 -46t19.5 -20t44.5 -5h49q45 0 79.5 19.5t59 66.5t37.5 127h23q-3 -32 -3 -84q0 -23 1 -65t6 -87q-51 2 -115 2.5
t-114 0.5h-90t-119 -0.5t-117 -2.5v20q32 2 48 8t21.5 24t5.5 54v496q0 37 -5.5 54.5t-22 24t-47.5 7.5v20q54 -1 117 -2t119 -1h90q46 0 104.5 0.5t104.5 2.5zM413 366v-10v-10h-175v10v10h175zM442 498q-4 -57 -3.5 -87t0.5 -55t1 -55t5 -87h-23q-5 35 -18.5 65
t-38.5 48.5t-65 18.5v20q40 0 64 22t37 52.5t18 57.5h23zM514 844v-25h-400v25h400z" />
    <glyph glyph-name="emacron" unicode="&#x113;" horiz-adv-x="504" 
d="M282 531q88 0 138 -52t50 -170h-329l-2 19h205q1 49 -6 90.5t-22 66.5t-40 25q-35 0 -59.5 -44t-29.5 -146l3 -6q-1 -12 -1.5 -25t-0.5 -27q0 -69 19.5 -112t49.5 -62.5t61 -19.5q30 0 65.5 15t66.5 65l18 -6q-12 -38 -38 -74t-66 -59t-96 -23q-68 0 -120 29t-81.5 88
t-29.5 150q0 93 31.5 155t87 92.5t126.5 30.5zM441 712v-25h-336v25h336z" />
    <glyph glyph-name="Ebreve" unicode="&#x114;" horiz-adv-x="634" 
d="M569 708q-4 -44 -5.5 -85t-1.5 -63q0 -20 1 -38t2 -30h-23q-10 73 -31 115.5t-54.5 60t-78.5 17.5h-41q-30 0 -44.5 -5t-19.5 -19.5t-5 -46.5v-520q0 -31 5 -46t19.5 -20t44.5 -5h49q45 0 79.5 19.5t59 66.5t37.5 127h23q-3 -32 -3 -84q0 -23 1 -65t6 -87q-51 2 -115 2.5
t-114 0.5h-90t-119 -0.5t-117 -2.5v20q32 2 48 8t21.5 24t5.5 54v496q0 37 -5.5 54.5t-22 24t-47.5 7.5v20q54 -1 117 -2t119 -1h90q46 0 104.5 0.5t104.5 2.5zM413 366v-10v-10h-175v10v10h175zM442 498q-4 -57 -3.5 -87t0.5 -55t1 -55t5 -87h-23q-5 35 -18.5 65
t-38.5 48.5t-65 18.5v20q40 0 64 22t37 52.5t18 57.5h23zM519 916l12 -11q-14 -31 -43 -62t-74 -51.5t-106 -20.5t-106 20.5t-74 51.5t-43 62l12 10q27 -20 78.5 -40t132.5 -20t132.5 20t78.5 41z" />
    <glyph glyph-name="ebreve" unicode="&#x115;" horiz-adv-x="504" 
d="M282 531q88 0 138 -52t50 -170h-329l-2 19h205q1 49 -6 90.5t-22 66.5t-40 25q-35 0 -59.5 -44t-29.5 -146l3 -6q-1 -12 -1.5 -25t-0.5 -27q0 -69 19.5 -112t49.5 -62.5t61 -19.5q30 0 65.5 15t66.5 65l18 -6q-12 -38 -38 -74t-66 -59t-96 -23q-68 0 -120 29t-81.5 88
t-29.5 150q0 93 31.5 155t87 92.5t126.5 30.5zM449 788l17 -9q-12 -36 -36 -72.5t-62 -61t-93 -24.5t-93 24.5t-62 61t-36 72.5l17 9q22 -25 63.5 -48.5t110.5 -23.5t110.5 23.5t63.5 48.5z" />
    <glyph glyph-name="Edotaccent" unicode="&#x116;" horiz-adv-x="634" 
d="M569 708q-4 -44 -5.5 -85t-1.5 -63q0 -20 1 -38t2 -30h-23q-10 73 -31 115.5t-54.5 60t-78.5 17.5h-41q-30 0 -44.5 -5t-19.5 -19.5t-5 -46.5v-520q0 -31 5 -46t19.5 -20t44.5 -5h49q45 0 79.5 19.5t59 66.5t37.5 127h23q-3 -32 -3 -84q0 -23 1 -65t6 -87q-51 2 -115 2.5
t-114 0.5h-90t-119 -0.5t-117 -2.5v20q32 2 48 8t21.5 24t5.5 54v496q0 37 -5.5 54.5t-22 24t-47.5 7.5v20q54 -1 117 -2t119 -1h90q46 0 104.5 0.5t104.5 2.5zM413 366v-10v-10h-175v10v10h175zM442 498q-4 -57 -3.5 -87t0.5 -55t1 -55t5 -87h-23q-5 35 -18.5 65
t-38.5 48.5t-65 18.5v20q40 0 64 22t37 52.5t18 57.5h23zM315 919q38 0 61.5 -20.5t23.5 -56.5t-23.5 -56.5t-61.5 -20.5q-39 0 -62 20.5t-23 56.5t23 56.5t62 20.5z" />
    <glyph glyph-name="edotaccent" unicode="&#x117;" horiz-adv-x="504" 
d="M282 531q88 0 138 -52t50 -170h-329l-2 19h205q1 49 -6 90.5t-22 66.5t-40 25q-35 0 -59.5 -44t-29.5 -146l3 -6q-1 -12 -1.5 -25t-0.5 -27q0 -69 19.5 -112t49.5 -62.5t61 -19.5q30 0 65.5 15t66.5 65l18 -6q-12 -38 -38 -74t-66 -59t-96 -23q-68 0 -120 29t-81.5 88
t-29.5 150q0 93 31.5 155t87 92.5t126.5 30.5zM276 775q42 0 66.5 -20.5t24.5 -56.5t-24.5 -56.5t-66.5 -20.5t-66.5 20.5t-24.5 56.5t24.5 56.5t66.5 20.5z" />
    <glyph glyph-name="Eogonek" unicode="&#x118;" horiz-adv-x="634" 
d="M569 708q-4 -44 -5.5 -85t-1.5 -63q0 -20 1 -38t2 -30h-23q-10 73 -31 115.5t-54.5 60t-78.5 17.5h-41q-30 0 -44.5 -5t-19.5 -19.5t-5 -46.5v-520q0 -31 5 -46t19.5 -20t44.5 -5h49q45 0 79.5 19.5t59 66.5t37.5 127h23q-3 -32 -3 -84q0 -23 1 -65t6 -87q-51 2 -115 2.5
t-114 0.5h-90t-119 -0.5t-117 -2.5v20q32 2 48 8t21.5 24t5.5 54v496q0 37 -5.5 54.5t-22 24t-47.5 7.5v20q54 -1 117 -2t119 -1h90q46 0 104.5 0.5t104.5 2.5zM413 366v-10v-10h-175v10v10h175zM442 498q-4 -57 -3.5 -87t0.5 -55t1 -55t5 -87h-23q-5 35 -18.5 65
t-38.5 48.5t-65 18.5v20q40 0 64 22t37 52.5t18 57.5h23zM586 3q-60 -19 -84.5 -45.5t-24.5 -49.5q0 -20 11 -30.5t31 -10.5q17 0 35 8t29 19l13 -14q-26 -36 -59 -52t-78 -16q-43 0 -67 18.5t-24 50.5q0 42 48 73t132 49h38z" />
    <glyph glyph-name="eogonek" unicode="&#x119;" horiz-adv-x="504" 
d="M282 531q88 0 138 -52t50 -170h-329l-2 19h205q1 49 -6 90.5t-22 66.5t-40 25q-35 0 -59.5 -44t-29.5 -146l3 -6q-1 -12 -1.5 -25t-0.5 -27q0 -69 19.5 -112t49.5 -62.5t61 -19.5q30 0 65.5 15t66.5 65l18 -6q-12 -38 -38 -74t-66 -59t-96 -23q-68 0 -120 29t-81.5 88
t-29.5 150q0 93 31.5 155t87 92.5t126.5 30.5zM357 9q-3 -3 -7 -6t-12 -6q-43 -20 -59 -44t-16 -45q0 -20 10.5 -30.5t30.5 -10.5q18 0 35.5 8t28.5 19l14 -14q-27 -36 -59.5 -52t-77.5 -16q-44 0 -67.5 18.5t-23.5 50.5q0 42 42.5 73t119.5 49z" />
    <glyph glyph-name="Ecaron" unicode="&#x11a;" horiz-adv-x="634" 
d="M569 708q-4 -44 -5.5 -85t-1.5 -63q0 -20 1 -38t2 -30h-23q-10 73 -31 115.5t-54.5 60t-78.5 17.5h-41q-30 0 -44.5 -5t-19.5 -19.5t-5 -46.5v-520q0 -31 5 -46t19.5 -20t44.5 -5h49q45 0 79.5 19.5t59 66.5t37.5 127h23q-3 -32 -3 -84q0 -23 1 -65t6 -87q-51 2 -115 2.5
t-114 0.5h-90t-119 -0.5t-117 -2.5v20q32 2 48 8t21.5 24t5.5 54v496q0 37 -5.5 54.5t-22 24t-47.5 7.5v20q54 -1 117 -2t119 -1h90q46 0 104.5 0.5t104.5 2.5zM413 366v-10v-10h-175v10v10h175zM442 498q-4 -57 -3.5 -87t0.5 -55t1 -55t5 -87h-23q-5 35 -18.5 65
t-38.5 48.5t-65 18.5v20q40 0 64 22t37 52.5t18 57.5h23zM520 938l5 -15q-65 -27 -119.5 -69.5t-85.5 -86.5h-18q-30 44 -84.5 86.5t-120.5 69.5l5 15q65 -11 128.5 -29t100.5 -36q31 18 83.5 36t105.5 29z" />
    <glyph glyph-name="ecaron" unicode="&#x11b;" horiz-adv-x="504" 
d="M282 531q88 0 138 -52t50 -170h-329l-2 19h205q1 49 -6 90.5t-22 66.5t-40 25q-35 0 -59.5 -44t-29.5 -146l3 -6q-1 -12 -1.5 -25t-0.5 -27q0 -69 19.5 -112t49.5 -62.5t61 -19.5q30 0 65.5 15t66.5 65l18 -6q-12 -38 -38 -74t-66 -59t-96 -23q-68 0 -120 29t-81.5 88
t-29.5 150q0 93 31.5 155t87 92.5t126.5 30.5zM446 820l8 -14q-57 -33 -104.5 -86.5t-74.5 -109.5h-18q-27 55 -74.5 109t-104.5 87l8 14q58 -14 112.5 -34.5t87.5 -41.5q28 21 71 41.5t89 34.5z" />
    <glyph glyph-name="Gcircumflex" unicode="&#x11c;" horiz-adv-x="735" 
d="M405 722q68 0 111 -19t77 -46q12 -9 20 -9q19 0 25 60h23q-2 -39 -3 -94.5t-1 -147.5h-23q-7 60 -21.5 104.5t-53.5 76.5q-24 23 -59.5 36t-71.5 13q-55 0 -94 -28.5t-64 -77.5t-37 -110.5t-12 -127.5q0 -180 49.5 -263t142.5 -83q24 0 42 6t29 14q14 10 19 21.5t5 30.5
v98q0 46 -7.5 68.5t-29.5 30.5t-64 9v20q21 -1 50.5 -1.5t61.5 -1t59 -0.5q42 0 77 1t57 2v-20q-28 -2 -36.5 -16t-8.5 -70v-198h-20q-1 17 -7.5 37t-21.5 20q-7 0 -18.5 -3.5t-35.5 -17.5q-37 -21 -78 -35.5t-86 -14.5q-175 0 -266 95t-91 265q0 114 46.5 198t128 131
t187.5 47zM395 940q30 -43 84.5 -85.5t120.5 -70.5l-5 -15q-65 12 -128.5 30t-100.5 35q-31 -17 -83.5 -35t-105.5 -30l-5 15q65 28 119.5 70t85.5 86h18z" />
    <glyph glyph-name="gcircumflex" unicode="&#x11d;" horiz-adv-x="553" 
d="M218 -188q-62 0 -110.5 10.5t-76 32t-27.5 52.5t28 55.5t83 38.5l9 -16q-19 -15 -27.5 -32.5t-8.5 -36.5q0 -42 38.5 -64.5t104.5 -22.5q45 0 80.5 12t56 36t20.5 59q0 30 -22 50.5t-88 20.5h-62q-41 0 -71.5 9t-47.5 28.5t-17 49.5q0 42 33 74t98 60l10 -8
q-19 -12 -35.5 -25.5t-16.5 -34.5q0 -32 40 -32h109q83 0 138 -30.5t55 -101.5q0 -49 -31.5 -91t-96.5 -67.5t-165 -25.5zM228 213q-85 0 -142 38.5t-57 120.5q0 83 57 121t142 38q86 0 142.5 -38t56.5 -121q0 -82 -56.5 -120.5t-142.5 -38.5zM228 231q27 0 42 30.5
t15 110.5t-15 110.5t-42 30.5q-26 0 -41.5 -30.5t-15.5 -110.5t15.5 -110.5t41.5 -30.5zM384 445l-20 7q15 39 48.5 65t72.5 26q32 0 48.5 -17.5t16.5 -45.5q0 -30 -16 -44.5t-36 -14.5q-17 0 -31.5 12t-16.5 36.5t17 63.5l7 -6q-38 -14 -57 -32.5t-33 -49.5zM258 820
q27 -55 74.5 -108.5t104.5 -87.5l-8 -14q-58 14 -112 35t-88 41q-27 -20 -70.5 -41t-89.5 -35l-8 14q57 34 104.5 87t74.5 109h18z" />
    <glyph glyph-name="Gbreve" unicode="&#x11e;" horiz-adv-x="735" 
d="M405 722q68 0 111 -19t77 -46q12 -9 20 -9q19 0 25 60h23q-2 -39 -3 -94.5t-1 -147.5h-23q-7 60 -21.5 104.5t-53.5 76.5q-24 23 -59.5 36t-71.5 13q-55 0 -94 -28.5t-64 -77.5t-37 -110.5t-12 -127.5q0 -180 49.5 -263t142.5 -83q24 0 42 6t29 14q14 10 19 21.5t5 30.5
v98q0 46 -7.5 68.5t-29.5 30.5t-64 9v20q21 -1 50.5 -1.5t61.5 -1t59 -0.5q42 0 77 1t57 2v-20q-28 -2 -36.5 -16t-8.5 -70v-198h-20q-1 17 -7.5 37t-21.5 20q-7 0 -18.5 -3.5t-35.5 -17.5q-37 -21 -78 -35.5t-86 -14.5q-175 0 -266 95t-91 265q0 114 46.5 198t128 131
t187.5 47zM591 916l12 -11q-14 -31 -43 -62t-74 -51.5t-106 -20.5t-106 20.5t-74 51.5t-43 62l12 10q27 -20 78.5 -40t132.5 -20t132.5 20t78.5 41z" />
    <glyph glyph-name="gbreve" unicode="&#x11f;" horiz-adv-x="553" 
d="M218 -188q-62 0 -110.5 10.5t-76 32t-27.5 52.5t28 55.5t83 38.5l9 -16q-19 -15 -27.5 -32.5t-8.5 -36.5q0 -42 38.5 -64.5t104.5 -22.5q45 0 80.5 12t56 36t20.5 59q0 30 -22 50.5t-88 20.5h-62q-41 0 -71.5 9t-47.5 28.5t-17 49.5q0 42 33 74t98 60l10 -8
q-19 -12 -35.5 -25.5t-16.5 -34.5q0 -32 40 -32h109q83 0 138 -30.5t55 -101.5q0 -49 -31.5 -91t-96.5 -67.5t-165 -25.5zM228 213q-85 0 -142 38.5t-57 120.5q0 83 57 121t142 38q86 0 142.5 -38t56.5 -121q0 -82 -56.5 -120.5t-142.5 -38.5zM228 231q27 0 42 30.5
t15 110.5t-15 110.5t-42 30.5q-26 0 -41.5 -30.5t-15.5 -110.5t15.5 -110.5t41.5 -30.5zM384 445l-20 7q15 39 48.5 65t72.5 26q32 0 48.5 -17.5t16.5 -45.5q0 -30 -16 -44.5t-36 -14.5q-17 0 -31.5 12t-16.5 36.5t17 63.5l7 -6q-38 -14 -57 -32.5t-33 -49.5zM422 788l17 -9
q-12 -36 -36 -72.5t-62 -61t-93 -24.5t-93 24.5t-62 61t-36 72.5l17 9q22 -25 63.5 -48.5t110.5 -23.5t110.5 23.5t63.5 48.5z" />
    <glyph glyph-name="Gdotaccent" unicode="&#x120;" horiz-adv-x="735" 
d="M405 722q68 0 111 -19t77 -46q12 -9 20 -9q19 0 25 60h23q-2 -39 -3 -94.5t-1 -147.5h-23q-7 60 -21.5 104.5t-53.5 76.5q-24 23 -59.5 36t-71.5 13q-55 0 -94 -28.5t-64 -77.5t-37 -110.5t-12 -127.5q0 -180 49.5 -263t142.5 -83q24 0 42 6t29 14q14 10 19 21.5t5 30.5
v98q0 46 -7.5 68.5t-29.5 30.5t-64 9v20q21 -1 50.5 -1.5t61.5 -1t59 -0.5q42 0 77 1t57 2v-20q-28 -2 -36.5 -16t-8.5 -70v-198h-20q-1 17 -7.5 37t-21.5 20q-7 0 -18.5 -3.5t-35.5 -17.5q-37 -21 -78 -35.5t-86 -14.5q-175 0 -266 95t-91 265q0 114 46.5 198t128 131
t187.5 47zM395 919q38 0 61.5 -20.5t23.5 -56.5t-23.5 -56.5t-61.5 -20.5q-39 0 -62 20.5t-23 56.5t23 56.5t62 20.5z" />
    <glyph glyph-name="gdotaccent" unicode="&#x121;" horiz-adv-x="553" 
d="M218 -188q-62 0 -110.5 10.5t-76 32t-27.5 52.5t28 55.5t83 38.5l9 -16q-19 -15 -27.5 -32.5t-8.5 -36.5q0 -42 38.5 -64.5t104.5 -22.5q45 0 80.5 12t56 36t20.5 59q0 30 -22 50.5t-88 20.5h-62q-41 0 -71.5 9t-47.5 28.5t-17 49.5q0 42 33 74t98 60l10 -8
q-19 -12 -35.5 -25.5t-16.5 -34.5q0 -32 40 -32h109q83 0 138 -30.5t55 -101.5q0 -49 -31.5 -91t-96.5 -67.5t-165 -25.5zM228 213q-85 0 -142 38.5t-57 120.5q0 83 57 121t142 38q86 0 142.5 -38t56.5 -121q0 -82 -56.5 -120.5t-142.5 -38.5zM228 231q27 0 42 30.5
t15 110.5t-15 110.5t-42 30.5q-26 0 -41.5 -30.5t-15.5 -110.5t15.5 -110.5t41.5 -30.5zM384 445l-20 7q15 39 48.5 65t72.5 26q32 0 48.5 -17.5t16.5 -45.5q0 -30 -16 -44.5t-36 -14.5q-17 0 -31.5 12t-16.5 36.5t17 63.5l7 -6q-38 -14 -57 -32.5t-33 -49.5zM249 775
q42 0 66.5 -20.5t24.5 -56.5t-24.5 -56.5t-66.5 -20.5t-66.5 20.5t-24.5 56.5t24.5 56.5t66.5 20.5z" />
    <glyph glyph-name="uni0122" unicode="&#x122;" horiz-adv-x="735" 
d="M405 722q68 0 111 -19t77 -46q12 -9 20 -9q19 0 25 60h23q-2 -39 -3 -94.5t-1 -147.5h-23q-7 60 -21.5 104.5t-53.5 76.5q-24 23 -59.5 36t-71.5 13q-55 0 -94 -28.5t-64 -77.5t-37 -110.5t-12 -127.5q0 -180 49.5 -263t142.5 -83q24 0 42 6t29 14q14 10 19 21.5t5 30.5
v98q0 46 -7.5 68.5t-29.5 30.5t-64 9v20q21 -1 50.5 -1.5t61.5 -1t59 -0.5q42 0 77 1t57 2v-20q-28 -2 -36.5 -16t-8.5 -70v-198h-20q-1 17 -7.5 37t-21.5 20q-7 0 -18.5 -3.5t-35.5 -17.5q-37 -21 -78 -35.5t-86 -14.5q-175 0 -266 95t-91 265q0 114 46.5 198t128 131
t187.5 47zM398 -55q36 0 59 -20.5t23 -56.5q0 -44 -27.5 -73.5t-86.5 -37.5l-4 21q35 5 56 18.5t24 36.5q-7 -7 -19 -11.5t-30 -4.5q-32 0 -51.5 16.5t-19.5 46.5q0 31 20.5 48t55.5 17z" />
    <glyph glyph-name="uni0123" unicode="&#x123;" horiz-adv-x="544" 
d="M218 -188q-62 0 -110.5 10.5t-76 32t-27.5 52.5t28 55.5t83 38.5l9 -16q-19 -15 -27.5 -32.5t-8.5 -36.5q0 -42 38.5 -64.5t104.5 -22.5q45 0 80.5 12t56 36t20.5 59q0 30 -22 50.5t-88 20.5h-62q-41 0 -71.5 9t-47.5 28.5t-17 49.5q0 42 33 74t98 60l10 -8
q-19 -12 -35.5 -25.5t-16.5 -34.5q0 -32 40 -32h109q83 0 138 -30.5t55 -101.5q0 -49 -31.5 -91t-96.5 -67.5t-165 -25.5zM228 213q-85 0 -142 38.5t-57 120.5q0 83 57 121t142 38q86 0 142.5 -38t56.5 -121q0 -82 -56.5 -120.5t-142.5 -38.5zM228 231q27 0 42 30.5
t15 110.5t-15 110.5t-42 30.5q-26 0 -41.5 -30.5t-15.5 -110.5t15.5 -110.5t41.5 -30.5zM384 445l-20 7q15 39 48.5 65t72.5 26q32 0 48.5 -17.5t16.5 -45.5q0 -30 -16 -44.5t-36 -14.5q-17 0 -31.5 12t-16.5 36.5t17 63.5l7 -6q-38 -14 -57 -32.5t-33 -49.5zM241 624
q-36 0 -59 20.5t-23 56.5q0 44 27.5 73.5t86.5 37.5l4 -21q-35 -5 -56 -18.5t-24 -36.5q7 7 19 11.5t30 4.5q32 0 51.5 -16.5t19.5 -46.5q0 -31 -20.5 -48t-55.5 -17z" />
    <glyph glyph-name="Hcircumflex" unicode="&#x124;" horiz-adv-x="800" 
d="M458 0v20q32 2 48 8t21.5 24t5.5 54v496q0 37 -5.5 54.5t-22 24t-47.5 7.5v20q27 -1 70.5 -2t86.5 -1q46 0 86.5 1t65.5 2v-20q-32 -1 -48.5 -7.5t-21.5 -24t-5 -54.5v-496q0 -36 5.5 -54t21.5 -24t48 -8v-20q-25 2 -65.5 2.5t-86.5 0.5q-43 0 -86.5 -0.5t-70.5 -2.5z
M34 0v20q32 2 48 8t21.5 24t5.5 54v496q0 37 -5.5 54.5t-22 24t-47.5 7.5v20q26 -1 67.5 -2t90.5 -1q42 0 83 1t68 2v-20q-32 -1 -48.5 -7.5t-21.5 -24t-5 -54.5v-496q0 -36 5.5 -54t21.5 -24t48 -8v-20q-27 2 -68 2.5t-83 0.5q-49 0 -90.5 -0.5t-67.5 -2.5zM203 346v20h395
v-20h-395zM412 940q30 -43 84.5 -85.5t120.5 -70.5l-5 -15q-65 12 -128.5 30t-100.5 35q-31 -17 -83.5 -35t-105.5 -30l-5 15q65 28 119.5 70t85.5 86h18z" />
    <glyph glyph-name="hcircumflex" unicode="&#x125;" horiz-adv-x="608" 
d="M227 782v-344q25 52 67.5 72.5t95.5 20.5q43 0 69 -10.5t41 -28.5q17 -19 24.5 -49t7.5 -81v-269q0 -42 14.5 -57t49.5 -15v-21q-19 1 -57.5 2.5t-74.5 1.5q-39 0 -75.5 -1.5t-54.5 -2.5v21q30 0 42 15t12 57v311q0 25 -5 43.5t-18.5 29t-38.5 10.5q-41 0 -70 -32
t-29 -83v-279q0 -42 12 -57t42 -15v-21q-18 1 -53 2.5t-71 1.5q-39 0 -78.5 -1.5t-59.5 -2.5v21q35 0 49.5 15t14.5 57v569q0 45 -13.5 66.5t-50.5 21.5v21q32 -3 62 -3q41 0 78 3.5t68 10.5zM301 1004q30 -43 84.5 -85.5t120.5 -70.5l-5 -15q-65 12 -128.5 30t-100.5 35
q-31 -17 -83.5 -35t-105.5 -30l-5 15q65 28 119.5 70t85.5 86h18z" />
    <glyph glyph-name="Hbar" unicode="&#x126;" horiz-adv-x="800" 
d="M458 0v20q32 2 48 8t21.5 24t5.5 54v496q0 37 -5.5 54.5t-22 24t-47.5 7.5v20q27 -1 70.5 -2t86.5 -1q46 0 86.5 1t65.5 2v-20q-32 -1 -48.5 -7.5t-21.5 -24t-5 -54.5v-496q0 -36 5.5 -54t21.5 -24t48 -8v-20q-25 2 -65.5 2.5t-86.5 0.5q-43 0 -86.5 -0.5t-70.5 -2.5z
M34 0v20q32 2 48 8t21.5 24t5.5 54v496q0 37 -5.5 54.5t-22 24t-47.5 7.5v20q26 -1 67.5 -2t90.5 -1q42 0 83 1t68 2v-20q-32 -1 -48.5 -7.5t-21.5 -24t-5 -54.5v-496q0 -36 5.5 -54t21.5 -24t48 -8v-20q-27 2 -68 2.5t-83 0.5q-49 0 -90.5 -0.5t-67.5 -2.5zM203 346v20h395
v-20h-395zM767 533v-20h-733v20h733z" />
    <glyph glyph-name="hbar" unicode="&#x127;" horiz-adv-x="608" 
d="M227 782v-344q25 52 67.5 72.5t95.5 20.5q43 0 69 -10.5t41 -28.5q17 -19 24.5 -49t7.5 -81v-269q0 -42 14.5 -57t49.5 -15v-21q-19 1 -57.5 2.5t-74.5 1.5q-39 0 -75.5 -1.5t-54.5 -2.5v21q30 0 42 15t12 57v311q0 25 -5 43.5t-18.5 29t-38.5 10.5q-41 0 -70 -32
t-29 -83v-279q0 -42 12 -57t42 -15v-21q-18 1 -53 2.5t-71 1.5q-39 0 -78.5 -1.5t-59.5 -2.5v21q35 0 49.5 15t14.5 57v569q0 45 -13.5 66.5t-50.5 21.5v21q32 -3 62 -3q41 0 78 3.5t68 10.5zM393 628v-20h-384v20h384z" />
    <glyph glyph-name="Itilde" unicode="&#x128;" horiz-adv-x="376" 
d="M343 708v-20q-32 -1 -48.5 -7.5t-21.5 -24t-5 -54.5v-496q0 -36 5.5 -54t21.5 -24t48 -8v-20q-27 2 -68 2.5t-83 0.5q-49 0 -90.5 -0.5t-67.5 -2.5v20q32 2 48 8t21.5 24t5.5 54v496q0 37 -5.5 54.5t-22 24t-47.5 7.5v20q26 -1 67.5 -2t90.5 -1q42 0 83 1t68 2zM104 924
q35 0 61.5 -11t49 -25t46 -24.5t53.5 -10.5q24 0 45 12.5t38 41.5l14 -5q-13 -69 -50.5 -101.5t-82.5 -32.5q-35 0 -61.5 10.5t-49.5 25t-46.5 25t-53.5 10.5q-24 0 -45 -12.5t-38 -42.5l-14 5q14 70 51.5 102.5t82.5 32.5z" />
    <glyph glyph-name="itilde" unicode="&#x129;" horiz-adv-x="315" 
d="M232 528v-435q0 -42 14.5 -57t49.5 -15v-21q-18 1 -56 2.5t-77 1.5t-79 -1.5t-60 -2.5v21q35 0 49.5 15t14.5 57v315q0 45 -13.5 66.5t-50.5 21.5v21q32 -3 62 -3q42 0 78.5 3.5t67.5 10.5zM83 786q31 0 52 -10t38.5 -23t36 -23t42.5 -10q21 0 40.5 12.5t36.5 40.5l14 -7
q-17 -74 -50.5 -106.5t-73.5 -32.5q-31 0 -52.5 10t-39 23.5t-35.5 23.5t-43 10q-21 0 -40.5 -12.5t-36.5 -41.5l-14 7q17 75 51 107t74 32z" />
    <glyph glyph-name="Imacron" unicode="&#x12a;" horiz-adv-x="376" 
d="M343 708v-20q-32 -1 -48.5 -7.5t-21.5 -24t-5 -54.5v-496q0 -36 5.5 -54t21.5 -24t48 -8v-20q-27 2 -68 2.5t-83 0.5q-49 0 -90.5 -0.5t-67.5 -2.5v20q32 2 48 8t21.5 24t5.5 54v496q0 37 -5.5 54.5t-22 24t-47.5 7.5v20q26 -1 67.5 -2t90.5 -1q42 0 83 1t68 2zM392 844
v-25h-400v25h400z" />
    <glyph glyph-name="imacron" unicode="&#x12b;" horiz-adv-x="315" 
d="M306 712v-25h-316v25h316zM232 528v-435q0 -42 14.5 -57t49.5 -15v-21q-18 1 -56 2.5t-77 1.5t-79 -1.5t-60 -2.5v21q35 0 49.5 15t14.5 57v315q0 45 -13.5 66.5t-50.5 21.5v21q32 -3 62 -3q42 0 78.5 3.5t67.5 10.5z" />
    <glyph glyph-name="Ibreve" unicode="&#x12c;" horiz-adv-x="376" 
d="M343 708v-20q-32 -1 -48.5 -7.5t-21.5 -24t-5 -54.5v-496q0 -36 5.5 -54t21.5 -24t48 -8v-20q-27 2 -68 2.5t-83 0.5q-49 0 -90.5 -0.5t-67.5 -2.5v20q32 2 48 8t21.5 24t5.5 54v496q0 37 -5.5 54.5t-22 24t-47.5 7.5v20q26 -1 67.5 -2t90.5 -1q42 0 83 1t68 2zM397 916
l12 -11q-14 -31 -43 -62t-74 -51.5t-106 -20.5t-106 20.5t-74 51.5t-43 62l12 10q27 -20 78.5 -40t132.5 -20t132.5 20t78.5 41z" />
    <glyph glyph-name="ibreve" unicode="&#x12d;" horiz-adv-x="315" 
d="M232 528v-435q0 -42 14.5 -57t49.5 -15v-21q-18 1 -56 2.5t-77 1.5t-79 -1.5t-60 -2.5v21q35 0 49.5 15t14.5 57v315q0 45 -13.5 66.5t-50.5 21.5v21q32 -3 62 -3q42 0 78.5 3.5t67.5 10.5zM330 788l17 -9q-12 -36 -36 -72.5t-62 -61t-93 -24.5t-93 24.5t-62 61t-36 72.5
l17 9q22 -25 63.5 -48.5t110.5 -23.5t110.5 23.5t63.5 48.5z" />
    <glyph glyph-name="Iogonek" unicode="&#x12e;" horiz-adv-x="376" 
d="M343 708v-20q-32 -1 -48.5 -7.5t-21.5 -24t-5 -54.5v-496q0 -36 5.5 -54t21.5 -24t48 -8v-20q-27 2 -68 2.5t-83 0.5q-49 0 -90.5 -0.5t-67.5 -2.5v20q32 2 48 8t21.5 24t5.5 54v496q0 37 -5.5 54.5t-22 24t-47.5 7.5v20q26 -1 67.5 -2t90.5 -1q42 0 83 1t68 2zM331 3
q-60 -19 -84.5 -45.5t-24.5 -49.5q0 -20 11 -30.5t31 -10.5q17 0 35 8t29 19l13 -14q-26 -36 -59 -52t-78 -16q-43 0 -67 18.5t-24 50.5q0 42 48 73t132 49h38z" />
    <glyph glyph-name="iogonek" unicode="&#x12f;" horiz-adv-x="315" 
d="M154 775q42 0 66.5 -20.5t24.5 -56.5t-24.5 -56.5t-66.5 -20.5t-66.5 20.5t-24.5 56.5t24.5 56.5t66.5 20.5zM232 528v-435q0 -42 14.5 -57t49.5 -15v-21q-18 1 -56 2.5t-77 1.5t-79 -1.5t-60 -2.5v21q35 0 49.5 15t14.5 57v315q0 45 -13.5 66.5t-50.5 21.5v21
q32 -3 62 -3q42 0 78.5 3.5t67.5 10.5zM289 9q-3 -3 -7 -6t-12 -6q-43 -20 -59 -44t-16 -45q0 -20 10.5 -30.5t30.5 -10.5q18 0 35.5 8t28.5 19l14 -14q-27 -36 -59.5 -52t-77.5 -16q-44 0 -67.5 18.5t-23.5 50.5q0 42 42.5 73t119.5 49z" />
    <glyph glyph-name="Idotaccent" unicode="&#x130;" horiz-adv-x="376" 
d="M343 708v-20q-32 -1 -48.5 -7.5t-21.5 -24t-5 -54.5v-496q0 -36 5.5 -54t21.5 -24t48 -8v-20q-27 2 -68 2.5t-83 0.5q-49 0 -90.5 -0.5t-67.5 -2.5v20q32 2 48 8t21.5 24t5.5 54v496q0 37 -5.5 54.5t-22 24t-47.5 7.5v20q26 -1 67.5 -2t90.5 -1q42 0 83 1t68 2zM192 966
q42 0 66.5 -20.5t24.5 -56.5t-24.5 -56.5t-66.5 -20.5t-66.5 20.5t-24.5 56.5t24.5 56.5t66.5 20.5z" />
    <glyph glyph-name="dotlessi" unicode="&#x131;" horiz-adv-x="315" 
d="M232 528v-435q0 -42 14.5 -57t49.5 -15v-21q-18 1 -56 2.5t-77 1.5t-79 -1.5t-60 -2.5v21q35 0 49.5 15t14.5 57v315q0 45 -13.5 66.5t-50.5 21.5v21q32 -3 62 -3q42 0 78.5 3.5t67.5 10.5z" />
    <glyph glyph-name="Jcircumflex" unicode="&#x134;" horiz-adv-x="364" 
d="M-23 -188v20q40 4 68 23.5t43 66.5t15 132v548q0 37 -5.5 54.5t-21.5 24t-48 7.5v20q25 -1 65.5 -2t85.5 -1t87.5 1t70.5 2v-20q-31 -1 -47.5 -7.5t-22 -24t-5.5 -54.5v-366v-88.5t-3.5 -92.5t-13.5 -80q-20 -69 -86.5 -116t-181.5 -47zM189 940q30 -43 84.5 -85.5
t120.5 -70.5l-5 -15q-65 12 -128.5 30t-100.5 35q-31 -17 -83.5 -35t-105.5 -30l-5 15q65 28 119.5 70t85.5 86h18z" />
    <glyph glyph-name="jcircumflex" unicode="&#x135;" horiz-adv-x="297" 
d="M-23 -188v18q49 1 78 38.5t29 113.5v426q0 45 -14 66.5t-50 21.5v21q32 -3 62 -3q41 0 78 3.5t68 10.5v-434q0 -83 -16.5 -137t-55.5 -91q-25 -24 -68.5 -39t-110.5 -15zM154 820q27 -55 74.5 -108.5t104.5 -87.5l-8 -14q-58 14 -112 35t-88 41q-27 -20 -70.5 -41
t-89.5 -35l-8 14q57 34 104.5 87t74.5 109h18z" />
    <glyph glyph-name="uni0136" unicode="&#x136;" horiz-adv-x="714" 
d="M689 708v-19q-32 -7 -68.5 -28t-76.5 -68l-188 -224l58 83l238 -371q14 -23 30 -37t42 -24v-20q-35 2 -78 2.5t-78 0.5q-21 0 -51 -0.5t-76 -2.5v20q41 2 49.5 11.5t-7.5 33.5l-145 235q-14 23 -25 34.5t-22 16t-29 5.5v21q44 1 78.5 24t75.5 70l59 71q38 45 44.5 77.5
t-13 50.5t-59.5 19v19q37 -1 70.5 -2t77.5 -1q58 0 94 3zM343 708v-20q-32 -1 -48.5 -7.5t-21.5 -24t-5 -54.5v-496q0 -36 5.5 -54t21.5 -24t48 -8v-20q-27 2 -68 2.5t-83 0.5q-48 0 -90.5 -0.5t-67.5 -2.5v20q32 2 48 8t21.5 24t5.5 54v496q0 37 -5.5 54.5t-22 24
t-47.5 7.5v20q25 -1 67.5 -2t90.5 -1q42 0 83 1t68 2zM394 -55q36 0 59 -20.5t23 -56.5q0 -44 -27.5 -73.5t-86.5 -37.5l-4 21q35 5 56 18.5t24 36.5q-7 -7 -19 -11.5t-30 -4.5q-32 0 -51.5 16.5t-19.5 46.5q0 31 20.5 48t55.5 17z" />
    <glyph glyph-name="uni0137" unicode="&#x137;" horiz-adv-x="585" 
d="M227 783v-690q0 -42 13.5 -57t46.5 -15v-21q-19 1 -55.5 2.5t-74.5 1.5q-39 0 -78.5 -1.5t-59.5 -2.5v21q35 0 49.5 15t14.5 57v570q0 45 -13.5 66.5t-50.5 21.5v21q32 -3 62 -3q41 0 78 3.5t68 10.5zM553 517v-20q-31 -6 -62 -26t-63 -51l-77 -80l10 19l171 -286
q11 -18 23 -32t29 -20v-21q-15 1 -45 2.5t-60 1.5q-37 0 -74 -1.5t-55 -2.5v21q20 0 27 9.5t-2 24.5l-99 179q-12 19 -23.5 24.5t-30.5 6.5v19q21 2 36.5 7t28.5 19l76 74q34 32 34 57t-21.5 40t-56.5 16v20q28 -1 61 -2t56 -1q20 0 42.5 0.5t42.5 1t32 1.5zM318 -55
q36 0 59 -20.5t23 -56.5q0 -44 -27.5 -73.5t-86.5 -37.5l-4 21q35 5 56 18.5t24 36.5q-7 -7 -19 -11.5t-30 -4.5q-32 0 -51.5 16.5t-19.5 46.5q0 31 20.5 48t55.5 17z" />
    <glyph glyph-name="kgreenlandic" unicode="&#x138;" horiz-adv-x="591" 
d="M563 517v-20q-34 -3 -55.5 -12.5t-42.5 -35.5l-104 -119l170 -256q14 -21 28 -35.5t30 -17.5v-21q-14 1 -44.5 2.5t-60.5 1.5q-34 0 -69.5 -1.5t-53.5 -2.5v21q20 0 27.5 9.5t-2.5 24.5l-112 168q-11 16 -22 22.5t-24 6.5v20q32 2 52.5 14t39.5 35l93 106q24 27 11.5 48
t-55.5 22v20q26 -1 53.5 -2t49.5 -1q27 0 50.5 1t40.5 2zM232 528v-435q0 -42 13.5 -57t46.5 -15v-21q-18 1 -54.5 2.5t-74.5 1.5q-39 0 -79 -1.5t-60 -2.5v21q35 0 49.5 15t14.5 57v315q0 45 -13.5 66.5t-50.5 21.5v21q32 -3 62 -3q42 0 78.5 3.5t67.5 10.5z" />
    <glyph glyph-name="Lacute" unicode="&#x139;" horiz-adv-x="611" 
d="M349 708v-20q-34 -1 -51.5 -7.5t-23.5 -24t-6 -54.5v-508q0 -31 4.5 -46t18 -20t40.5 -5h49q46 0 83.5 28t63 78.5t35.5 116.5h23q-3 -34 -3 -88q0 -23 1 -67t6 -91q-51 2 -115 2.5t-114 0.5h-90t-119 -0.5t-117 -2.5v20q32 2 48 8t21.5 24t5.5 54v496q0 37 -5.5 54.5
t-22 24t-47.5 7.5v20q25 -1 67.5 -2t90.5 -1q44 0 86.5 1t70.5 2zM281 934q21 12 45.5 6.5t35.5 -28.5q10 -19 2.5 -40t-30.5 -34q-22 -12 -49 -18.5t-65 -16.5t-94 -31l-7 12q48 39 74.5 68t45.5 49.5t42 32.5z" />
    <glyph glyph-name="lacute" unicode="&#x13a;" horiz-adv-x="311" 
d="M228 783v-690q0 -42 14.5 -57t49.5 -15v-21q-19 1 -57 2.5t-77 1.5t-78.5 -1.5t-59.5 -2.5v21q35 0 49.5 15t14.5 57v570q0 45 -13.5 66.5t-50.5 21.5v21q32 -3 62 -3q41 0 78 3.5t68 10.5zM243 984q21 12 45.5 6.5t35.5 -28.5q10 -19 2.5 -40t-30.5 -34
q-22 -12 -49 -18.5t-65 -16.5t-94 -31l-7 12q48 39 74.5 68t45.5 49.5t42 32.5z" />
    <glyph glyph-name="uni013B" unicode="&#x13b;" horiz-adv-x="611" 
d="M349 708v-20q-34 -1 -51.5 -7.5t-23.5 -24t-6 -54.5v-508q0 -31 4.5 -46t18 -20t40.5 -5h49q46 0 83.5 28t63 78.5t35.5 116.5h23q-3 -34 -3 -88q0 -23 1 -67t6 -91q-51 2 -115 2.5t-114 0.5h-90t-119 -0.5t-117 -2.5v20q32 2 48 8t21.5 24t5.5 54v496q0 37 -5.5 54.5
t-22 24t-47.5 7.5v20q25 -1 67.5 -2t90.5 -1q44 0 86.5 1t70.5 2zM350 -55q36 0 59 -20.5t23 -56.5q0 -44 -27.5 -73.5t-86.5 -37.5l-4 21q35 5 56 18.5t24 36.5q-7 -7 -19 -11.5t-30 -4.5q-32 0 -51.5 16.5t-19.5 46.5q0 31 20.5 48t55.5 17z" />
    <glyph glyph-name="uni013C" unicode="&#x13c;" horiz-adv-x="311" 
d="M228 783v-690q0 -42 14.5 -57t49.5 -15v-21q-19 1 -57 2.5t-77 1.5t-78.5 -1.5t-59.5 -2.5v21q35 0 49.5 15t14.5 57v570q0 45 -13.5 66.5t-50.5 21.5v21q32 -3 62 -3q41 0 78 3.5t68 10.5zM150 -55q36 0 59 -20.5t23 -56.5q0 -44 -27.5 -73.5t-86.5 -37.5l-4 21
q35 5 56 18.5t24 36.5q-7 -7 -19 -11.5t-30 -4.5q-32 0 -51.5 16.5t-19.5 46.5q0 31 20.5 48t55.5 17z" />
    <glyph glyph-name="Lcaron" unicode="&#x13d;" horiz-adv-x="611" 
d="M349 708v-20q-34 -1 -51.5 -7.5t-23.5 -24t-6 -54.5v-508q0 -31 4.5 -46t18 -20t40.5 -5h49q46 0 83.5 28t63 78.5t35.5 116.5h23q-3 -34 -3 -88q0 -23 1 -67t6 -91q-51 2 -115 2.5t-114 0.5h-90t-119 -0.5t-117 -2.5v20q32 2 48 8t21.5 24t5.5 54v496q0 37 -5.5 54.5
t-22 24t-47.5 7.5v20q25 -1 67.5 -2t90.5 -1q44 0 86.5 1t70.5 2zM545 714q2 -5 3.5 -16t1.5 -20q0 -32 -32 -80t-85 -120l-14 4q12 77 16 113.5t4 51.5q0 20 -5.5 30t-24.5 10v21q49 -4 78.5 -1.5t57.5 7.5z" />
    <glyph glyph-name="lcaron" unicode="&#x13e;" horiz-adv-x="311" 
d="M228 783v-690q0 -42 14.5 -57t49.5 -15v-21q-19 1 -57 2.5t-77 1.5t-78.5 -1.5t-59.5 -2.5v21q35 0 49.5 15t14.5 57v570q0 45 -13.5 66.5t-50.5 21.5v21q32 -3 62 -3q41 0 78 3.5t68 10.5zM404 784q2 -5 3.5 -18.5t1.5 -22.5q0 -29 -26.5 -72t-70.5 -108l-14 4
q12 68 16 100t4 45q0 20 -3.5 30t-16.5 10v21q38 -2 61.5 2t44.5 9z" />
    <glyph glyph-name="Ldot" unicode="&#x13f;" horiz-adv-x="611" 
d="M349 708v-20q-34 -1 -51.5 -7.5t-23.5 -24t-6 -54.5v-508q0 -31 4.5 -46t18 -20t40.5 -5h49q46 0 83.5 28t63 78.5t35.5 116.5h23q-3 -34 -3 -88q0 -23 1 -67t6 -91q-51 2 -115 2.5t-114 0.5h-90t-119 -0.5t-117 -2.5v20q32 2 48 8t21.5 24t5.5 54v496q0 37 -5.5 54.5
t-22 24t-47.5 7.5v20q25 -1 67.5 -2t90.5 -1q44 0 86.5 1t70.5 2zM493 513q39 0 62 -20.5t23 -56.5t-23 -56.5t-62 -20.5t-62 20.5t-23 56.5t23 56.5t62 20.5z" />
    <glyph glyph-name="ldot" unicode="&#x140;" horiz-adv-x="501" 
d="M228 783v-690q0 -42 14.5 -57t49.5 -15v-21q-19 1 -57 2.5t-77 1.5t-78.5 -1.5t-59.5 -2.5v21q35 0 49.5 15t14.5 57v570q0 45 -13.5 66.5t-50.5 21.5v21q32 -3 62 -3q41 0 78 3.5t68 10.5zM408 385q39 0 62 -20.5t23 -56.5t-23 -56.5t-62 -20.5t-62 20.5t-23 56.5
t23 56.5t62 20.5z" />
    <glyph glyph-name="Lslash" unicode="&#x141;" horiz-adv-x="611" 
d="M349 708v-20q-34 -1 -51.5 -7.5t-23.5 -24t-6 -54.5v-508q0 -31 4.5 -46t18 -20t40.5 -5h49q46 0 83.5 28t63 78.5t35.5 116.5h23q-3 -34 -3 -88q0 -23 1 -67t6 -91q-51 2 -115 2.5t-114 0.5h-90t-119 -0.5t-117 -2.5v20q32 2 48 8t21.5 24t5.5 54v496q0 37 -5.5 54.5
t-22 24t-47.5 7.5v20q25 -1 67.5 -2t90.5 -1q44 0 86.5 1t70.5 2zM463 473v-23l-284 -165v23zM179 318v-23l-155 -90v23z" />
    <glyph glyph-name="lslash" unicode="&#x142;" horiz-adv-x="311" 
d="M228 783v-690q0 -42 14.5 -57t49.5 -15v-21q-19 1 -57 2.5t-77 1.5t-78.5 -1.5t-59.5 -2.5v21q35 0 49.5 15t14.5 57v570q0 45 -13.5 66.5t-50.5 21.5v21q32 -3 62 -3q41 0 78 3.5t68 10.5zM327 528v-30l-169 -148v30zM158 415v-30l-168 -146v30z" />
    <glyph glyph-name="Nacute" unicode="&#x143;" horiz-adv-x="722" 
d="M693 708v-20q-32 -4 -48 -16.5t-21.5 -39.5t-5.5 -76v-558q-12 1 -24.5 1t-26.5 -1l-434 550v-384q0 -55 6 -84.5t26.5 -42t64.5 -17.5v-20q-19 2 -50 2.5t-58 0.5q-23 0 -47 -0.5t-40 -2.5v20q32 5 48 17t21.5 39.5t5.5 75.5v450q0 37 -5.5 54.5t-22 24t-47.5 7.5v20
q16 -1 40 -2t47 -1q24 0 46 1t40 2l387 -477v313q0 55 -6 84.5t-26.5 42.5t-64.5 17v20q19 -1 50 -2t58 -1q24 0 47.5 1t39.5 2zM468 934q21 12 45.5 6.5t35.5 -28.5q10 -19 2.5 -40t-30.5 -34q-22 -12 -49 -18.5t-65 -16.5t-94 -31l-7 12q48 39 74.5 68t45.5 49.5t42 32.5z
" />
    <glyph glyph-name="nacute" unicode="&#x144;" horiz-adv-x="614" 
d="M396 531q42 0 68.5 -10.5t41.5 -28.5q16 -19 23.5 -49t7.5 -81v-269q0 -42 14.5 -57t49.5 -15v-21q-19 1 -57 2.5t-75 1.5q-38 0 -74.5 -1.5t-55.5 -2.5v21q30 0 42 15t12 57v311q0 25 -5 43.5t-18 29t-39 10.5q-42 0 -70.5 -33t-28.5 -83v-278q0 -42 12.5 -57t41.5 -15
v-21q-18 1 -52.5 2.5t-71.5 1.5q-38 0 -78 -1.5t-60 -2.5v21q35 0 49.5 15t14.5 57v315q0 45 -13.5 66.5t-50.5 21.5v21q32 -3 62 -3q42 0 78.5 3.5t67.5 10.5v-90q25 51 68 72t96 21zM422 817q17 -13 18 -36t-15 -43t-39 -36t-54.5 -39t-75.5 -64l-11 9q30 54 44 90.5
t24 62.5t27 45q15 20 39.5 23.5t42.5 -12.5z" />
    <glyph glyph-name="uni0145" unicode="&#x145;" horiz-adv-x="722" 
d="M693 708v-20q-32 -4 -48 -16.5t-21.5 -39.5t-5.5 -76v-558q-12 1 -24.5 1t-26.5 -1l-434 550v-384q0 -55 6 -84.5t26.5 -42t64.5 -17.5v-20q-19 2 -50 2.5t-58 0.5q-23 0 -47 -0.5t-40 -2.5v20q32 5 48 17t21.5 39.5t5.5 75.5v450q0 37 -5.5 54.5t-22 24t-47.5 7.5v20
q16 -1 40 -2t47 -1q24 0 46 1t40 2l387 -477v313q0 55 -6 84.5t-26.5 42.5t-64.5 17v20q19 -1 50 -2t58 -1q24 0 47.5 1t39.5 2zM368 -55q36 0 59 -20.5t23 -56.5q0 -44 -27.5 -73.5t-86.5 -37.5l-4 21q35 5 56 18.5t24 36.5q-7 -7 -19 -11.5t-30 -4.5q-32 0 -51.5 16.5
t-19.5 46.5q0 31 20.5 48t55.5 17z" />
    <glyph glyph-name="uni0146" unicode="&#x146;" horiz-adv-x="614" 
d="M396 531q42 0 68.5 -10.5t41.5 -28.5q16 -19 23.5 -49t7.5 -81v-269q0 -42 14.5 -57t49.5 -15v-21q-19 1 -57 2.5t-75 1.5q-38 0 -74.5 -1.5t-55.5 -2.5v21q30 0 42 15t12 57v311q0 25 -5 43.5t-18 29t-39 10.5q-42 0 -70.5 -33t-28.5 -83v-278q0 -42 12.5 -57t41.5 -15
v-21q-18 1 -52.5 2.5t-71.5 1.5q-38 0 -78 -1.5t-60 -2.5v21q35 0 49.5 15t14.5 57v315q0 45 -13.5 66.5t-50.5 21.5v21q32 -3 62 -3q42 0 78.5 3.5t67.5 10.5v-90q25 51 68 72t96 21zM319 -55q36 0 59 -20.5t23 -56.5q0 -44 -27.5 -73.5t-86.5 -37.5l-4 21q35 5 56 18.5
t24 36.5q-7 -7 -19 -11.5t-30 -4.5q-32 0 -51.5 16.5t-19.5 46.5q0 31 20.5 48t55.5 17z" />
    <glyph glyph-name="Ncaron" unicode="&#x147;" horiz-adv-x="722" 
d="M693 708v-20q-32 -4 -48 -16.5t-21.5 -39.5t-5.5 -76v-558q-12 1 -24.5 1t-26.5 -1l-434 550v-384q0 -55 6 -84.5t26.5 -42t64.5 -17.5v-20q-19 2 -50 2.5t-58 0.5q-23 0 -47 -0.5t-40 -2.5v20q32 5 48 17t21.5 39.5t5.5 75.5v450q0 37 -5.5 54.5t-22 24t-47.5 7.5v20
q16 -1 40 -2t47 -1q24 0 46 1t40 2l387 -477v313q0 55 -6 84.5t-26.5 42.5t-64.5 17v20q19 -1 50 -2t58 -1q24 0 47.5 1t39.5 2zM585 938l5 -15q-65 -27 -119.5 -69.5t-85.5 -86.5h-18q-30 44 -84.5 86.5t-120.5 69.5l5 15q65 -11 128.5 -29t100.5 -36q31 18 83.5 36
t105.5 29z" />
    <glyph glyph-name="ncaron" unicode="&#x148;" horiz-adv-x="614" 
d="M396 531q42 0 68.5 -10.5t41.5 -28.5q16 -19 23.5 -49t7.5 -81v-269q0 -42 14.5 -57t49.5 -15v-21q-19 1 -57 2.5t-75 1.5q-38 0 -74.5 -1.5t-55.5 -2.5v21q30 0 42 15t12 57v311q0 25 -5 43.5t-18 29t-39 10.5q-42 0 -70.5 -33t-28.5 -83v-278q0 -42 12.5 -57t41.5 -15
v-21q-18 1 -52.5 2.5t-71.5 1.5q-38 0 -78 -1.5t-60 -2.5v21q35 0 49.5 15t14.5 57v315q0 45 -13.5 66.5t-50.5 21.5v21q32 -3 62 -3q42 0 78.5 3.5t67.5 10.5v-90q25 51 68 72t96 21zM483 820l8 -14q-57 -33 -104.5 -86.5t-74.5 -109.5h-18q-27 55 -74.5 109t-104.5 87
l8 14q58 -14 112.5 -34.5t87.5 -41.5q28 21 71 41.5t89 34.5z" />
    <glyph glyph-name="napostrophe" unicode="&#x149;" horiz-adv-x="614" 
d="M396 531q42 0 68.5 -10.5t41.5 -28.5q16 -19 23.5 -49t7.5 -81v-269q0 -42 14.5 -57t49.5 -15v-21q-19 1 -57 2.5t-75 1.5q-38 0 -74.5 -1.5t-55.5 -2.5v21q30 0 42 15t12 57v311q0 25 -5 43.5t-18 29t-39 10.5q-42 0 -70.5 -33t-28.5 -83v-278q0 -42 12.5 -57t41.5 -15
v-21q-18 1 -52.5 2.5t-71.5 1.5q-38 0 -78 -1.5t-60 -2.5v21q35 0 49.5 15t14.5 57v315q0 45 -13.5 66.5t-50.5 21.5v21q32 -3 62 -3q42 0 78.5 3.5t67.5 10.5v-90q25 51 68 72t96 21zM12 773q25 0 43 -9t28 -26q11 -14 16.5 -37t5.5 -46q0 -50 -25.5 -92.5t-79.5 -67.5
l-9 18q28 12 50 37t26 51q5 22 0 42q-22 -24 -58 -24q-35 0 -57 20.5t-22 56.5q0 35 23.5 56t58.5 21z" />
    <glyph glyph-name="Eng" unicode="&#x14a;" horiz-adv-x="719" 
d="M692 708v-20q-32 -1 -48 -7.5t-21.5 -24t-5.5 -54.5v-338l-16 -265h-17t-19 -1l-433 550v-442q0 -36 6 -54t23.5 -24t51.5 -8v-20q-18 2 -42 2.5t-50 0.5q-24 0 -48 -0.5t-39 -2.5v20q31 2 47.5 8t22 24t5.5 54v496q0 37 -5.5 54.5t-22 24t-47.5 7.5v20q15 -1 39 -2
t48 -1q25 0 49 1t43 2l381 -469v363q0 37 -6 54.5t-23.5 24t-51.5 7.5v20q18 -1 42.5 -2t49.5 -1q24 0 47.5 1t39.5 2zM617 445v-381q0 -103 -18 -157.5t-50.5 -74.5t-76.5 -20q-49 0 -82.5 19t-33.5 61q0 32 21.5 49.5t55.5 17.5q33 0 53.5 -16.5t20.5 -45.5q0 -19 -11 -37
t-34 -28q5 -1 10 -1h10q59 0 85.5 52t26.5 155v407h11.5h11.5z" />
    <glyph glyph-name="eng" unicode="&#x14b;" horiz-adv-x="601" 
d="M396 531q42 0 68.5 -11t41.5 -28q16 -19 23.5 -49t7.5 -81v-268q0 -80 -13.5 -134.5t-50.5 -93.5q-22 -25 -60.5 -39.5t-102.5 -14.5q-17 0 -39 3.5t-42 11t-33 20.5t-13 33q0 24 20.5 43.5t60.5 19.5q34 0 57 -15.5t23 -41.5q0 -18 -12.5 -32t-33.5 -22q13 0 23 2t17 7
q17 2 28.5 13.5t17.5 28.5q5 13 7 37t2 51.5v50.5v381q0 25 -5 44t-18 29.5t-39 10.5q-42 0 -70.5 -33t-28.5 -83v-278q0 -42 12.5 -57t41.5 -15v-21q-18 1 -52.5 2.5t-71.5 1.5q-38 0 -78 -1.5t-60 -2.5v21q35 0 49.5 15t14.5 57v315q0 45 -13.5 66.5t-50.5 21.5v21
q32 -3 62 -3q42 0 78.5 3.5t67.5 10.5v-90q25 51 68 72t96 21z" />
    <glyph glyph-name="Omacron" unicode="&#x14c;" horiz-adv-x="793" 
d="M397 722q106 0 185.5 -43t123.5 -123.5t44 -195.5q0 -112 -45 -196t-125.5 -131t-183.5 -47q-106 0 -185.5 43t-123.5 124t-44 195q0 112 45.5 196t125 131t183.5 47zM393 704q-56 0 -97.5 -45t-64 -124t-22.5 -183q0 -106 25.5 -184.5t69 -121t96.5 -42.5q56 0 97.5 45
t64 124.5t22.5 182.5q0 107 -25.5 185t-69 120.5t-96.5 42.5zM595 844v-25h-400v25h400z" />
    <glyph glyph-name="omacron" unicode="&#x14d;" horiz-adv-x="565" 
d="M282 531q73 0 128 -27t86 -87t31 -159t-31 -158.5t-86 -86.5t-128 -27q-71 0 -126.5 27t-87 86.5t-31.5 158.5t31.5 159t87 87t126.5 27zM282 511q-40 0 -67 -59.5t-27 -193.5t27 -193t67 -59q41 0 67.5 59t26.5 193t-26.5 193.5t-67.5 59.5zM449 712v-25h-336v25h336z
" />
    <glyph glyph-name="Obreve" unicode="&#x14e;" horiz-adv-x="793" 
d="M397 722q106 0 185.5 -43t123.5 -123.5t44 -195.5q0 -112 -45 -196t-125.5 -131t-183.5 -47q-106 0 -185.5 43t-123.5 124t-44 195q0 112 45.5 196t125 131t183.5 47zM393 704q-56 0 -97.5 -45t-64 -124t-22.5 -183q0 -106 25.5 -184.5t69 -121t96.5 -42.5q56 0 97.5 45
t64 124.5t22.5 182.5q0 107 -25.5 185t-69 120.5t-96.5 42.5zM600 916l12 -11q-14 -31 -43 -62t-74 -51.5t-106 -20.5t-106 20.5t-74 51.5t-43 62l12 10q27 -20 78.5 -40t132.5 -20t132.5 20t78.5 41z" />
    <glyph glyph-name="obreve" unicode="&#x14f;" horiz-adv-x="565" 
d="M282 531q73 0 128 -27t86 -87t31 -159t-31 -158.5t-86 -86.5t-128 -27q-71 0 -126.5 27t-87 86.5t-31.5 158.5t31.5 159t87 87t126.5 27zM282 511q-40 0 -67 -59.5t-27 -193.5t27 -193t67 -59q41 0 67.5 59t26.5 193t-26.5 193.5t-67.5 59.5zM457 788l17 -9
q-12 -36 -36 -72.5t-62 -61t-93 -24.5t-93 24.5t-62 61t-36 72.5l17 9q22 -25 63.5 -48.5t110.5 -23.5t110.5 23.5t63.5 48.5z" />
    <glyph glyph-name="Ohungarumlaut" unicode="&#x150;" horiz-adv-x="793" 
d="M397 722q106 0 185.5 -43t123.5 -123.5t44 -195.5q0 -112 -45 -196t-125.5 -131t-183.5 -47q-106 0 -185.5 43t-123.5 124t-44 195q0 112 45.5 196t125 131t183.5 47zM393 704q-56 0 -97.5 -45t-64 -124t-22.5 -183q0 -106 25.5 -184.5t69 -121t96.5 -42.5q56 0 97.5 45
t64 124.5t22.5 182.5q0 107 -25.5 185t-69 120.5t-96.5 42.5zM562 935q21 16 45 12t37 -23q14 -19 9.5 -40t-26.5 -38q-27 -20 -70 -33t-102 -41l-10 11q30 35 49.5 63.5t35 51t32.5 37.5zM351 935q21 16 45 12t37 -23q14 -19 9.5 -40t-26.5 -38q-27 -20 -70 -33t-102 -41
l-10 11q30 35 49.5 63.5t35 51t32.5 37.5z" />
    <glyph glyph-name="ohungarumlaut" unicode="&#x151;" horiz-adv-x="565" 
d="M282 531q73 0 128 -27t86 -87t31 -159t-31 -158.5t-86 -86.5t-128 -27q-71 0 -126.5 27t-87 86.5t-31.5 158.5t31.5 159t87 87t126.5 27zM282 511q-40 0 -67 -59.5t-27 -193.5t27 -193t67 -59q41 0 67.5 59t26.5 193t-26.5 193.5t-67.5 59.5zM491 815q19 -13 22 -34.5
t-13 -43.5q-19 -28 -55.5 -55t-93.5 -84l-12 8q21 50 31.5 86t18.5 61.5t21 43.5q14 22 37.5 27t43.5 -9zM314 815q18 -13 21 -34.5t-12 -43.5q-20 -28 -56.5 -55t-92.5 -84l-12 8q21 50 31.5 86t18.5 61.5t20 43.5q15 22 38.5 27t43.5 -9z" />
    <glyph glyph-name="OE" unicode="&#x152;" horiz-adv-x="995" 
d="M391 722q45 0 87 -16q72 -1 142 -1h109q44 0 100.5 0.5t100.5 2.5q-4 -40 -5.5 -78t-1.5 -58t1 -38t2 -30h-23q-8 69 -26 108.5t-46 56t-68 16.5h-21q-31 0 -47 -5.5t-22 -23t-6 -54.5v-496q0 -36 6 -54t22 -23.5t47 -5.5h29q40 0 71 19t52 62.5t29 119.5h23
q-3 -32 -3 -84q0 -21 1.5 -59.5t5.5 -80.5q-49 2 -110.5 2.5t-110.5 0.5h-110.5t-143.5 -1q-19 -7 -41 -11.5t-44 -4.5q-104 0 -182 43t-121.5 124t-43.5 195q0 112 44.5 196t123 131t180.5 47zM387 704q-54 0 -94 -45t-62 -124t-22 -183q0 -106 24.5 -184.5t67 -121
t93.5 -42.5q24 0 50.5 9.5t45 29t18.5 51.5v514q0 38 -19.5 58.5t-47.5 29t-54 8.5zM801 366v-20h-164v20h164zM826 484q-4 -51 -3.5 -78t0.5 -50t1 -49.5t5 -78.5h-23q-4 29 -12.5 56t-27.5 44.5t-58 17.5v20q39 0 57 20.5t26 48.5t12 49h23z" />
    <glyph glyph-name="oe" unicode="&#x153;" horiz-adv-x="814" 
d="M273 531q60 0 105.5 -27t71.5 -87t26 -159t-26 -158.5t-71.5 -86.5t-105.5 -27q-69 0 -122 27t-83 86.5t-30 158.5t30 159t83 87t122 27zM273 511q-36 0 -60 -59.5t-24 -193.5t24 -193t60 -59q39 0 64.5 59t25.5 192q0 135 -25.5 194.5t-64.5 59.5zM595 531
q86 0 135.5 -52t49.5 -170h-305l-2 19h181q1 49 -5.5 90.5t-21 66.5t-37.5 25q-30 0 -51.5 -44t-26.5 -146l4 -6q-1 -12 -1.5 -25t-0.5 -27q0 -69 19 -112t49.5 -62.5t61.5 -19.5q27 0 58 15t57 65l19 -6q-11 -38 -35 -74t-61 -59t-89 -23q-59 0 -105.5 29t-72.5 88t-26 150
q0 93 27 155t73.5 92.5t105.5 30.5z" />
    <glyph glyph-name="Racute" unicode="&#x154;" horiz-adv-x="692" 
d="M34 708q25 -1 67.5 -2t84.5 -1q48 0 93 1t64 1q139 0 208 -45.5t69 -128.5q0 -34 -14 -68.5t-47.5 -64t-91.5 -47t-146 -17.5h-96v20h86q59 0 89.5 22.5t42 60t11.5 83.5q0 79 -28 122.5t-96 43.5q-39 0 -50.5 -17t-11.5 -69v-496q0 -36 5.5 -54t21.5 -24t48 -8v-20
q-27 2 -68 2.5t-83 0.5q-48 0 -90.5 -0.5t-67.5 -2.5v20q32 2 48 8t21.5 24t5.5 54v496q0 37 -5.5 54.5t-22 24t-47.5 7.5v20zM223 353q43 -1 74.5 -4t55.5 -5.5t43 -3.5q91 -8 134.5 -39t56.5 -93l23 -103q9 -40 19 -56t29 -16q13 1 21.5 6.5t18.5 16.5l14 -12
q-27 -31 -58 -44.5t-75 -13.5q-54 0 -89 23t-46 85l-18 100q-7 42 -17 73.5t-27.5 50t-48.5 18.5h-108zM413 934q21 12 45.5 6.5t35.5 -28.5q10 -19 2.5 -40t-30.5 -34q-22 -12 -49 -18.5t-65 -16.5t-94 -31l-7 12q48 39 74.5 68t45.5 49.5t42 32.5z" />
    <glyph glyph-name="racute" unicode="&#x155;" horiz-adv-x="467" 
d="M368 531q32 0 52 -13.5t29.5 -34.5t9.5 -44q0 -37 -21.5 -60.5t-56.5 -23.5t-54.5 17.5t-19.5 46.5q0 28 12.5 46.5t31.5 31.5q-14 4 -28 -1q-26 -4 -46.5 -24.5t-32.5 -48.5t-12 -55v-265q0 -48 23.5 -65t70.5 -17v-21q-23 1 -67 2.5t-92 1.5q-40 0 -81 -1.5t-62 -2.5
v21q35 0 49.5 15t14.5 57v315q0 45 -13.5 66.5t-50.5 21.5v21q32 -3 62 -3q42 0 78.5 3.5t67.5 10.5v-93q12 27 32 49t46 34.5t58 12.5zM347 817q17 -13 18 -36t-15 -43t-39 -36t-54.5 -39t-75.5 -64l-11 9q30 54 44 90.5t24 62.5t27 45q15 20 39.5 23.5t42.5 -12.5z" />
    <glyph glyph-name="uni0156" unicode="&#x156;" horiz-adv-x="692" 
d="M34 708q25 -1 67.5 -2t84.5 -1q48 0 93 1t64 1q139 0 208 -45.5t69 -128.5q0 -34 -14 -68.5t-47.5 -64t-91.5 -47t-146 -17.5h-96v20h86q59 0 89.5 22.5t42 60t11.5 83.5q0 79 -28 122.5t-96 43.5q-39 0 -50.5 -17t-11.5 -69v-496q0 -36 5.5 -54t21.5 -24t48 -8v-20
q-27 2 -68 2.5t-83 0.5q-48 0 -90.5 -0.5t-67.5 -2.5v20q32 2 48 8t21.5 24t5.5 54v496q0 37 -5.5 54.5t-22 24t-47.5 7.5v20zM223 353q43 -1 74.5 -4t55.5 -5.5t43 -3.5q91 -8 134.5 -39t56.5 -93l23 -103q9 -40 19 -56t29 -16q13 1 21.5 6.5t18.5 16.5l14 -12
q-27 -31 -58 -44.5t-75 -13.5q-54 0 -89 23t-46 85l-18 100q-7 42 -17 73.5t-27.5 50t-48.5 18.5h-108zM361 -55q36 0 59 -20.5t23 -56.5q0 -44 -27.5 -73.5t-86.5 -37.5l-4 21q35 5 56 18.5t24 36.5q-7 -7 -19 -11.5t-30 -4.5q-32 0 -51.5 16.5t-19.5 46.5q0 31 20.5 48
t55.5 17z" />
    <glyph glyph-name="uni0157" unicode="&#x157;" horiz-adv-x="467" 
d="M368 531q32 0 52 -13.5t29.5 -34.5t9.5 -44q0 -37 -21.5 -60.5t-56.5 -23.5t-54.5 17.5t-19.5 46.5q0 28 12.5 46.5t31.5 31.5q-14 4 -28 -1q-26 -4 -46.5 -24.5t-32.5 -48.5t-12 -55v-265q0 -48 23.5 -65t70.5 -17v-21q-23 1 -67 2.5t-92 1.5q-40 0 -81 -1.5t-62 -2.5
v21q35 0 49.5 15t14.5 57v315q0 45 -13.5 66.5t-50.5 21.5v21q32 -3 62 -3q42 0 78.5 3.5t67.5 10.5v-93q12 27 32 49t46 34.5t58 12.5zM168 -55q36 0 59 -20.5t23 -56.5q0 -44 -27.5 -73.5t-86.5 -37.5l-4 21q35 5 56 18.5t24 36.5q-7 -7 -19 -11.5t-30 -4.5
q-32 0 -51.5 16.5t-19.5 46.5q0 31 20.5 48t55.5 17z" />
    <glyph glyph-name="Rcaron" unicode="&#x158;" horiz-adv-x="692" 
d="M34 708q25 -1 67.5 -2t84.5 -1q48 0 93 1t64 1q139 0 208 -45.5t69 -128.5q0 -34 -14 -68.5t-47.5 -64t-91.5 -47t-146 -17.5h-96v20h86q59 0 89.5 22.5t42 60t11.5 83.5q0 79 -28 122.5t-96 43.5q-39 0 -50.5 -17t-11.5 -69v-496q0 -36 5.5 -54t21.5 -24t48 -8v-20
q-27 2 -68 2.5t-83 0.5q-48 0 -90.5 -0.5t-67.5 -2.5v20q32 2 48 8t21.5 24t5.5 54v496q0 37 -5.5 54.5t-22 24t-47.5 7.5v20zM223 353q43 -1 74.5 -4t55.5 -5.5t43 -3.5q91 -8 134.5 -39t56.5 -93l23 -103q9 -40 19 -56t29 -16q13 1 21.5 6.5t18.5 16.5l14 -12
q-27 -31 -58 -44.5t-75 -13.5q-54 0 -89 23t-46 85l-18 100q-7 42 -17 73.5t-27.5 50t-48.5 18.5h-108zM530 938l5 -15q-65 -27 -119.5 -69.5t-85.5 -86.5h-18q-30 44 -84.5 86.5t-120.5 69.5l5 15q65 -11 128.5 -29t100.5 -36q31 18 83.5 36t105.5 29z" />
    <glyph glyph-name="rcaron" unicode="&#x159;" horiz-adv-x="467" 
d="M368 531q32 0 52 -13.5t29.5 -34.5t9.5 -44q0 -37 -21.5 -60.5t-56.5 -23.5t-54.5 17.5t-19.5 46.5q0 28 12.5 46.5t31.5 31.5q-14 4 -28 -1q-26 -4 -46.5 -24.5t-32.5 -48.5t-12 -55v-265q0 -48 23.5 -65t70.5 -17v-21q-23 1 -67 2.5t-92 1.5q-40 0 -81 -1.5t-62 -2.5
v21q35 0 49.5 15t14.5 57v315q0 45 -13.5 66.5t-50.5 21.5v21q32 -3 62 -3q42 0 78.5 3.5t67.5 10.5v-93q12 27 32 49t46 34.5t58 12.5zM408 820l8 -14q-57 -33 -104.5 -86.5t-74.5 -109.5h-18q-27 55 -74.5 109t-104.5 87l8 14q58 -14 112.5 -34.5t87.5 -41.5
q28 21 71 41.5t89 34.5z" />
    <glyph glyph-name="Sacute" unicode="&#x15a;" horiz-adv-x="584" 
d="M284 721q59 0 91 -12.5t55 -26.5q12 -7 19.5 -10.5t14.5 -3.5q16 0 22 44h23q-1 -19 -2.5 -45.5t-2 -69.5t-0.5 -113h-23q-4 52 -24 101t-56.5 80.5t-89.5 31.5q-48 0 -79 -27t-31 -75q0 -40 20 -68.5t58.5 -55.5t93.5 -65q48 -31 86 -62t61 -70t23 -93q0 -66 -34.5 -109
t-90.5 -64.5t-123 -21.5q-62 0 -99 12t-62 25q-22 14 -34 14q-16 0 -22 -44h-23q2 24 2.5 56t1 83.5t0.5 130.5h23q4 -66 22.5 -123.5t57 -92.5t102.5 -35q52 0 88 28t36 84q0 62 -42 102.5t-108 83.5q-47 31 -88 62t-65.5 71t-24.5 95q0 63 31.5 103.5t83 60t109.5 19.5z
M387 934q21 12 45.5 6.5t35.5 -28.5q10 -19 2.5 -40t-30.5 -34q-22 -12 -49 -18.5t-65 -16.5t-94 -31l-7 12q48 39 74.5 68t45.5 49.5t42 32.5z" />
    <glyph glyph-name="sacute" unicode="&#x15b;" horiz-adv-x="462" 
d="M222 531q42 0 73.5 -10.5t45.5 -20.5q34 -23 42 30h21q-2 -28 -3 -68.5t-1 -107.5h-21q-5 37 -19 73t-40.5 59t-68.5 23q-29 0 -49 -16.5t-20 -47.5q0 -30 18 -52.5t46.5 -43t59.5 -43.5q50 -37 84.5 -74.5t34.5 -97.5q0 -45 -26 -78.5t-68.5 -51.5t-94.5 -18
q-30 0 -53.5 6t-40.5 15q-13 6 -24.5 11.5t-21.5 9.5q-10 3 -17.5 -7t-11.5 -28h-21q2 32 3 78t1 122h21q6 -54 22 -95.5t43.5 -65t69.5 -23.5q26 0 48 16.5t22 54.5q0 44 -28.5 73t-72.5 63q-32 26 -60.5 51.5t-46.5 56t-18 69.5q0 45 24 76t63.5 46.5t84.5 15.5zM342 817
q17 -13 18 -36t-15 -43t-39 -36t-54.5 -39t-75.5 -64l-11 9q30 54 44 90.5t24 62.5t27 45q15 20 39.5 23.5t42.5 -12.5z" />
    <glyph glyph-name="Scircumflex" unicode="&#x15c;" horiz-adv-x="584" 
d="M284 721q59 0 91 -12.5t55 -26.5q12 -7 19.5 -10.5t14.5 -3.5q16 0 22 44h23q-1 -19 -2.5 -45.5t-2 -69.5t-0.5 -113h-23q-4 52 -24 101t-56.5 80.5t-89.5 31.5q-48 0 -79 -27t-31 -75q0 -40 20 -68.5t58.5 -55.5t93.5 -65q48 -31 86 -62t61 -70t23 -93q0 -66 -34.5 -109
t-90.5 -64.5t-123 -21.5q-62 0 -99 12t-62 25q-22 14 -34 14q-16 0 -22 -44h-23q2 24 2.5 56t1 83.5t0.5 130.5h23q4 -66 22.5 -123.5t57 -92.5t102.5 -35q52 0 88 28t36 84q0 62 -42 102.5t-108 83.5q-47 31 -88 62t-65.5 71t-24.5 95q0 63 31.5 103.5t83 60t109.5 19.5z
M307 940q30 -43 84.5 -85.5t120.5 -70.5l-5 -15q-65 12 -128.5 30t-100.5 35q-31 -17 -83.5 -35t-105.5 -30l-5 15q65 28 119.5 70t85.5 86h18z" />
    <glyph glyph-name="scircumflex" unicode="&#x15d;" horiz-adv-x="462" 
d="M222 531q42 0 73.5 -10.5t45.5 -20.5q34 -23 42 30h21q-2 -28 -3 -68.5t-1 -107.5h-21q-5 37 -19 73t-40.5 59t-68.5 23q-29 0 -49 -16.5t-20 -47.5q0 -30 18 -52.5t46.5 -43t59.5 -43.5q50 -37 84.5 -74.5t34.5 -97.5q0 -45 -26 -78.5t-68.5 -51.5t-94.5 -18
q-30 0 -53.5 6t-40.5 15q-13 6 -24.5 11.5t-21.5 9.5q-10 3 -17.5 -7t-11.5 -28h-21q2 32 3 78t1 122h21q6 -54 22 -95.5t43.5 -65t69.5 -23.5q26 0 48 16.5t22 54.5q0 44 -28.5 73t-72.5 63q-32 26 -60.5 51.5t-46.5 56t-18 69.5q0 45 24 76t63.5 46.5t84.5 15.5zM242 820
q27 -55 74.5 -108.5t104.5 -87.5l-8 -14q-58 14 -112 35t-88 41q-27 -20 -70.5 -41t-89.5 -35l-8 14q57 34 104.5 87t74.5 109h18z" />
    <glyph glyph-name="Scedilla" unicode="&#x15e;" horiz-adv-x="584" 
d="M284 721q59 0 91 -12.5t55 -26.5q12 -7 19.5 -10.5t14.5 -3.5q16 0 22 44h23q-1 -19 -2.5 -45.5t-2 -69.5t-0.5 -113h-23q-4 52 -24 101t-56.5 80.5t-89.5 31.5q-48 0 -79 -27t-31 -75q0 -40 20 -68.5t58.5 -55.5t93.5 -65q48 -31 86 -62t61 -70t23 -93q0 -66 -34.5 -109
t-90.5 -64.5t-123 -21.5q-62 0 -99 12t-62 25q-22 14 -34 14q-16 0 -22 -44h-23q2 24 2.5 56t1 83.5t0.5 130.5h23q4 -66 22.5 -123.5t57 -92.5t102.5 -35q52 0 88 28t36 84q0 62 -42 102.5t-108 83.5q-47 31 -88 62t-65.5 71t-24.5 95q0 63 31.5 103.5t83 60t109.5 19.5z
M309 5l-22 -70q17 6 36.5 9t40.5 3q37 0 56 -14.5t19 -39.5q0 -28 -22 -46t-58 -26.5t-78 -8.5q-29 0 -53 3.5t-40 8.5l5 18q7 -1 20.5 -2.5t29.5 -1.5q31 0 61 9t30 32q0 14 -12 20t-34 6q-8 0 -19 -1.5t-20 -5.5l33 107h27z" />
    <glyph glyph-name="scedilla" unicode="&#x15f;" horiz-adv-x="462" 
d="M222 531q42 0 73.5 -10.5t45.5 -20.5q34 -23 42 30h21q-2 -28 -3 -68.5t-1 -107.5h-21q-5 37 -19 73t-40.5 59t-68.5 23q-29 0 -49 -16.5t-20 -47.5q0 -30 18 -52.5t46.5 -43t59.5 -43.5q50 -37 84.5 -74.5t34.5 -97.5q0 -45 -26 -78.5t-68.5 -51.5t-94.5 -18
q-30 0 -53.5 6t-40.5 15q-13 6 -24.5 11.5t-21.5 9.5q-10 3 -17.5 -7t-11.5 -28h-21q2 32 3 78t1 122h21q6 -54 22 -95.5t43.5 -65t69.5 -23.5q26 0 48 16.5t22 54.5q0 44 -28.5 73t-72.5 63q-32 26 -60.5 51.5t-46.5 56t-18 69.5q0 45 24 76t63.5 46.5t84.5 15.5zM223 2
l-21 -67q16 6 34 9t37 3q34 0 51.5 -14.5t17.5 -39.5q0 -28 -19.5 -46t-51.5 -26.5t-69 -8.5q-27 0 -49 3.5t-38 8.5l5 18q6 -1 18 -2.5t26 -1.5q25 0 49 9t24 32q0 26 -33 26q-8 0 -19.5 -1.5t-20.5 -5.5l32 104h27z" />
    <glyph glyph-name="Scaron" unicode="&#x160;" horiz-adv-x="584" 
d="M284 721q59 0 91 -12.5t55 -26.5q12 -7 19.5 -10.5t14.5 -3.5q16 0 22 44h23q-1 -19 -2.5 -45.5t-2 -69.5t-0.5 -113h-23q-4 52 -24 101t-56.5 80.5t-89.5 31.5q-48 0 -79 -27t-31 -75q0 -40 20 -68.5t58.5 -55.5t93.5 -65q48 -31 86 -62t61 -70t23 -93q0 -66 -34.5 -109
t-90.5 -64.5t-123 -21.5q-62 0 -99 12t-62 25q-22 14 -34 14q-16 0 -22 -44h-23q2 24 2.5 56t1 83.5t0.5 130.5h23q4 -66 22.5 -123.5t57 -92.5t102.5 -35q52 0 88 28t36 84q0 62 -42 102.5t-108 83.5q-47 31 -88 62t-65.5 71t-24.5 95q0 63 31.5 103.5t83 60t109.5 19.5z
M504 938l5 -15q-65 -27 -119.5 -69.5t-85.5 -86.5h-18q-30 44 -84.5 86.5t-120.5 69.5l5 15q65 -11 128.5 -29t100.5 -36q31 18 83.5 36t105.5 29z" />
    <glyph glyph-name="scaron" unicode="&#x161;" horiz-adv-x="462" 
d="M222 531q42 0 73.5 -10.5t45.5 -20.5q34 -23 42 30h21q-2 -28 -3 -68.5t-1 -107.5h-21q-5 37 -19 73t-40.5 59t-68.5 23q-29 0 -49 -16.5t-20 -47.5q0 -30 18 -52.5t46.5 -43t59.5 -43.5q50 -37 84.5 -74.5t34.5 -97.5q0 -45 -26 -78.5t-68.5 -51.5t-94.5 -18
q-30 0 -53.5 6t-40.5 15q-13 6 -24.5 11.5t-21.5 9.5q-10 3 -17.5 -7t-11.5 -28h-21q2 32 3 78t1 122h21q6 -54 22 -95.5t43.5 -65t69.5 -23.5q26 0 48 16.5t22 54.5q0 44 -28.5 73t-72.5 63q-32 26 -60.5 51.5t-46.5 56t-18 69.5q0 45 24 76t63.5 46.5t84.5 15.5zM403 820
l8 -14q-57 -33 -104.5 -86.5t-74.5 -109.5h-18q-27 55 -74.5 109t-104.5 87l8 14q58 -14 112.5 -34.5t87.5 -41.5q28 21 71 41.5t89 34.5z" />
    <glyph glyph-name="uni0162" unicode="&#x162;" horiz-adv-x="668" 
d="M642 708q-4 -51 -5.5 -98t-1.5 -72q0 -22 1 -42t2 -34h-23q-16 84 -40.5 133t-58.5 69.5t-80 20.5h-23v-571q0 -40 8.5 -60t31.5 -26.5t67 -7.5v-20q-31 1 -82.5 2t-107.5 1q-55 0 -104 -1t-79 -2v20q45 1 68 7.5t31 26.5t8 60v571h-22q-46 0 -80 -20.5t-58 -69
t-42 -133.5h-23q2 14 2.5 34t0.5 42q0 25 -1.5 72t-5.5 98q46 -1 100.5 -2t109.5 -1h99h99.5t109.5 1t99 2zM345 5l-22 -70q17 6 36.5 9t40.5 3q37 0 56 -14.5t19 -39.5q0 -28 -22 -46t-58 -26.5t-78 -8.5q-29 0 -53 3.5t-40 8.5l5 18q7 -1 20.5 -2.5t29.5 -1.5q31 0 61 9
t30 32q0 14 -12 20t-34 6q-8 0 -19 -1.5t-20 -5.5l33 107h27z" />
    <glyph glyph-name="uni0163" unicode="&#x163;" horiz-adv-x="352" 
d="M227 681v-164h118v-20h-118v-404q0 -30 11 -42.5t33 -12.5q18 0 36 13.5t32 46.5l17 -9q-16 -45 -48.5 -74t-88.5 -29q-33 0 -58 8.5t-42 25.5q-22 22 -29 54.5t-7 84.5v338h-84v20h84v132q42 0 77.5 7.5t66.5 24.5zM213 2l-21 -67q16 6 34 9t37 3q34 0 51.5 -14.5
t17.5 -39.5q0 -28 -19.5 -46t-51.5 -26.5t-69 -8.5q-27 0 -49 3.5t-38 8.5l5 18q6 -1 18 -2.5t26 -1.5q25 0 49 9t24 32q0 26 -33 26q-8 0 -19.5 -1.5t-20.5 -5.5l32 104h27z" />
    <glyph glyph-name="Tcaron" unicode="&#x164;" horiz-adv-x="668" 
d="M642 708q-4 -51 -5.5 -98t-1.5 -72q0 -22 1 -42t2 -34h-23q-16 84 -40.5 133t-58.5 69.5t-80 20.5h-23v-571q0 -40 8.5 -60t31.5 -26.5t67 -7.5v-20q-31 1 -82.5 2t-107.5 1q-55 0 -104 -1t-79 -2v20q45 1 68 7.5t31 26.5t8 60v571h-22q-46 0 -80 -20.5t-58 -69
t-42 -133.5h-23q2 14 2.5 34t0.5 42q0 25 -1.5 72t-5.5 98q46 -1 100.5 -2t109.5 -1h99h99.5t109.5 1t99 2zM540 938l5 -15q-65 -27 -119.5 -69.5t-85.5 -86.5h-18q-30 44 -84.5 86.5t-120.5 69.5l5 15q65 -11 128.5 -29t100.5 -36q31 18 83.5 36t105.5 29z" />
    <glyph glyph-name="tcaron" unicode="&#x165;" horiz-adv-x="352" 
d="M227 681v-164h118v-20h-118v-404q0 -30 11 -42.5t33 -12.5q18 0 36 13.5t32 46.5l17 -9q-16 -45 -48.5 -74t-88.5 -29q-33 0 -58 8.5t-42 25.5q-22 22 -29 54.5t-7 84.5v338h-84v20h84v132q42 0 77.5 7.5t66.5 24.5zM389 783q2 -5 3.5 -18.5t1.5 -22.5q0 -29 -26.5 -72
t-70.5 -108l-14 4q12 68 16 100t4 45q0 20 -3.5 30t-16.5 10v21q38 -2 61.5 2t44.5 9z" />
    <glyph glyph-name="Tbar" unicode="&#x166;" horiz-adv-x="668" 
d="M642 708q-4 -51 -5.5 -98t-1.5 -72q0 -22 1 -42t2 -34h-23q-16 84 -40.5 133t-58.5 69.5t-80 20.5h-23v-571q0 -40 8.5 -60t31.5 -26.5t67 -7.5v-20q-31 1 -82.5 2t-107.5 1q-55 0 -104 -1t-79 -2v20q45 1 68 7.5t31 26.5t8 60v571h-22q-46 0 -80 -20.5t-58 -69
t-42 -133.5h-23q2 14 2.5 34t0.5 42q0 25 -1.5 72t-5.5 98q46 -1 100.5 -2t109.5 -1h99h99.5t109.5 1t99 2zM578.805 364v-20h-460.805v20h460.805z" />
    <glyph glyph-name="tbar" unicode="&#x167;" horiz-adv-x="362" 
d="M348 421v-20h-346v20h346zM230 681v-164h118v-20h-118v-404q0 -30 11 -42.5t32 -12.5q19 0 36.5 13.5t32.5 46.5l17 -9q-17 -45 -49.5 -74t-88.5 -29q-33 0 -57.5 8.5t-41.5 25.5q-22 22 -29 54.5t-7 84.5v338h-84v20h84v132q41 0 76.5 7.5t67.5 24.5z" />
    <glyph glyph-name="Utilde" unicode="&#x168;" horiz-adv-x="689" 
d="M671 708v-20q-32 -4 -48.5 -16.5t-21.5 -39.5t-5 -76v-265q0 -65 -9 -119t-32 -93q-26 -43 -76 -68t-127 -25q-46 0 -94 10.5t-86 39.5q-32 27 -49 61t-23 80.5t-6 110.5v314q0 37 -5.5 54.5t-21.5 24t-48 7.5v20q25 -1 67.5 -2t88.5 -1t88.5 1t70.5 2v-20
q-34 -1 -51.5 -7.5t-23.5 -24t-6 -54.5v-377q0 -67 12 -112.5t42.5 -68.5t83.5 -23q70 0 109.5 33t56 91.5t16.5 134.5v264q0 55 -7 84.5t-27.5 42.5t-62.5 17v20q19 -1 50 -2t58 -1q24 0 47.5 1t39.5 2zM269 924q35 0 61.5 -11t49 -25t46 -24.5t53.5 -10.5q24 0 45 12.5
t38 41.5l14 -5q-13 -69 -50.5 -101.5t-82.5 -32.5q-35 0 -61.5 10.5t-49.5 25t-46.5 25t-53.5 10.5q-24 0 -45 -12.5t-38 -42.5l-14 5q14 70 51.5 102.5t82.5 32.5z" />
    <glyph glyph-name="utilde" unicode="&#x169;" horiz-adv-x="606" 
d="M522 528v-419q0 -45 14 -66.5t50 -21.5v-21q-31 3 -62 3q-42 0 -78 -3t-68 -11v90q-24 -50 -66.5 -71.5t-94.5 -21.5q-42 0 -68 11t-41 28q-17 19 -24 50t-7 80v253q0 45 -13.5 66.5t-50.5 21.5v21q32 -3 62 -3q42 0 78.5 3.5t67.5 10.5v-414q0 -25 4.5 -44t17.5 -29.5
t38 -10.5q40 0 68.5 33.5t28.5 82.5v262q0 45 -13.5 66.5t-50.5 21.5v21q32 -3 62 -3q42 0 78.5 3.5t67.5 10.5zM214 786q31 0 52 -10t38.5 -23t36 -23t42.5 -10q21 0 40.5 12.5t36.5 40.5l14 -7q-17 -74 -50.5 -106.5t-73.5 -32.5q-31 0 -52.5 10t-39 23.5t-35.5 23.5
t-43 10q-21 0 -40.5 -12.5t-36.5 -41.5l-14 7q17 75 51 107t74 32z" />
    <glyph glyph-name="Umacron" unicode="&#x16a;" horiz-adv-x="689" 
d="M671 708v-20q-32 -4 -48.5 -16.5t-21.5 -39.5t-5 -76v-265q0 -65 -9 -119t-32 -93q-26 -43 -76 -68t-127 -25q-46 0 -94 10.5t-86 39.5q-32 27 -49 61t-23 80.5t-6 110.5v314q0 37 -5.5 54.5t-21.5 24t-48 7.5v20q25 -1 67.5 -2t88.5 -1t88.5 1t70.5 2v-20
q-34 -1 -51.5 -7.5t-23.5 -24t-6 -54.5v-377q0 -67 12 -112.5t42.5 -68.5t83.5 -23q70 0 109.5 33t56 91.5t16.5 134.5v264q0 55 -7 84.5t-27.5 42.5t-62.5 17v20q19 -1 50 -2t58 -1q24 0 47.5 1t39.5 2zM557 844v-25h-400v25h400z" />
    <glyph glyph-name="umacron" unicode="&#x16b;" horiz-adv-x="606" 
d="M522 528v-419q0 -45 14 -66.5t50 -21.5v-21q-31 3 -62 3q-42 0 -78 -3t-68 -11v90q-24 -50 -66.5 -71.5t-94.5 -21.5q-42 0 -68 11t-41 28q-17 19 -24 50t-7 80v253q0 45 -13.5 66.5t-50.5 21.5v21q32 -3 62 -3q42 0 78.5 3.5t67.5 10.5v-414q0 -25 4.5 -44t17.5 -29.5
t38 -10.5q40 0 68.5 33.5t28.5 82.5v262q0 45 -13.5 66.5t-50.5 21.5v21q32 -3 62 -3q42 0 78.5 3.5t67.5 10.5zM454 712v-25h-336v25h336z" />
    <glyph glyph-name="Ubreve" unicode="&#x16c;" horiz-adv-x="689" 
d="M671 708v-20q-32 -4 -48.5 -16.5t-21.5 -39.5t-5 -76v-265q0 -65 -9 -119t-32 -93q-26 -43 -76 -68t-127 -25q-46 0 -94 10.5t-86 39.5q-32 27 -49 61t-23 80.5t-6 110.5v314q0 37 -5.5 54.5t-21.5 24t-48 7.5v20q25 -1 67.5 -2t88.5 -1t88.5 1t70.5 2v-20
q-34 -1 -51.5 -7.5t-23.5 -24t-6 -54.5v-377q0 -67 12 -112.5t42.5 -68.5t83.5 -23q70 0 109.5 33t56 91.5t16.5 134.5v264q0 55 -7 84.5t-27.5 42.5t-62.5 17v20q19 -1 50 -2t58 -1q24 0 47.5 1t39.5 2zM562 916l12 -11q-14 -31 -43 -62t-74 -51.5t-106 -20.5t-106 20.5
t-74 51.5t-43 62l12 10q27 -20 78.5 -40t132.5 -20t132.5 20t78.5 41z" />
    <glyph glyph-name="ubreve" unicode="&#x16d;" horiz-adv-x="606" 
d="M522 528v-419q0 -45 14 -66.5t50 -21.5v-21q-31 3 -62 3q-42 0 -78 -3t-68 -11v90q-24 -50 -66.5 -71.5t-94.5 -21.5q-42 0 -68 11t-41 28q-17 19 -24 50t-7 80v253q0 45 -13.5 66.5t-50.5 21.5v21q32 -3 62 -3q42 0 78.5 3.5t67.5 10.5v-414q0 -25 4.5 -44t17.5 -29.5
t38 -10.5q40 0 68.5 33.5t28.5 82.5v262q0 45 -13.5 66.5t-50.5 21.5v21q32 -3 62 -3q42 0 78.5 3.5t67.5 10.5zM462 788l17 -9q-12 -36 -36 -72.5t-62 -61t-93 -24.5t-93 24.5t-62 61t-36 72.5l17 9q22 -25 63.5 -48.5t110.5 -23.5t110.5 23.5t63.5 48.5z" />
    <glyph glyph-name="Uring" unicode="&#x16e;" horiz-adv-x="689" 
d="M671 708v-20q-32 -4 -48.5 -16.5t-21.5 -39.5t-5 -76v-265q0 -65 -9 -119t-32 -93q-26 -43 -76 -68t-127 -25q-46 0 -94 10.5t-86 39.5q-32 27 -49 61t-23 80.5t-6 110.5v314q0 37 -5.5 54.5t-21.5 24t-48 7.5v20q25 -1 67.5 -2t88.5 -1t88.5 1t70.5 2v-20
q-34 -1 -51.5 -7.5t-23.5 -24t-6 -54.5v-377q0 -67 12 -112.5t42.5 -68.5t83.5 -23q70 0 109.5 33t56 91.5t16.5 134.5v264q0 55 -7 84.5t-27.5 42.5t-62.5 17v20q19 -1 50 -2t58 -1q24 0 47.5 1t39.5 2zM357 988q44 0 76.5 -26t32.5 -71t-32.5 -71.5t-76.5 -26.5
q-43 0 -75.5 26.5t-32.5 71.5t32.5 71t75.5 26zM357 967q-28 0 -54 -20t-26 -57q0 -38 26 -57t54 -19q29 0 55 19t26 57q0 37 -26 57t-55 20z" />
    <glyph glyph-name="uring" unicode="&#x16f;" horiz-adv-x="606" 
d="M522 528v-419q0 -45 14 -66.5t50 -21.5v-21q-31 3 -62 3q-42 0 -78 -3t-68 -11v90q-24 -50 -66.5 -71.5t-94.5 -21.5q-42 0 -68 11t-41 28q-17 19 -24 50t-7 80v253q0 45 -13.5 66.5t-50.5 21.5v21q32 -3 62 -3q42 0 78.5 3.5t67.5 10.5v-414q0 -25 4.5 -44t17.5 -29.5
t38 -10.5q40 0 68.5 33.5t28.5 82.5v262q0 45 -13.5 66.5t-50.5 21.5v21q32 -3 62 -3q42 0 78.5 3.5t67.5 10.5zM289 797q44 0 76.5 -26t32.5 -71t-32.5 -71.5t-76.5 -26.5q-43 0 -75.5 26.5t-32.5 71.5t32.5 71t75.5 26zM289 776q-28 0 -54 -20t-26 -57q0 -38 26 -57
t54 -19q29 0 55 19t26 57q0 37 -26 57t-55 20z" />
    <glyph glyph-name="Uhungarumlaut" unicode="&#x170;" horiz-adv-x="689" 
d="M671 708v-20q-32 -4 -48.5 -16.5t-21.5 -39.5t-5 -76v-265q0 -65 -9 -119t-32 -93q-26 -43 -76 -68t-127 -25q-46 0 -94 10.5t-86 39.5q-32 27 -49 61t-23 80.5t-6 110.5v314q0 37 -5.5 54.5t-21.5 24t-48 7.5v20q25 -1 67.5 -2t88.5 -1t88.5 1t70.5 2v-20
q-34 -1 -51.5 -7.5t-23.5 -24t-6 -54.5v-377q0 -67 12 -112.5t42.5 -68.5t83.5 -23q70 0 109.5 33t56 91.5t16.5 134.5v264q0 55 -7 84.5t-27.5 42.5t-62.5 17v20q19 -1 50 -2t58 -1q24 0 47.5 1t39.5 2zM524 935q21 16 45 12t37 -23q14 -19 9.5 -40t-26.5 -38
q-27 -20 -70 -33t-102 -41l-10 11q30 35 49.5 63.5t35 51t32.5 37.5zM313 935q21 16 45 12t37 -23q14 -19 9.5 -40t-26.5 -38q-27 -20 -70 -33t-102 -41l-10 11q30 35 49.5 63.5t35 51t32.5 37.5z" />
    <glyph glyph-name="uhungarumlaut" unicode="&#x171;" horiz-adv-x="606" 
d="M522 528v-419q0 -45 14 -66.5t50 -21.5v-21q-31 3 -62 3q-42 0 -78 -3t-68 -11v90q-24 -50 -66.5 -71.5t-94.5 -21.5q-42 0 -68 11t-41 28q-17 19 -24 50t-7 80v253q0 45 -13.5 66.5t-50.5 21.5v21q32 -3 62 -3q42 0 78.5 3.5t67.5 10.5v-414q0 -25 4.5 -44t17.5 -29.5
t38 -10.5q40 0 68.5 33.5t28.5 82.5v262q0 45 -13.5 66.5t-50.5 21.5v21q32 -3 62 -3q42 0 78.5 3.5t67.5 10.5zM496 815q19 -13 22 -34.5t-13 -43.5q-19 -28 -55.5 -55t-93.5 -84l-12 8q21 50 31.5 86t18.5 61.5t21 43.5q14 22 37.5 27t43.5 -9zM319 815q18 -13 21 -34.5
t-12 -43.5q-20 -28 -56.5 -55t-92.5 -84l-12 8q21 50 31.5 86t18.5 61.5t20 43.5q15 22 38.5 27t43.5 -9z" />
    <glyph glyph-name="Uogonek" unicode="&#x172;" horiz-adv-x="689" 
d="M671 708v-20q-32 -4 -48.5 -16.5t-21.5 -39.5t-5 -76v-265q0 -65 -9 -119t-32 -93q-26 -43 -76 -68t-127 -25q-46 0 -94 10.5t-86 39.5q-32 27 -49 61t-23 80.5t-6 110.5v314q0 37 -5.5 54.5t-21.5 24t-48 7.5v20q25 -1 67.5 -2t88.5 -1t88.5 1t70.5 2v-20
q-34 -1 -51.5 -7.5t-23.5 -24t-6 -54.5v-377q0 -67 12 -112.5t42.5 -68.5t83.5 -23q70 0 109.5 33t56 91.5t16.5 134.5v264q0 55 -7 84.5t-27.5 42.5t-62.5 17v20q19 -1 50 -2t58 -1q24 0 47.5 1t39.5 2zM459 3q-60 -19 -84.5 -45.5t-24.5 -49.5q0 -20 11 -30.5t31 -10.5
q17 0 35 8t29 19l13 -14q-26 -36 -59 -52t-78 -16q-43 0 -67 18.5t-24 50.5q0 42 48 73t132 49h38z" />
    <glyph glyph-name="uogonek" unicode="&#x173;" horiz-adv-x="606" 
d="M522 528v-419q0 -45 14 -66.5t50 -21.5v-21q-31 3 -62 3q-42 0 -78 -3t-68 -11v90q-24 -50 -66.5 -71.5t-94.5 -21.5q-42 0 -68 11t-41 28q-17 19 -24 50t-7 80v253q0 45 -13.5 66.5t-50.5 21.5v21q32 -3 62 -3q42 0 78.5 3.5t67.5 10.5v-414q0 -25 4.5 -44t17.5 -29.5
t38 -10.5q40 0 68.5 33.5t28.5 82.5v262q0 45 -13.5 66.5t-50.5 21.5v21q32 -3 62 -3q42 0 78.5 3.5t67.5 10.5zM572 9q-3 -3 -7 -6t-12 -6q-43 -20 -59 -44t-16 -45q0 -20 10.5 -30.5t30.5 -10.5q18 0 35.5 8t28.5 19l14 -14q-27 -36 -59.5 -52t-77.5 -16q-44 0 -67.5 18.5
t-23.5 50.5q0 42 42.5 73t119.5 49z" />
    <glyph glyph-name="Wcircumflex" unicode="&#x174;" horiz-adv-x="968" 
d="M974 708v-20q-22 -8 -46 -34.5t-42 -84.5l-176 -571q-8 1 -17 1h-18h-18t-17 -1l-210 636q-10 31 -24.5 42t-30.5 12v20q28 -1 66.5 -2t76.5 -1q44 0 82.5 1t61.5 2v-20q-30 -1 -47.5 -7t-20 -23t9.5 -54l142 -434l-23 -41l113 359q24 76 23 119t-23 61.5t-63 19.5v20
q34 -1 64 -2t60 -1q23 0 42.5 1t34.5 2zM260 708v-20q-20 -3 -28 -14.5t-6.5 -30t8.5 -39.5l153 -444l-27 -36l128 374l14 -27l-157 -473q-8 1 -17 1h-18h-18t-17 -1l-224 626q-13 37 -30.5 50t-32.5 14v20q30 -1 71 -2t78 -1q40 0 71.5 1t51.5 2zM510 940
q30 -43 84.5 -85.5t120.5 -70.5l-5 -15q-65 12 -128.5 30t-100.5 35q-31 -17 -83.5 -35t-105.5 -30l-5 15q65 28 119.5 70t85.5 86h18z" />
    <glyph glyph-name="wcircumflex" unicode="&#x175;" horiz-adv-x="787" 
d="M265 517v-21q-22 0 -38.5 -2.5t-22 -14.5t3.5 -39l95 -297l-13 -14l117 389l20 -9l-153 -511q-16 1 -32 1t-33 -1l-158 442q-14 40 -30.5 48t-27.5 8v21q32 -3 66.5 -4.5t75.5 -1.5q31 0 65.5 2t64.5 4zM787 517v-20q-19 -5 -36 -23t-32 -63l-133 -413q-16 1 -32.5 1
t-32.5 -1l-141 385l27 135q18 -1 36.5 -0.5t36.5 0.5l137 -404l-11 11l67 212q26 82 5.5 119t-70.5 41v20q16 -1 34.5 -1.5l37 -1t31.5 -0.5q20 0 41.5 1t34.5 2zM420 820q27 -55 74.5 -108.5t104.5 -87.5l-8 -14q-58 14 -112 35t-88 41q-27 -20 -70.5 -41t-89.5 -35l-8 14
q57 34 104.5 87t74.5 109h18z" />
    <glyph glyph-name="Ycircumflex" unicode="&#x176;" horiz-adv-x="623" 
d="M617 709v-20q-22 -9 -45 -35.5t-51 -80.5l-189 -374h-47l-234 433q-18 34 -32.5 45t-25.5 11v21q27 -3 55.5 -4t62.5 -1q44 0 95 1.5t93 3.5v-21q-25 0 -45 -4t-28 -14.5t4 -33.5l158 -304l-31 -40l103 207q37 72 39.5 113t-20 58.5t-63.5 18.5v20q34 -1 64 -2t61 -1
q22 0 41.5 1t34.5 2zM403 357v-251q0 -36 5.5 -54t21.5 -24t48 -8v-20q-27 2 -69.5 2.5t-84.5 0.5q-47 0 -89 -0.5t-66 -2.5v20q32 2 48 8t21.5 24t5.5 54v205l87 -62zM339 940q30 -43 84.5 -85.5t120.5 -70.5l-5 -15q-65 12 -128.5 30t-100.5 35q-31 -17 -83.5 -35
t-105.5 -30l-5 15q65 28 119.5 70t85.5 86h18z" />
    <glyph glyph-name="ycircumflex" unicode="&#x177;" horiz-adv-x="519" 
d="M513 517v-20q-19 -5 -36 -23.5t-33 -62.5l-141 -396l-37 -70l-218 495q-17 39 -33.5 47.5t-28.5 8.5v21q33 -3 68.5 -4.5t68.5 -1.5q41 0 75 2t64 4v-21q-20 0 -37.5 -2.5t-24 -14t5.5 -39.5l126 -304l-9 -6l74 207q28 81 9 118.5t-67 41.5v20q23 -1 50 -2t47 -1t42 1
t35 2zM303 15l-38 -107q-19 -51 -44 -71q-14 -12 -36 -18.5t-51 -6.5q-24 0 -49.5 8t-42.5 26t-17 46q0 31 22 49.5t58 18.5q33 0 54 -16t21 -47q0 -20 -12.5 -38t-37.5 -27q5 -1 12 -1h11q30 0 53 19t38 60l35 103zM267 820q27 -55 74.5 -108.5t104.5 -87.5l-8 -14
q-58 14 -112 35t-88 41q-27 -20 -70.5 -41t-89.5 -35l-8 14q57 34 104.5 87t74.5 109h18z" />
    <glyph glyph-name="Ydieresis" unicode="&#x178;" horiz-adv-x="623" 
d="M617 709v-20q-22 -9 -45 -35.5t-51 -80.5l-189 -374h-47l-234 433q-18 34 -32.5 45t-25.5 11v21q27 -3 55.5 -4t62.5 -1q44 0 95 1.5t93 3.5v-21q-25 0 -45 -4t-28 -14.5t4 -33.5l158 -304l-31 -40l103 207q37 72 39.5 113t-20 58.5t-63.5 18.5v20q34 -1 64 -2t61 -1
q22 0 41.5 1t34.5 2zM403 357v-251q0 -36 5.5 -54t21.5 -24t48 -8v-20q-27 2 -69.5 2.5t-84.5 0.5q-47 0 -89 -0.5t-66 -2.5v20q32 2 48 8t21.5 24t5.5 54v205l87 -62zM450 917q30 0 52.5 -23t22.5 -53q0 -31 -22.5 -53t-52.5 -22q-31 0 -53.5 22t-22.5 54q0 30 22.5 52.5
t53.5 22.5zM210 917q30 0 53 -23t23 -53q0 -31 -23 -53t-53 -22q-31 0 -53 22t-22 54q0 30 22 52.5t53 22.5z" />
    <glyph glyph-name="Zacute" unicode="&#x179;" horiz-adv-x="602" 
d="M557 708v-20l-342 -665h104q34 0 68.5 11t64 36t50.5 66.5t28 103.5h23q-3 -34 -3 -88q0 -23 1 -65t6 -87q-55 2 -124.5 2.5t-124.5 0.5q-65 0 -136 -0.5t-133 -2.5v20l343 665h-108q-50 0 -92 -18.5t-70 -63t-38 -123.5h-23q2 14 2.5 34t0.5 42q0 23 -1.5 65t-5.5 87
q50 -2 112.5 -2.5t112.5 -0.5q67 0 143 0.5t142 2.5zM391 934q21 12 45.5 6.5t35.5 -28.5q10 -19 2.5 -40t-30.5 -34q-22 -12 -49 -18.5t-65 -16.5t-94 -31l-7 12q48 39 74.5 68t45.5 49.5t42 32.5z" />
    <glyph glyph-name="zacute" unicode="&#x17a;" horiz-adv-x="474" 
d="M444 522l-250 -507h52q39 0 73.5 16.5t58 55.5t28.5 107h21q0 -73 1 -119.5t3 -78.5q-45 2 -94 3t-98 1q-51 0 -105 -1.5t-103 -3.5l250 507h-56q-40 0 -73.5 -16.5t-55 -56t-27.5 -106.5h-21q0 74 -1 120t-3 78q46 -2 95 -3t97 -1q52 0 105.5 1.5t102.5 3.5zM362 817
q17 -13 18 -36t-15 -43t-39 -36t-54.5 -39t-75.5 -64l-11 9q30 54 44 90.5t24 62.5t27 45q15 20 39.5 23.5t42.5 -12.5z" />
    <glyph glyph-name="Zdotaccent" unicode="&#x17b;" horiz-adv-x="602" 
d="M557 708v-20l-342 -665h104q34 0 68.5 11t64 36t50.5 66.5t28 103.5h23q-3 -34 -3 -88q0 -23 1 -65t6 -87q-55 2 -124.5 2.5t-124.5 0.5q-65 0 -136 -0.5t-133 -2.5v20l343 665h-108q-50 0 -92 -18.5t-70 -63t-38 -123.5h-23q2 14 2.5 34t0.5 42q0 23 -1.5 65t-5.5 87
q50 -2 112.5 -2.5t112.5 -0.5q67 0 143 0.5t142 2.5zM302 966q42 0 66.5 -20.5t24.5 -56.5t-24.5 -56.5t-66.5 -20.5t-66.5 20.5t-24.5 56.5t24.5 56.5t66.5 20.5z" />
    <glyph glyph-name="zdotaccent" unicode="&#x17c;" horiz-adv-x="474" 
d="M444 522l-250 -507h52q39 0 73.5 16.5t58 55.5t28.5 107h21q0 -73 1 -119.5t3 -78.5q-45 2 -94 3t-98 1q-51 0 -105 -1.5t-103 -3.5l250 507h-56q-40 0 -73.5 -16.5t-55 -56t-27.5 -106.5h-21q0 74 -1 120t-3 78q46 -2 95 -3t97 -1q52 0 105.5 1.5t102.5 3.5zM253 775
q42 0 66.5 -20.5t24.5 -56.5t-24.5 -56.5t-66.5 -20.5t-66.5 20.5t-24.5 56.5t24.5 56.5t66.5 20.5z" />
    <glyph glyph-name="Zcaron" unicode="&#x17d;" horiz-adv-x="602" 
d="M557 708v-20l-342 -665h104q34 0 68.5 11t64 36t50.5 66.5t28 103.5h23q-3 -34 -3 -88q0 -23 1 -65t6 -87q-55 2 -124.5 2.5t-124.5 0.5q-65 0 -136 -0.5t-133 -2.5v20l343 665h-108q-50 0 -92 -18.5t-70 -63t-38 -123.5h-23q2 14 2.5 34t0.5 42q0 23 -1.5 65t-5.5 87
q50 -2 112.5 -2.5t112.5 -0.5q67 0 143 0.5t142 2.5zM508 938l5 -15q-65 -27 -119.5 -69.5t-85.5 -86.5h-18q-30 44 -84.5 86.5t-120.5 69.5l5 15q65 -11 128.5 -29t100.5 -36q31 18 83.5 36t105.5 29z" />
    <glyph glyph-name="zcaron" unicode="&#x17e;" horiz-adv-x="474" 
d="M444 522l-250 -507h52q39 0 73.5 16.5t58 55.5t28.5 107h21q0 -73 1 -119.5t3 -78.5q-45 2 -94 3t-98 1q-51 0 -105 -1.5t-103 -3.5l250 507h-56q-40 0 -73.5 -16.5t-55 -56t-27.5 -106.5h-21q0 74 -1 120t-3 78q46 -2 95 -3t97 -1q52 0 105.5 1.5t102.5 3.5zM423 820
l8 -14q-57 -33 -104.5 -86.5t-74.5 -109.5h-18q-27 55 -74.5 109t-104.5 87l8 14q58 -14 112.5 -34.5t87.5 -41.5q28 21 71 41.5t89 34.5z" />
    <glyph glyph-name="longs" unicode="&#x17f;" horiz-adv-x="352" 
d="M24 0v21q35 0 49.5 15t14.5 57v403h-68v20h68q0 89 14 135.5t49 80.5q22 21 58.5 35.5t78.5 14.5q35 0 61 -9t46 -24q14 -11 24 -30.5t10 -44.5q0 -27 -19.5 -48t-51.5 -21q-33 0 -54.5 19t-21.5 52q0 26 15 46t44 28q-3 6 -12 10t-24 4q-20 0 -33 -7t-21 -19
q-11 -15 -15 -43.5t-4 -87.5v-504q0 -49 25 -65.5t69 -16.5v-21q-26 1 -73 2.5t-99 1.5q-38 0 -74.5 -1.5t-55.5 -2.5z" />
    <glyph glyph-name="uni018F" unicode="&#x18f;" horiz-adv-x="746" 
d="M358 -14q-86 0 -158.5 33.5t-115 103t-41.5 178.5h544l1 -19h-379q-6 -74 12 -136.5t57 -100.5t95 -38q68 0 112.5 65.5t54.5 216.5l-3 7q2 12 2.5 25.5t0.5 26.5q0 93 -20 158.5t-55 105.5t-78 58.5t-90 18.5q-34 0 -68.5 -10t-59.5 -32q-38 -27 -52.5 -71t-22.5 -110
h-23q0 92 -1 147.5t-3 94.5h23q5 -46 14.5 -54.5t30.5 3.5q18 11 44.5 26.5t68.5 27.5t103 12q101 0 181 -41t125.5 -122.5t45.5 -204.5q0 -122 -45.5 -204t-123 -123.5t-176.5 -41.5z" />
    <glyph glyph-name="florin" unicode="&#x192;" horiz-adv-x="551" 
d="M381 782q26 0 53.5 -5.5t50.5 -18t37.5 -32.5t14.5 -48q0 -31 -20 -52t-53 -21q-34 0 -55 19t-21 49q0 56 56 76q-3 6 -15 10.5t-29 4.5q-19 0 -36.5 -9t-26.5 -25q-13 -22 -15.5 -69t-2.5 -147v-420q0 -80 -13.5 -135t-50.5 -93q-25 -25 -65 -39.5t-97 -14.5
q-19 0 -41 4t-40.5 12.5t-30.5 24t-12 37.5q0 29 21 47t57 18q32 0 52 -16.5t20 -46.5q0 -16 -9.5 -33t-32.5 -28q12 0 21.5 2.5t16.5 6.5q14 2 27 10t20 22q9 18 11 51t2 99v492q0 89 14 136.5t49 81.5q23 22 60.5 36t82.5 14zM500 516v-20h-461v20h461z" />
    <glyph glyph-name="Ohorn" unicode="&#x1a0;" horiz-adv-x="793" 
d="M496 701q62 -3 104 4t77 23l-2 -8q-21 12 -39 32.5t-18 49.5q0 30 19.5 49.5t49.5 19.5q31 0 51 -19.5t20 -51.5q0 -27 -16.5 -50t-47.5 -38q-26 -13 -69 -23t-102 -9zM397 722q106 0 185.5 -43t123.5 -123.5t44 -195.5q0 -112 -45 -196t-125 -131t-184 -47
q-106 0 -185.5 43t-123.5 124t-44 195q0 112 45.5 196t125 131t183.5 47zM393 704q-56 0 -97.5 -45t-64 -124t-22.5 -183q0 -106 25.5 -184.5t69 -121t96.5 -42.5q56 0 97.5 45t64 124.5t22.5 182.5q0 107 -25.5 185t-69 120.5t-96.5 42.5z" />
    <glyph glyph-name="ohorn" unicode="&#x1a1;" horiz-adv-x="565" 
d="M391 481l-4 19q38 1 65 6t49 14l-3 -9q-17 11 -31.5 30t-14.5 44q0 27 18.5 46t48.5 19q27 0 46 -15.5t19 -45.5q0 -26 -15 -46t-42 -34q-25 -11 -59.5 -18t-76.5 -10zM282 531q73 0 128 -27t86 -87t31 -159t-31 -158.5t-86 -86.5t-128 -27q-71 0 -126.5 27t-87 86.5
t-31.5 158.5t31.5 159t87 87t126.5 27zM282 511q-40 0 -67 -59.5t-27 -193.5t27 -193t67 -59q41 0 67.5 59t26.5 193t-26.5 193.5t-67.5 59.5z" />
    <glyph glyph-name="Uhorn" unicode="&#x1af;" horiz-adv-x="689" 
d="M352 -14q-46 0 -94 10.5t-86 39.5q-32 27 -49 61t-23 80.5t-6 110.5v314q0 37 -5.5 54.5t-21.5 24t-48 7.5v20q25 -1 67.5 -2t88.5 -1t88.5 1t70.5 2v-20q-34 -1 -51.5 -7.5t-23.5 -24t-6 -54.5v-377q0 -67 12 -112.5t42.5 -68.5t83.5 -23q70 0 109.5 33t56 91.5
t16.5 134.5v413l2 -8q-25 -1 -50.5 -0.5t-50.5 3.5l5 20q20 -1 36.5 -2.5t37.5 -1.5q33 0 62 4.5t56 22.5l-2 -7q-21 11 -39 32t-18 49q0 30 19.5 50t49.5 20q31 0 51 -19.5t20 -51.5q0 -29 -18 -51t-45 -37t-52.5 -22t-49.5 -9l9 7v-401q0 -65 -9 -119t-32 -93
q-26 -43 -76 -68t-127 -25z" />
    <glyph glyph-name="uhorn" unicode="&#x1b0;" horiz-adv-x="606" 
d="M450 495l-5 19q38 4 65 11.5t49 19.5l-2 -8q-17 11 -32 29.5t-15 44.5q0 27 18.5 46t48.5 19q28 0 46.5 -16t18.5 -44q0 -25 -15.5 -45t-40.5 -36q-25 -15 -59.5 -25.5t-76.5 -14.5zM522 528v-419q0 -45 14 -66.5t50 -21.5v-21q-31 3 -62 3q-42 0 -78 -3t-68 -11v90
q-24 -50 -66.5 -71.5t-94.5 -21.5q-42 0 -68 11t-41 28q-17 19 -24 50t-7 80v253q0 45 -13.5 66.5t-50.5 21.5v21q32 -3 62 -3q42 0 78.5 3.5t67.5 10.5v-414q0 -25 4.5 -44t17.5 -29.5t38 -10.5q40 0 68.5 33.5t28.5 82.5v262q0 45 -13.5 66.5t-50.5 21.5v21q32 -3 62 -3
q42 0 78.5 3.5t67.5 10.5z" />
    <glyph glyph-name="uni01B7" unicode="&#x1b7;" horiz-adv-x="602" 
d="M557 708v-20l-173 -334l-17 42q58 -19 102.5 -46.5t70.5 -65.5t26 -89q0 -58 -34.5 -105.5t-97 -75.5t-149.5 -28q-58 0 -101 12t-66 25q-8 5 -16.5 9.5t-16.5 4.5q-10 0 -15 -11t-8 -33h-23q2 24 2.5 56t1 83.5t0.5 130.5h23q4 -67 25 -124.5t63 -92t106 -34.5
q55 0 90 25.5t51 66t16 86.5q0 83 -48 130.5t-129 63.5v20l148 281h-114q-50 0 -92 -18.5t-70 -63t-38 -123.5h-23q2 14 2.5 34t0.5 38q0 27 -1.5 69t-5.5 87q50 -2 112.5 -2.5t112.5 -0.5q67 0 143 0.5t142 2.5z" />
    <glyph glyph-name="uni01CD" unicode="&#x1cd;" horiz-adv-x="667" 
d="M368 710l243 -626q14 -36 31.5 -49.5t31.5 -14.5v-20q-30 2 -70.5 2.5t-81.5 0.5q-46 0 -87 -0.5t-65 -2.5v20q51 2 64.5 17.5t-6.5 66.5l-170 465l18 26l-152 -396q-28 -74 -27.5 -112t24.5 -51.5t64 -15.5v-20q-33 2 -63 2.5t-61 0.5q-22 0 -41.5 -0.5t-34.5 -2.5v20
q21 4 43 27t43 78l228 585q16 -1 34.5 -1t34.5 1zM438 288v-20h-298l10 20h288zM539 938l5 -15q-65 -27 -119.5 -69.5t-85.5 -86.5h-18q-30 44 -84.5 86.5t-120.5 69.5l5 15q65 -11 128.5 -29t100.5 -36q31 18 83.5 36t105.5 29z" />
    <glyph glyph-name="uni01CE" unicode="&#x1ce;" horiz-adv-x="518" 
d="M156 -7q-67 0 -97 35t-30 85q0 43 19.5 70t50.5 44.5t65.5 29t66 23t51 26.5t19.5 38v78q0 26 -8.5 46.5t-26 31.5t-45.5 11q-20 0 -40 -5.5t-33 -18.5q28 -10 43.5 -30.5t15.5 -46.5q0 -34 -23.5 -54t-55.5 -20q-36 0 -54.5 22.5t-18.5 54.5q0 29 14.5 48t40.5 36
q28 16 67.5 25t85.5 9t83 -9.5t62 -34.5q23 -23 30 -56.5t7 -84.5v-272q0 -24 5 -34t17 -10q10 0 19 5t17 12l10 -17q-21 -18 -48.5 -27.5t-61.5 -9.5q-60 0 -79.5 24.5t-20.5 56.5q-25 -41 -61.5 -61t-85.5 -20zM233 57q19 0 35.5 9t32.5 32v205q-12 -20 -33.5 -33.5
t-44 -29t-37.5 -39.5t-15 -64q0 -43 18 -61.5t44 -18.5zM430 820l8 -14q-57 -33 -104.5 -86.5t-74.5 -109.5h-18q-27 55 -74.5 109t-104.5 87l8 14q58 -14 112.5 -34.5t87.5 -41.5q28 21 71 41.5t89 34.5z" />
    <glyph glyph-name="uni01D3" unicode="&#x1d3;" horiz-adv-x="689" 
d="M671 708v-20q-32 -4 -48.5 -16.5t-21.5 -39.5t-5 -76v-265q0 -65 -9 -119t-32 -93q-26 -43 -76 -68t-127 -25q-46 0 -94 10.5t-86 39.5q-32 27 -49 61t-23 80.5t-6 110.5v314q0 37 -5.5 54.5t-21.5 24t-48 7.5v20q25 -1 67.5 -2t88.5 -1t88.5 1t70.5 2v-20
q-34 -1 -51.5 -7.5t-23.5 -24t-6 -54.5v-377q0 -67 12 -112.5t42.5 -68.5t83.5 -23q70 0 109.5 33t56 91.5t16.5 134.5v264q0 55 -7 84.5t-27.5 42.5t-62.5 17v20q19 -1 50 -2t58 -1q24 0 47.5 1t39.5 2zM563 938l5 -15q-65 -27 -119.5 -69.5t-85.5 -86.5h-18
q-30 44 -84.5 86.5t-120.5 69.5l5 15q65 -11 128.5 -29t100.5 -36q31 18 83.5 36t105.5 29z" />
    <glyph glyph-name="uni01D4" unicode="&#x1d4;" horiz-adv-x="606" 
d="M522 528v-419q0 -45 14 -66.5t50 -21.5v-21q-31 3 -62 3q-42 0 -78 -3t-68 -11v90q-24 -50 -66.5 -71.5t-94.5 -21.5q-42 0 -68 11t-41 28q-17 19 -24 50t-7 80v253q0 45 -13.5 66.5t-50.5 21.5v21q32 -3 62 -3q42 0 78.5 3.5t67.5 10.5v-414q0 -25 4.5 -44t17.5 -29.5
t38 -10.5q40 0 68.5 33.5t28.5 82.5v262q0 45 -13.5 66.5t-50.5 21.5v21q32 -3 62 -3q42 0 78.5 3.5t67.5 10.5zM459 820l8 -14q-57 -33 -104.5 -86.5t-74.5 -109.5h-18q-27 55 -74.5 109t-104.5 87l8 14q58 -14 112.5 -34.5t87.5 -41.5q28 21 71 41.5t89 34.5z" />
    <glyph glyph-name="uni01E4" unicode="&#x1e4;" horiz-adv-x="735" 
d="M405 722q68 0 111 -19t77 -46q12 -9 20 -9q19 0 25 60h23q-2 -39 -3 -94.5t-1 -147.5h-23q-7 60 -21.5 104.5t-53.5 76.5q-24 23 -59.5 36t-71.5 13q-55 0 -94 -28.5t-64 -77.5t-37 -110.5t-12 -127.5q0 -180 49.5 -263t142.5 -83q24 0 42 6t29 14q14 10 19 21.5t5 30.5
v124q0 46 -7.5 68.5t-29.5 30.5t-64 9v20q21 -1 50.5 -1.5t61.5 -1t59 -0.5q42 0 77 1t57 2v-20q-28 -2 -36.5 -16t-8.5 -70v-224h-20q-1 17 -7.5 37t-21.5 20q-7 0 -18.5 -3.5t-35.5 -17.5q-37 -21 -78 -35.5t-86 -14.5q-175 0 -266 95t-91 265q0 114 46.5 198t128 131
t187.5 47zM398 174v20h337v-20h-337z" />
    <glyph glyph-name="uni01E5" unicode="&#x1e5;" horiz-adv-x="543" 
d="M582 -73v-20h-632v20h632zM218 -188q-62 0 -110.5 10.5t-76 32t-27.5 52.5t28 55.5t83 38.5l9 -16q-19 -15 -27.5 -32.5t-8.5 -36.5q0 -42 38.5 -64.5t104.5 -22.5q45 0 80.5 12t56 36t20.5 59q0 30 -22 50.5t-88 20.5h-62q-41 0 -71.5 9t-47.5 28.5t-17 49.5q0 42 33 74
t98 60l10 -8q-19 -12 -35.5 -25.5t-16.5 -34.5q0 -32 40 -32h109q83 0 138 -30.5t55 -101.5q0 -49 -31.5 -91t-96.5 -67.5t-165 -25.5zM228 213q-85 0 -142 38.5t-57 120.5q0 83 57 121t142 38q86 0 142.5 -38t56.5 -121q0 -82 -56.5 -120.5t-142.5 -38.5zM228 231
q27 0 42 30.5t15 110.5t-15 110.5t-42 30.5q-26 0 -41.5 -30.5t-15.5 -110.5t15.5 -110.5t41.5 -30.5zM384 445l-20 7q15 39 48.5 65t72.5 26q32 0 48.5 -17.5t16.5 -45.5q0 -30 -16 -44.5t-36 -14.5q-17 0 -31.5 12t-16.5 36.5t17 63.5l7 -6q-38 -14 -57 -32.5t-33 -49.5z
" />
    <glyph glyph-name="Gcaron" unicode="&#x1e6;" horiz-adv-x="735" 
d="M405 722q68 0 111 -19t77 -46q12 -9 20 -9q19 0 25 60h23q-2 -39 -3 -94.5t-1 -147.5h-23q-7 60 -21.5 104.5t-53.5 76.5q-24 23 -59.5 36t-71.5 13q-55 0 -94 -28.5t-64 -77.5t-37 -110.5t-12 -127.5q0 -180 49.5 -263t142.5 -83q24 0 42 6t29 14q14 10 19 21.5t5 30.5
v98q0 46 -7.5 68.5t-29.5 30.5t-64 9v20q21 -1 50.5 -1.5t61.5 -1t59 -0.5q42 0 77 1t57 2v-20q-28 -2 -36.5 -16t-8.5 -70v-198h-20q-1 17 -7.5 37t-21.5 20q-7 0 -18.5 -3.5t-35.5 -17.5q-37 -21 -78 -35.5t-86 -14.5q-175 0 -266 95t-91 265q0 114 46.5 198t128 131
t187.5 47zM592 938l5 -15q-65 -27 -119.5 -69.5t-85.5 -86.5h-18q-30 44 -84.5 86.5t-120.5 69.5l5 15q65 -11 128.5 -29t100.5 -36q31 18 83.5 36t105.5 29z" />
    <glyph glyph-name="gcaron" unicode="&#x1e7;" horiz-adv-x="553" 
d="M218 -188q-62 0 -110.5 10.5t-76 32t-27.5 52.5t28 55.5t83 38.5l9 -16q-19 -15 -27.5 -32.5t-8.5 -36.5q0 -42 38.5 -64.5t104.5 -22.5q45 0 80.5 12t56 36t20.5 59q0 30 -22 50.5t-88 20.5h-62q-41 0 -71.5 9t-47.5 28.5t-17 49.5q0 42 33 74t98 60l10 -8
q-19 -12 -35.5 -25.5t-16.5 -34.5q0 -32 40 -32h109q83 0 138 -30.5t55 -101.5q0 -49 -31.5 -91t-96.5 -67.5t-165 -25.5zM228 213q-85 0 -142 38.5t-57 120.5q0 83 57 121t142 38q86 0 142.5 -38t56.5 -121q0 -82 -56.5 -120.5t-142.5 -38.5zM228 231q27 0 42 30.5
t15 110.5t-15 110.5t-42 30.5q-26 0 -41.5 -30.5t-15.5 -110.5t15.5 -110.5t41.5 -30.5zM384 445l-20 7q15 39 48.5 65t72.5 26q32 0 48.5 -17.5t16.5 -45.5q0 -30 -16 -44.5t-36 -14.5q-17 0 -31.5 12t-16.5 36.5t17 63.5l7 -6q-38 -14 -57 -32.5t-33 -49.5zM419 820l8 -14
q-57 -33 -104.5 -86.5t-74.5 -109.5h-18q-27 55 -74.5 109t-104.5 87l8 14q58 -14 112.5 -34.5t87.5 -41.5q28 21 71 41.5t89 34.5z" />
    <glyph glyph-name="uni01E8" unicode="&#x1e8;" horiz-adv-x="714" 
d="M689 708v-19q-32 -7 -68.5 -28t-76.5 -68l-188 -224l58 83l238 -371q14 -23 30 -37t42 -24v-20q-35 2 -78 2.5t-78 0.5q-21 0 -51 -0.5t-76 -2.5v20q41 2 49.5 11.5t-7.5 33.5l-145 235q-14 23 -25 34.5t-22 16t-29 5.5v21q44 1 78.5 24t75.5 70l59 71q38 45 44.5 77.5
t-13 50.5t-59.5 19v19q37 -1 70.5 -2t77.5 -1q58 0 94 3zM343 708v-20q-32 -1 -48.5 -7.5t-21.5 -24t-5 -54.5v-496q0 -36 5.5 -54t21.5 -24t48 -8v-20q-27 2 -68 2.5t-83 0.5q-48 0 -90.5 -0.5t-67.5 -2.5v20q32 2 48 8t21.5 24t5.5 54v496q0 37 -5.5 54.5t-22 24
t-47.5 7.5v20q25 -1 67.5 -2t90.5 -1q42 0 83 1t68 2zM603 938l5 -15q-65 -27 -119.5 -69.5t-85.5 -86.5h-18q-30 44 -84.5 86.5t-120.5 69.5l5 15q65 -11 128.5 -29t100.5 -36q31 18 83.5 36t105.5 29z" />
    <glyph glyph-name="uni01E9" unicode="&#x1e9;" horiz-adv-x="585" 
d="M227 783v-690q0 -42 13.5 -57t46.5 -15v-21q-19 1 -55.5 2.5t-74.5 1.5q-39 0 -78.5 -1.5t-59.5 -2.5v21q35 0 49.5 15t14.5 57v570q0 45 -13.5 66.5t-50.5 21.5v21q32 -3 62 -3q41 0 78 3.5t68 10.5zM553 517v-20q-31 -6 -62 -26t-63 -51l-77 -80l10 19l171 -286
q11 -18 23 -32t29 -20v-21q-15 1 -45 2.5t-60 1.5q-37 0 -74 -1.5t-55 -2.5v21q20 0 27 9.5t-2 24.5l-99 179q-12 19 -23.5 24.5t-30.5 6.5v19q21 2 36.5 7t28.5 19l76 74q34 32 34 57t-21.5 40t-56.5 16v20q28 -1 61 -2t56 -1q20 0 42.5 0.5t42.5 1t32 1.5zM476 1061l8 -14
q-57 -33 -104.5 -86.5t-74.5 -109.5h-18q-27 55 -74.5 109t-104.5 87l8 14q58 -14 112.5 -34.5t87.5 -41.5q28 21 71 41.5t89 34.5z" />
    <glyph glyph-name="uni01EE" unicode="&#x1ee;" horiz-adv-x="602" 
d="M557 708v-20l-173 -334l-17 42q58 -19 102.5 -46.5t70.5 -65.5t26 -89q0 -58 -34.5 -105.5t-97 -75.5t-149.5 -28q-58 0 -101 12t-66 25q-8 5 -16.5 9.5t-16.5 4.5q-10 0 -15 -11t-8 -33h-23q2 24 2.5 56t1 83.5t0.5 130.5h23q4 -67 25 -124.5t63 -92t106 -34.5
q55 0 90 25.5t51 66t16 86.5q0 83 -48 130.5t-129 63.5v20l148 281h-114q-50 0 -92 -18.5t-70 -63t-38 -123.5h-23q2 14 2.5 34t0.5 38q0 27 -1.5 69t-5.5 87q50 -2 112.5 -2.5t112.5 -0.5q67 0 143 0.5t142 2.5zM508 938l5 -15q-65 -27 -119.5 -69.5t-85.5 -86.5h-18
q-30 44 -84.5 86.5t-120.5 69.5l5 15q65 -11 128.5 -29t100.5 -36q31 18 83.5 36t105.5 29z" />
    <glyph glyph-name="uni01EF" unicode="&#x1ef;" horiz-adv-x="468" 
d="M129 207q67 -1 106 -32.5t39 -101.5q0 -58 -24.5 -101.5t-64 -72t-87 -43.5t-93.5 -17v-20q73 0 147 17.5t135.5 50t98.5 78.5t37 104q0 45 -23.5 76.5t-63.5 50t-91 23.5l32 -24l161 327q-49 -2 -102.5 -3.5t-109.5 -1.5q-44 0 -93 1t-95 3q2 -32 3 -78t1 -120h21
q6 67 27.5 106.5t55 56t73.5 16.5h56zM417 820l8 -14q-57 -33 -104.5 -86.5t-74.5 -109.5h-18q-27 55 -74.5 109t-104.5 87l8 14q58 -14 112.5 -34.5t87.5 -41.5q28 21 71 41.5t89 34.5z" />
    <glyph glyph-name="uni01F4" unicode="&#x1f4;" horiz-adv-x="735" 
d="M405 722q68 0 111 -19t77 -46q12 -9 20 -9q19 0 25 60h23q-2 -39 -3 -94.5t-1 -147.5h-23q-7 60 -21.5 104.5t-53.5 76.5q-24 23 -59.5 36t-71.5 13q-55 0 -94 -28.5t-64 -77.5t-37 -110.5t-12 -127.5q0 -180 49.5 -263t142.5 -83q24 0 42 6t29 14q14 10 19 21.5t5 30.5
v98q0 46 -7.5 68.5t-29.5 30.5t-64 9v20q21 -1 50.5 -1.5t61.5 -1t59 -0.5q42 0 77 1t57 2v-20q-28 -2 -36.5 -16t-8.5 -70v-198h-20q-1 17 -7.5 37t-21.5 20q-7 0 -18.5 -3.5t-35.5 -17.5q-37 -21 -78 -35.5t-86 -14.5q-175 0 -266 95t-91 265q0 114 46.5 198t128 131
t187.5 47zM475 934q21 12 45.5 6.5t35.5 -28.5q10 -19 2.5 -40t-30.5 -34q-22 -12 -49 -18.5t-65 -16.5t-94 -31l-7 12q48 39 74.5 68t45.5 49.5t42 32.5z" />
    <glyph glyph-name="uni01F5" unicode="&#x1f5;" horiz-adv-x="553" 
d="M218 -188q-62 0 -110.5 10.5t-76 32t-27.5 52.5t28 55.5t83 38.5l9 -16q-19 -15 -27.5 -32.5t-8.5 -36.5q0 -42 38.5 -64.5t104.5 -22.5q45 0 80.5 12t56 36t20.5 59q0 30 -22 50.5t-88 20.5h-62q-41 0 -71.5 9t-47.5 28.5t-17 49.5q0 42 33 74t98 60l10 -8
q-19 -12 -35.5 -25.5t-16.5 -34.5q0 -32 40 -32h109q83 0 138 -30.5t55 -101.5q0 -49 -31.5 -91t-96.5 -67.5t-165 -25.5zM228 213q-85 0 -142 38.5t-57 120.5q0 83 57 121t142 38q86 0 142.5 -38t56.5 -121q0 -82 -56.5 -120.5t-142.5 -38.5zM228 231q27 0 42 30.5
t15 110.5t-15 110.5t-42 30.5q-26 0 -41.5 -30.5t-15.5 -110.5t15.5 -110.5t41.5 -30.5zM384 445l-20 7q15 39 48.5 65t72.5 26q32 0 48.5 -17.5t16.5 -45.5q0 -30 -16 -44.5t-36 -14.5q-17 0 -31.5 12t-16.5 36.5t17 63.5l7 -6q-38 -14 -57 -32.5t-33 -49.5zM358 817
q17 -13 18 -36t-15 -43t-39 -36t-54.5 -39t-75.5 -64l-11 9q30 54 44 90.5t24 62.5t27 45q15 20 39.5 23.5t42.5 -12.5z" />
    <glyph glyph-name="Oslashacute" unicode="&#x1fe;" horiz-adv-x="793" 
d="M397 722q106 0 185.5 -43t123.5 -123.5t44 -195.5q0 -112 -45 -196t-125.5 -131t-183.5 -47q-106 0 -185.5 43t-123.5 124t-44 195q0 112 45.5 196t125 131t183.5 47zM393 704q-56 0 -97.5 -45t-64 -124t-22.5 -183q0 -106 25.5 -184.5t69 -121t96.5 -42.5q56 0 97.5 45
t64 124.5t22.5 182.5q0 107 -25.5 185t-69 120.5t-96.5 42.5zM559 637l15 -20l-343 -541l-18 18zM201 94l18 -18l-109 -155l-21 14zM663 779l19 -13l-101 -149l-15 20zM484 934q21 12 45.5 6.5t35.5 -28.5q10 -19 2.5 -40t-30.5 -34q-22 -12 -49 -18.5t-65 -16.5t-94 -31
l-7 12q48 39 74.5 68t45.5 49.5t42 32.5z" />
    <glyph glyph-name="oslashacute" unicode="&#x1ff;" horiz-adv-x="565" 
d="M282 531q73 0 128 -27t86 -87t31 -159t-31 -158.5t-86 -86.5t-128 -27q-71 0 -126.5 27t-87 86.5t-31.5 158.5t31.5 159t87 87t126.5 27zM282 511q-40 0 -67 -59.5t-27 -193.5t27 -193t67 -59q41 0 67.5 59t26.5 193t-26.5 193.5t-67.5 59.5zM390 466l15 -20l-223 -383
l-16 21zM145 77l16 -20l-90 -130l-20 13zM494 590l19 -13l-90 -131l-15 20zM393 817q17 -13 18 -36t-15 -43t-39 -36t-54.5 -39t-75.5 -64l-11 9q30 54 44 90.5t24 62.5t27 45q15 20 39.5 23.5t42.5 -12.5z" />
    <glyph glyph-name="uni0218" unicode="&#x218;" horiz-adv-x="584" 
d="M284 721q59 0 91 -12.5t55 -26.5q12 -7 19.5 -10.5t14.5 -3.5q16 0 22 44h23q-1 -19 -2.5 -45.5t-2 -69.5t-0.5 -113h-23q-4 52 -24 101t-56.5 80.5t-89.5 31.5q-48 0 -79 -27t-31 -75q0 -40 20 -68.5t58.5 -55.5t93.5 -65q48 -31 86 -62t61 -70t23 -93q0 -66 -34.5 -109
t-90.5 -64.5t-123 -21.5q-62 0 -99 12t-62 25q-22 14 -34 14q-16 0 -22 -44h-23q2 24 2.5 56t1 83.5t0.5 130.5h23q4 -66 22.5 -123.5t57 -92.5t102.5 -35q52 0 88 28t36 84q0 62 -42 102.5t-108 83.5q-47 31 -88 62t-65.5 71t-24.5 95q0 63 31.5 103.5t83 60t109.5 19.5z
M298 -55q36 0 59 -20.5t23 -56.5q0 -44 -27.5 -73.5t-86.5 -37.5l-4 21q35 5 56 18.5t24 36.5q-7 -7 -19 -11.5t-30 -4.5q-32 0 -51.5 16.5t-19.5 46.5q0 31 20.5 48t55.5 17z" />
    <glyph glyph-name="uni0219" unicode="&#x219;" horiz-adv-x="462" 
d="M222 531q42 0 73.5 -10.5t45.5 -20.5q34 -23 42 30h21q-2 -28 -3 -68.5t-1 -107.5h-21q-5 37 -19 73t-40.5 59t-68.5 23q-29 0 -49 -16.5t-20 -47.5q0 -30 18 -52.5t46.5 -43t59.5 -43.5q50 -37 84.5 -74.5t34.5 -97.5q0 -45 -26 -78.5t-68.5 -51.5t-94.5 -18
q-30 0 -53.5 6t-40.5 15q-13 6 -24.5 11.5t-21.5 9.5q-10 3 -17.5 -7t-11.5 -28h-21q2 32 3 78t1 122h21q6 -54 22 -95.5t43.5 -65t69.5 -23.5q26 0 48 16.5t22 54.5q0 44 -28.5 73t-72.5 63q-32 26 -60.5 51.5t-46.5 56t-18 69.5q0 45 24 76t63.5 46.5t84.5 15.5zM229 -55
q36 0 59 -20.5t23 -56.5q0 -44 -27.5 -73.5t-86.5 -37.5l-4 21q35 5 56 18.5t24 36.5q-7 -7 -19 -11.5t-30 -4.5q-32 0 -51.5 16.5t-19.5 46.5q0 31 20.5 48t55.5 17z" />
    <glyph glyph-name="uni021A" unicode="&#x21a;" horiz-adv-x="668" 
d="M642 708q-4 -51 -5.5 -98t-1.5 -72q0 -22 1 -42t2 -34h-23q-16 84 -40.5 133t-58.5 69.5t-80 20.5h-23v-571q0 -40 8.5 -60t31.5 -26.5t67 -7.5v-20q-31 1 -82.5 2t-107.5 1q-55 0 -104 -1t-79 -2v20q45 1 68 7.5t31 26.5t8 60v571h-22q-46 0 -80 -20.5t-58 -69
t-42 -133.5h-23q2 14 2.5 34t0.5 42q0 25 -1.5 72t-5.5 98q46 -1 100.5 -2t109.5 -1h99h99.5t109.5 1t99 2zM328 -55q36 0 59 -20.5t23 -56.5q0 -44 -27.5 -73.5t-86.5 -37.5l-4 21q35 5 56 18.5t24 36.5q-7 -7 -19 -11.5t-30 -4.5q-32 0 -51.5 16.5t-19.5 46.5
q0 31 20.5 48t55.5 17z" />
    <glyph glyph-name="uni021B" unicode="&#x21b;" horiz-adv-x="352" 
d="M227 681v-164h118v-20h-118v-404q0 -30 11 -42.5t33 -12.5q18 0 36 13.5t32 46.5l17 -9q-16 -45 -48.5 -74t-88.5 -29q-33 0 -58 8.5t-42 25.5q-22 22 -29 54.5t-7 84.5v338h-84v20h84v132q42 0 77.5 7.5t66.5 24.5zM219 -55q36 0 59 -20.5t23 -56.5q0 -44 -27.5 -73.5
t-86.5 -37.5l-4 21q35 5 56 18.5t24 36.5q-7 -7 -19 -11.5t-30 -4.5q-32 0 -51.5 16.5t-19.5 46.5q0 31 20.5 48t55.5 17z" />
    <glyph glyph-name="uni021E" unicode="&#x21e;" horiz-adv-x="800" 
d="M458 0v20q32 2 48 8t21.5 24t5.5 54v496q0 37 -5.5 54.5t-22 24t-47.5 7.5v20q27 -1 70.5 -2t86.5 -1q46 0 86.5 1t65.5 2v-20q-32 -1 -48.5 -7.5t-21.5 -24t-5 -54.5v-496q0 -36 5.5 -54t21.5 -24t48 -8v-20q-25 2 -65.5 2.5t-86.5 0.5q-43 0 -86.5 -0.5t-70.5 -2.5z
M34 0v20q32 2 48 8t21.5 24t5.5 54v496q0 37 -5.5 54.5t-22 24t-47.5 7.5v20q26 -1 67.5 -2t90.5 -1q42 0 83 1t68 2v-20q-32 -1 -48.5 -7.5t-21.5 -24t-5 -54.5v-496q0 -36 5.5 -54t21.5 -24t48 -8v-20q-27 2 -68 2.5t-83 0.5q-49 0 -90.5 -0.5t-67.5 -2.5zM203 346v20h395
v-20h-395zM609 938l5 -15q-65 -27 -119.5 -69.5t-85.5 -86.5h-18q-30 44 -84.5 86.5t-120.5 69.5l5 15q65 -11 128.5 -29t100.5 -36q31 18 83.5 36t105.5 29z" />
    <glyph glyph-name="uni021F" unicode="&#x21f;" horiz-adv-x="608" 
d="M227 782v-344q25 52 67.5 72.5t95.5 20.5q43 0 69 -10.5t41 -28.5q17 -19 24.5 -49t7.5 -81v-269q0 -42 14.5 -57t49.5 -15v-21q-19 1 -57.5 2.5t-74.5 1.5q-39 0 -75.5 -1.5t-54.5 -2.5v21q30 0 42 15t12 57v311q0 25 -5 43.5t-18.5 29t-38.5 10.5q-41 0 -70 -32
t-29 -83v-279q0 -42 12 -57t42 -15v-21q-18 1 -53 2.5t-71 1.5q-39 0 -78.5 -1.5t-59.5 -2.5v21q35 0 49.5 15t14.5 57v569q0 45 -13.5 66.5t-50.5 21.5v21q32 -3 62 -3q41 0 78 3.5t68 10.5zM468 1067l8 -14q-57 -33 -104.5 -86.5t-74.5 -109.5h-18q-27 55 -74.5 109
t-104.5 87l8 14q58 -14 112.5 -34.5t87.5 -41.5q28 21 71 41.5t89 34.5z" />
    <glyph glyph-name="uni0237" unicode="&#x237;" horiz-adv-x="297" 
d="M-23 -188v18q49 1 78 38.5t29 113.5v426q0 45 -14 66.5t-50 21.5v21q32 -3 62 -3q41 0 78 3.5t68 10.5v-434q0 -83 -16.5 -137t-55.5 -91q-25 -24 -68.5 -39t-110.5 -15z" />
    <glyph glyph-name="uni0259" unicode="&#x259;" horiz-adv-x="504" 
d="M222 -14q-88 0 -138 52t-50 170h329l2 -19h-205q-1 -49 6 -90.5t22 -66.5t40 -25q35 0 59.5 44t29.5 146l-3 6q1 12 1.5 25t0.5 27q0 69 -19.5 112t-49.5 62.5t-61 19.5q-30 0 -65.5 -15t-66.5 -65l-18 6q12 38 38 74t66 59t96 23q68 0 120 -29t81.5 -88t29.5 -150
q0 -93 -31.5 -155t-87 -92.5t-126.5 -30.5z" />
    <glyph glyph-name="uni0292" unicode="&#x292;" horiz-adv-x="468" 
d="M129 207q67 -1 106 -32.5t39 -101.5q0 -58 -24.5 -101.5t-64 -72t-87 -43.5t-93.5 -17v-20q73 0 147 17.5t135.5 50t98.5 78.5t37 104q0 45 -23.5 76.5t-63.5 50t-91 23.5l32 -24l161 327q-49 -2 -102.5 -3.5t-109.5 -1.5q-44 0 -93 1t-95 3q2 -32 3 -78t1 -120h21
q6 67 27.5 106.5t55 56t73.5 16.5h56z" />
    <glyph glyph-name="uni02BC" unicode="&#x2bc;" horiz-adv-x="253" 
d="M119 722q25 0 43 -9t28 -26q11 -14 16.5 -37t5.5 -46q0 -50 -25.5 -92.5t-79.5 -67.5l-9 18q28 12 50 37t26 51q5 22 0 42q-22 -24 -58 -24q-35 0 -57 20.5t-22 56.5q0 35 23.5 56t58.5 21z" />
    <glyph glyph-name="circumflex" unicode="&#x2c6;" horiz-adv-x="476" 
d="M247 820q27 -55 74.5 -108.5t104.5 -87.5l-8 -14q-58 14 -112 35t-88 41q-27 -20 -70.5 -41t-89.5 -35l-8 14q57 34 104.5 87t74.5 109h18z" />
    <glyph glyph-name="caron" unicode="&#x2c7;" horiz-adv-x="476" 
d="M418 820l8 -14q-57 -33 -104.5 -86.5t-74.5 -109.5h-18q-27 55 -74.5 109t-104.5 87l8 14q58 -14 112.5 -34.5t87.5 -41.5q28 21 71 41.5t89 34.5z" />
    <glyph glyph-name="breve" unicode="&#x2d8;" horiz-adv-x="543" 
d="M394 788l17 -9q-12 -36 -36 -72.5t-62 -61t-93 -24.5t-93 24.5t-62 61t-36 72.5l17 9q22 -25 63.5 -48.5t110.5 -23.5t110.5 23.5t63.5 48.5z" />
    <glyph glyph-name="dotaccent" unicode="&#x2d9;" horiz-adv-x="451" 
d="M105 775q42 0 66.5 -20.5t24.5 -56.5t-24.5 -56.5t-66.5 -20.5t-66.5 20.5t-24.5 56.5t24.5 56.5t66.5 20.5z" />
    <glyph glyph-name="ring" unicode="&#x2da;" horiz-adv-x="477" 
d="M137 797q44 0 76.5 -26t32.5 -71t-32.5 -71.5t-76.5 -26.5q-43 0 -75.5 26.5t-32.5 71.5t32.5 71t75.5 26zM137 776q-28 0 -54 -20t-26 -57q0 -38 26 -57t54 -19q29 0 55 19t26 57q0 37 -26 57t-55 20z" />
    <glyph glyph-name="ogonek" unicode="&#x2db;" horiz-adv-x="477" 
d="M214 9q-3 -3 -7 -6t-12 -6q-43 -20 -59 -44t-16 -45q0 -20 10.5 -30.5t30.5 -10.5q18 0 35.5 8t28.5 19l14 -14q-27 -36 -59.5 -52t-77.5 -16q-44 0 -67.5 18.5t-23.5 50.5q0 42 42.5 73t119.5 49z" />
    <glyph glyph-name="tilde" unicode="&#x2dc;" horiz-adv-x="544" 
d="M148 786q31 0 52 -10t38.5 -23t36 -23t42.5 -10q21 0 40.5 12.5t36.5 40.5l14 -7q-17 -74 -50.5 -106.5t-73.5 -32.5q-31 0 -52.5 10t-39 23.5t-35.5 23.5t-43 10q-21 0 -40.5 -12.5t-36.5 -41.5l-14 7q17 75 51 107t74 32z" />
    <glyph glyph-name="hungarumlaut" unicode="&#x2dd;" horiz-adv-x="600" 
d="M364 815q19 -13 22 -34.5t-13 -43.5q-19 -28 -55.5 -55t-93.5 -84l-12 8q21 50 31.5 86t18.5 61.5t21 43.5q14 22 37.5 27t43.5 -9zM187 815q18 -13 21 -34.5t-12 -43.5q-20 -28 -56.5 -55t-92.5 -84l-12 8q21 50 31.5 86t18.5 61.5t20 43.5q15 22 38.5 27t43.5 -9z" />
    <glyph glyph-name="gravecomb" unicode="&#x300;" 
d="M26 817q18 16 42.5 12t39.5 -23q17 -19 27 -45t24.5 -62.5t43.5 -90.5l-11 -9q-44 41 -75.5 64t-54 39t-39.5 36q-16 20 -15 42.5t18 36.5z" />
    <glyph glyph-name="acutecomb" unicode="&#x301;" 
d="M197 817q17 -13 18 -36t-15 -43t-39 -36t-54.5 -39t-75.5 -64l-11 9q30 54 44 90.5t24 62.5t27 45q15 20 39.5 23.5t42.5 -12.5z" />
    <glyph glyph-name="uni0302" unicode="&#x302;" 
d="M210 820q27 -55 74.5 -108.5t104.5 -87.5l-8 -14q-58 14 -112 35t-88 41q-27 -20 -70.5 -41t-89.5 -35l-8 14q57 34 104.5 87t74.5 109h18z" />
    <glyph glyph-name="tildecomb" unicode="&#x303;" 
d="M138 786q31 0 52 -10t38.5 -23t36 -23t42.5 -10q21 0 40.5 12.5t36.5 40.5l14 -7q-17 -74 -50.5 -106.5t-73.5 -32.5q-31 0 -52.5 10t-39 23.5t-35.5 23.5t-43 10q-21 0 -40.5 -12.5t-36.5 -41.5l-14 7q17 75 51 107t74 32z" />
    <glyph glyph-name="uni0304" unicode="&#x304;" 
d="M349 712v-25h-336v25h336z" />
    <glyph glyph-name="uni0306" unicode="&#x306;" 
d="M388 788l17 -9q-12 -36 -36 -72.5t-62 -61t-93 -24.5t-93 24.5t-62 61t-36 72.5l17 9q22 -25 63.5 -48.5t110.5 -23.5t110.5 23.5t63.5 48.5z" />
    <glyph glyph-name="uni0307" unicode="&#x307;" 
d="M99 775q42 0 66.5 -20.5t24.5 -56.5t-24.5 -56.5t-66.5 -20.5t-66.5 20.5t-24.5 56.5t24.5 56.5t66.5 20.5z" />
    <glyph glyph-name="uni0308" unicode="&#x308;" 
d="M309 760q30 0 52.5 -22.5t22.5 -52.5q0 -31 -22.5 -53t-52.5 -22q-31 0 -53.5 22t-22.5 53q0 30 22.5 52.5t53.5 22.5zM81 760q30 0 53 -22.5t23 -52.5q0 -31 -23 -53t-53 -22q-31 0 -53 22t-22 53q0 30 22 52.5t53 22.5z" />
    <glyph glyph-name="hookabovecomb" unicode="&#x309;" 
d="M136 597v55q41 18 58.5 39.5t17.5 50.5q0 34 -19 51.5t-50 17.5q-13 0 -26.5 -3t-20.5 -9q22 -6 34 -19t12 -34q0 -24 -15.5 -38t-38.5 -14q-24 0 -38.5 14.5t-14.5 37.5q0 22 12.5 38t27.5 25q17 10 41 16t54 6q59 0 97 -22.5t38 -61.5q0 -41 -43.5 -66.5t-105.5 -37.5
v-46h-20z" />
    <glyph glyph-name="uni030A" unicode="&#x30a;" 
d="M131 797q44 0 76.5 -26t32.5 -71t-32.5 -71.5t-76.5 -26.5q-43 0 -75.5 26.5t-32.5 71.5t32.5 71t75.5 26zM131 776q-28 0 -54 -20t-26 -57q0 -38 26 -57t54 -19q29 0 55 19t26 57q0 37 -26 57t-55 20z" />
    <glyph glyph-name="uni030B" unicode="&#x30b;" 
d="M364 815q19 -13 22 -34.5t-13 -43.5q-19 -28 -55.5 -55t-93.5 -84l-12 8q21 50 31.5 86t18.5 61.5t21 43.5q14 22 37.5 27t43.5 -9zM187 815q18 -13 21 -34.5t-12 -43.5q-20 -28 -56.5 -55t-92.5 -84l-12 8q21 50 31.5 86t18.5 61.5t20 43.5q15 22 38.5 27t43.5 -9z" />
    <glyph glyph-name="uni030C" unicode="&#x30c;" 
d="M381 820l8 -14q-57 -33 -104.5 -86.5t-74.5 -109.5h-18q-27 55 -74.5 109t-104.5 87l8 14q58 -14 112.5 -34.5t87.5 -41.5q28 21 71 41.5t89 34.5z" />
    </font>
</defs>
</svg>
