<?xml version="1.0" standalone="no"?>
<!DOCTYPE svg PUBLIC "-//W3C//DTD SVG 1.1//EN" "http://www.w3.org/Graphics/SVG/1.1/DTD/svg11.dtd" >
<svg xmlns="http://www.w3.org/2000/svg">
<metadata>Generated by IcoMoon</metadata>
<defs>
<font id="captainicon" horiz-adv-x="1024">
<font-face units-per-em="1024" ascent="960" descent="-64" />
<missing-glyph horiz-adv-x="1024" />
<glyph unicode="&#x20;" d="" horiz-adv-x="512" />
<glyph unicode="&#xe600;" d="M930.72 341.76c11.2 17.44-366.336 622.016-387.84 618.208-9.376-1.632-97.568-130.976-193.408-278.144 0 0-14.752 100-27.488 108.128-12.768 8.064-120.16-25.728-130.336-39.776s54.688-229.024 54.688-229.024c-85.792-135.616-155.872-252.48-153.28-262.016 1.696-6.24 59.168-4.672 143.008 1.216 0 0 36.736-316.128 42.976-322.336s152.608 4.256 152.608 4.256c-6.688 54.176-26.112 271.488 90.656 288.288 0 0 133.568 36.704 83.712-283.328 0 0 120.512-4.416 132.48 3.584s107.136 374.304 107.136 374.304c50.528 7.232 82.912 13.248 85.088 16.64z" />
<glyph unicode="&#xe601;" d="M517.824 960c-214.528 0-388.512-246.176-350.688-490.112 36.384-234.528 259.616-533.888 306.24-533.888 30.688 0 353.504 348.64 382.016 565.44 44.096 335.136-138.016 458.56-337.568 458.56zM635.68 637.056c-28.672-88.192-105.952-142.048-172.416-120.448-66.496 21.696-97.12 110.688-68.416 198.88 28.736 88.192 105.92 142.048 172.48 120.384 66.432-21.632 97.056-110.688 68.352-198.816z" />
<glyph unicode="&#xe602;" d="M831.264 863.712c-70.112 31.424-385.696 158.368-694.944-133.952 0 0-324.672-325.12 28.064-535.328 42.304-25.12 110.784-41.888 130.688-54.496 15.904-10.176 4.096-154.784 22.304-161.248 37.472-13.248 191.648 141.92 208.992 152.192 25.76 15.328 423.232 89.056 488.448 363.296 49.376 207.392-113.536 338.144-183.552 369.536z" />
<glyph unicode="&#xe603;" d="M831.2 863.712c-70.080 31.424-385.664 158.368-694.88-134.016 0 0-324.672-325.056 28.064-535.296 42.336-25.152 110.784-41.888 130.72-54.528 15.904-10.176 4.064-154.848 22.304-161.248 37.44-13.248 191.616 141.952 208.992 152.192 25.76 15.328 423.2 89.056 488.448 363.328 49.344 207.424-113.568 338.176-183.648 369.568zM369.536 495.584c-20.224-42.016-61.92-64-93.088-48.96-31.168 15.008-40 61.248-19.776 103.328 20.256 42.048 61.92 64 93.088 48.992 31.168-15.040 40.032-61.312 19.776-103.36zM597.568 486.016c-27.36-56.832-83.712-86.56-125.888-66.208-42.112 20.256-54.112 82.816-26.752 139.648 27.36 56.864 83.776 86.56 125.856 66.24 42.208-20.224 54.144-82.816 26.784-139.68zM784.928 495.584c-20.256-42.016-62.016-64-93.12-48.96-31.2 15.008-40.032 61.248-19.776 103.328 20.224 42.048 61.92 64 93.056 48.992 31.232-15.040 40.064-61.312 19.84-103.36z" />
<glyph unicode="&#xe604;" d="M182.752 415.712c0 0-182.752 24.736-182.752-148.672 0-173.536 312.832-235.392 814.624-117.728 0 0 218.368 40.192 209.088 185.856-9.28 145.568-147.168 136.32-178.080 105.344 0 0 77.44 108.448-12.384 185.888-89.888 77.344-176.576 6.144-204.448-52.704 0 0 69.696 254.016-182.752 232.32-238.048-20.512-325.248-204.512-263.296-390.304z" />
<glyph unicode="&#xe605;" d="M873.088 542.016v-0.128c-7.008 37.888-19.552 74.176-37.504 107.552l0.032-0.064 67.84 105.376-119.328 107.36-97.888-67.552c-32.416 16.064-66.24 26.304-100.448 31.328l0.192 0.064-35.808 134.048-138.432-26.24-29.248-139.264 0.128 0.064c-28.8-13.504-56.192-30.688-81.408-51.424v0l-111.040 51.36-62.496-89.856 62.496-107.424 0.064 0.064c-15.168-33.504-25.376-67.936-30.944-102.496v0.064l-117.536-17.024v-124.064l131.424-41.312c8.864-26.88 20.672-52.448 35.36-76.384l-0.032 0.064-80.928-99.616 98.72-90.688 98.752 75.328c7.328-4.352 14.72-8.544 22.464-12.352 11.456-5.696 23.136-10.56 34.912-14.816l55.552-157.984h124.128l23.872 149.376h-0.032c30.048 7.744 59.36 19.36 87.2 34.624v0l101.408-62.24 81.76 86.016-53.088 92.448c12.672 17.92 24.352 36.832 34.432 57.248 7.232 14.56 13.344 29.44 18.656 44.416v-0.064l125.984 51.84v112.096l-109.216 40.256zM431.936 273.952c-89.44 34.688-127.328 151.872-84.672 261.568 42.656 109.76 149.696 170.56 239.104 135.808s127.328-151.872 84.672-261.632c-42.688-109.76-149.696-170.56-239.104-135.744z" />
<glyph unicode="&#xe606;" d="M600.16 685.024v-0.064c-4.672 24.96-12.96 48.768-24.672 70.752v0l44.672 69.344-78.528 70.592-64.384-44.48c-21.312 10.528-43.584 17.248-66.080 20.608h0.128l-23.552 88.224-91.072-17.248-19.264-91.584h0.096c-18.944-8.8-36.96-20.16-53.536-33.824v0l-73.056 33.824-41.088-59.072 41.088-70.688 0.064 0.128c-9.984-22.112-16.672-44.832-20.352-67.52v0.032l-77.312-11.2v-81.6l86.496-27.168c5.856-17.664 13.632-34.56 23.264-50.176l-0.032 0.064-53.216-65.632 64.96-59.648 64.928 49.664c4.8-2.976 9.664-5.728 14.752-8.096 7.552-3.744 15.232-7.072 22.976-9.888l36.512-103.904h81.632l15.712 98.176c19.808 5.152 39.104 12.672 57.344 22.848v0l66.688-40.928 53.76 56.512-34.912 60.768c8.416 11.616 16 24.256 22.656 37.632 4.672 9.632 8.704 19.296 12.256 29.184v0l82.88 34.080v73.792l-71.808 26.496zM309.952 508.736c-58.816 22.912-83.776 99.968-55.712 172.032 28.032 72.16 98.464 112.16 157.28 89.312 58.848-22.816 83.744-99.872 55.744-171.968-28.096-72.256-98.496-112.256-157.312-89.376zM898.752 290.048v-0.128c-7.776 18.272-18.144 35.2-30.944 49.952h0.064l22.368 60.672-72.128 40.672-41.792-44.864c-18.048 4.448-36.288 5.856-54.080 4.576h0.128l-33.024 63.584-66.848-28.672 0.8-73.408h0.064c-12.992-9.92-24.864-21.728-35.296-35.040v0l-61.696 13.504-21.44-52.32 43.488-47.136v0.064c-3.872-18.528-5.152-37.088-4.128-55.104v0l-57.312-21.696 13.888-62.528 70.912-6.144v0.096c7.392-12.608 16.32-24.192 26.304-34.528v0l-29.664-59.2 59.872-34.656 41.344 48.96c4.16-1.376 8.32-2.624 12.672-3.648 6.368-1.568 12.768-2.752 19.264-3.616l45.632-73.408 62.528 13.888-4.672 77.952v-0.032c14.24 7.264 27.808 16.416 40.064 27.2v-0.064l58.016-20.064 31.52 52.448-37.088 40.576c4.544 10.432 8.192 21.28 11.008 32.704 2.016 8.16 3.424 16.288 4.48 24.416v0l57.728 40.288-12.608 56.416-59.424 8.288zM706.4 105.664c-48.896 7.424-81.12 62.304-71.84 122.336 9.184 60.064 56.384 102.688 105.28 95.104 48.96-7.488 81.12-62.24 71.936-122.368-9.28-59.968-56.352-102.592-105.376-95.072z" />
<glyph unicode="&#xe607;" d="M488 16.48c54.016 0 584 272.064 532.448 643.136-25.44 183.328-201.184 254.752-355.040 204.064-125.664-41.44-172-178.88-180.384-178.88-21.44 0-254.304 224.672-431.712-13.312 0 0-125.664-137.504 8.896-359.264 91.104-150.176 400.896-295.744 425.792-295.744z" />
<glyph unicode="&#xe608;" d="M781.76 490.688c0.256 1.248 91.872 461.696-227.392 468.992 0 0-354.368 29.056-299.328-475.424v0c-63.168-8.128-103.168-15.52-103.168-15.52v-514.72c220.448-40.512 705.568 0 705.568 0l14.688 514.72c-27.936 9.28-58.368 16.448-90.368 21.952zM538.176 871.424c0 0 241.184 40 166.048-370.688l0.384-0.064c-120.064 11.008-251.424 4.32-356.064-5.824 0 0.224-62.048 356.832 189.632 376.576zM541.376 164.736l12.864-121.568-107.936-4.256 14.24 124.064h0.32c-56 11.328-98.624 48.512-103.68 96.64-6.752 63.36 54.048 121.92 135.872 130.496 81.696 8.672 153.376-35.744 160.128-99.296 6.016-56.832-42.56-109.6-111.808-126.080z" />
<glyph unicode="&#xe609;" d="M348.512 494.88c-0.064 0.192-62.112 356.8 189.696 376.544 0 0 171.744 28.192 180.384-209.76l75.232-1.12c0 0 0.576 304.64-239.424 299.136 0 0-354.56 29.12-299.456-475.424h0.064c-63.296-8.192-103.36-15.52-103.36-15.52v-514.72c220.672-40.544 705.984 0 705.984 0l14.752 514.72c-148.928 48.96-366.688 41.28-523.872 26.144zM541.472 164.672l12.704-121.504-108-4.256 14.24 124h0.32c-56 11.328-98.688 48.512-103.744 96.672-6.752 63.36 54.112 121.888 135.936 130.496 81.92 8.672 153.504-35.744 160.256-99.2 6.144-56.928-42.464-109.76-111.712-126.208z" />
<glyph unicode="&#xe60a;" d="M629.088 130.24c-169.504-82.816-364.128-32.672-434.752 111.872-65.6 134.24-1.056 302.656 144.128 392.384 47.36-83.264 89.184-150.016 98.24-150.016 23.488 0 162.368 356.576 155.808 382.816-6.496 26.24-401.344 109.376-413.344 89.696-4.576-7.488 28.608-78.432 72.544-163.040-205.536-136.064-289.056-393.44-185.728-604.896 113.184-231.552 407.36-320.384 657.248-198.304 48.384 23.616 91.328 53.376 128.64 87.744l-104.928 139.808c-31.84-34.976-71.392-65.376-117.856-88.064zM831.168 392.864c-4.192-30.496-13.44-60.736-27.2-89.696l131.808-125.44c31.136 47.84 53.696 100.192 66.56 154.208l-171.168 60.928z" />
<glyph unicode="&#xe60b;" d="M276.192 224.576c-65.056 67.136-78.56 167.424-44.576 260.192 63.552-32.64 116.448-57.44 120.32-53.568 10.176 10.176-46.304 305.12-59.008 309.824-12.672 4.736-292.928-112.32-292.928-123.968 0-4.256 44.512-30.944 101.824-62.816-48.064-141.664-21.312-298.784 83.808-407.2 113.888-117.312 287.552-144.608 439.648-83.776l-40.608 130.272c-106.496-56.896-231.68-48.096-308.48 31.040zM910.048 432.704c12.864 114.752-20.96 230.688-104.064 316.256-103.744 106.944-257.184 139.072-398.688 97.888l62.88-152.672c83.968 18.048 169.152-1.696 226.912-61.248 42.464-43.808 63.008-101.824 62.688-162.688l1.984-1.44c-67.424 15.2-122.112 25.376-124.864 20.736-7.328-12.384 121.056-283.936 134.496-285.312s255.584 181.92 252.672 193.184c-1.12 4.032-50.688 18.72-114.016 35.296z" />
<glyph unicode="&#xe60c;" d="M920.864 776.32c-170.112 211.936-491.104 236.672-716.928 55.36-225.824-181.376-271.008-500.128-100.8-712 170.112-211.936 491.104-236.672 716.928-55.36 225.888 181.312 271.008 500.096 100.8 712zM752.256 117.12c-190.944-134.24-447.072-99.168-571.936 78.496-124.96 177.696-71.392 430.56 119.616 564.864 190.944 134.272 447.072 99.136 572-78.56 124.864-177.6 71.328-430.496-119.68-564.8zM681.056 331.424c-4.384 0.32-34.176-19.008-55.008-40l-42.432 38.752c20 27.936 25.824 62.624 12.256 92.928-14.624 32.864-48.256 52.224-85.888 53.696l0.672 0.128v66.88c53.184 6.24 102.56 14.752 102.56 20.64 0 12.512-117.44 189.44-139.744 189.44s-103.008-203.84-91.808-215.072c4.128-4.128 37.312-3.328 77.312-0.128l10.624-67.328c-5.056-1.536-10.048-3.296-15.008-5.536-56.384-24.992-84.448-84.8-62.688-133.632 21.696-48.672 84.928-67.808 141.248-42.688 5.92 2.56 11.328 5.632 16.544 8.928l35.328-42.048c-23.616-26.048-50.56-60-48-63.008 6.016-7.008 167.264-62.88 180-52 12.736 10.976-24.16 189.184-35.968 190.048z" />
<glyph unicode="&#xe60d;" d="M650.592 942.848c-258.112 72.32-529.472-90.624-606.016-363.936-76.544-273.28 70.656-553.44 328.832-625.76 258.080-72.352 529.472 90.624 606.016 363.936 76.544 273.28-70.656 553.44-328.832 625.76zM922.176 333.12c-67.168-239.84-305.248-382.88-531.776-319.36-226.56 63.424-355.648 309.312-288.576 549.12 67.2 239.84 305.28 382.848 531.808 319.36s355.712-309.312 288.544-549.12zM191.599 350.771c-30.216 3.166-51.27 38.577-47.025 79.094s32.181 70.795 62.397 67.63c30.216-3.166 51.27-38.577 47.025-79.094s-32.181-70.795-62.397-67.63zM299.529 549.47c-34.769 3.639-59.003 44.336-54.13 90.899s37.010 81.36 71.779 77.721c34.769-3.639 59.003-44.336 54.13-90.899s-37.010-81.36-71.779-77.721zM539.952 800.32c34.377-6.334 55.368-48.791 46.885-94.83s-43.228-78.226-77.605-71.892c-34.377 6.334-55.368 48.791-46.885 94.83s43.228 78.226 77.605 71.892zM647.174 611.015c13.918 44.7 52.259 72.511 85.637 62.119s49.152-55.054 35.233-99.754c-13.918-44.7-52.259-72.511-85.637-62.119s-49.152 55.054-35.233 99.754zM842.986 382.124c-13.914-44.7-52.251-72.514-85.628-62.125s-49.156 55.048-35.242 99.748c13.914 44.7 52.251 72.514 85.628 62.125s49.156-55.048 35.242-99.748zM389.12 509.088c-27.040-23.328-19.040-152.352 36.352-223.392 35.136-45.056 99.264-67.808 151.712-25.184 39.168 31.68 38.336 99.264 11.552 140.48-60.384 92.928-169.824 133.792-199.616 108.096zM573.024 310.016c-8.32-31.36-36.672-51.2-63.328-44.128-26.752 7.104-41.76 38.208-33.376 69.696 8.288 31.424 36.672 51.232 63.328 44.16 26.688-7.104 41.664-38.336 33.376-69.728z" />
<glyph unicode="&#xe60e;" d="M648.128 943.648c-256.992 70.592-526.272-94.048-601.504-367.808-75.2-273.792 72.224-552.896 329.152-623.456 256.992-70.624 526.272 94.016 601.472 367.776 75.232 273.76-72.16 552.896-329.12 623.488zM589.184 35.808c-9.76 32.928-47.456 92.032-59.072 91.328-11.872-0.768-55.968-65.92-62.336-100.704-22.784 1.952-45.632 5.824-68.352 12.064-137.504 37.76-236.864 147.712-273.12 281.984 32.544 11.328 89.632 51.712 88.32 63.296-1.376 11.712-68.064 52.608-103.264 57.504 0.576 37.056 5.728 74.816 16.064 112.512 40.672 148.192 150.208 257.696 280.672 299.2 11.456-31.68 55.52-89.6 67.296-87.808 11.744 1.824 50.4 70.752 53.632 105.984 31.68-0.384 63.68-4.672 95.424-13.408 161.216-44.256 270.048-187.872 286.048-353.408-32.064-5.664-98.912-43.104-98.688-55.232 0.16-11.488 58.56-56.064 93.696-66.496-2.4-13.344-5.376-26.752-9.056-40.128-43.424-158.272-165.28-272.32-307.264-306.688zM632.32 586.528c-40.768 23.776-206.784-50.944-223.328-71.904-16.512-20.96-39.648-232.512-20.192-247.488 19.424-14.976 160.352 28.544 212.736 85.44 25.216 27.264 55.52 219.584 30.784 233.952zM555.2 415.616c-13.504-34.080-46.624-52.96-73.984-42.112-27.328 10.88-38.464 47.264-24.928 81.376 13.536 34.080 46.656 52.992 73.984 42.144 27.264-10.816 38.464-47.232 24.928-81.408z" />
<glyph unicode="&#xe60f;" d="M871.712 602.624l52.704 54.88-80.736 88.128-46.72-49.696c-14.848 13.408-30.944 25.76-48.256 36.864-56.8 36.448-120.192 55.36-184.544 58.432l7.328 65.984h87.168v102.784l-287.808-11.744v-91.040h84.64l9.856-73.6c-113.152-22.816-220.448-93.184-290.944-203.072-130.72-203.744-85.472-465.92 101.056-585.536 186.464-119.68 443.616-51.488 574.304 152.256 93.984 146.496 97.024 323.168 21.952 455.36v0zM777.888 193.344c-102.912-160.416-305.312-214.016-452.16-119.84-146.816 94.176-182.4 300.576-79.488 460.928 102.88 160.416 305.312 214.048 452.16 119.872 146.784-94.176 182.4-300.544 79.488-460.96zM581.504 431.328h0.096l-32.352 177.024h-37.184l-21.376-180.384h0.224c-7.648-4.064-15.104-8.992-22.016-15.008-43.008-37.12-52-97.056-20.192-133.92 31.744-36.8 92.416-36.608 135.328 0.512 42.944 37.12 52 97.056 20.192 133.952-6.464 7.488-14.24 13.376-22.72 17.824z" />
<glyph unicode="&#xe610;" d="M1021.888 422.848h0.064c0 0-0.128 0.416-0.256 0.64-0.736 2.72-1.664 5.024-2.848 6.72-24.128 56.384-186.272 432.672-223.328 447.456-16.448 6.592-122.112-6.432-243.2-25.984l9.792 81.408-166.304-23.36 13.44-82.976c-127.808-23.776-241.152-49.216-254.944-61.312-29.024-25.408-132.096-434.88-151.232-511.616-0.352-0.48-0.864-0.864-1.056-1.312-1.152-2.528-1.728-6.144-1.92-10.592-0.064-0.256-0.096-0.448-0.096-0.448l0.096 0.064c-2.048-57.984 72.096-258.688 98.080-273.6 28.032-16.032 801.44 8.032 829.504 40.128 26.016 29.696 110.848 352.128 94.208 414.784zM718.56 415.744c0 0-25.632-120-43.328-135.232-28.032-24.032-356.64-88.096-384.672-69.984-17.344 11.264-40.736 79.584-56.16 130.24-73.024-21.792-102.848-42.784-144.384-59.328 34.688 161.728 97.504 410.688 118.816 429.312 12.832 11.264 85.952 34.88 204.8 57.024l23.392-112.32c-63.296-11.776-115.872-26.592-119.2-34.272-7.776-18.144 146.848-254.688 176.736-252.128 29.888 2.624 181.824 276.896 163.68 291.168-18.112 14.176-70.016 14.72-128.064 8.832l18.688 122.24c113.536 18.4 180.672 30.592 196.16 24.48 25.344-10.112 187.904-366.144 187.904-366.144l-214.368-33.888z" />
<glyph unicode="&#xe611;" d="M1021.888 422.848h0.064c0 0-0.128 0.416-0.256 0.64-0.736 2.752-1.664 5.024-2.848 6.752-24.128 56.384-186.272 432.672-223.328 447.424-16.32 6.528-120.064-6.144-239.584-25.44-33.056 45.44-64.352 81.92-76.16 80.864-12.576-1.088-46.816-50.528-80.896-108.384-123.424-23.232-231.040-47.52-244.48-59.328-29.056-25.408-132.16-434.88-151.264-511.648-0.352-0.448-0.864-0.832-1.056-1.312-1.152-2.528-1.728-6.112-1.92-10.592-0.128-0.16-0.16-0.352-0.16-0.352l0.096 0.064c-2.048-57.984 72.096-258.688 98.080-273.568 28.032-16.032 801.44 8.032 829.504 40.096 26.016 29.696 110.848 352.128 94.208 414.784zM718.56 415.744c-9.472-63.328-25.632-120-43.328-135.264-28-24.064-356.672-88.16-384.672-70.016-17.344 11.232-56.16 130.176-56.16 130.176s-102.848-42.752-144.384-59.296c34.688 161.824 97.504 410.784 118.816 429.408 11.648 10.208 61.088 29.408 165.888 49.632-39.872-71.232-67.904-111.264-58.784-118.4 18.176-14.144 70.080-14.72 128.064-8.8l-31.872-264 166.304 23.328-41.184 254.208c63.328 11.776 115.872 26.592 119.2 34.272 4.192 9.728-29.92 51.008-74.688 115.552 102.944 16.128 148.992 24.928 163.328 19.296 25.344-10.144 187.84-366.176 187.84-366.176s-117.728-21.856-214.368-33.92z" />
<glyph unicode="&#xe612;" d="M0 696.064l16.416-576.16 273.184 334.336zM1003.136 782.656l-973.248-17.952 471.68-370.176zM498.56 279.552l-182.24 154.912-221.344-327.136 869.312-11.328-250.784 382.112zM746.304 503.488l277.696-335.84-20.864 576.192z" />
<glyph unicode="&#xe613;" d="M434.752 946.752c-53.28 1.344-357.632 29.152-384.864 0s-27.232-390.688 0-415.936c27.232-25.248 507.776-590.368 528.672-594.784 20.864-4.352 414.496 452.896 415.968 474.272 1.44 21.376-482.528 534.496-559.776 536.448zM344.192 626.272c-44.576-26.016-107.104-1.856-139.744 53.984s-22.976 122.208 21.568 148.256 107.136 1.888 139.744-53.984c32.608-55.84 22.976-122.208-21.568-148.256z" />
<glyph unicode="&#xe614;" d="M572.512 870.176c-271.584 8.032-572.512-385.216-572.512-453.28 0-61.984 296.192-398.784 570.656-391.040 234.016 6.656 453.28 345.728 453.344 391.040 0 50.080-116.576 443.36-451.488 453.28zM712.16 562.752c-30.88-57.792-93.984-84.256-140.768-59.2-46.816 25.024-59.84 92.256-28.864 150.016 11.072 20.672 26.24 37.28 43.36 48.96 50.624-0.32 95.008-11.712 133.76-29.824 14.112-31.232 12.576-72.544-7.488-109.952zM572.928 141.952c-210.976-9.376-437.504 247.872-437.504 271.328 0 34.784 108.8 142.624 244.64 223.104-64.96-126.208-36.032-271.328 66.048-325.984 103.328-55.296 242.336 3.168 310.464 130.4 33.312 62.304 43.328 129.664 32.832 188.64 100.352-79.744 147.744-181.376 145.984-205.312-1.856-26.496-175.232-273.888-362.464-282.176z" />
<glyph unicode="&#xe615;" d="M1014.176 582.752c-30.528 40.512-351.456-1.248-351.456-1.248s-110.528 381.92-152.736 378.464c-42.208-3.424-167.776-415.904-167.776-415.904s-320.032-8.704-332.768-38.816c-12.704-30.144 240.672-189.632 240.672-189.632s-173.056-349.92-150.080-371.936c61.12-58.56 366.016 235.68 403.072 238.016s344.544-249.184 403.104-203.488c26.624 20.704-143.456 360.64-143.456 360.64s270.112 219.104 251.424 243.904z" />
<glyph unicode="&#xe616;" d="M782.496 939.456c-40.128 59.008-504.992-23.584-533.312-66.048s-63.68-870.72-16.512-913.216c47.2-42.432 504.896-25.952 549.824 25.984s40.128 894.336 0 953.28zM407.872 859.264c10.112 11.232 186.752 41.888 194.976 33.024 8.256-8.832 8.256-37.152 0-49.568-8.224-12.384-182.976-34.208-194.976-25.952-12.032 8.256-10.144 31.264 0 42.496zM523.36 2.848c-40.928-13.984-84 3.68-96.32 39.456-12.224 35.808 11.104 76.16 51.968 90.112 40.928 14.016 84.032-3.68 96.32-39.488 12.256-35.744-11.040-76.128-51.968-90.080zM704.608 215.072c-11.776-12.608-397.184-40.896-403.456-30.688-6.336 10.208-2.4 554.528 11.744 566.304 14.080 11.808 378.272 44.064 391.648 30.688 13.44-13.376 11.872-553.76 0.064-566.304z" />
<glyph unicode="&#xe617;" d="M996.8 907.968c-52.128 72.384-894.496-46.336-949.472-92.64s-63.68-625.28-17.376-654.208c16.352-10.24 130.208-15.072 273.184-14.688-4.96-17.376-12.928-37.76-25.696-54.816-25.216-33.696-74.656-50.4-76.704-57.952-4.352-15.904 2.176-59.328 14.464-66.56 12.32-7.264 491.392 7.264 503.712 20.32 12.288 12.992 24.608 57.888 11.584 66.56-20.512 13.632-104.672 15.616-132.032 99.456 180.256 8.224 339.328 23.392 363.584 45.216 57.92 52.192 86.816 636.928 34.752 709.312zM544.64 233.12c-12.672-36.256-49.344-56.384-81.824-44.96-32.448 11.392-48.384 50.016-35.648 86.208 12.736 36.288 49.376 56.416 81.824 44.992 32.384-11.392 48.352-50.016 35.648-86.24zM901.28 421.632c-43.392-40.576-787.392-78.112-810.56-57.952-23.168 20.32-5.792 341.632 14.464 373.472 20.288 31.84 793.216 124.48 816.384 86.848 23.104-37.632 23.104-361.856-20.288-402.368z" />
<glyph unicode="&#xe618;" d="M776.576 948.896c-37.248 37.216-513.28-27.744-542.176-68.864-28.864-41.088-35.552-868.704 15.552-919.84 30.304-30.304 501.344-39.264 526.56 15.552 29.312 63.744 62.24 910.976 0.064 973.152zM581.12 15.328c-103.232-37.504-215.36 10.56-250.496 107.328-35.168 96.704 20.032 205.632 123.264 243.104 103.168 37.504 215.328-10.56 250.496-107.328 35.104-96.768-20.064-205.632-123.264-243.104zM717.28 467.52c-17.792-20.736-399.936-47.392-423.616-26.688-23.68 20.768-16.288 358.496 5.92 383.68 22.208 25.152 413.248 71.104 426.624 56.288 13.28-14.816 8.864-392.544-8.928-413.28zM541.794 125.084c-37.38-15.556-78.256-2.758-91.299 28.584s6.685 69.362 44.064 84.917c37.38 15.556 78.256 2.758 91.299-28.584s-6.685-69.362-44.064-84.917z" />
<glyph unicode="&#xe619;" d="M970.88 656.736c-28.32 31.008-148.576 51.744-293.472 61.152-14.016 58.144-35.392 136.48-52.32 150.784-27.392 23.2-315.552-2.336-338.336-26.080-16.736-17.44-47.072-93.664-61.952-132.8-90.944-10.944-158.304-28.512-176-53.056-66.944-92.928-63.232-576.288 0-609.728 63.2-33.504 858.816-48.384 922.080 14.848 63.168 63.2 78.048 509.344 0 594.88zM640.384 165.248c-121.152-54.848-259.968-9.44-310.144 101.376-50.144 110.88 7.36 245.088 128.512 299.904 121.12 54.848 259.968 9.44 310.112-101.376s-7.392-245.088-128.48-299.904zM618.866 256.127c-66.293-41.882-151.093-26.671-189.406 33.974s-15.632 143.759 50.66 185.641c66.293 41.882 151.093 26.671 189.406-33.974s15.632-143.759-50.66-185.641z" />
<glyph unicode="&#xe61a;" d="M735.296 176.064c17.088 12.992 26.88 205.888 0 215.616-26.88 9.792-68.352 0-87.904-19.52-19.456-19.52-7.328-179.776 0-196.096 7.36-16.288 70.848-12.992 87.904 0zM356.224 162.848c16.672 12.704 26.112 200.544 0 209.984-26.176 9.632-66.592 0.064-85.632-19.008-19.040-19.040-7.136-175.136 0-191.008 7.136-15.808 68.96-12.64 85.632 0.032zM767.744 225.248c-4.288-30.72-9.504-79.136-16.48-84.448-24.32-18.496-114.592-23.232-124.928 0-3.2 6.976-6.080 53.248-9.088 81.312l-223.872-5.696c-4.224-39.744-10.272-93.888-18.656-100.224-24.288-18.464-114.496-23.168-124.928 0-3.776 8.48-8.512 69.984-11.52 106.56l-135.552-10.496c-11.2-88.576-4.8-244.704 24.224-261.696 41.696-24.384 718.528-17.376 753.312 13.952 22.976 20.672 27.104 164.064 19.616 255.616l-132.128 5.12zM946.080 752.288c-10.304 12.448-89.728 11.904-196.64 3.52 15.808 57.184 40.96 163.808 16.704 186.112-63.744 58.592-481.28-41.632-503.392-68.992-17.44-21.568-15.68-137.152-14.112-184.896-95.36-18.912-163.52-38.208-170.336-53.76-24.352-55.552-41.664-340.192 0-374.88 3.904-3.296 14.368-6.016 30.176-8.256l127.488 2.752c-3.072 57.504-1.152 119.264 13.792 134.080 27.808 27.776 86.816 41.664 124.928 27.776 21.792-7.904 26.592-87.68 22.272-158.432l216.608 4.608c-4.32 61.632-3.584 134.144 12.736 150.56 27.712 27.712 86.752 41.632 124.928 27.712 23.36-8.544 27.232-100.672 21.024-174.912l122.912 2.656c28.416 3.808 46.624 7.904 50.848 12.16 31.328 31.328 34.784 430.528 0.064 472.192zM332.288 703.296c-0.032 31.008 1.632 80.96 12.16 96.768 15.584 23.392 309.184 76.768 328.032 59.872 16.064-14.464 10.624-57.792-1.984-111.264-108.48-10.848-232-27.328-338.208-45.376z" />
<glyph unicode="&#xe61b;" d="M290.421 527.132c-1.31 0.447-2.333 0.831-2.684 1.31-9.746 12.11-14.507 67.804-2.492 83.429 12.046 15.625 376.471 64.513 389.156 45.949 10.545-15.401 12.366-85.73 5.368-116.277 96.658 2.492 173.793 3.93 201.017 4.441-9.778 204.787-25.019 387.687-40.293 402.96-35.404 35.372-650.469-21.76-685.873-62.596-15.082-17.414-22.239-183.762-23.39-371.199 39.398 4.537 95.284 8.531 159.19 11.982zM891.331 184.403c-0.671 98.799-4.058 217.696-9.171 332.152-135.321 2.652-611.166-30.899-751.089-41.028-0.16-94.549 1.15-192.102 3.675-276.841 37.609 1.885 89.309 2.492 148.358 2.237-6.231 20.546-7.733 60.423 2.141 73.268 12.046 15.593 376.471 64.545 389.156 45.949 12.43-17.958 12.653-111.037 1.054-127.812 94.389-3.099 174.336-6.263 215.875-7.924zM136.024 159.128c4.090-112.347 10.513-194.658 18.597-203.509 7.349-8.116 133.532-15.849 133.116-15.306-9.746 12.11-14.507 67.772-2.492 83.398 12.046 15.561 376.471 64.513 389.156 45.949 12.717-18.501 7.189-120.974-5.56-133.34-0.991-0.927 196.288-0.064 209.676 19.3 6.614 9.554 13.005 87.36 12.877 199.707-159.158 9.202-610.336 5.272-755.371 3.802z" horiz-adv-x="1022" />
<glyph unicode="&#xe61c;" d="M586.624 877.344c-0.864 51.168-1.696 82.656-1.696 82.656l-54.208-6.784c0 0 2.4-22.304 3.52-79.2-242.56-43.104-461.344-456.576-461.344-456.576 259.36 193.28 274.688-94.944 274.688-94.944 49.6 117.12 119.104 163.84 178.208 167.008-1.056-22.976-2.24-46.976-3.584-72.064-22.016-412-120.416-362.848-120.416-362.848-79.648 11.872-84.736 142.432-84.736 142.432h-61.024c0 0 5.472-128.352 54.208-195.040 83.136-113.568 195.008-78.016 244.16 86.496 20.064 67.136 28.8 224.576 32.224 387.36 10.88-5.984 20.672-13.696 28.8-22.912 45.984-51.616 50.88-130.528 50.88-130.528 88.16 305.184 284.8 71.232 284.8 71.232-105.568 352.576-236.384 476.448-364.48 483.712z" />
<glyph unicode="&#xe61d;" d="M900.128 861.568c-14.592 20.672-144.064 25.376-293.504 20.864 2.944 21.152 7.776 65.952-1.632 74.656-12.448 11.52-176.448-13.952-185.984-29.056-6.304-10.176-4.096-38.176-1.984-55.488-153.024-11.232-285.888-29.12-297.088-46.56-26.688-41.536 0-124.608 0-124.608s223.488 15.84 376.768 14.848c153.248-0.992 403.392-14.848 403.392-14.848s35.584 109.76 0.032 160.192zM835.872 638.080c-15.84 17.792-620.96 15.808-636.8 0-14.272-14.272-18.88-528.448 0.672-648.256 0 0 1.184-32.064 18.752-47.072 17.568-14.912 619.264-3.872 632 20 4.544 8.448 7.328 17.12 9.312 25.248 0.992 1.984 1.824 6.24 2.432 12.576 1.728 11.552 1.44 19.872 1.44 19.872 6.144 131.328-13.92 601.984-27.808 617.632zM265.504-13.6c-2.112 130.272-7.328 492.384 0.768 505.344 9.92 15.808 85.056 11.872 94.976 0 7.776-9.376 14.368-360.928 16.768-507.872-44.512 0.32-82.88 1.408-112.512 2.528zM474.592-15.872c-3.2 128.32-11.328 494.592 1.152 507.616 15.168 15.808 101.184 11.872 116.352 0 11.744-9.248 21.728-350.016 25.568-500.8-60.864-4.128-90.176-6.144-143.072-6.816zM692.736-2.912c-2.208 138.4-6.944 482.016 0.928 494.656 9.952 15.808 85.024 11.872 95.008 0 7.328-8.832 13.632-322.176 16.32-480.992-37.376-5.536-74.912-10.080-112.256-13.664z" />
<glyph unicode="&#xe61e;" d="M346.656 328.288c-68.224 354.816-147.392 466.752-147.392 466.752s-117.376-38.208-199.264-81.888c0 0 2.72-40.928 27.296-62.784 0 0 66.72 27.328 144.64 45.568 71.552-201.024 101.024-485.024 101.024-485.024 507.744 60.032 674.24 0 674.24 0l30.016 117.376c-330.272 54.592-630.56 0-630.56 0zM419.658-46.783c-56.038-27.815-120.861-11.289-144.787 36.913s2.106 109.826 58.143 137.641c56.038 27.815 120.861 11.289 144.787-36.913s-2.106-109.826-58.143-137.641zM845.755-46.79c-56.038-27.828-119.697-13.673-142.187 31.616s4.705 104.562 60.743 132.39c56.038 27.828 119.697 13.673 142.187-31.616s-4.705-104.562-60.743-132.39zM409.44 412.896c19.104-13.728 199.264 5.44 226.56 21.824 27.328 16.416 27.328 218.4 0 242.976-27.328 24.64-272.96-5.472-292.064-27.328s46.4-223.84 65.504-237.472zM964.992 678.048c-18.464 14.432-199.328 3.456-227.328-11.584s-37.088-216.896-10.976-242.688 272.928-6.88 293.024 14.016c20.096 21.024-36.224 225.76-54.72 240.256zM444.928 743.168c24.576-10.912 409.472-24.576 422.656 0 13.248 24.64 22.304 177.44 0 207.456-22.24 30.048-425.344-54.592-452.672-81.92-27.296-27.232 5.472-114.592 30.016-125.536z" />
<glyph unicode="&#xe61f;" d="M392.465 60.997c-52.397-26.014-113.018-10.555-135.401 34.528s1.948 102.719 54.344 128.733c52.397 26.014 113.018 10.555 135.401-34.528s-1.948-102.719-54.344-128.733zM790.905 61.116c-52.403-26.002-111.925-12.738-132.947 29.628s4.417 97.788 56.82 123.791c52.403 26.002 111.925 12.738 132.947-29.628s-4.417-97.788-56.82-123.791zM929.248 481.44l94.752 326.88c-369.248 67.296-799.84-36.096-799.84-36.096l0.16-0.48c-22.624 54.592-37.984 76.544-37.984 76.544s-109.76-35.744-186.336-76.608c0 0 2.56-38.272 25.504-58.72 0 0 62.4 25.6 135.264 42.624 66.912-188 94.496-453.632 94.496-453.632 474.784 56.16 630.56 0 630.56 0l28.064 109.792c-308.928 51.072-589.728 0-589.728 0-4.8 24.96-9.664 48.256-14.56 70.72l0.288-1.024c201.248 57.184 619.36 0 619.36 0z" />
<glyph unicode="&#xe620;" d="M960.77 801.211c-3.97 4.001-57.545-1.842-136.749-13.402-4.954 38.776-21.722 166.633-27.979 171.524-7.4 5.78-154.089-28.804-161.108-39.507-5.939-9.019-4.129-125.348-3.366-162.568-95.401-16.101-198.741-34.648-291.474-52.496-4.922 27.439-22.802 124.872-28.995 129.794-7.177 5.812-104.801-31.694-108.326-43.222-2.699-8.892-2.191-81.522-1.747-114.582-84.476-17.975-142.974-32.869-149.548-40.301-7.781-8.733-8.638-72.122-5.335-157.138l924.217 151.453c-1.778 96.671-4.859 165.776-9.591 170.444zM971.25 563.090l-923.899-111.819c0.476-9.908 0.984-20.007 1.524-30.329l0.159-3.366c10.956-200.805 38.363-467.825 55.132-476.272 26.359-13.148 843.457 0 856.604 19.753 8.575 12.894 12.989 358.101 10.48 602.033zM905.734 13.235c-16.324-11.782-743.483-27.471-754.535-18.801-11.115 8.606-35.823 221.32-43.762 407.834l808.428 98.576c0.572-224.941 0.413-479.893-10.131-487.61zM484.72 365.144c-80.316 121.061-197.693-6.161-235.993-140.91l55.608-62.976c0 0 63.008 161.838 112.423 62.976 0 0 44.461-55.576-71.646-143.323l17.308-63.008 198.899 33.377v108.739l-108.707-39.57c-0.032-0.032 112.391 123.538 32.107 244.694zM539.089 278.604l50.59-62.849 58.117 77.68-19.785-239.708h114.963v376.839l-60.626 18.515z" horiz-adv-x="1016" />
<glyph unicode="&#xe621;" d="M849.184 362.976c1.12 147.776 17.216 290.656 13.152 299.2-7.52 15.904-40.224 22.624-40.224 22.624 50.208 60.32 15.104 120.672 15.104 120.672-57.856 82.976-110.624-2.496-110.624-2.496 27.648 148.32-93.024 155.872-93.024 155.872-113.728 16.224-120.32-136.704-120.64-160.288-0.256 16.8-6.816 96.192-108.096 71.424-113.184-27.68-72.384-170.144-72.384-170.144s-38.176-41.92-30.72-60.32c7.52-18.432 25.152-17.6 25.152-17.6 2.72-18.048 3.264-53.408 2.496-98.016-0.096-0.032-135.744-23.488-152.544-48.64-16.736-25.152-25.12-306.688 0-328.512s142.848-38.464 142.848-38.464v0c0.864-28.416 3.136-48.128 7.2-54.528 12.224-19.488 175.616-130.848 315.904-116.512 119.296 12.192 219.552 119.008 219.552 149.152 0 14.048-14.144 148.864-13.152 276.576zM319.328 180.512c-27.552 3.744-85.632 12.672-100.928 23.552-20.448 14.432-13.6 200.672 0 217.344 10.528 12.864 78.912 25.088 109.216 29.984-2.72-88.064-7.232-191.296-8.288-270.88zM328.032 465.728l1.344 57.664c-0.288-17.92-0.704-37.344-1.344-57.664zM480.288 21.952c-58.624 16.704-107.168 49.792-107.168 49.792s10.272 383.456 25.248 400.224 73.344 16.736 88.32 0c14.976-16.8-6.4-450.016-6.4-450.016zM698.336 11.2c-72.32-22.080-154.816-5.536-154.816-5.536s-2.784 456.224 9.664 476.32c12.48 20.128 126.016 16.768 136.96 0 10.912-16.768 8.192-470.784 8.192-470.784zM748.576 29.28c0 0-20.896 446.016-9.504 462.784 11.488 16.736 56.192 16.736 67.648 0s19.488-414.624 19.488-414.624-30.496-27.456-77.632-48.16z" />
<glyph unicode="&#xe622;" d="M340.544 684.288c0 0-24-804.416 217.344-745.152 0 0 121.824 19.744 121.376 152.448-0.384 118.912 0 618.176 0 618.176l-338.72-25.472zM645.376 114.848c0.32-99.52-91.072-114.4-91.072-114.4-181.12-44.48-163.136 652.448-163.136 652.448l254.208 19.072c0-0.032-0.256-467.936 0-557.12zM444.257 870.019c25.811-11.021 36.316-44.358 23.463-74.461s-44.197-45.571-70.008-34.55c-25.811 11.021-36.316 44.358-23.463 74.461s44.197 45.571 70.008 34.55zM646.543 955.811c37.201-15.89 48.765-72.302 25.829-125.999s-71.688-84.346-108.889-68.456c-37.201 15.89-48.765 72.302-25.829 125.999s71.688 84.346 108.889 68.456zM620.544 501.344c-24.768-8.768-52.064 0.32-63.552 22.624-3.264 6.24-4.864 12.928-5.152 19.616l-140.608-10.528c0 0 9.696-536.064 134.304-503.328 0 0 75.296 12.192 75.040 94.112-0.128 56.8-0.064 279.072-0.032 377.504z" />
<glyph unicode="&#xe623;" d="M1024 655.552c0 85.952-60.32 155.488-134.688 155.488-39.328 0-74.4-19.808-99.008-50.88-45.184 105.664-84.384 187.552-95.808 188.672-32 3.136-194.976-86.848-194.496-106.656s43.808-62.048 48.256-103.424c9.632-88.736-48.416-156.512-125.024-176.256-106.368-27.36-140.896 126.368-158.208 134.816-17.312 8.48-235.712-105.376-234.528-144.608 0.48-14.848 42.656-103.808 96.672-209.184-70.816-4.48-127.168-71.648-127.168-154.592 0-85.952 60.288-155.488 134.656-155.488 50.016 0 93.184 31.872 116.416 78.688 51.328-91.584 94.368-161.76 105.44-164.672 31.648-8.512 209.152 99.712 210.048 118.016 0.864 18.24-47.456 63.904-52.16 107.328-9.6 88.768 49.088 154.016 125.024 176.256 119.488 34.912 153.856-146.72 160.288-152.608 6.4-5.888 162.016 70.368 167.968 94.368 2.112 8.736-29.696 99.008-72.32 209.952 71.488 3.648 128.64 71.296 128.64 154.784z" />
<glyph unicode="&#xe624;" d="M1001.984 541.856c-4.48 52.384-221.856 66.464-221.856 66.464s49.664 183.552 15.232 206.4c-34.368 22.848-170.272-82.688-170.272-82.688s-139.648 239.52-184.16 227.52c-44.512-12-53.76-289.664-53.76-289.664s-195.2 59.136-216.096 24.64c-20.96-34.432 79.072-247.040 79.072-247.040s-243.808-104.736-227.296-161.664 256-36.672 256-36.672-30.016-199.904 0-228.416c29.952-28.512 215.552 87.872 215.552 87.872s136.224-184.064 176.672-172.128c40.448 12 33.248 265.568 33.248 265.568s152.384-65.984 180.8-26.432c28.512 39.616-71.232 200-71.232 200s192.576 113.856 188.096 166.24zM750.464 325.6c-59.872-128.672-203.328-188.768-320.512-134.272-117.024 54.56-163.296 203.104-103.328 331.776 60 128.672 203.456 188.8 320.544 134.304 116.96-54.624 163.168-203.136 103.296-331.808zM455.925 234.455c-92.375 43.034-129.458 159.064-82.827 259.161s159.318 146.356 251.693 103.323c92.375-43.034 129.458-159.064 82.827-259.161s-159.318-146.356-251.693-103.323z" />
<glyph unicode="&#xe625;" d="M493.024 269.504c20.672 0 238.368 235.104 257.536 381.28 29.76 225.952-93.056 309.216-227.584 309.216-144.672 0-261.952-166.016-236.448-330.496 24.544-158.144 175.072-360 206.496-360zM440.064 795.136c19.36 59.456 71.424 95.776 116.288 81.152 44.768-14.56 65.504-74.624 46.080-134.016-19.328-59.488-71.36-95.808-116.224-81.216-44.832 14.592-65.504 74.592-46.144 134.080zM831.872 631.552l-86.752-460.896 23.744 394.208c-68.672-164.48-256.416-363.936-276.992-363.936-36.672 0-212.288 235.36-240.864 419.872-11.008 71.424 0.992 143.008 29.12 204.864l-249.6-137.856v-715.776l239.488 79.84 12.992 363.008 39.232-354.368 398.304-124.512 180.256 113.28 92.672 648.832-161.6-66.56z" />
<glyph unicode="&#xe626;" d="M800.928 910.624c-189.536 133.728-526.4-22.432-712.8-249.504 0 0-121.536-146.496-49.92-236.736 34.144-42.976 129.44-21.824 129.44-21.824s216.544 55.808 178.432-202.304c0 0-23.328-152.416 32.064-205.76 60.352-58.048 137.664-83.136 252.064-27.136 413.76 202.4 513.92 701.28 170.72 943.264zM324 533.408c-39.616-47.424-102.176-60.48-139.808-29.12-37.6 31.392-36 95.328 3.552 142.784 39.616 47.424 102.144 60.48 139.808 29.056 37.664-31.392 36-95.296-3.552-142.72zM455.904 777.664c43.936 52.672 113.472 67.2 155.232 32.32 41.792-34.848 40-105.824-4-158.496-43.936-52.672-113.44-67.136-155.232-32.288-41.792 34.816-40 105.76 4 158.464zM650.208 182.24c-43.968-52.672-113.44-67.136-155.264-32.256-41.824 34.816-40 105.792 4 158.432 43.968 52.672 113.44 67.232 155.264 32.32 41.76-34.784 40-105.728-4-158.496zM711.584 552.032c-37.664 31.36-36 95.296 3.552 142.752 39.616 47.424 102.144 60.48 139.808 29.056 37.6-31.328 36-95.296-3.616-142.72-39.552-47.456-102.144-60.48-139.744-29.088zM792.864 348.256c-29.216 24.448-27.968 74.048 2.816 110.976 30.752 36.864 79.36 46.976 108.672 22.624 29.248-24.416 28-74.080-2.784-110.976-30.848-36.864-79.488-47.008-108.704-22.624z" />
<glyph unicode="&#xe627;" d="M557.216 959.232c-339.968-29.472-367.2-394.4-367.2-394.4-20.384-197.152 115.584-260.672 154.112-301.44 38.528-40.704 72.544-122.304 72.544-122.304 129.216-56.672 213.024 36.256 213.024 36.256 13.632 74.816 126.944 281.056 126.944 281.056 224.384 432.832-86.592 510.592-199.424 500.832zM456.64 749.952c-44.928-42.656-98.592-59.136-119.808-36.8-21.216 22.368-1.984 75.104 42.944 117.76s98.56 59.104 119.776 36.736c21.248-22.368 2.016-75.040-42.912-117.696zM423.808 94.368c12.064-87.328 94.496-71.2 94.496-71.2 110.688 11.328 100.096 104.256 100.096 104.256-77.056-69.088-194.592-33.056-194.592-33.056zM443.168-0.096c8.672-73.024 87.616-63.456 87.616-63.456 96.896 9.952 80.768 98.080 80.768 98.080-74.752-80.48-168.384-34.624-168.384-34.624z" />
<glyph unicode="&#xe628;" d="M163.232 960c64.928 1.792 204.768-187.648 209.312-230.976 4.512-43.328-135.328-115.456-137.12-144.352-1.792-28.864 356.352-400.544 389.728-404.16 33.376-3.52 92.064 156.128 137.12 158.816 45.088 2.688 234.528-196.672 245.44-230.976 10.816-34.272-166.016-288.672-483.584-108.288-193.408 109.952-458.016 383.36-504.32 626.112-29.76 155.84 118.048 333.12 143.424 333.824z" />
<glyph unicode="&#xe629;" d="M936.16 902.048c-145.856 171.392-383.744-92.096-383.744-92.096l-28.288-27.52 319.584-320.672c40.864 38.592 73.952 69.728 92.448 87.232 92.128 87.008 133.824 195.744 0 353.056zM50.976 11.712c174.016-184.224 342.816 25.6 342.816 25.6s20.832 19.68 54.464 51.36l-291.52 336.928c-267.84-256.672-105.76-413.888-105.76-413.888zM203.648 470.656l264.608-363.168c83.712 79.008 222.016 209.504 329.536 310.88l-291.84 346.368-302.304-294.080zM422.016 601.632c21.952 0 39.648-23.776 39.648-53.12s-17.792-53.12-39.648-53.12c-21.856 0-39.616 23.776-39.616 53.12s17.728 53.12 39.616 53.12zM329.824 423.68c-21.952 0-39.616 23.776-39.616 53.088 0 29.376 17.76 53.12 39.616 53.12 21.92 0 39.648-23.744 39.648-53.12 0.032-29.312-17.728-53.088-39.648-53.088zM411.744 321.28c-21.952 0-39.616 23.776-39.616 53.12s17.76 53.088 39.616 53.088c21.92 0 39.648-23.744 39.648-53.088s-17.728-53.12-39.648-53.12zM493.696 218.848c-21.984 0-39.68 23.776-39.68 53.12s17.792 53.12 39.68 53.12 39.584-23.776 39.584-53.12-17.696-53.12-39.584-53.12zM503.936 392.992c-21.952 0-39.616 23.744-39.616 53.088s17.792 53.12 39.616 53.12c21.92 0 39.648-23.776 39.648-53.12s-17.76-53.088-39.648-53.088zM585.888 290.56c-21.952 0-39.616 23.776-39.616 53.088 0 29.344 17.76 53.088 39.616 53.088 21.92 0 39.648-23.744 39.648-53.088 0.032-29.312-17.728-53.088-39.648-53.088zM678.080 478.752c21.92 0 39.616-23.776 39.616-53.12s-17.792-53.12-39.616-53.12c-21.888 0-39.648 23.776-39.648 53.12s17.76 53.12 39.648 53.12zM596.16 581.184c21.92 0 39.584-23.776 39.584-53.12s-17.792-53.12-39.584-53.12c-21.984 0-39.68 23.776-39.68 53.12s17.728 53.12 39.68 53.12zM553.856 630.464c0-29.344-17.76-53.12-39.616-53.12-21.92 0-39.648 23.776-39.648 53.12 0 29.312 17.792 53.088 39.648 53.088s39.616-23.776 39.616-53.088z" />
<glyph unicode="&#xe62a;" d="M73.495 724.81c-57.374 35.207-73.958 112.517-37.042 172.678s113.355 80.39 170.729 45.183c57.374-35.207 73.958-112.517 37.042-172.678s-113.355-80.39-170.729-45.183zM73.484 339.072c-57.367 35.22-73.935 112.536-37.004 172.69s113.375 80.366 170.742 45.146c57.367-35.22 73.935-112.536 37.004-172.69s-113.375-80.366-170.742-45.146zM73.513-46.677c-57.367 35.22-73.935 112.536-37.004 172.69s113.375 80.366 170.742 45.146c57.367-35.22 73.935-112.536 37.004-172.69s-113.375-80.366-170.742-45.146zM397.28 919.424v-140.512h609.92v172.576zM397.28 393.568h609.92v172.576l-609.92-32.096zM397.28 8.192h609.92v172.608l-609.92-32.128z" />
<glyph unicode="&#xe62b;" d="M160.544 482.688c11.392-62.4-128.672-117.184-128.672-117.184l5.056-79.008c49.696 10.176 154.144 14.016 154.144 14.016l15.296 64.96c-48.384 3.808-94.88-10.208-94.88-10.208s64.928 48.896 89.824 82.816c33.12 45.248 47.2 142.688-43.328 147.808-90.464 5.088-157.984-98.112-157.984-98.112l33.376-43.776c65.984 88.384 119.296 81.536 127.168 38.688zM120.608 832.448c-15.296-48.448-16.576-161.792-16.576-161.792 28.032-11.488 66.24 5.056 66.24 5.056-24.224 126.144 12.768 271.392 12.768 271.392l-53.536 12.896c-3.808-53.344-98.080-161.984-98.080-161.984l34.368-28.032c26.784 20.384 54.816 62.464 54.816 62.464zM183.040 126.432l56.064 56.576-19.36 74.304-174.464-51.712 4.832-48.448 114.72 19.328-66.24-63.040 8.672-43.584c11.904 3.264 129.024 20.32 64-63.040-47.328-60.512-139.264 36.608-139.264 36.608l-19.136-23.616c0 0 100.384-148.64 192.256-50.048 106.048 113.664-22.080 156.672-22.080 156.672zM370.208 826.784v-116.672h506.464v143.328zM370.208 390.112h506.464v143.328l-506.464-26.656zM370.208 70.112h506.464v143.328l-506.464-26.656z" horiz-adv-x="877" />
<glyph unicode="&#xe62c;" d="M678.368 869.696c-162.368 205.632-656.704 39.68-678.368-292.288l129.92-36.096c0 0 140.704 202.048 270.624 129.92 129.952-72.16 7.296-248.992-223.712-324.736l83.008-202.048 144.32 25.248-7.264 140.704c0 0 549.504 219.744 281.472 559.296zM403.963-56.499c-54.411-19.418-111.011-0.158-126.419 43.018s16.21 93.918 70.621 113.336c54.411 19.418 111.011 0.158 126.419-43.018s-16.21-93.918-70.621-113.336z" horiz-adv-x="752" />
<glyph unicode="&#xe62d;" d="M493.92 960h-493.92c0 0 27.328-511.968 0-999.936 0 0 475.328-32.736 718.528-21.888l18.016 678.112-258.656-4 16.032 347.712zM537.312 960l-0.928-277.76 206.72-20.928z" horiz-adv-x="743" />
<glyph unicode="&#xe62e;" d="M537.312 960l-0.896-277.76 206.72-20.928zM493.952 960h-493.952c0 0 27.328-511.968 0-999.904 0 0 475.328-32.768 718.528-21.92l17.984 678.112-258.656-4 16.096 347.712zM94.592 823.36h220.256l-14.528-210.592h-205.728v210.592zM593.184 50.976l-498.592-9.696v77.44l498.624 41.152-0.032-108.896zM593.184 235.072l-498.592-9.728v77.44l498.624 41.152-0.032-108.864zM593.184 537.728v-108.928l-498.592-9.664v77.472l498.592 41.12z" horiz-adv-x="743" />
<glyph unicode="&#xe62f;" d="M659.232 529.6c48.992 191.968-42.368 381.056-204.16 422.368-161.856 41.344-332.704-80.736-381.76-272.672-40.16-157.216 13.952-312.448 123.648-386.176-67.904-42.72-113.6-111.648-143.456-177.824l-36.992-103.264c-12.352-44.832-16.512-76.032-16.512-76.032l575.36 52.8c0 0 2.24 12.192 4 31.872l-0.448 93.76c-6.56 62.752-28.32 134.496-87.488 178.784 78.048 47.936 141.056 131.712 167.808 236.384z" horiz-adv-x="672" />
<glyph unicode="&#xe630;" d="M891.232 188.736c-43.84 20.128-100.416-9.312-126.304-65.728-1.312-2.88-2.4-5.76-3.52-8.672-6.56 62.752-28.32 134.496-87.456 178.816 78.016 47.936 140.928 131.68 167.68 236.352 48.992 191.968-42.336 381.056-204.16 422.368-161.92 41.408-332.768-80.672-381.824-272.608-40.16-157.216 13.984-312.48 123.68-386.144-67.936-42.752-113.568-111.68-143.456-177.824 1.184 48.256-19.552 90.816-57.888 108.448-56.064 25.76-128.416-11.872-161.568-84.064-33.152-72.256-14.592-151.616 41.472-177.376 46.272-21.248 103.616 0.736 140.896 49.824-12.32-44.928-16.48-76.128-16.48-76.128l575.424 52.8c0 0 2.208 12.192 4 31.872 7.616-16.128 19.616-28.928 35.52-36.256 43.808-20.16 100.352 9.248 126.24 65.696 25.984 56.512 11.552 118.528-32.256 138.624zM396.384 558.848c11.776 54.528 55.648 91.328 98.016 82.208 18.624-4.032 33.856-16.288 44.064-33.376 9.984 59.232 46.336 102.688 86.784 99.936 44.608-3.040 76.832-61.024 72.224-129.568-4.672-68.544-44.576-121.632-89.056-118.592-26.688 1.824-48.928 23.456-61.568 55.264-14.944-48.416-55.648-79.744-95.136-71.264-42.336 9.184-67.104 60.832-55.328 115.392z" horiz-adv-x="937" />
<glyph unicode="&#xe631;" d="M1378.648 516.874c19.561 141.419-54.322 268.501-164.996 283.787-110.63 15.286-216.252-86.967-235.813-228.342-13.127-94.696 15.848-182.743 69.479-235.295-43.959-32.515-74.056-80.447-94.696-131.919 2.98 98.41-19.388 203.297-114.862 247.342 47.283 45.772 81.872 113.221 92.667 191.552 21.634 156.662-60.238 297.389-182.743 314.316-122.548 16.927-239.526-96.251-261.16-252.913-15.545-112.444 22.411-216.424 90.335-272.56-85.456-53.977-143.966-156.964-179.548-281.844-6.995 33.509-23.361 63.52-55.747 80.317 50.090 34.070 88.392 96.251 98.756 171.214 16.97 122.721-47.154 233.006-143.189 246.219-96.121 13.3-187.752-75.438-204.722-198.159-13.17-95.301 22.584-182.743 84.117-223.506-164.132-65.679-176.525-291.085-176.525-291.085l363.586 41.929c-1.598-13.775-3.109-27.852-4.318-41.929l548.747 56.783c-1.598-22.066-2.202-37.697-2.764-43.268h369.718c0 0 122.98 285.773 16.107 390.92 44.606 41.324 77.467 103.592 87.572 176.439z" horiz-adv-x="1382" />
<glyph unicode="&#xe632;" d="M1378.648 516.874c19.561 141.419-54.322 268.501-164.996 283.787-110.63 15.286-216.252-86.967-235.813-228.342-13.127-94.696 15.848-182.743 69.479-235.295-43.959-32.515-74.056-80.447-94.696-131.919 2.98 98.41-19.388 203.297-114.862 247.342 47.283 45.772 81.872 113.221 92.667 191.552 21.634 156.662-60.238 297.389-182.743 314.316-122.548 16.927-239.526-96.251-261.16-252.913-15.545-112.444 22.411-216.424 90.335-272.56-85.456-53.977-143.966-156.964-179.548-281.844-6.995 33.509-23.361 63.52-55.747 80.317 50.090 34.070 88.392 96.251 98.756 171.214 16.97 122.721-47.154 233.006-143.189 246.219-96.121 13.3-187.752-75.438-204.722-198.159-13.17-95.301 22.584-182.743 84.117-223.506-164.132-65.679-176.525-291.085-176.525-291.085l363.586 41.929c-1.598-13.775-3.109-27.852-4.318-41.929l548.747 56.783c-1.598-22.066-2.202-37.697-2.764-43.268h369.718c0 0 122.98 285.773 16.107 390.92 44.606 41.324 77.467 103.592 87.572 176.439zM145.305 378.78l229.767 70.99c0 0-2.073-177.993-130.666-177.993-101.994-0.086-99.101 107.003-99.101 107.003zM563.688 680.272c6.607 47.888 35.538 83.556 64.599 79.497 15.718-2.202 28.241-15.545 35.365-34.934 10.407 64.081 52.681 110.76 95.862 104.801 44.131-6.132 72.588-64.858 63.39-131.271-9.241-66.37-52.465-115.294-96.64-109.119-28.154 3.886-49.874 29.406-59.504 64.599-9.414-41.756-35.797-71.206-62.354-67.535-29.191 3.973-47.37 46.074-40.72 93.962zM1149.398 588.037c-0.302 1.814-0.95 9.802-0.95 9.802l152.603 45.038c0 0 30.529-124.923-52.811-154.632-55.704-19.82-81.267 32.645-92.149 69.695 0.561-28.629-7.082-69.004-51.083-83.988-70.99-24.268-84.506 83.858-84.506 83.858l128.896 30.227z" horiz-adv-x="1382" />
<glyph unicode="&#xe633;" d="M1050.167 960h-5.32c0 0 44.973-177.147 5.187-214.792-16.664-15.827-73.85 20.378-138.365 97.575-57.186 68.329-112.265 65.184-130.367 61.369-18.036-3.882-136.759-34.332-136.759-197.224l2.777-0.703c-12.716 2.844-25.866 5.454-39.318 7.663l-82.885-169.852-2.309 0.368c219.075-34.867 234.3-94.463 234.3-94.463v0c27.171 50.126 45.943 81.513 48.118 93.794 2.677 15.259 7.696 114.674-117.217 152.051-5.019 1.506-10.44 2.978-15.861 4.417l2.175-0.602c0 0 15.995 148.838 114.205 162.658 66.924 9.369 132.275-77.799 132.275-77.799s106.81-122.002 144.823-67.593c48.219 69.132-15.459 243.134-15.459 243.134zM217.837 568.228c97.809-2.075 177.883-7.663 243.502-15.292 2.208-0.268 4.25-0.569 6.425-0.736l-1.941 0.268 142.213 161.621c-69.868 11.846-145.559 14.522-182.903-4.049-63.41-31.521-352.019-210.877-412.418-407.331-43.199-140.439 28.275-279.039 143.049-331.172 52.602-23.892 284.627-117.217 429.684 147.701 61.704 112.733 115.745 224.228 151.95 293.494l-0.602-1.004c-97.039 112.566-518.96 156.501-518.96 156.501z" horiz-adv-x="1084" />
<glyph unicode="&#xe634;" d="M1071.599 573.077c-5.661 29.779-35.507 86.522-56.71 96.438-11.757 5.46-293.433-36.21-551.459-82.536-3.986 18.825-27.601 146.381 53.26 190.162 59.524 32.191 151.238-26.965 151.238-26.965s142.898-77.21 159.512-12.863c21.003 81.598-99.419 222.687-99.419 222.687l-5.025-1.943c0 0 103.974-150.468 79.823-199.708-10.116-20.567-76.406-6.532-163.867 43.278-77.478 44.182-128.126 22.041-143.735 12.126-15.543-9.915-115.933-79.723-59.825-231.899-198.101-36.076-375.634-73.961-396.268-93.992-48.202-46.762-41.134-510.56-34.033-527.576 7.068-17.083 9.982-13.466 17.485-23.649 7.537-10.217 923.308 85.819 948.866 102.768 25.558 17.217 105.85 503.894 100.156 533.672zM921.064 558.138c12.662-7.101 8.006-85.216 1.005-112.248l-113.186-15.744c-3.551 0.703-6.465 1.474-8.977 2.445l5.326 110.238c29.243 11.757 103.539 22.208 115.832 15.308zM64.046 94.876l125.278 18.055v-84.446l-121.895-14.605c-6.632 14.739-7.47 56.543-3.383 80.995zM68.669 172.187c-7.537 11.020-8.944 54.265-5.226 80.795l125.881 19.931v-88.633l-114.526-15.945c-2.847 1.105-5.092 2.378-6.13 3.852zM616.41 243.702l-111.109-15.543 4.589 95.399 106.52 16.849v-96.706zM367.528 301.049l104.443 16.447v-93.959l-108.898-15.141 4.455 92.652zM329.576 203.841l-106.889-14.873 4.355 90.006 102.567 16.112-0.033-91.246zM650.275 248.392l4.757 98.112 103.773 16.38v-99.385l-108.53-15.107zM219.204 117.252l110.372 15.945v-87.795l-114.492-13.667 4.12 85.518zM359.623 137.484l112.349 16.179v-91.279l-116.636-13.968 4.288 89.068zM501.884 158.017l114.459 16.514v-94.796l-118.947-14.27 4.489 92.552zM758.772 195.065v-98.38l-116.536-13.935 4.69 96.069 111.846 16.246zM909.776 284.502l-112.55-15.677c-1.876 0.335-3.484 0.703-5.058 1.072l4.824 98.916 116.804 18.49c5.895-23.079 1.775-80.594-4.020-102.802zM758.772 423.279l-100.759-14.035 5.025 104.879c23.079 8.575 69.272 16.179 95.634 16.514v-107.358h0.1zM616.41 403.449l-103.338-14.37 4.991 103.773c21.873 9.011 70.745 17.318 98.38 17.653v-107.056h-0.033zM329.576 363.554l-99.117-13.734 5.36 110.942c22.108 8.408 66.726 16.012 93.758 16.748v-113.956zM783.827 99.766l4.857 99.687 126.618 18.256c4.187-32.124-2.278-95.701-8.877-102.768-0.134-0.134-0.536-0.335-0.703-0.469l-121.895-14.705zM471.938 493.958v-110.607l-101.161-14.035 5.192 106.989c21.338 8.81 68.066 16.882 95.969 17.653zM80.995 433.261c7.336 10.886 73.928 23.515 108.295 24.185v-113.387l-102.534-14.236c-2.646 1.038-4.757 2.211-5.728 3.651-10.016 14.638-9.245 86.054-0.033 99.787z" horiz-adv-x="1072" />
<glyph unicode="&#xe635;" d="M70.865 107.661c0 0-34.582-106.506-70.865-143.687 0 0 10.843-11.453 38.785-27.878 0 0 71.763 74.169 110.292 100.507 0.032-0.096-11.1 86.617-78.212 71.058zM972.19 829.69c-125.562 239.735-331.228 75.292-331.228 75.292 274.061-80.361 236.463-418.197 236.463-418.197 211.729 125.53 94.765 342.905 94.765 342.905zM452.203 343.996c65.027 83.537 388.812 288.209 389.229 288.465-14.051 38.079-30.284 69.357-47.735 95.15-89.728-37.79-425.031-316.856-425.031-316.856 119.242 159.246 388.267 361.191 388.684 361.544-87.13 88.573-184.814 72.565-184.814 72.565-164.026-149.75-374.28-404.371-453.389-502.216-10.009-11.421-20.692-24.734-32.112-40.004 0 0 91.557 75.645 121.424 38.721 29.963-36.956 21.077-110.901 21.077-110.901s59.83 75.645 95.086 36.956c35.192-38.689 12.287-91.557 0-105.576 0 0 51.008 51.040 61.594 31.631 10.522-19.376 1.732-63.39-29.995-103.779 0 0 5.871 6.737 14.019 17.227 242.27 297.223 507.252 379.862 507.252 379.862-5.325 35.096-12.094 66.695-19.922 95.342-120.846-49.628-405.365-238.131-405.365-238.131zM365.971 161.845c-1.829 14.051-41.351 0-41.351 0 6.095 14.051-2.663 51.874-19.376 72.982-16.714 21.077-75.677-4.459-75.677-4.459 0 17.676-23.707 62.46-50.109 80.97-26.338 18.382-92.391-8.79-92.391-8.79 11.421-99.449-16.168-194.919-16.168-194.919 140.094 52.836 78.212-71.218 78.212-71.218 92.423 54.472 207.142 53.189 207.142 53.189 26.434 45.009 9.72 72.245 9.72 72.245z" horiz-adv-x="1004" />
<glyph unicode="&#xe636;" d="M0 415.136c0 0 169.088-194.080 353.888-479.136 0 0 281.824 391.424 670.112 670.144l-206.688 353.856c0 0-283.424-338.816-472.832-682.656 0 0-156.608 197.28-263.072 291.232l-81.408-153.44z" />
<glyph unicode="&#xe637;" d="M1040.849 689.477l-157.981 270.523c0 0-20.719-24.753-53.539-66.614-128.024-12.881-621.289-63.817-829.329-102.426 0 0 40.528-582.095 46.545-854.992 0 0 465.65 30.347 825.946 29.111l-7.644 581.379c54.189 49.050 113.225 97.97 176.001 143.019zM168.715 81.329l-34.933 593.284 601.838 94.75c-68.338-93.872-148.679-212.105-214.317-331.315 0 0-119.73 150.825-201.144 222.677l-62.223-117.291c0 0 129.293-148.386 270.523-366.314 0 0 83.561 116.022 218.383 255.138l-13.986-315.995-564.14-34.933z" horiz-adv-x="1041" />
<glyph unicode="&#xe638;" d="M530.112 454.4c86.144 75.296 184.544 154.272 294.688 232.48l-196.608 273.12c0 0-159.744-127.072-326.208-340.064-139.264 109.6-214.816 186.432-214.816 186.432l-87.168-84.352c50.88-101.376 112.384-194.176 177.984-277.792-69.44-109.984-132.992-234.112-177.984-369.152l98.304-71.040c0 0 80.736 109.984 234.464 265.216 211.872-214.368 415.52-333.248 415.52-333.248l155.584 298.432c-141.056 72.288-266.24 148.064-373.76 219.968z" horiz-adv-x="904" />
<glyph unicode="&#xe639;" d="M841.824 207.712l-20 431.072 116.928 109.152-177.568 212.064-77.984-101.376c-189.568-20.48-538.496-59.744-683.2-86.624 0 0 39.616-569.216 45.504-836 0 0 455.328 29.632 807.616 28.448l-4.8 103.84 90.432 64.224-96.928 75.2zM717.44 304.288l-138.656 107.68 139.648 130.336-0.992-238.016zM159.104 177.76l-24.832 421.632 193.888-202.016-169.056-219.616zM439.168 281.696l168.992-176.128-383.104-23.68 214.112 199.808zM428.928 528.32l-189.376 147.008 344.288 54.208-154.912-201.216z" horiz-adv-x="939" />
<glyph unicode="&#xe63a;" d="M1014.848 638.752l-361.728-52.352 19.648 373.6-357.056-87.552 21.472-331.776-337.184-48.8 22.048-241.536 333.376 8.864 20.928-323.2h242.496l17.44 330.624 323.808 8.576z" horiz-adv-x="1015" />
<glyph unicode="&#xe63b;" d="M656.32 373.248l-204.864-45.888 149.824 336.352-240.576-82.624-47.456-393.824 95.424 26.976-70.336-278.24zM810.656 666.496c17.056 82.56 14.304 183.616-68.672 251.008-123.168 99.84-258.432 7.392-308.416-108.448-48.608 57.952-122.816 98.208-226.688 32-122.944-78.4-126.368-169.216-81.312-233.184-67.744-5.952-138.464-37.76-123.52-149.024 19.808-147.392 156.512-177.344 296.256-168.896l-9.664 309.056 402.88 133.504-172.736-360.768 220.608 75.296-64-107.904c153.728 30.624 271.232 83.744 268.544 190.048-3.68 137.664-73.728 151.168-133.28 137.312z" horiz-adv-x="944" />
<glyph unicode="&#xe63c;" d="M548.448-64l-63.808 171.872c0 0-111.136-85.952-127.712-85.952s-161.44 68.672-174.336 85.952 0 137.536 0 137.536-106.208-10.432-122.784 0c-16.576 10.4-65.056 152.832-54.016 174.304 11.040 21.504 69.984 68.16 122.752 51.584 52.8-16.608 137.504-78.624 137.504-78.624l95.776-54.016c0 0-347.456 391.072-356.032 412.544-8.608 21.504-6.752 70.016 0 88.416 6.752 18.432 53.408 101.28 93.312 115.424 39.872 14.112 87.776-4.928 109.248-19.040s276.192-531.008 276.192-531.008-54.208 173.216-43.328 190.976 126.208 33.728 163.712 6.688c37.472-27.008 58.976-182.944 58.976-182.944s-9.216 145.504 14.080 158.4c23.328 12.864 114.752-61.376 130.752-130.112 15.936-68.736-61.376-286.912-83.456-300.8-22.016-13.952-149.856-14.752-149.856-14.752l83.488-161.984-110.464-34.464z" horiz-adv-x="811" />
<glyph unicode="&#xe63d;" d="M840.928 368.288c0 0 35.232 559.072 10.496 584.096-35.104 35.648-836.448-63.904-850.528-92.032-14.048-28.128 140.576-569.344 140.576-569.344l-73.792-288.256c0 0 35.136-66.752 63.264-66.752 28.096 0 783.776 59.744 804.896 77.312 21.024 17.568 12.704 58.816 17.568 80.8 4.768 22.048-112.48 274.176-112.48 274.176zM83.040 807.616c17.568 21.088 694.464 94.88 708.512 77.312 14.016-17.568-6.88-421.12-13.952-440.736-7.008-19.616-569.344-79.424-593.952-65.344-24.576 14.016-118.176 407.68-100.608 428.768zM796.32 376.672c0 0-282.24-106.816-595.072-54.048l595.072 54.048zM637.216 84.672c-9.664-8.256-236.128-22.944-240.992-16.192-2.176 3.072 0.96 20 6.272 37.888 0.704 2.368 1.504 4.864 2.272 7.328 0.128 0.384 0.224 0.672 0.352 1.056 0.704 2.112 1.472 4.384 2.24 6.496 0.192 0.576 0.384 0.992 0.576 1.568 0.704 1.984 1.408 3.808 2.144 5.696 0.256 0.672 0.512 1.312 0.768 1.984 0.672 1.632 1.344 3.2 2.016 4.672 0.32 0.672 0.64 1.44 0.928 1.984 0.672 1.376 1.312 2.624 1.92 3.84 0.352 0.672 0.704 1.344 1.056 1.984 0.64 1.12 1.248 2.048 1.856 3.072 0.352 0.544 0.672 1.12 1.056 1.568 0.64 0.928 1.28 1.664 1.888 2.24 0.288 0.384 0.608 0.736 0.896 0.992 0.896 0.8 1.792 1.44 2.656 1.76 12.832 4.064 165.44 24.384 175.744 17.504 0.672-0.512 1.376-1.12 2.24-1.984 0.512-0.64 1.056-1.376 1.696-2.112 0.352-0.448 0.672-0.672 0.992-1.184s0.672-1.024 1.056-1.632c5.76-8.064 13.312-21.632 19.616-35.328 9.088-19.584 15.52-39.136 10.752-43.2zM859.328 132.8c-7.2-4.736-89.76-16.864-196.192-30.016-2.56 8.704-5.952 18.24-9.632 27.808 84.256 9.312 148.192 17.76 153.984 21.056 17.92 10.208-44.672 112.832-61.088 119.2-13.312 5.056-492.864-28.704-498.72-45.76-5.888-16.992-59.2-112.16-44.192-127.328 5.152-5.184 75.68-1.728 166.752 5.568-2.976-11.488-5.504-22.944-7.264-32.672-115.968-10.496-208.096-15.744-214.432-8.128-17.568 21.056 45.696 152.32 52.704 175.68 7.008 23.392 571.264 66.944 586.912 59.744 19.328-8.704 92.288-151.104 71.168-165.152z" horiz-adv-x="954" />
<glyph unicode="&#xe63e;" d="M1178.886 633.169c-44.105 7.351-85.733-23.89-85.733-23.89-0.32-0.439-0.639-0.879-0.999-1.358 1.278 44.185 0.999 86.572 0.479 124.365-1.878 115.695-286.522 227.715-525.223 227.715s-567.411-119.331-567.411-238.702c0 0-11.026-721.618 402.137-773.074 0 0 119.371-27.526 295.63 0 140.025 21.893 252.085 165.713 314.407 290.157 0-0.080 0-0.24 0-0.24 281.368 49.338 265.868 244.414 265.868 244.414 5.513 99.196-55.131 143.261-99.156 150.612zM558.262 477.084c-422.352-7.311-497.618 165.273-497.618 165.273 137.428 174.422 512.28 165.273 512.28 165.273 356.235 0 468.295-165.273 468.295-165.273-146.936-192.799-482.956-165.273-482.956-165.273zM1171.536 412.844c0 0-22.052-56.33-121.169-84.135 20.574 61.563 31.321 128.36 36.994 193.878 0.040 0.12 0.12 0.28 0.2 0.4 0 0 36.235 23.93 60.165 16.579 23.81-7.391 69.753-45.943 23.81-126.722z" horiz-adv-x="1278" />
<glyph unicode="&#xe63f;" d="M0 347.2l225.408 35.168-197.216-446.368 556.48 634.432-292.352 12.064 228.96 377.504h-401.536z" horiz-adv-x="585" />
<glyph unicode="&#xe640;" d="M511.306 731.853c-121.293-42.226-190.612-159.818-154.796-262.509 35.816-102.757 163.155-151.756 284.415-109.464 121.326 42.226 190.645 159.785 154.829 262.509-35.816 102.757-163.155 151.723-284.448 109.464zM593.049 603.193c-31.686-11.036-64.892 1.784-74.243 28.547-9.351 26.829 8.723 57.458 40.343 68.527 31.686 10.97 64.892-1.784 74.21-28.58 9.45-26.763-8.69-57.458-40.31-68.494zM912.553 861.869c-104.871 80.058-270.868 98.296-385.949 98.131-108.539-0.165-194.709-53.79-232.343-95.356-37.633-41.598-49.264-105.334-86.897-135.038-37.633-29.671-86.468-38.493-141.91-115.709-55.442-77.249-89.111-194.049-45.53-255.405 43.548-61.357 97.173-75.729 126.877-127.273 29.704-51.511 9.747-144.025 61.225-217.276 51.511-73.318 190.084-99.023 243.577-59.44 53.46 39.616 88.351 68.13 171.515 84.023 83.197 15.827 147.263-68.13 248.268-24.582 101.072 43.482 148.551 118.782 166.36 209.875 17.809 91.126-7.864 148.948-9.879 224.182-1.949 75.234 147.031 213.377-115.312 413.869zM647.732 314.251c-148.617-51.775-304.636 8.26-348.448 134.113-43.878 125.918 41.004 269.877 189.621 321.652s304.603-8.26 348.448-134.146c43.812-125.819-41.004-269.91-189.621-321.619z" horiz-adv-x="1068" />
<glyph unicode="&#xe641;" d="M902.080 778.592c-102.080 189.248-378.272 238.336-616.864 109.664s-349.28-386.432-247.232-575.68c39.616-73.504 105.568-125.728 185.28-154.752 0 0-17.472-147.616 0-167.328 17.472-19.744 96.64-13.184 118.016 0 15.84 9.76 21.792 96.384 23.808 140.96 15.392-0.48 31.008-0.192 46.72 0.736-3.808-52.48-10.688-168.864 2.016-187.936 16.48-24.672 140.128 11.552 153.344 37.952 9.76 19.552 2.304 126.784-2.112 181.056 8.8 3.136 17.728 6.432 26.496 9.984 4.544-53.536 13.856-145.76 25.056-156.192 15.936-14.816 122.944 29.408 133.504 60.736 7.040 20.544-17.888 105.504-35.808 161.632 196.8 136.704 280.928 366.432 187.776 539.168zM267.040 439.872c14.272 80.672 70.176 138.24 124.896 128.576 31.040-5.504 54.976-31.52 67.296-67.712 0.544 4 0.992 8 1.728 12.032 17.568 99.072 86.208 169.696 153.344 157.824 67.232-11.872 107.328-101.856 89.888-200.864-17.568-99.072-86.176-169.728-153.344-157.856-40.832 7.264-71.712 43.552-85.664 93.152 0-0.096 0-0.16-0.032-0.224-14.272-80.672-70.208-138.208-124.896-128.608-54.752 9.76-87.52 83.008-73.216 163.68z" horiz-adv-x="940" />
<glyph unicode="&#xe642;" d="M1069.932 592.949c-74.64 271.144-370.788 425.996-661.535 345.954-290.713-80.042-465.847-364.707-391.207-635.817 74.64-271.076 370.822-425.996 661.569-345.988 290.713 80.076 465.847 364.775 391.173 635.851zM681.172 527.176c40.836-70.156 11.789-163.277-64.924-207.885-76.713-44.573-171.975-23.883-212.879 46.272-40.802 70.156-11.755 163.345 64.958 207.919 76.679 44.641 172.009 23.883 212.845-46.306zM340.11 763.123c26.194 16.409 52.387 20.928 52.387 20.928l44.879-146.63c0 0-8.222-1.495-20.928-9.716-12.74-8.188-14.982-16.409-14.982-16.409l-94.277 106.949c0 0 6.761 28.436 32.92 44.879zM81.197 547.254c0 0-6.727 105.454 97.267 192.325l206.458-157.842c0 0-46.306-32.988-56.804-98.795l-246.921 64.312zM714.228 120.715l-386.077-40.429v30.78l386.077 50.043v-40.395zM833.985 201.538l-586.657-52.387v35.91l586.691 68.831-0.034-52.353z" horiz-adv-x="1087" />
<glyph unicode="&#xe643;" d="M323.2 222.656c-252.992 66.208-218.688-63.328-199.648-92.768 23.904-37.056 115.328-73.12 174.208-53.92 71.808 23.392 91.52 129.376 25.44 146.688zM194.432 44.128c-179.872 47.136-155.456-44.992-141.952-65.984 16.896-26.272 81.984-52 123.808-38.208 51.104 16.576 65.12 91.904 18.144 104.192zM865.792 578.432c-6.336 79.36-101.792 71.744-101.792 71.744s116.032 77.824 68.448 167.872c-47.712 90.016-178.016-10.688-178.016-10.688s-6.368 155.648-127.168 152.608c-120.8-3.008-117.664-152.608-117.664-152.608s-73.056 128.192-182.72 64.096c-109.664-64.096-36.544-164.832-36.544-164.832s-139.872 61.088-182.784-79.328c-42.912-140.384 111.296-151.104 111.296-151.104s-66.752-111.36 52.48-170.912c119.2-59.456 185.952 79.328 185.952 79.328s-27.008-109.952 106.496-123.584c133.504-13.792 122.368 111.392 122.368 111.392s82.624-146.56 198.656-51.936c116.032 94.688-23.84 163.328-23.84 167.904-0.064 4.576 111.168 10.72 104.832 90.048zM302.784 538.176c-29.152-31.296-73.536-38.848-99.072-16.928-25.536 21.984-22.592 65.12 6.592 96.448 29.12 31.296 73.504 38.88 99.040 16.896 25.536-21.92 22.624-65.088-6.56-96.416zM503.008 530.048c-33.6-35.968-84.608-44.672-113.984-19.392s-25.984 74.912 7.52 110.912c33.6 36 84.64 44.704 113.984 19.456 29.44-25.28 26.048-74.912-7.52-110.976zM687.328 538.176c-29.12-31.296-73.504-38.848-99.104-16.928-25.536 21.984-22.528 65.12 6.56 96.448 29.152 31.296 73.6 38.88 99.136 16.896 25.536-21.92 22.592-65.088-6.592-96.416z" horiz-adv-x="866" />
<glyph unicode="&#xe644;" d="M479.776 581.888c-108.8 29.408-226.432-55.488-262.656-189.696-36.224-134.048 22.656-266.688 131.488-296.064 108.8-29.44 226.432 55.488 262.624 189.696 36.224 134.080-22.56 266.656-131.456 296.064zM417.504 353.44c-23.104-46.816-16.992-98.816 11.776-128.192-27.648-8.992-56.608-8.384-82.24 4.32-60.64 29.952-79.904 114.688-43.104 189.376 36.8 74.752 115.808 111.072 176.416 81.216 31.104-15.328 51.232-45.12 58.592-80.608-43.84 12.96-95.968-14.4-121.44-66.112zM800.192 959.52c-10.88 6.144-750.208-48.896-775.616-79.712-25.376-30.816-32.64-908.384-14.496-931.488 18.144-23.072 699.072-8.128 724.864 0 25.856 8.192 148.608 125.056 155.84 141.376 7.328 16.32 41.248 450.336 39.872 482.016-1.344 31.712-119.552 381.728-130.464 387.808zM669.728 31.712c-23.136-12.672-564.512-17.184-579.904 0-15.392 17.152-17.216 753.408 0 772s634.24 92.864 645.12 76.128c10.912-16.8-42.176-835.456-65.216-848.128zM167.942 699.162c18.589 46.472 66.808 70.884 107.7 54.527s58.973-67.29 40.385-113.761c-18.589-46.472-66.808-70.884-107.7-54.527s-58.973 67.29-40.385 113.761z" horiz-adv-x="931" />
<glyph unicode="&#xe645;" d="M154.945 324.971c-31.514 8.696-48.41 47.102-37.736 85.783s44.873 62.988 76.388 54.292c31.514-8.696 48.41-47.102 37.736-85.783s-44.873-62.988-76.388-54.292zM1181.106 944.617c-47.166 61.87-1093.41-79.59-1143.517-126.756s-50.107-825.232 0-866.441c50.107-41.284 1061.024 8.785 1114.071 53.010 53.010 44.263 76.611 878.28 29.446 940.187zM108.282 729.789c5.882 15.722 142.289 40.266 149.754 29.446 7.427-10.783 14.176-52.067 0-64.811-14.176-12.781-137.953-25.487-149.754-13.724-11.801 11.725-5.882 33.367 0 49.089zM108.244 623.581c5.882 15.722 142.327 40.266 149.754 29.483 7.427-10.821 14.214-52.105 0-64.848-14.176-12.781-137.953-25.487-149.754-13.724s-5.882 33.367 0 49.089zM257.998 45.601c-14.176-12.743-137.953-25.449-149.754-13.686s-5.882 33.404 0 49.164c5.882 15.684 142.327 40.229 149.754 29.408 7.427-10.783 14.214-52.105 0-64.886zM258.036 151.734c-14.176-12.743-137.953-25.336-149.754-13.648-11.801 11.763-5.882 33.367 0 49.126 5.882 15.684 142.289 40.229 149.754 29.446 7.427-10.821 14.176-52.105 0-64.924zM286.501 363.961c-21.038-76.159-88.262-123.89-150.244-106.849-61.983 17.155-95.161 92.71-74.199 168.832 21 76.121 88.262 123.966 150.207 106.811 61.983-17.079 95.199-92.635 74.236-168.794zM1072.108 195.996c-44.187-29.408-669.031-76.611-704.396-50.107-35.365 26.543-35.365 557.017 0 601.242s701.417 141.46 730.901 100.176c29.446-41.209 17.645-621.752-26.505-651.311zM409.336 716.442c-30.728-38.419-30.728-499.37 0-522.406 30.69-22.999 573.644 18.022 612.025 43.509 38.457 25.638 48.636 530.135 23.036 565.952-25.638 35.855-604.333-48.636-635.061-87.055z" horiz-adv-x="1206" />
<glyph unicode="&#xe646;" d="M421.053 331.684c-18.702-6.035-59.544-46.912-63.895-59.965-4.351-12.982 20-59.965 31.298-62.491 11.298-2.632 93.895 33.895 96.491 46.912s-45.228 81.649-63.895 75.544zM591.789 464.632c-17.404-0.772-146.877-99.018-146-114.737 0.877-15.579 48.702-77.298 62.561-79.579 13.895-2.175 116.456 129.93 119.93 147.298 3.509 17.509-19.123 47.895-36.491 47.018zM1114.14 939.719c-18.14 25.158-58.877 27.018-93.018 5.053-13.088 6.596-28.246 11.93-46.070 15.228 0 0-649.193-526.632-792.561-628.316 0 0-5.474-11.579-14.596-30.491 162.737-113.965 144.211-199.965 144.211-199.965-45.018 110.982-159.018 169.228-159.053 169.228-40.842-84.14-114.175-231.088-153.053-285.509 0 0-0.070-29.93 36.491-48.947 0 0 248.912 167.509 320.667 181.895 0 0 39.614 38.667 100.667 97.719-33.333-17.088-71.649-33.263-87.614-34.316-27.825-1.789-59.965 65.368-57.368 89.193 2.596 23.789 254.632 231.544 292 228.807 37.263-2.596 49.474-37.298 50.421-62.561 0.386-10.912-22.667-44.035-50.456-79.684 187.86 180.316 424.877 404.456 492.807 454.175 0 0 0.667 17.719-5.228 40.947 29.333 25.614 39.263 63.228 21.754 87.544zM93.439-26.561c0 0-4.211 53.86-55.789 72.667 0 0 86.632 39.193 55.789-72.667z" horiz-adv-x="1123" />
<glyph unicode="&#xe647;" d="M712.256 948.576c-18.496-9.088-40.8-28.064-65.056-53.504 32.064-114.304 179.136-193.504 244.128-223.488 19.232 19.616 34.944 37.44 45.792 52.256 83.328 114.656-108.992 281.504-224.864 224.736zM371.008 380.576l-203.552-237.12-25.152 19.68-142.304-137.984c0 0 21.824-89.152 105.216-89.152l111.232 169.12-24.672 19.328 206.816 232.128c22.336-17.952 44.448-32.128 54.176-33.632 18.304-2.752 257.12 176.928 398.112 309.216-194.816 109.28-203.68 262.688-203.68 262.912-127.328-133.408-310.272-446.432-310.272-467.84-0.032-10.208 14.816-28.352 34.080-46.656z" horiz-adv-x="957" />
<glyph unicode="&#xe648;" d="M482.624 297.152l130.464-177.6 172.608-15.936 3.232 68.512h-137.76zM664.32 601.76c-73.632 137.248-254.016 183.68-403.104 103.776-149.024-79.936-210.112-255.968-136.576-393.184s254.016-183.648 403.072-103.776c0.8 0.512 1.568 0.896 2.368 1.376l-71.904 108.96 121.376-76c110.432 89.152 149.12 238.848 84.768 358.848zM414.528 369.472c-56.352-11.776-110.976 21.536-121.984 74.432-11.104 52.896 25.6 105.312 81.952 117.088 56.32 11.808 110.944-21.536 121.984-74.4 11.040-52.896-25.632-105.344-81.952-117.12zM548.736 181.632c-0.64-0.32-1.088-0.672-1.696-0.928-170.656-91.488-377.344-38.272-461.696 118.816-84.192 157.152-14.144 358.784 156.512 450.304 170.688 91.52 377.376 38.336 461.664-118.848 72.864-135.904 30.272-305.024-92.928-407.456l48.736-30.464 129.152 5.312c3.296 280.8-10.432 714.816-37.728 745.76-39.808 45.248-697.6-16.384-728.384-54.4s-28.992-931.328 0-945.888c28.992-14.464 721.152-9.024 750.144 18.112 5.888 5.504 10.016 47.008 12.704 110.016l-183.136 28.64-53.344 81.024z" horiz-adv-x="789" />
<glyph unicode="&#xe649;" d="M663.584 696.896l-422.592-47.84c0 0-19.936-295.616 29.248-324.8 15.104-8.928 85.44-12.064 160.96-9.248 3.168-48.672 0.256-152.992-77.632-188.448-69.984-31.744-169.152 42.368-169.152 42.368s-155.776 98.688-179.712 27.136c-30.304-90.752 95.072-260.064 95.072-260.064l5.984 1.76c0 0-105.984 178.752-74.816 232.608 13.056 22.624 87.136 1.44 182.24-61.984 84.32-56.192 143.456-35.072 161.984-25.056 17.536 9.568 126.016 74.752 92.032 233.44 79.52 4.864 156.288 16.224 172.544 33.984 55.744 61.152 23.84 346.144 23.84 346.144zM614.4 960l-338.88-39.84v-237.888l354.304 37.536-15.424 240.192zM432.832 805.888l-117.44-10.624v91.328l117.44 16.288v-96.992zM581.696 823.84l-117.504-10.656v91.36l117.504 16.288v-96.992z" horiz-adv-x="673" />
<glyph unicode="&#xe64a;" d="M677.472 852.928c-15.52 10.496-168.256-10.56-178.4-17.568-4-2.752-17.824-55.136-32-118.208l-319.936-240.896c-2.88 9.056-6.016 14.944-9.376 15.68-17.504 3.808-130.080-76.992-134.848-89.056-4.768-12.096-2.88-35.616 0-45.824 2.848-10.176 81.088-77.952 91.584-78.88 3.424-0.32 11.712 5.568 21.312 13.696l112.736-223.36c-45.6-13.952-80.928-25.856-83.2-28.384-6.368-7.2-28.928-83.424-19.712-95.2 9.216-11.744 407.712-12.128 415.008 0s-75.936 165.312-97.44 174.848c-8.32 3.648-53.408-6.272-106.112-20.224l-181.888 230.336c4.224 4.576 7.2 8 7.968 9.376 1.984 3.456-0.256 43.584-5.312 81.952l281.216 156.448c-7.936-47.104-11.68-82.624-6.176-85.664 5.984-3.328 52.064-1.76 110.24 2.368 13.024-30.944 53.248-47.648 94.88-37.824 31.744 7.488 55.808 28.448 64.576 52.768 60.032 7.136 106.944 14.912 109.44 20.768 6.944 16.544-119.008 312.288-134.56 322.848zM582.688 878.976c48.928 11.776 87.424 8.896 87.424 8.896s-17.184 57.568-26.048 69.664-139.328-23.52-144.992-35.616c-5.728-12.096 0-68.96 0-68.96s46.144 17.024 83.616 26.016z" horiz-adv-x="812" />
<glyph unicode="&#xe64b;" d="M439.539 621.37c-10.137 23.189-27.962 42.408-52.038 53.179-0.929 0.422-1.901 0.718-2.872 1.098-3.421 17.276-7.434 33.453-13.601 38.522-13.981 11.489-68.85 2.83-80.719-6.125-5.829-4.393-5.322-23.738-4.477-43.506-18.374-12.165-33.876-29.905-43.76-52.081-0.507-1.14-0.929-2.323-1.394-3.506-18.416-2.027-36.537-4.435-40.169-10.686-7.265-12.503 1.901-78.733 10.475-85.492 3.759-2.957 18.163-4.097 33.833-4.857 10.56-19.557 26.864-35.692 48.11-45.153 3.844-1.732 7.814-3.083 11.785-4.308 3.506-14.488 7.687-27.751 13.348-31.679 13.516-9.462 59.599-4.815 69.399 4.604 4.857 4.689 5.998 22.936 6.674 41.056 17.909 11.742 33.073 28.849 43.084 50.095 14.995 2.999 29.652 6.8 34.467 12.714 10.391 12.841 7.138 78.184-6.209 84.013-5.322 2.323-15.248 2.365-25.935 2.112zM654.406 520.132c-41.117 27.525-49.41 87.24-18.524 133.378s89.256 61.226 130.373 33.701c41.117-27.525 49.41-87.24 18.524-133.378s-89.256-61.226-130.373-33.701zM1159.925 938.881c-48.49 36.199-193.328 18.712-224.458 0-31.13-18.67-31.13-59.219-46.716-90.434s-311.808-68.596-343.023-62.387c-31.172 6.251-59.261 62.387-77.973 84.182-18.712 21.88-208.661 15.037-252.547-21.838-266.063-223.444-219.305-821.042-197.467-864.717s166.506-74.003 259.854-14.53c91.49 58.248 204.563 349.95 235.778 374.956 31.215 24.921 348.472 76.115 398.272 44.858 49.926-31.13 111.215-284.733 170.477-303.572 59.177-18.627 122.535-28.554 197.467 39.578 137.108 124.816 68.512 673.628-119.663 813.903zM482.412 504.030c-38.48-86.252-134.489-127.224-214.321-91.532-79.916 35.607-113.454 134.531-74.89 220.741 38.522 86.252 134.489 127.266 214.363 91.574s113.369-134.531 74.848-220.783zM807.905 532.879c-41.014-61.247-118.523-81.31-173.138-44.731-54.573 36.537-65.639 115.819-24.625 177.066 41.014 61.204 118.48 81.268 173.095 44.731 54.615-36.579 65.682-115.819 24.668-177.066zM1025.859 771.276c6.125 35.101 34.383 59.473 63.274 54.446 28.849-4.984 47.181-37.55 41.099-72.651-6.125-35.058-34.383-59.473-63.274-54.446-28.849 5.069-47.181 37.55-41.099 72.651zM1030.42 615.921c-6.125-35.058-34.34-59.473-63.274-54.446-28.807 5.026-47.181 37.55-41.099 72.651s34.383 59.473 63.274 54.446c28.849-5.026 47.223-37.55 41.099-72.651zM1142.692 503.608c-6.125-35.058-34.383-59.43-63.274-54.404-28.807 4.984-47.181 37.55-41.099 72.651 6.125 35.058 34.383 59.473 63.232 54.446s47.223-37.55 41.141-72.693zM1230 640.842c-6.167-35.101-34.425-59.473-63.274-54.446-28.849 4.984-47.223 37.55-41.141 72.651 6.167 35.101 34.383 59.473 63.274 54.446s47.223-37.55 41.141-72.651z" horiz-adv-x="1352" />
<glyph unicode="&#xe64c;" d="M465.408 619.328c-5.238 2.323-15.122 2.365-25.851 2.112-10.138 23.19-27.963 42.41-52.041 53.181-0.972 0.38-1.943 0.676-2.872 1.098-3.421 17.234-7.434 33.412-13.602 38.481-13.982 11.489-68.852 2.83-80.722-6.125-5.787-4.393-5.322-23.739-4.478-43.508-18.375-12.165-33.877-29.906-43.761-52.083-0.507-1.14-0.929-2.323-1.394-3.506-18.417-2.028-36.538-4.435-40.171-10.687-7.265-12.503 1.859-78.737 10.476-85.495 3.759-2.957 18.164-4.097 33.835-4.858 10.56-19.557 26.865-35.693 48.112-45.155 3.844-1.732 7.815-3.084 11.785-4.309 3.506-14.489 7.688-27.752 13.348-31.681 13.517-9.42 59.602-4.773 69.402 4.689 4.858 4.689 5.998 22.937 6.632 41.058 17.91 11.743 33.074 28.85 43.086 50.098 14.995 2.999 29.653 6.801 34.468 12.714 10.349 12.757 7.096 78.103-6.252 83.975zM654.434 520.154c-41.118 27.526-49.412 87.244-18.525 133.383s89.26 61.229 130.378 33.703c41.118-27.526 49.412-87.244 18.525-133.383s-89.26-61.229-130.378-33.703zM909.987 272.9c-41.488 1.798-73.522 40.138-71.551 85.635s37.203 80.922 78.691 79.124c41.488-1.798 73.522-40.138 71.551-85.635s-37.203-80.922-78.691-79.124zM588.892 261.389c-32.432-31.968-82.355-33.908-111.506-4.333s-26.491 79.464 5.941 111.432c32.432 31.968 82.355 33.908 111.506 4.333s26.491-79.464-5.941-111.432zM1159.973 938.922c-48.492 36.2-193.336 18.713-224.467 0-31.131-18.67-31.131-59.222-46.718-90.437s-311.821-68.599-343.037-62.39c-31.174 6.252-59.264 62.39-77.976 84.186-18.755 21.923-208.754 15.080-252.642-21.796-266.074-223.496-219.314-821.118-197.475-864.837 21.838-43.592 166.513-74.006 259.865-14.531 55.335 35.229 118.57 155.868 166.809 251.248 45.324-45.451 122.498-42.325 172.68 7.181 42.874 42.241 52.125 104.546 26.105 150.462 51.745 8.913 110.502 16.432 160.346 19.388-0.507-1.014-1.014-2.070-1.478-3.041-28.048-64.924-2.703-138.296 56.518-163.852 42.536-18.459 90.902-6.927 125.244 25.007 31.85-76.878 65.346-159.586 98.252-169.977 59.222-18.67 122.583-28.597 197.475 39.495 137.282 124.821 68.683 673.613-119.499 813.895zM1025.901 771.311c6.125 35.102 34.384 59.475 63.277 54.448 28.85-4.984 47.183-37.552 41.1-72.654-6.125-35.060-34.384-59.475-63.277-54.448-28.85 5.069-47.183 37.552-41.1 72.654zM268.102 412.518c-79.919 35.693-113.459 134.537-74.893 220.75 38.524 86.256 134.495 127.271 214.372 91.578s113.416-134.537 74.851-220.792c-38.481-86.213-134.452-127.271-214.33-91.536zM601.297 246.807c-41.016-40.424-104.166-42.874-141-5.491-36.876 37.425-33.455 100.491 7.561 140.915s104.166 42.874 141 5.491c36.876-37.425 33.497-100.491-7.561-140.915zM634.794 488.171c-54.575 36.538-65.642 115.824-24.626 177.073 40.974 61.207 118.485 81.271 173.103 44.733 54.617-36.58 65.684-115.824 24.626-177.073s-118.485-81.313-173.103-44.733zM904.247 247.779c-52.463 2.323-92.972 50.773-90.48 108.305 2.534 57.49 47.014 102.349 99.477 100.026 52.463-2.281 92.972-50.731 90.522-108.263-2.492-57.532-47.098-102.349-99.519-100.068zM1030.463 615.907c-6.125-35.060-34.342-59.475-63.277-54.448-28.808 5.027-47.183 37.552-41.1 72.654s34.384 59.475 63.277 54.448c28.808-5.027 47.225-37.51 41.1-72.654zM1142.739 503.631c-6.125-35.060-34.384-59.433-63.277-54.406-28.808 4.984-47.183 37.552-41.1 72.654 6.167 35.060 34.384 59.475 63.277 54.448 28.808-5.027 47.183-37.552 41.1-72.696zM1230.050 640.871c-6.167-35.102-34.426-59.475-63.277-54.448-28.85 4.984-47.225 37.552-41.142 72.654 6.167 35.102 34.384 59.475 63.277 54.448s47.225-37.552 41.142-72.654z" horiz-adv-x="1352" />
<glyph unicode="&#xe64d;" d="M983.552 770.848l-465.728 144.256c2.4 13.312-0.32 26.112-8.896 34.816-16.48 16.608-47.744 12.288-69.824-9.664-10.24-10.144-16.608-22.304-18.944-34.080l-420.16-232.512 22.88-737.664 980.672 20.032-20 814.816zM421.92 881.856c1.632-4.192 3.808-8.096 7.040-11.328 16.48-16.64 47.744-12.32 69.824 9.632 4.672 4.64 8.384 9.696 11.392 14.944l366.752-134.784-785.056-77.6 330.048 199.136zM441.376-1.6c0.192 1.792 0.48 3.584 0.672 5.792l-0.256 51.36c-3.584 34.368-15.488 73.728-47.936 97.984 38.88 23.872 70.784 64.224 87.296 114.432 95.104 4.192 33.504-136.224 33.504-136.224 97.984 216.256 186.656 0 186.656 0-64.832 208.416 127.488 121.824 127.488 121.824-167.648 98.272 53.28 115.936 53.28 115.936-249.12 10.56-57.984 166.496-57.984 166.496-211.456-109.696-207.584 100.288-207.584 100.288-11.936-194.752-92.896-149.792-136.896-109.824 65.6-75.296 41.984-104.48 1.088-114.752-18.4 50.72-56.32 89.888-106.72 102.752-88.672 22.656-182.272-44.224-209.152-149.408-22.016-86.112 7.648-171.2 67.776-211.584-37.216-23.392-62.208-61.184-78.624-97.408l-20.352-56.576c-0.96-3.712-1.76-6.88-2.56-10.208l-62.304-1.856-25.888 634.752 889.184 85.792 14.304-694.752-504.992-14.816zM527.040 409.568c26.912 60.096 88.704 90.88 138.048 68.736 49.344-22.080 67.52-88.736 40.672-148.832-27.008-60.096-88.768-90.88-138.144-68.704-49.312 22.080-67.52 88.704-40.576 148.8zM656.257 460.932c41.853-18.748 57.281-75.25 34.458-126.2s-75.254-77.054-117.107-58.306c-41.853 18.748-57.281 75.25-34.458 126.2s75.254 77.054 117.107 58.306z" horiz-adv-x="1004" />
<glyph unicode="&#xe64e;" d="M0 679.591v-743.591h186.952l-42.494 743.591zM1002.696 887.809v-246.725l212.509 33.19v247.484zM1002.696 575.464h212.509v-622.489h-212.509v622.489zM600.197 225.105l164.508-25.405 212.547 628.565-157.141 59.545zM522.614-8.746l152.964-55.254 60.988 180.344-156.42 48.342zM169.293 781.441h310.865v178.559l-318.687-25.481zM179.547 580.666h300.611v149.774h-308.282zM212.471-64h267.687v612.805h-298.978z" horiz-adv-x="1215" />
<glyph unicode="&#xe64f;" d="M653.44 669.856c-4.672 3.488-39.328 4.48-90.048 3.392 1.696 108.064-18.4 317.088-203.904 283.040-200.608-36.864-229.344-238.816-232.96-315.296-53.344-7.552-89.888-15.904-94.016-24.384-17.824-35.488-45.696-651.36-25.408-669.184 20.256-17.76 737.6-12.672 745.12 0 7.648 12.672-78.528 707.2-98.784 722.432zM357.568 898.432c130.24 27.968 155.328-124.832 157.888-226.592-99.776-3.68-234.016-12.64-335.712-24.16 8.96 82.496 44.032 222.080 177.824 250.752zM569.536 230.016c-45.824-115.040-169.376-173.856-276.064-131.328s-156.032 170.112-110.176 285.12c45.792 115.008 169.376 173.824 276.064 131.328 106.592-42.464 155.968-170.080 110.176-285.12zM313.081 127.473c-90.228 35.922-131.973 143.912-93.24 241.201s143.278 147.037 233.506 111.114c90.228-35.922 131.973-143.912 93.24-241.201s-143.278-147.037-233.506-111.114z" horiz-adv-x="753" />
<glyph unicode="&#xe650;" d="M1012.928 648.384c-8.96 9.792-375.552 37.408-415.936-19.36-19.008-26.72-34.432-65.92-68.832-70.336-34.4-4.48-51.616 67.328-95.744 77.824-44.128 10.432-417.472-86.88-427.936-110.816s-0.736-80.704 11.072-88.288c11.808-7.456 56.256 17.984 66.816 9.984 10.56-7.936 97.92-194.784 116.64-210.432 18.688-15.712 230.4 10.496 248.352 35.904 17.952 25.44 46.4 182.528 55.36 199.040 8.992 16.448 46.368 29.92 59.84 5.984s35.904-177.696 60.64-193.376c24.672-15.616 240.864-19.808 271.552 7.872 30.688 27.648 69.44 246.336 78.4 258.304s43.52 12.48 48.768 24.448c5.28 11.904 0.032 63.52-8.992 73.248zM420.064 318.048c-13.472-24.672-157.12-52.704-186.304-41.568-29.184 11.296-116.704 187.36-99.872 224.512 16.832 36.96 279.424 94.208 304.128 72.864 24.672-21.248-4.512-231.040-17.952-255.808zM866.048 322.464c-7.872-7.872-190.144-14.464-209.248 1.216-19.072 15.68-48.256 238.112-28.064 254.88 20.192 16.672 274.976 23.712 291.808 0 16.832-23.68-46.592-248.224-54.496-256.096z" />
<glyph unicode="&#xe651;" d="M451.281 295.126l704.45 560.060c0 0-467.524 107.254-495.014 104.775-27.605-2.555-640.472-507.139-649.661-537.793s-19.369-271.737 0-300.295c19.407-28.634 388.18-188.008 432.103-185.911 43.885 2.021 753.826 364.617 772.204 389.667 18.34 25.050-22.457 450.252-22.457 450.252l-741.625-480.754zM401.41 652.232c2.86 1.716 19.369 1.678 38.662 0.801 3.813 22.267 8.503 42.322 12.201 44.038 8.236 3.889 11.629 0.877 15.48-6.711 1.525-2.974 0.191-19.75-2.211-38.967 22.8-1.868 43.084-4.347 44.228-6.291 2.44-4.27 0.458-16.624-6.825-19.674-2.974-1.22-20.78-0.877-41.026 0.343-3.508-22.267-7.473-42.017-9.494-42.932-4.499-2.173-16.586 0.801-19.064 8.312-0.915 2.821 0.419 18.378 2.86 36.755-20.665 2.135-38.547 5.071-40.377 8.388-4.347 7.854-1.754 11.515 5.567 15.937zM230.025 250.707c-38.013-2.364-71.49 39.615-74.807 93.68-0.61 10.066-0.153 19.788 1.258 29.015l39.958 28.863-87.351 38.319 225.564 181.946c9.646-42.322 55.019-74.044 109.313-73.511 60.966 0.724 109.846 41.826 109.313 91.812-0.496 43.351-37.937 79.039-87.465 87.465l174.931 141.187 222.171-67.486-332.475-255.876 27.566-9.151-265.637-206.31c-4.347-43.809-29.663-77.933-62.339-79.954z" horiz-adv-x="1220" />
<glyph unicode="&#xe652;" d="M404.992 707.84l-0.704-209.344 155.808-15.776zM185.92 393.984c0 0 31.008-12.864 42.4 0 0 0 11.392 84.672 68.512 137.312v356.736c0 0-21.184 76.672-99.488 71.744-78.272-4.864-84.8-75.040-84.8-75.040s0.736-10.24 1.696-28.16c37.792-10.528 99.008-17.504 166.272 15.168 0 0-60.672-66.304-164.8-45.728 2.784-66.24 5.248-179.84-3.2-294.72 0 0 58.72-49.088 73.408-137.312zM372.288 707.84h-50.4v-193.984c-72.48-58.336-74.912-148.384-74.912-148.384-14.496-14.208-76.992 3.104-76.992 3.104-18.624 97.824-82.080 145.344-82.080 145.344 5.664 67.648 7.424 134.816 7.328 193.984h-95.232c0 0 20.576-385.952 0-753.696 0 0 358.304-24.672 541.536-16.544l13.632 511.168-194.944-3.040 12.064 262.048zM467.68 27.808l-388-8.256v41.056l388 32.8v-65.6zM467.68 126.336l-388-8.224v49.248l388 32.8v-73.824zM467.68 298.784v-65.696l-388-8.224v41.056l388 32.864z" horiz-adv-x="560" />
<glyph unicode="&#xe653;" d="M712.288 960l-550.592-91.2 28.224-632.16c-11.104 3.104-56.16 54.56-68 53.984-66.944-3.296-121.92-64.992-121.92-168.064s68.192-186.56 152.352-186.56 152.384 83.488 152.384 186.56c0 4.256-0.32 8.384-0.544 12.576h0.16l-10.016 495.264 298.432 45.632 13.056-443.392c-12.672 4.256-68.192 56.48-81.984 56-49.376-1.44-113.504-63.008-113.504-166.016s68.224-186.56 152.384-186.56 152.352 83.488 152.352 186.56c0.064 12.288-2.784 837.376-2.784 837.376z" horiz-adv-x="715" />
<glyph unicode="&#xe654;" d="M690.176 758.944c-78.208 46.176-136.672 114.208-136.672 114.208-184.512 184.544-307.488 17.6-307.488 17.6l-7.808-632.64c-11.68 2.976-91.648 138.368-104 137.6-71.712-4.8-134.208-96.032-134.208-225.472 0-129.376 82.624-234.24 184.544-234.24 101.888 0 184.512 104.864 184.512 234.24 0 14.016-1.152 27.68-3.008 40.992h0.128l-32.928 612.512c210.176-409.632 504.416-170.208 504.416-132.16-0.032 16.832-85.6 30.88-147.488 67.36z" horiz-adv-x="838" />
<glyph unicode="&#xe655;" d="M542.72 523.968l23.296 436.032-159.776-23.328 23.328-412.704zM921.056 546.272c-50.56 135.296-166.976 228.48-305.248 261.888l-11.744-123.488c87.52-26.784 160.128-88.96 192.832-176.608 58.784-157.152-32.704-336.64-204.416-400.736-171.712-64.064-358.432 11.264-417.152 168.448-57.44 153.664 28.864 328.544 193.184 396.192l-12.928 128.64c-11.84-3.488-23.68-7.328-35.424-11.68-247.328-92.448-379.168-350.912-294.528-577.376 84.64-226.4 353.696-335.072 600.992-242.624 247.264 92.48 379.104 350.944 294.432 577.344z" horiz-adv-x="947" />
<glyph unicode="&#xe656;" d="M694.016 332.576l-0.192-0.192c78.88 118.016 87.072 281.344 7.712 420.16-108.96 190.912-342.048 263.104-520.416 161.28-178.336-101.888-234.528-339.264-125.504-530.272 109.056-190.944 342.048-263.136 520.448-161.248 0 0 216.512-286.304 228.384-286.304 11.84 0 116.672 133.824 117.184 143.2 0.608 9.376-227.616 253.376-227.616 253.376zM534.528 315.616c-134.208-76.672-309.568-22.304-391.584 121.376-82.080 143.68-39.776 322.304 94.4 398.976 134.208 76.672 309.568 22.304 391.584-121.376 82.080-143.68 39.808-322.304-94.4-398.976zM457.312 642.208c0 0 11.36 92.576 6.592 102.752-4.832 10.144-93.568-2.24-107.392-9.984-13.824-7.712-23.424-103.872-23.424-103.872s-90.592-10.368-97.376-19.712c-6.784-9.312-13.568-82.464-7.040-93.312 6.528-10.816 91.328-10.016 91.328-10.016s-0.576-78.112 7.296-89.408 91.52 4 99.648 7.744c8.128 3.712 23.616 91.808 23.616 91.808s70.56 2.144 85.056 10.144c14.496 7.968 33.536 93.792 24.64 104.672-8.896 10.816-102.944 9.184-102.944 9.184z" horiz-adv-x="922" />
<glyph unicode="&#xe657;" d="M694.016 332.576l-0.192-0.192c78.88 118.016 87.072 281.344 7.712 420.16-108.96 190.912-342.048 263.104-520.416 161.28-178.336-101.888-234.528-339.264-125.504-530.272 109.056-190.944 342.048-263.136 520.448-161.248 0 0 216.512-286.304 228.384-286.304 11.84 0 116.64 133.824 117.184 143.2 0.608 9.376-227.616 253.376-227.616 253.376zM534.528 315.616c-134.208-76.672-309.568-22.304-391.584 121.376-82.080 143.68-39.776 322.304 94.4 398.976 134.208 76.672 309.568 22.304 391.584-121.376 82.080-143.68 39.808-322.304-94.4-398.976zM560.256 632.992c-8.896 10.848-105.856 4.288-105.856 4.288l-121.344-6.112c0 0-90.88-3.808-97.664-13.152-6.784-9.312-13.28-89.024-6.752-99.872s91.36-10.080 91.36-10.080l134.4 5.12c0 0 68.512 1.824 83.008 9.824 14.496 7.968 31.744 99.136 22.848 109.984z" horiz-adv-x="922" />
<glyph unicode="&#xe658;" d="M103.388 960c0 0-324.44-667.881 176.129-681.458l-20.531-210.87c-81.759-7.72-141.922-33.775-141.922-64.555 0-37.036 86.451-67.151 193.133-67.151 106.649 0 193.1 30.015 193.1 67.151 0 31.579-63.158 58.033-148.011 65.188v212.666c121.557 16.638 367 116.898 150.607 679.062h-402.506zM301.68 353.846c-408.196 0-163.584 542.264-163.584 542.264l337.684 1.83c204.414-558.536-174.1-544.095-174.1-544.095zM1041.636 949.052h-45.056c64.855-300.648-39.399-384.936-102.889-408.595l5.524 406.865h-50.746l-19.566-414.984c-204.281 21.33-85.253 351.993-59.996 416.714h-52.143c0 0-184.981-482.035 108.846-485.596l-24.89-527.556h84.687l7.354 533.114c84.654 20.032 228.406 107.581 148.876 480.038z" horiz-adv-x="1065" />
<glyph unicode="&#xe659;" d="M110.668 615.678c-188.763-132.184-78.825-373.541-78.825-373.541 32.706-8.865 67.769-16.071 104.459-21.815 0 0.066-37.719 255.303-25.633 395.356zM974.958 587.92c-7.537-158.647-57.011-356.74-57.011-356.806 51.864 6.242 82.876 11.024 82.876 11.024s154.696 210.013-25.866 345.783zM288.075-31.128c24.272-21.782 490.584-46.286 516.084-24.305 17.299 14.709 11.156 139.887 5.412 219.277l-525.647 11.455c-5.678-67.968-13.315-190.655 4.15-206.427zM923.825 718.112c-5.678 15.373-20.188 27.194-41.471 36.059-5.977-109.871-15.905-215.691-15.905-215.691h-610.548c0 0-6.541 83.839-9.762 171.298-34.897-10.127-59.534-19.889-68.765-28.024-56.313-49.606-1.727-448.847-0.1-460.866l1.693-6.541c47.813-7.604 55.782-6.608 107.513-9.861 0 0 426.301 3.553 518.574 14.477 43.63 4.217 46.551 4.35 77.431 8.035l2.523 3.752c0 0 84.968 361.123 38.815 487.363zM818.702 952.496c-25.5 32.805-499.084-51.001-520.932-76.468s0-306.005 0-306.005h513.66c0 0 32.772 349.701 7.272 382.473zM780.451 648.948l-456.55-37.354v27.692l456.55 47.016v-37.354zM780.451 715.356l-456.55-37.354v27.692l456.55 47.016v-37.354zM780.451 781.763l-456.55-37.354v27.692l456.55 47.016v-37.354zM780.451 848.17l-456.55-37.354v27.692l456.55 47.016v-37.354z" horiz-adv-x="1063" />
<glyph unicode="&#xe65a;" d="M287.552 635.776c-2.368 220.48 220.96 93.44 220.96 93.44l-5.248 172.576c-197.696 107.808-290.496 50.688-357.088-47.936-61.056-90.496-40.256-239.616-40.256-239.616l2.368-75.808-108.288-5.728v-119.84h112.32l15.168-476.864h179.328c0 0-8.672 258.848-14.496 476.864h211.040v146.176l-214.208-11.2c-0.768 33.312-1.312 63.232-1.6 87.936z" horiz-adv-x="509" />
<glyph unicode="&#xe65b;" d="M941.648 925.567c-77.387 73.703-847.509 17.873-910.162-62.621-62.621-80.526-22.101-843.857 36.836-888.060 58.969-44.235 862.275-58.969 924.928 0s25.785 876.978-51.602 950.681zM616.693 498.721l164.704 8.648v-112.429h-162.237c4.452-167.586 11.147-366.595 11.147-366.595h-137.83l-11.659 366.595h-86.356v92.089l83.313 4.388-1.858 58.264c0 0-16.016 114.671 30.942 184.242 51.218 75.817 122.487 119.732 274.506 36.836l4.068-132.673c0 0-171.718 97.663-169.957-71.846 0.32-18.93 0.673-41.929 1.217-67.521z" horiz-adv-x="1025" />
<glyph unicode="&#xe65c;" d="M987.552 640.672c-104.544 261.888-402.272 387.968-664.928 281.536-262.624-106.432-390.752-405.024-286.176-666.88 104.576-261.92 402.24-387.936 664.864-281.504 262.656 106.368 390.816 404.96 286.24 666.848zM534.752 513.696l140.032 7.392v-96.224h-137.92c3.744-143.584 9.44-314.016 9.44-314.016h-117.184l-9.888 314.016h-73.44v78.88l70.784 3.744-1.536 49.92c0 0-13.632 98.176 26.304 157.792 43.488 64.96 104.16 102.56 233.408 31.584l3.36-113.632c0 0-145.984 83.616-144.384-61.536 0.288-16.288 0.512-36 1.024-57.92z" />
<glyph unicode="&#xe65d;" d="M1052.396 750.819c-22.664 13.836-168.893 48.491-169.025 48.523-8.73 57.648-39.926 160.658-152.060 160.658-132.46 0-146.822-80.609-187.143-164.084-36.302-75.206-262.383-231.977-544.168-207.304 0 0 85.814-217.944 264.063-302.506-0.132 96.75 77.381 185.99 188.164 208.555 112.299 22.829 219.92-30.9 256.091-122.248 98.233 82.124 142.573 183.388 162.536 262.119l-0.066-0.824c0-0.066 204.273 103.24 181.609 117.109zM790.672 750.753c-13.243-39.893-50.961-63.249-84.101-52.18-33.271 11.068-49.347 52.345-36.104 92.237 13.276 39.893 50.961 63.249 84.233 52.18 33.173-11.068 49.314-52.378 35.973-92.237zM696.491 362.631c-44.472 76.063-142.441 118.163-244.264 97.475-97.969-19.897-169.816-92.073-185.101-175.416 38.213-17.69 80.675-29.154 127.354-31.097l24.015-219.69-76.788-30.768v-19.172l76.788 15.384 40.321-63.38 23.026 17.229-23.026 44.142 63.347-11.53 7.675 26.815-72.966 15.384-38.773 225.191c30.9 0.824 63.578 5.962 98.002 15.944l42.1-133.876-69.31-44.933 3.722-18.81 72.275 29.977 51.851-54.255 19.238 21.412-31.13 38.871 64.336 0.988 2.24 27.902-74.515 0.791-54.058 140.728c7.017 2.569 14.231 5.337 21.346 8.301 52.114 21.577 95.696 47.634 132.295 76.392z" horiz-adv-x="1054" />
<glyph unicode="&#xe65e;" d="M665.202 587.639c-25.429 8.469-37.795 40.098-27.621 70.646s39.036 48.446 64.464 39.977c25.429-8.469 37.795-40.098 27.621-70.646s-39.036-48.446-64.464-39.977zM941.648 925.567c-77.387 73.703-847.509 17.873-910.162-62.621-62.621-80.526-22.101-843.857 36.836-888.060 58.969-44.235 862.275-58.969 924.928 0s25.785 876.978-51.602 950.681zM581.235 157.655l57.015-0.673-1.762-21.333-49.296-0.705 23.863-29.821-14.734-16.432-39.718 41.576-55.382-22.966-2.851 14.414 53.107 34.497-32.287 102.531c-26.33-7.655-51.378-11.531-75.049-12.204l29.693-172.583 55.894-11.723-5.894-20.628-48.559 8.777 17.681-33.857-17.681-13.229-30.878 48.527-58.809-11.691v14.702l58.809 23.447-18.354 168.291c-35.747 1.57-68.29 10.282-97.567 23.831 11.691 63.838 66.753 119.123 141.801 134.338 77.964 15.855 153.044-16.432 187.061-74.664-28.027-22.037-61.436-42.025-101.218-58.425-5.509-2.306-11.019-4.42-16.4-6.374l41.512-107.624zM790.942 537.895l0.064 0.641c-15.343-60.25-49.168-137.862-124.505-200.77-27.707 70.020-110.123 111.18-196.19 93.691-84.85-17.265-144.236-85.683-144.14-159.771-136.516 64.767-202.244 231.712-202.244 231.712 215.825-18.898 389.049 101.186 416.852 158.778 30.91 63.934 41.929 125.722 143.403 125.722 85.875 0 109.834-78.924 116.497-123.095 0.128 0 112.141-26.554 129.469-37.156s-139.207-89.751-139.207-89.751z" horiz-adv-x="1025" />
<glyph unicode="&#xe65f;" d="M987.552 640.704c-104.544 261.856-402.272 387.968-664.928 281.504-262.624-106.4-390.752-405.024-286.208-666.88 104.608-261.952 402.272-387.936 664.896-281.568 262.656 106.432 390.816 405.056 286.24 666.944zM557.696 211.2l48.736-0.64-1.568-18.304-42.048-0.672 20.448-25.632-12.64-14.048-33.952 35.744-47.328-19.744-2.4 12.448 45.312 29.696-27.52 88.192c-22.496-6.688-43.84-9.984-64.064-10.496l25.376-148.32 47.648-10.080-4.992-17.728-41.408 7.552 15.072-28.992-15.072-11.392-26.336 41.728-50.176-10.112v12.48l50.176 20.256-15.68 144.672c-30.528 1.312-58.272 8.832-83.264 20.512 9.984 54.912 56.928 102.368 120.992 115.488 66.496 13.568 130.656-14.080 159.648-64.288-23.936-18.88-52.448-36.064-86.4-50.144-4.672-1.984-9.344-3.808-13.984-5.504l35.424-92.672zM736.672 538.016v0.576c-12.96-51.808-41.984-118.528-106.144-172.672-23.68 60.192-94.016 95.552-167.392 80.576-72.448-14.816-123.104-73.632-123.008-137.312-116.512 55.68-172.608 199.2-172.608 199.2 184.192-16.32 331.968 86.944 355.68 136.512 26.336 54.976 35.744 108.032 122.336 108.032 73.216 0 93.728-67.872 99.328-105.792 0.16-0.064 95.68-22.848 110.496-31.968 14.752-9.12-118.688-77.152-118.688-77.152zM660.8 675.84c-21.76 7.328-46.304-8.064-55.072-34.368-8.672-26.24 1.888-53.376 23.52-60.672s46.272 8.128 54.976 34.304c8.8 26.24-1.728 53.44-23.424 60.736z" />
<glyph unicode="&#xe660;" d="M983.168 289.152c-77.28-139.904-238.112-199.072-359.232-132.16-52.32 28.896-88.576 76.672-106.752 132.864-91.232-135.328-256.576-188.992-383.104-119.008-135.040 74.592-174.624 261.536-88.448 417.536s265.472 221.984 400.512 147.424c63.552-35.136 105.984-95.104 124.032-165.056 83.52 111.040 224.576 153.024 333.6 92.768 121.152-66.816 156.64-234.464 79.392-374.368z" />
<glyph unicode="&#xe661;" d="M941.648 925.599c-77.387 73.703-847.509 17.873-910.162-62.621-62.621-80.526-22.101-843.857 36.836-888.060 58.969-44.235 862.275-59.001 924.928 0 62.653 58.969 25.785 876.978-51.602 950.681zM828.226 343.467c-50.865-92.089-156.792-131.039-236.421-86.996-34.465 19.026-58.296 50.449-70.276 87.413-60.058-89.078-168.9-124.344-252.18-78.252-88.886 49.104-114.959 172.135-58.232 274.826s174.761 146.126 263.647 97.022c41.833-23.126 69.732-62.589 81.647-108.649 54.965 73.095 147.823 100.738 219.573 61.083 79.789-44.011 103.108-154.358 52.243-246.447z" horiz-adv-x="1025" />
<glyph unicode="&#xe662;" d="M1018.112 527.328c-42.336 279.296-303.328 470.24-582.88 426.432-279.52-43.808-471.776-305.728-429.376-585.088 42.4-279.328 303.36-470.208 582.88-426.432 279.552 43.808 471.84 305.76 429.376 585.088zM832.096 346.912c-50.816-93.472-156.608-132.96-236.224-88.32-34.4 19.328-58.24 51.296-70.208 88.768-60-90.432-168.736-126.176-251.936-79.456-88.8 49.856-114.848 174.72-58.176 278.976s174.592 148.352 263.392 98.496c41.792-23.456 69.696-63.52 81.568-110.272 54.944 74.208 147.712 102.24 219.392 62.016 79.648-44.704 103.008-156.736 52.192-250.208z" />
<glyph unicode="&#xe663;" d="M632.078 572.249c154.096 60.877 239.238 191.889 283.5 290.658-103.431 92.333-261.172 118.437-417.106 79.921 69.873-122.278 111.279-248.596 133.607-370.579zM995.926 755.174c-6.863 14.513-14.874 28.041-23.346 41.11-79.231-168.609-199.835-255.951-329.403-295.944 7.125-56.312 10.376-111.246 10.934-163.979 115.547-28.928 199.211-112.428 255.36-193.826 44.722 50.862 65.375 91.052 65.375 91.052s155.672 235.56 21.080 521.588zM652.272 244.651c-5.648-113.577-22.853-212.74-40.026-287.44 103.464 27.516 182.63 77.918 240.091 128.386-43.441 66.065-108.488 134.165-200.065 159.054zM552.289 548.804c-31.62 170.284-92.3 295.517-135.019 367.689-129.601-51.551-250.631-149.072-329.6-291.643 193.629-84.945 345.755-100.115 464.619-76.046zM566.999 347.196c2.036 0 3.973-0.197 6.009-0.23-1.051 47.217-4.663 92.234-10.179 134.723-207.486-34.641-420.488 30.996-512.361 65.244-124.446-306.057 5.779-462.386 129.207-538.268 46.429 118.535 162.896 338.531 387.325 338.531zM571.76 254.436c-174.060-3.776-275.094-177.179-320.538-282.449 50.599-21.212 88.589-28.599 88.589-28.599 66.196-9.194 126.416-9.325 181.283-3.251 30.57 112.625 46.002 217.599 50.665 314.299z" horiz-adv-x="1051" />
<glyph unicode="&#xe664;" d="M941.648 925.599c-77.387 73.703-847.509 17.873-910.162-62.621-62.621-80.526-22.101-843.857 36.836-888.060 58.969-44.235 862.275-59.001 924.928 0 62.621 58.969 25.785 876.978-51.602 950.681zM432.419 795.072c31.711-53.524 76.586-146.254 100.001-272.392-88.021-17.809-200.706-6.598-344.109 56.343 58.489 105.574 148.111 177.804 244.108 216.049zM509.325 71.94c-40.647-4.612-85.235-4.484-134.242 2.37 0 0-28.155 5.381-65.632 21.14 33.633 77.964 108.457 206.312 237.414 209.131-3.459-71.525-14.926-149.265-37.54-232.641zM543.278 373.384c-166.177 0-252.437-162.91-286.902-250.739-91.417 56.15-187.83 171.975-95.677 398.658 68.098-25.369 225.851-73.992 379.536-48.399 4.068-31.422 6.694-64.735 7.463-99.713-1.473 0.064-2.915 0.192-4.42 0.192zM492.541 814.483c115.472 28.572 232.321 9.193 308.939-59.193-32.704-73.127-95.837-170.085-209.995-215.281-16.496 90.392-47.182 183.954-98.944 274.474zM576.847 84.528c12.684 55.318 25.401 128.797 29.629 212.878 67.81-18.386 115.984-68.803 148.208-117.842-42.569-37.284-101.186-74.632-177.836-95.036zM845.459 289.302c0 0-15.343-29.853-48.495-67.425-41.576 60.314-103.524 122.102-189.111 143.563-0.416 39.11-2.819 79.693-8.136 121.462 95.965 29.565 185.3 94.299 243.98 219.124 6.278-9.673 12.204-19.635 17.297-30.462 99.681-211.885-15.535-386.262-15.535-386.262z" horiz-adv-x="1025" />
<glyph unicode="&#xe665;" d="M1018.112 527.328c-42.336 279.296-303.328 470.24-582.88 426.432-279.52-43.808-471.776-305.728-429.376-585.088 42.4-279.328 303.36-470.208 582.88-426.432 279.552 43.808 471.84 305.76 429.376 585.088zM800.736 759.872c-32.736-74.208-95.744-172.64-209.856-218.496-16.512 91.712-47.168 186.688-98.848 278.592 115.392 28.96 232.16 9.344 308.704-60.096zM432 800.256c31.68-54.336 76.512-148.48 99.904-276.512-87.936-18.048-200.512-6.688-343.776 57.184 58.464 107.2 148 180.512 243.872 219.328zM508.832 66.24c-40.608-4.672-85.152-4.512-134.112 2.368 0 0-28.128 5.504-65.568 21.568 33.6 79.104 108.352 209.44 237.184 212.32-3.424-72.672-14.912-151.616-37.504-236.256zM542.784 372.192c-166.016 0-252.192-165.376-286.624-254.496-91.328 57.056-187.68 174.528-95.616 404.672 68.032-25.76 225.632-75.104 379.168-49.12 4.064-31.904 6.688-65.696 7.456-101.216-1.472 0.064-2.88 0.16-4.384 0.16zM576.32 79.072c12.672 56.128 25.376 130.688 29.568 216.064 67.776-18.688 115.936-69.92 148.128-119.552-42.592-37.984-101.152-75.872-177.696-96.512zM844.64 286.816c0 0-15.328-30.24-48.448-68.48-41.536 61.216-103.424 124.032-188.928 145.792-0.416 39.648-2.816 80.928-8.128 123.296 95.872 30.016 185.12 95.712 243.744 222.4 6.272-9.824 12.192-19.936 17.28-30.944 99.616-215.008-15.52-392.064-15.52-392.064z" />
<glyph unicode="&#xe666;" d="M956.512 760.064c-9.12 11.2-106.080 9.536-106.080 9.536s11.712 95.392 6.816 105.92c-4.992 10.464-96.512-2.304-110.752-10.24s-24.192-107.104-24.192-107.104-93.376-10.688-100.384-20.32c-7.008-9.6-14.016-84.992-7.264-96.192s94.112-10.368 94.112-10.368-0.64-80.544 7.424-92.16c8.128-11.648 94.368 4.096 102.784 7.968 8.384 3.84 24.384 94.656 24.384 94.656s72.704 2.208 87.68 10.464c15.040 8.224 34.656 96.672 25.472 107.84zM396.096 946.976c-55.424-24.896-86.848-78.336-77.184-125.92-39.488 1.472-81.472-6.304-121.952-24.48-118.496-53.216-179.168-175.264-135.424-272.576 5.92-13.184 13.472-25.216 22.336-36.064-54.624-60.096-74.56-139.488-44.256-207.072 2.432-5.376 5.152-10.624 8.128-15.616-47.552-64.448-62.336-143.328-31.712-211.36 49.28-109.792 197.632-150.016 331.328-89.984 133.696 60.064 202.048 197.728 152.8 307.424-49.344 109.824-197.664 150.048-331.328 89.984-12.8-5.76-25.024-12.224-36.64-19.328 0.096 0 0.192 0.064 0.256 0.128-6.848 31.296 3.776 65.12 27.2 92.32 57.152-22.016 128.48-20.448 195.616 9.76 118.496 53.248 179.168 175.264 135.424 272.576-6.432 14.368-14.816 27.36-24.736 38.944 4.608 1.568 9.152 3.328 13.728 5.376 62.528 28.064 94.528 92.48 71.456 143.808-23.104 51.296-92.48 70.176-155.040 42.080zM209.76 270.112c72.352 32.544 152.64 10.688 179.328-48.704s-10.336-133.92-82.688-166.4c-72.384-32.512-152.672-10.688-179.328 48.704s10.304 133.952 82.688 166.4zM318.912 525.024c-64.128-28.8-135.328-9.472-158.976 43.2s9.152 118.72 73.312 147.52c64.16 28.8 135.328 9.472 158.976-43.232 23.68-52.64-9.152-118.688-73.312-147.488z" horiz-adv-x="959" />
<glyph unicode="&#xe667;" d="M440.502 469.246c-44.135-19.827-93.113-6.519-109.395 29.725s6.297 81.698 50.431 101.526c44.135 19.827 93.113 6.519 109.395-29.725s-6.297-81.698-50.431-101.526zM941.648 925.599c-77.387 73.703-847.509 17.873-910.162-62.621-62.621-80.526-22.101-843.857 36.836-888.060 58.969-44.235 862.275-59.001 924.928 0 62.621 58.969 25.785 876.978-51.602 950.681zM551.094 631.65c-3.139-1.409-6.278-2.627-9.417-3.684 6.823-7.944 12.62-16.88 16.976-26.81 30.045-66.945-11.627-150.898-93.178-187.542-46.189-20.692-95.292-21.845-134.626-6.694-16.112-18.706-23.415-42.025-18.706-63.453 7.944 4.773 16.272 9.257 25.016 13.197 91.993 41.32 194.076 13.581 228.029-61.98 33.985-75.497-13.133-170.245-105.158-211.565-91.993-41.32-194.076-13.581-227.997 62.012-21.076 46.765-10.923 101.026 21.813 145.421-2.018 3.395-3.908 7.015-5.573 10.762-20.852 46.413-7.143 101.026 30.462 142.378-6.118 7.463-11.307 15.759-15.375 24.824-30.077 66.977 11.659 150.962 93.21 187.51 27.867 12.524 56.759 17.905 83.953 16.848-6.662 32.736 14.958 69.507 53.107 86.644 43.018 19.347 90.776 6.342 106.663-28.956 15.855-35.266-6.182-79.565-49.2-98.912zM846.164 571.656c-9.193-5.061-53.908-6.438-53.908-6.438s-9.866-55.798-14.958-58.168c-5.189-2.37-58.168-12.044-63.197-4.901-4.933 7.175-4.644 56.663-4.644 56.663s-53.748-0.48-57.88 6.406c-4.164 6.855 0.128 53.204 4.452 59.097 4.324 5.926 61.724 12.492 61.724 12.492s6.086 60.923 14.862 65.824c8.68 4.901 64.927 12.748 68.066 6.31 3.043-6.438-4.164-65.055-4.164-65.055s59.578 0.961 65.151-5.894c5.766-6.919-6.31-61.275-15.503-66.336zM488.775 260.304c18.361-40.891-7.124-92.167-56.923-114.528s-105.054-7.339-123.415 33.552c-18.361 40.891 7.124 92.167 56.923 114.528s105.054 7.339 123.415-33.552z" horiz-adv-x="1025" />
</font>
</defs>
</svg>
